osu file format v14

[General]
AudioFilename: audio.mp3
AudioLeadIn: 0
PreviewTime: 55691
Countdown: 1
SampleSet: Soft
StackLeniency: 0.7
Mode: 0
LetterboxInBreaks: 0
WidescreenStoryboard: 0

[Editor]
Bookmarks: 14482,24966,35288,45611,50772,55933,71740,76579,77869
DistanceSpacing: 1
BeatDivisor: 4
GridSize: 4
TimelineZoom: 1

[Metadata]
Title:GAMERS!
TitleUnicode:GAMERS!
Artist:Kanemoto Hisako & Iwami Manaka & Ookubo Rumi
ArtistUnicode:金元寿子&石見舞菜香&大久保瑠美
Creator:[[Pika]]
Version:Game Start!
Source:ゲーマーズ!
Tags:tv size anime op opening
BeatmapID:1440000
BeatmapSetID:681114

[Difficulty]
HPDrainRate:6
CircleSize:4.5
OverallDifficulty:9
ApproachRate:9.4
SliderMultiplier:1.67
SliderTickRate:1

[Events]
//Background and Video events
0,0,"boooooooobs.png",0,0
//Break Periods
//Storyboard Layer 0 (Background)
//Storyboard Layer 1 (Fail)
//Storyboard Layer 2 (Pass)
//Storyboard Layer 3 (Foreground)
//Storyboard Sound Samples

[TimingPoints]
450,322.58064516129,4,2,0,65,1,0
4159,-87.719298245614,4,2,0,65,0,0
5449,-123.456790123457,4,2,0,65,0,0
9320,-192.307692307692,4,2,0,65,0,0
13191,-55.5555555555556,4,2,0,65,0,0
14482,-89.2857142857143,4,2,0,65,0,0
24966,-92.5925925925926,4,2,0,65,0,0
35288,-86.2068965517241,4,2,0,65,0,0
45611,-112.359550561798,4,2,0,65,0,0
50611,-82.6446280991736,4,2,0,65,0,0
54482,-69.9300699300699,4,2,0,65,0,0
54966,-61.7283950617284,4,2,0,65,0,0
55127,-55.2486187845304,4,2,0,65,0,0
55288,-50,4,2,0,65,0,0
55772,-75.7575757575758,4,2,0,65,0,1
76579,-75.7575757575758,4,2,0,65,0,0
77708,-86.2068965517241,4,2,0,65,0,1
77788,-86.2068965517241,4,2,0,65,0,0
88030,-131.578947368421,4,2,0,65,0,0

[HitObjects]
110,221,450,5,0,0:0:0:0:
397,180,611,1,0,0:0:0:0:
102,213,1095,5,0,0:0:0:0:
441,245,1256,1,0,0:0:0:0:
116,90,1740,5,0,0:0:0:0:
403,49,1901,1,0,0:0:0:0:
108,82,2385,5,0,0:0:0:0:
374,117,2547,1,0,0:0:0:0:
72,145,3031,5,0,0:0:0:0:
382,125,3192,1,0,0:0:0:0:
80,153,3676,5,0,0:0:0:0:
449,161,3837,1,0,0:0:0:0:
449,161,4159,2,0,P|428:222|365:153,1,190.379997676025
387,0,4643,1,0,0:0:0:0:
398,20,4723,1,0,0:0:0:0:
405,43,4804,1,0,0:0:0:0:
408,66,4884,1,0,0:0:0:0:
406,90,4966,6,0,L|470:76,1,47.5949994190064
473,5,5127,1,0,0:0:0:0:
156,90,5288,1,0,0:0:0:0:
388,322,5449,6,0,L|398:397,1,67.6350016512452
457,274,5772,2,0,L|467:349,2,67.6350016512452
322,274,6256,6,0,L|312:349,1,67.6350016512452
253,226,6579,2,0,L|243:301,1,67.6350016512452
435,132,6901,6,0,L|445:207,1,67.6350016512452
504,84,7224,2,0,L|514:159,1,67.6350016512452
366,180,7546,5,0,0:0:0:0:
333,173,7626,1,0,0:0:0:0:
306,153,7707,1,0,0:0:0:0:
290,123,7787,1,0,0:0:0:0:
289,90,7868,1,0,0:0:0:0:
302,59,7949,1,0,0:0:0:0:
327,36,8030,5,0,0:0:0:0:
348,62,8110,1,0,0:0:0:0:
354,95,8191,1,0,0:0:0:0:
342,127,8271,1,0,0:0:0:0:
317,148,8352,1,0,0:0:0:0:
284,155,8433,1,0,0:0:0:0:
252,144,8513,1,0,0:0:0:0:
230,119,8594,1,0,0:0:0:0:
223,86,8675,1,0,0:0:0:0:
256,95,8755,1,0,0:0:0:0:
278,120,8836,5,0,0:0:0:0:
222,152,8917,1,0,0:0:0:0:
165,120,8998,1,0,0:0:0:0:
162,56,9078,1,0,0:0:0:0:
216,20,9159,1,0,0:0:0:0:
232,379,9320,6,0,B|247:378|265:371|265:371|261:386|261:386|269:378|313:377,1,86.8399994699707
228,301,9804,1,0,0:0:0:0:
189,310,9966,1,0,0:0:0:0:
150,319,10127,2,0,L|159:358,1,21.7099998674927
111,328,10288,1,0,0:0:0:0:
72,337,10449,1,0,0:0:0:0:
81,242,10611,6,0,B|96:241|114:234|114:234|110:249|110:249|118:241|162:240,1,86.8399994699707
236,166,11095,1,0,0:0:0:0:
197,157,11256,2,0,L|192:178,1,21.7099998674927
157,147,11417,2,0,L|153:169,1,21.7099998674927
119,139,11579,1,0,0:0:0:0:
80,130,11740,1,0,0:0:0:0:
162,74,11901,6,0,B|177:73|195:66|195:66|191:81|191:81|199:73|243:72,1,86.8399994699707
265,139,12385,1,0,0:0:0:0:
226,148,12546,2,0,L|235:187,1,21.7099998674927
187,157,12708,2,0,L|196:196,1,21.7099998674927
148,166,12869,1,0,0:0:0:0:
109,175,13030,1,0,0:0:0:0:
483,279,13191,6,0,B|520:234|520:234|478:51,1,225.449993119812
417,0,13514,6,0,B|380:45|380:45|417:207,1,225.449993119812
343,222,13837,6,0,L|426:206,1,75.1499977066041
461,384,13998,5,0,0:0:0:0:
424,377,14078,1,0,0:0:0:0:
396,352,14159,1,0,0:0:0:0:
385,317,14239,1,0,0:0:0:0:
393,281,14320,5,0,0:0:0:0:
337,328,14400,1,0,0:0:0:0:
265,324,14482,6,0,B|170:345|172:313|73:325,1,187.040002283203
207,93,14966,2,0,P|216:111|220:144,1,46.7600005708008
217,262,15127,1,0,0:0:0:0:
136,114,15288,2,0,P|139:137|149:158,1,46.7600005708008
217,262,15449,1,0,0:0:0:0:
345,140,15611,1,0,0:0:0:0:
220,137,15772,1,0,0:0:0:0:
399,221,15933,6,0,P|409:193|404:150,1,46.7600005708008
348,15,16095,1,0,0:0:0:0:
291,221,16256,2,0,P|281:193|286:150,1,46.7600005708008
348,15,16417,1,0,0:0:0:0:
346,315,16579,2,0,L|346:248,1,46.7600005708008
348,15,16740,1,0,0:0:0:0:
470,143,16901,1,0,0:0:0:0:
293,384,17062,6,0,B|389:407|384:365|507:385,1,187.040002283203
165,278,17546,2,0,P|202:264|245:265,1,46.7600005708008
346,315,17708,1,0,0:0:0:0:
166,350,17869,2,0,P|203:364|246:363,1,46.7600005708008
346,315,18030,1,0,0:0:0:0:
193,147,18191,1,0,0:0:0:0:
208,263,18353,1,0,0:0:0:0:
309,132,18514,6,0,P|274:126|245:127,1,46.7600005708008
89,173,18675,1,0,0:0:0:0:
309,208,18837,2,0,P|274:214|245:213,1,46.7600005708008
89,173,18998,1,0,0:0:0:0:
421,171,19159,2,0,L|346:172,1,46.7600005708008
89,173,19320,1,0,0:0:0:0:
269,40,19482,1,0,0:0:0:0:
511,314,19643,6,0,B|419:296|420:346|293:310,1,187.040002283203
410,64,20127,2,0,P|425:85|430:113,1,46.7600005708008
441,242,20288,1,0,0:0:0:0:
338,101,20449,2,0,P|344:123|357:142,1,46.7600005708008
441,242,20611,1,0,0:0:0:0:
243,171,20772,1,0,0:0:0:0:
357,142,20933,1,0,0:0:0:0:
237,294,21095,6,0,P|225:259|225:223,1,46.7600005708008
214,57,21256,1,0,0:0:0:0:
318,270,21417,2,0,P|313:247|304:225,1,46.7600005708008
214,57,21579,1,0,0:0:0:0:
308,384,21740,2,0,L|289:315,1,46.7600005708008
214,57,21901,1,0,0:0:0:0:
223,249,22062,1,0,0:0:0:0:
480,73,22224,1,0,0:0:0:0:
440,64,22304,1,0,0:0:0:0:
400,73,22385,6,0,L|396:131,1,46.7600005708008
388,225,22546,1,0,0:0:0:0:
376,377,22708,1,0,0:0:0:0:
400,73,22869,6,0,L|396:131,1,46.7600005708008
382,47,23191,6,0,L|377:158,1,93.5200011416016
456,384,23514,6,0,L|462:197,1,187.040002283203
468,148,23998,1,0,0:0:0:0:
466,173,24159,1,0,0:0:0:0:
464,198,24320,2,0,L|457:384,1,187.040002283203
44,152,24804,1,0,0:0:0:0:
71,145,24885,1,0,0:0:0:0:
98,138,24966,6,0,B|108:181|108:181|101:229,1,90.1800022016602
85,308,25288,1,0,0:0:0:0:
246,17,25449,1,0,0:0:0:0:
253,44,25530,1,0,0:0:0:0:
260,71,25611,2,0,L|204:76,1,45.0900011008301
125,82,25772,2,0,L|252:72,1,90.1800022016602
339,64,26095,1,0,0:0:0:0:
247,258,26256,6,0,B|256:302|256:302|250:353,1,90.1800022016602
248,357,26498,1,0,0:0:0:0:
246,368,26579,1,0,0:0:0:0:
287,195,26740,1,0,0:0:0:0:
325,189,26820,1,0,0:0:0:0:
363,183,26901,2,0,B|371:227|371:227|352:269|352:269|362:319,1,135.27000330249
359,311,27224,2,0,B|370:264|370:264|351:222|351:222|363:176,1,135.27000330249
297,120,27546,6,0,B|253:132|253:132|201:122,1,90.1800022016602
251,51,27869,1,0,0:0:0:0:
107,282,28030,1,0,0:0:0:0:
105,253,28110,1,0,0:0:0:0:
103,224,28191,2,0,L|99:166,1,45.0900011008301
93,89,28352,2,0,L|99:178,1,90.1800022016602
26,242,28675,1,0,0:0:0:0:
230,316,28837,6,0,B|178:328|178:328|161:358|161:358|109:368,1,135.27000330249
87,377,29159,1,0,0:0:0:0:
312,324,29320,1,0,0:0:0:0:
99,178,29482,6,0,B|151:166|151:166|168:136|168:136|220:126,1,135.27000330249
242,117,29804,1,0,0:0:0:0:
17,170,29965,1,0,0:0:0:0:
20,140,30046,1,0,0:0:0:0:
23,110,30127,6,0,B|29:59|29:59|21:5,1,90.1800022016602
109,71,30449,1,0,0:0:0:0:
53,255,30611,1,0,0:0:0:0:
65,281,30691,1,0,0:0:0:0:
78,307,30772,2,0,L|133:299,1,45.0900011008301
211,288,30933,2,0,L|121:300,1,90.1800022016602
265,356,31256,1,0,0:0:0:0:
344,206,31417,6,0,B|302:217|302:217|235:205,1,90.1800022016602
244,206,31659,1,0,0:0:0:0:
233,204,31740,1,0,0:0:0:0:
496,121,31901,1,0,0:0:0:0:
454,131,31982,1,0,0:0:0:0:
412,141,32062,2,0,B|425:189|425:189|405:228|405:228|415:287,1,135.27000330249
411,269,32385,2,0,B|424:221|424:221|404:182|404:182|410:140,1,135.27000330249
336,11,32708,6,0,B|351:56|351:56|343:113,1,90.1800022016602
263,67,33030,1,0,0:0:0:0:
296,273,33191,1,0,0:0:0:0:
301,301,33272,1,0,0:0:0:0:
306,329,33353,2,0,L|255:333,1,45.0900011008301
171,340,33514,2,0,L|260:332,1,90.1800022016602
321,201,33837,1,0,0:0:0:0:
50,307,33998,6,0,B|100:303|100:303|127:268|127:268|178:263,1,135.27000330249
197,263,34320,1,0,0:0:0:0:
2,235,34482,1,0,0:0:0:0:
147,100,34643,6,0,B|97:104|97:104|70:139|70:139|29:142,1,135.27000330249
0,144,34965,1,0,0:0:0:0:
195,172,35127,1,0,0:0:0:0:
311,1,35288,6,0,P|267:30|317:152,1,193.720005911865
470,96,35772,1,0,0:0:0:0:
445,94,35852,1,0,0:0:0:0:
422,99,35933,1,0,0:0:0:0:
400,109,36013,1,0,0:0:0:0:
381,124,36095,2,0,L|391:188,1,48.4300014779664
404,267,36256,2,0,L|388:171,1,96.8600029559327
295,325,36579,5,0,0:0:0:0:
325,333,36659,1,0,0:0:0:0:
356,340,36740,2,0,B|402:350|402:350|463:341,1,96.8600029559327
215,234,37062,1,0,0:0:0:0:
224,261,37143,1,0,0:0:0:0:
233,288,37224,2,0,L|222:346,1,48.4300014779664
294,179,37385,2,0,L|283:237,1,48.4300014779664
406,76,37546,2,0,L|384:192,1,96.8600029559327
197,108,37869,6,0,B|247:112|247:112|294:92,1,96.8600029559327
299,90,38111,1,0,0:0:0:0:
309,86,38191,1,0,0:0:0:0:
107,54,38353,1,0,0:0:0:0:
111,77,38433,1,0,0:0:0:0:
116,101,38514,1,0,0:0:0:0:
112,125,38594,1,0,0:0:0:0:
108,149,38675,2,0,L|100:206,1,48.4300014779664
114,333,38837,2,0,B|122:282|122:282|96:244|96:244|103:179,1,145.290004433899
229,213,39159,6,0,L|164:222,1,48.4300014779664
347,246,39320,2,0,L|282:255,1,48.4300014779664
512,273,39482,2,0,L|382:291,1,96.8600029559327
190,47,39804,1,0,0:0:0:0:
186,70,39884,1,0,0:0:0:0:
183,94,39965,1,0,0:0:0:0:
188,118,40045,1,0,0:0:0:0:
193,142,40127,2,0,L|266:134,1,48.4300014779664
389,88,40288,2,0,L|316:96,1,48.4300014779664
105,134,40449,6,0,P|142:218|249:212,1,193.720005911865
389,88,40933,1,0,0:0:0:0:
366,96,41013,1,0,0:0:0:0:
347,111,41094,1,0,0:0:0:0:
333,131,41174,1,0,0:0:0:0:
325,153,41256,2,0,L|385:157,1,48.4300014779664
469,162,41417,2,0,L|372:155,1,96.8600029559327
416,350,41740,5,0,0:0:0:0:
420,326,41820,1,0,0:0:0:0:
425,302,41901,1,0,0:0:0:0:
422,278,41981,1,0,0:0:0:0:
418,254,42062,2,0,L|475:250,1,48.4300014779664
276,302,42224,2,0,L|333:298,1,48.4300014779664
149,183,42385,2,0,B|158:234|158:234|137:278|137:278|147:335,1,145.290004433899
153,369,42708,2,0,L|139:296,1,48.4300014779664
115,124,42869,2,0,L|124:171,1,48.4300014779664
360,360,43030,5,0,0:0:0:0:
397,124,43191,1,0,0:0:0:0:
126,32,43353,2,0,P|107:85|122:137,1,96.8600029559327
215,293,43675,5,0,0:0:0:0:
190,88,43837,1,0,0:0:0:0:
190,88,43917,1,0,0:0:0:0:
190,88,43998,1,0,0:0:0:0:
507,147,44159,1,0,0:0:0:0:
232,195,44320,5,0,0:0:0:0:
381,9,44482,1,0,0:0:0:0:
387,313,44643,1,0,0:0:0:0:
279,109,44804,1,0,0:0:0:0:
489,26,44966,1,0,0:0:0:0:
23,26,45288,1,0,0:0:0:0:
489,358,45611,5,0,0:0:0:0:
241,287,45772,1,0,0:0:0:0:
310,243,45933,1,0,0:0:0:0:
313,324,46095,1,0,0:0:0:0:
204,61,46256,5,0,0:0:0:0:
169,335,46417,1,0,0:0:0:0:
162,251,46579,1,0,0:0:0:0:
93,300,46740,1,0,0:0:0:0:
359,199,46901,5,0,0:0:0:0:
128,47,47062,1,0,0:0:0:0:
204,61,47224,1,0,0:0:0:0:
153,119,47385,1,0,0:0:0:0:
412,20,47546,5,0,0:0:0:0:
352,295,47708,1,0,0:0:0:0:
379,226,47869,1,0,0:0:0:0:
425,283,48030,1,0,0:0:0:0:
228,138,48191,5,0,0:0:0:0:
511,95,48353,1,0,0:0:0:0:
475,163,48514,1,0,0:0:0:0:
434,97,48675,1,0,0:0:0:0:
507,359,48837,5,0,0:0:0:0:
348,108,48998,1,0,0:0:0:0:
314,182,49159,1,0,0:0:0:0:
396,174,49320,1,0,0:0:0:0:
96,92,49482,5,0,0:0:0:0:
212,255,49643,1,0,0:0:0:0:
134,260,49804,1,0,0:0:0:0:
168,189,49966,1,0,0:0:0:0:
178,326,50127,1,0,0:0:0:0:
158,52,50288,1,0,0:0:0:0:
405,171,50449,2,0,L|413:229,1,37.1575000283489
312,60,50611,6,0,B|277:102|277:102|295:263,1,202.069994295815
438,365,51095,2,0,L|499:355,1,50.5174985739537
283,324,51256,2,0,L|344:314,1,50.5174985739537
163,367,51417,1,0,0:0:0:0:
173,318,51497,1,0,0:0:0:0:
154,272,51578,1,0,0:0:0:0:
113,245,51658,1,0,0:0:0:0:
63,246,51739,1,0,0:0:0:0:
124,15,51901,6,0,B|162:38|162:38|177:210,1,202.069994295815
63,246,52385,2,0,L|-6:241,1,50.5174985739537
226,198,52546,2,0,L|157:193,1,50.5174985739537
307,321,52708,1,0,0:0:0:0:
300,259,52788,1,0,0:0:0:0:
331,205,52869,1,0,0:0:0:0:
388,180,52949,1,0,0:0:0:0:
448,193,53030,1,0,0:0:0:0:
85,95,53191,6,0,B|122:60|122:60|281:73,1,202.069994295815
331,205,53675,2,0,L|340:278,1,50.5174985739537
403,28,53837,2,0,L|412:101,1,50.5174985739537
339,213,53998,2,0,L|348:286,1,50.5174985739537
411,36,54160,2,0,L|420:109,1,50.5174985739537
442,360,54320,1,0,0:0:0:0:
48,198,54482,1,0,0:0:0:0:
48,198,54804,6,0,L|141:189,1,59.7025008198891
309,212,54966,6,0,L|209:222,1,67.6350016512452
17,277,55127,6,0,L|120:267,1,75.567499596426
366,283,55288,6,0,L|247:298,4,83.5
85,25,55772,6,0,P|137:15|180:148,1,220.43999932727
353,35,56256,1,0,0:0:0:0:
211,25,56417,1,0,0:0:0:0:
366,155,56579,1,0,0:0:0:0:
184,143,56740,1,0,0:0:0:0:
320,98,56901,1,0,0:0:0:0:
331,344,57062,2,0,P|293:303|297:236,1,110.219999663635
507,272,57385,5,0,0:0:0:0:
368,273,57546,1,0,0:0:0:0:
465,39,57708,2,0,P|503:80|499:147,1,110.219999663635
292,112,58030,5,0,0:0:0:0:
431,109,58191,1,0,0:0:0:0:
194,254,58353,2,0,B|140:269|140:269|79:261,1,110.219999663635
357,46,58675,5,0,0:0:0:0:
360,185,58836,1,0,0:0:0:0:
136,171,58998,2,0,B|121:117|121:117|129:56,1,110.219999663635
433,250,59320,5,0,0:0:0:0:
294,253,59481,1,0,0:0:0:0:
357,46,59643,2,0,B|411:31|411:31|472:39,1,110.219999663635
363,324,59966,5,0,0:0:0:0:
360,185,60127,1,0,0:0:0:0:
86,261,60288,2,0,B|140:246|140:246|193:253,1,110.219999663635
193,46,60611,1,0,0:0:0:0:
169,60,60691,1,0,0:0:0:0:
152,81,60772,1,0,0:0:0:0:
142,107,60852,1,0,0:0:0:0:
142,134,60933,6,0,P|187:110|248:251,1,220.43999932727
69,116,61417,1,0,0:0:0:0:
261,95,61579,1,0,0:0:0:0:
81,243,61740,1,0,0:0:0:0:
272,218,61901,1,0,0:0:0:0:
131,160,62062,1,0,0:0:0:0:
211,376,62224,2,0,P|264:386|333:379,1,110.219999663635
261,95,62546,5,0,0:0:0:0:
274,291,62708,1,0,0:0:0:0:
438,182,62869,2,0,P|461:129|457:42,1,110.219999663635
164,88,63191,5,0,0:0:0:0:
358,102,63353,1,0,0:0:0:0:
77,25,63514,2,0,B|63:77|63:77|70:143,1,110.219999663635
348,222,63837,5,0,0:0:0:0:
154,208,63998,1,0,0:0:0:0:
389,339,64159,2,0,P|447:294|463:241,1,110.219999663635
222,112,64482,2,0,P|231:184|269:225,1,110.219999663635
502,80,64804,2,0,P|434:52|380:64,1,110.219999663635
357,233,65127,5,0,0:0:0:0:
365,197,65207,1,0,0:0:0:0:
351,164,65288,1,0,0:0:0:0:
320,146,65368,1,0,0:0:0:0:
284,151,65449,1,0,0:0:0:0:
258,176,65530,1,0,0:0:0:0:
253,212,65611,5,0,0:0:0:0:
273,148,65691,1,0,0:0:0:0:
238,90,65772,1,0,0:0:0:0:
173,78,65852,1,0,0:0:0:0:
120,118,65933,1,0,0:0:0:0:
481,51,66095,6,0,P|476:123|342:159,1,220.43999932727
466,321,66579,1,0,0:0:0:0:
472,177,66740,1,0,0:0:0:0:
340,347,66901,1,0,0:0:0:0:
350,164,67062,1,0,0:0:0:0:
399,290,67224,1,0,0:0:0:0:
191,315,67385,2,0,B|137:325|61:316,1,110.219999663635
261,107,67708,5,0,0:0:0:0:
261,277,67869,1,0,0:0:0:0:
81,65,68030,2,0,B|137:59|191:69,1,110.219999663635
344,192,68353,5,0,0:0:0:0:
174,192,68514,1,0,0:0:0:0:
391,325,68675,2,0,B|454:326|454:326|515:302,1,110.219999663635
256,108,68998,5,0,0:0:0:0:
256,280,69159,1,0,0:0:0:0:
497,75,69320,2,0,B|454:58|454:58|391:59,1,110.219999663635
182,184,69643,5,0,0:0:0:0:
352,184,69804,1,0,0:0:0:0:
151,49,69966,2,0,B|95:45|95:45|33:60,1,110.219999663635
322,302,70288,5,0,0:0:0:0:
322,95,70449,1,0,0:0:0:0:
42,326,70611,2,0,B|95:339|95:339|151:335,1,110.219999663635
177,149,70933,1,0,0:0:0:0:
150,154,71013,1,0,0:0:0:0:
127,170,71094,1,0,0:0:0:0:
113,193,71174,1,0,0:0:0:0:
109,220,71256,6,0,P|135:150|34:57,1,220.43999932727
306,62,71740,2,0,L|183:77,1,110.219999663635
320,274,72062,1,0,0:0:0:0:
271,138,72224,1,0,0:0:0:0:
253,320,72385,1,0,0:0:0:0:
438,245,72546,2,0,P|464:193|458:107,1,110.219999663635
171,168,72869,5,0,0:0:0:0:
364,162,73030,1,0,0:0:0:0:
94,247,73191,2,0,P|68:195|74:109,1,110.219999663635
260,84,73514,5,0,0:0:0:0:
273,260,73675,1,0,0:0:0:0:
197,27,73837,2,0,B|252:9|252:9|323:16,1,110.219999663635
201,239,74159,5,0,0:0:0:0:
320,94,74320,1,0,0:0:0:0:
315,357,74482,2,0,B|260:375|260:375|189:368,1,110.219999663635
320,94,74804,2,0,B|363:132|363:132|392:197,1,110.219999663635
90,222,75127,2,0,B|101:165|101:165|143:107,1,110.219999663635
255,291,75449,1,0,0:0:0:0:
239,268,75529,1,0,0:0:0:0:
231,241,75611,5,0,0:0:0:0:
299,242,75691,1,0,0:0:0:0:
368,244,75772,1,0,0:0:0:0:
437,246,75852,1,0,0:0:0:0:
506,248,75933,2,0,L|500:329,1,55.1099998318176
484,75,76095,2,0,L|477:155,1,55.1099998318176
368,244,76256,2,0,L|361:324,1,55.1099998318176
346,66,76418,2,0,L|339:146,1,55.1099998318176
315,370,76579,5,0,0:0:0:0:
354,0,76740,1,0,0:0:0:0:
510,311,77224,5,0,0:0:0:0:
474,318,77304,1,0,0:0:0:0:
437,320,77385,1,0,0:0:0:0:
401,313,77465,1,0,0:0:0:0:
365,306,77546,1,0,0:0:0:0:
328,305,77627,1,0,0:0:0:0:
291,308,77708,6,0,P|336:261|237:166,1,193.720005911865
103,274,78191,2,0,P|139:276|168:268,1,48.4300014779664
264,237,78353,1,0,0:0:0:0:
104,200,78514,2,0,P|140:198|169:206,1,48.4300014779664
264,237,78675,1,0,0:0:0:0:
147,82,78837,1,0,0:0:0:0:
151,200,78998,1,0,0:0:0:0:
276,38,79159,6,0,P|233:36|198:45,1,48.4300014779664
29,85,79320,1,0,0:0:0:0:
278,129,79482,2,0,P|235:131|200:122,1,48.4300014779664
29,85,79643,1,0,0:0:0:0:
377,83,79804,2,0,L|301:83,1,48.4300014779664
29,85,79966,1,0,0:0:0:0:
151,200,80127,1,0,0:0:0:0:
377,6,80288,6,0,P|445:46|380:161,1,193.720005911865
346,276,80772,2,0,P|338:240|338:209,1,48.4300014779664
377,83,80933,1,0,0:0:0:0:
416,276,81095,2,0,P|424:240|424:209,1,48.4300014779664
377,83,81256,1,0,0:0:0:0:
225,251,81417,1,0,0:0:0:0:
337,228,81579,1,0,0:0:0:0:
198,127,81740,6,0,P|211:156|215:186,1,48.4300014779664
248,372,81901,1,0,0:0:0:0:
300,128,82062,2,0,P|287:157|283:187,1,48.4300014779664
248,372,82224,1,0,0:0:0:0:
249,30,82385,2,0,L|249:108,1,48.4300014779664
248,372,82546,1,0,0:0:0:0:
337,228,82708,1,0,0:0:0:0:
76,149,82869,6,0,P|65:94|177:48,1,193.720005911865
96,289,83353,2,0,P|104:265|107:232,1,48.4300014779664
137,109,83514,1,0,0:0:0:0:
188,289,83675,2,0,P|180:265|177:232,1,48.4300014779664
137,109,83837,1,0,0:0:0:0:
293,230,83998,1,0,0:0:0:0:
177,242,84159,1,0,0:0:0:0:
230,110,84320,6,0,P|249:144|255:179,1,48.4300014779664
305,351,84482,1,0,0:0:0:0:
348,107,84643,2,0,P|329:141|323:176,1,48.4300014779664
305,351,84804,1,0,0:0:0:0:
286,22,84966,2,0,L|289:85,1,48.4300014779664
305,351,85127,1,0,0:0:0:0:
415,168,85288,1,0,0:0:0:0:
106,47,85449,1,0,0:0:0:0:
154,42,85530,1,0,0:0:0:0:
202,37,85611,5,0,0:0:0:0:
182,269,85772,1,0,0:0:0:0:
501,157,85933,1,0,0:0:0:0:
186,108,86095,5,0,0:0:0:0:
474,354,86417,1,0,0:0:0:0:
483,7,86740,1,0,0:0:0:0:
133,275,87062,5,0,0:0:0:0:
493,123,87224,1,0,0:0:0:0:
223,21,87385,1,0,0:0:0:0:
305,384,87546,1,0,0:0:0:0:
429,61,87708,5,0,0:0:0:0:
359,69,87788,1,0,0:0:0:0:
289,77,87869,1,0,0:0:0:0:
471,335,88030,6,0,B|504:298|507:263|483:243|451:235|429:239|409:259|402:298|426:323|426:323|415:319|360:379|346:263|243:331,1,380.759995352051
