osu file format v14

[General]
AudioFilename: audio.mp3
AudioLeadIn: 0
PreviewTime: 90561
Countdown: 0
SampleSet: Soft
StackLeniency: 0.7
Mode: 0
LetterboxInBreaks: 0
WidescreenStoryboard: 0

[Editor]
Bookmarks: 1846,14769,16615,31384,41568,46153,59076,60923,75692,88615,90461,105230
DistanceSpacing: 1
BeatDivisor: 4
GridSize: 4
TimelineZoom: 1

[Metadata]
Title:100$
TitleUnicode:100$
Artist:Kaneko Kenji
ArtistUnicode:金子憲次
Creator:Pereira006
Version:Normal
Source:超次元ゲイム ネプテューヌ mk2
Tags:Mega Super Hyper Dimension Hyperdimension Dimensional Re;Birth1 2 3 4 VII Generation Neptune Sounds of Gamindustri Game dollar
BeatmapID:1633163
BeatmapSetID:776264

[Difficulty]
HPDrainRate:3
CircleSize:3.5
OverallDifficulty:3
ApproachRate:4
SliderMultiplier:1.3
SliderTickRate:1

[Events]
//Background and Video events
0,0,"bg.jpg",0,0
//Break Periods
//Storyboard Layer 0 (Background)
//Storyboard Layer 1 (Fail)
//Storyboard Layer 2 (Pass)
//Storyboard Layer 3 (Foreground)
//Storyboard Sound Samples

[TimingPoints]
100,461.538461538462,4,2,0,30,1,0
1484,-100,4,1,0,15,0,0
1946,-100,4,2,0,30,0,0
45792,-100,4,1,0,30,0,0
46253,-100,4,2,0,30,0,0
59176,-100,4,1,0,30,0,0
61023,-100,4,2,0,30,0,0
75792,-100,4,2,0,30,0,0
88715,-100,4,1,0,30,0,0
90561,-100,4,2,0,40,0,1
104869,-100,4,1,0,30,0,1
105330,-100,4,2,0,30,0,0
109023,-100,4,2,0,10,0,0

[Colours]
Combo1 : 84,88,250
Combo2 : 163,255,128
Combo3 : 217,159,255

[HitObjects]
64,92,1484,2,0,L|64:60,2,32.5
108,140,1946,6,0,P|170:154|233:138,1,130,6|8,0:0|0:0,0:0:0:0:
328,55,2869,2,0,P|392:39|456:55,1,130,0|8,0:0|0:0,0:0:0:0:
492,104,3561,1,0,0:0:0:0:
508,168,3792,2,0,P|522:230|502:293,1,130,2|8,0:0|0:0,0:0:0:0:
396,224,4715,2,0,P|333:209|270:225,1,130,0|8,0:0|0:0,0:0:0:0:
244,284,5407,1,0,0:0:0:0:
208,340,5638,6,0,P|145:356|82:342,1,130,2|8,0:0|0:0,0:0:0:0:
16,232,6561,2,0,P|0:169|13:106,1,130,0|8,0:0|0:0,0:0:0:0:
56,56,7253,1,0,0:0:0:0:
120,44,7484,2,0,L|184:28,1,65,2|0,0:0|0:0,0:0:0:0:
232,72,7946,2,0,L|296:88,1,65,8|0,0:0|0:0,0:0:0:0:
356,68,8407,1,0,0:0:0:0:
452,156,8869,1,8,0:0:0:0:
488,280,9330,6,0,P|448:332|388:348,1,130,6|8,0:0|0:0,0:0:0:0:
256,348,10253,2,0,P|194:330|155:280,1,130,0|8,0:0|0:0,0:0:0:0:
156,216,10946,1,0,0:0:0:0:
156,152,11176,2,0,L|156:20,1,130,2|8,0:0|0:0,0:0:0:0:
288,40,12100,2,0,L|288:170,1,130,0|8,0:0|0:0,0:0:0:0:
288,236,12792,1,0,0:0:0:0:
287,300,13024,6,0,P|332:344|396:360,1,130,2|8,0:0|0:0,0:0:0:0:
500,288,13946,2,0,P|516:225|502:162,1,130,0|8,0:0|0:0,0:0:0:0:
452,120,14638,1,0,0:0:0:0:
396,88,14869,2,0,L|340:52,1,65,2|0,0:0|0:0,0:0:0:0:
276,52,15330,2,0,L|221:87,1,65,8|4,0:0|0:3,0:0:0:0:
392,268,16715,6,0,P|348:316|288:340,1,130,6|8,0:0|0:0,0:0:0:0:
228,316,17407,2,0,P|163:316|107:347,1,130,2|2,0:0|0:0,0:0:0:0:
44,364,18100,2,0,L|20:304,1,65,10|0,0:0|0:0,0:0:0:0:
8,240,18561,1,2,0:0:0:0:
36,112,19023,2,0,P|104:108|160:136,1,130,2|2,0:0|0:0,0:0:0:0:
208,180,19715,1,2,0:0:0:0:
236,240,19946,1,10,0:0:0:0:
296,356,20407,6,0,P|364:364|424:344,1,130,2|10,0:0|0:0,0:0:0:0:
444,280,21100,1,2,0:0:0:0:
408,228,21330,2,0,P|340:220|280:240,1,130,0|10,0:0|0:0,0:0:0:0:
172,308,22253,2,0,L|132:256,1,65,2|0,0:0|0:0,0:0:0:0:
136,192,22715,2,0,L|176:140,1,65,8|0,0:0|0:0,0:0:0:0:
240,132,23176,1,2,0:0:0:0:
324,232,23638,1,10,0:0:0:0:
404,336,24100,6,0,P|456:296|472:232,1,130,6|8,0:0|0:0,0:0:0:0:
472,172,24792,2,0,P|454:110|403:72,1,130,2|2,0:0|0:0,0:0:0:0:
344,96,25484,2,0,L|280:96,1,65,10|0,0:0|0:0,0:0:0:0:
220,68,25946,1,2,0:0:0:0:
104,128,26407,2,0,P|120:192|164:236,1,130,10|2,0:0|0:0,0:0:0:0:
228,252,27100,1,2,0:0:0:0:
292,236,27330,1,10,0:0:0:0:
400,164,27792,6,0,P|456:196|496:248,1,130,2|10,0:0|0:0,0:0:0:0:
488,312,28484,1,2,0:0:0:0:
432,348,28715,2,0,P|376:316|336:264,1,130,0|10,0:0|0:0,0:0:0:0:
304,140,29638,2,0,L|248:108,1,65,2|0,0:0|0:0,0:0:0:0:
184,108,30100,2,0,L|128:140,1,65,8|0,0:0|0:0,0:0:0:0:
96,196,30561,1,2,0:0:0:0:
168,304,31023,1,10,0:0:0:0:
284,371,31484,6,0,P|301:304|286:244,1,130,6|8,0:0|0:0,0:0:0:0:
236,205,32176,2,0,P|222:142|239:80,1,130,2|2,0:0|0:0,0:0:0:0:
293,44,32869,1,10,0:0:0:0:
357,51,33100,1,0,0:0:0:0:
405,94,33330,1,2,0:0:0:0:
476,204,33792,2,0,P|424:240|352:232,1,130,10|2,0:0|0:0,0:0:0:0:
296,224,34484,1,2,0:0:0:0:
244,184,34715,1,10,0:0:0:0:
168,80,35176,6,0,P|100:64|40:76,1,130,2|10,0:0|0:0,0:0:0:0:
4,128,35869,1,2,0:0:0:0:
36,184,36100,2,0,P|99:195|162:179,1,130,0|10,0:0|0:0,0:0:0:0:
275,115,37023,2,0,L|310:60,1,65,2|0,0:0|0:0,0:0:0:0:
374,61,37484,2,0,L|409:116,1,65,8|0,0:0|0:0,0:0:0:0:
408,181,37946,2,0,P|384:246|336:291,1,130,2|10,0:0|0:0,0:0:0:0:
211,287,38869,6,0,P|165:241|144:180,1,130,6|10,0:0|0:0,0:0:0:0:
142,115,39561,2,0,L|258:55,1,130,2|2,0:0|0:0,0:0:0:0:
322,60,40253,1,10,0:0:0:0:
330,124,40484,1,0,0:0:0:0:
303,183,40715,1,2,0:0:0:0:
192,252,41176,2,0,P|234:300|296:316,1,130,10|2,0:0|0:0,0:0:0:0:
360,304,41869,1,2,0:0:0:0:
404,256,42100,1,10,0:0:0:0:
452,132,42561,6,0,P|425:68|373:25,1,130,2|10,0:0|0:0,0:0:0:0:
316,52,43253,1,2,0:0:0:0:
256,80,43484,2,0,P|192:100|132:80,1,130,0|10,0:0|0:0,0:0:0:0:
8,52,44407,2,0,L|0:120,1,65,2|0,0:0|0:0,0:0:0:0:
0,180,44869,2,0,L|7:244,1,65,8|0,0:0|0:0,0:0:0:0:
36,304,45330,1,2,0:0:0:0:
164,336,45792,2,0,L|152:368,2,32.5,0|0|0,1:0|1:0|1:0,0:0:0:0:
180,272,46253,6,0,L|180:140,1,130,6|8,0:0|0:0,0:0:0:0:
204,80,46946,2,0,P|236:72|268:80,1,65,2|0,0:0|0:0,0:0:0:0:
316,124,47407,2,0,P|347:131|378:123,1,65,2|10,0:0|0:0,0:0:0:0:
504,160,48100,2,0,L|504:292,1,130,2|8,0:0|0:0,0:0:0:0:
464,344,48793,2,0,P|432:352|400:344,1,65,2|0,0:0|0:0,0:0:0:0:
356,300,49254,2,0,P|325:293|294:301,1,65,2|10,0:0|0:0,0:0:0:0:
172,352,49946,6,0,P|104:360|48:328,1,130,2|8,0:0|0:0,0:0:0:0:
76,272,50638,2,0,P|88:240|80:212,1,65,2|0,0:0|0:0,0:0:0:0:
40,160,51100,2,0,P|31:129|43:99,1,65,2|10,0:0|0:0,0:0:0:0:
156,40,51792,2,0,P|224:28|288:48,1,130,2|8,0:0|0:0,0:0:0:0:
372,132,52715,2,0,L|404:192,1,65,0|0,0:0|0:0,0:0:0:0:
396,256,53176,2,0,L|364:316,1,65,8|0,0:0|0:0,0:0:0:0:
312,352,53638,6,0,L|188:312,1,130,6|8,0:0|0:0,0:0:0:0:
168,248,54330,2,0,P|144:220|116:212,1,65,2|0,0:0|0:0,0:0:0:0:
56,228,54792,2,0,P|25:217|5:192,1,65,2|10,0:0|0:0,0:0:0:0:
80,88,55484,2,0,L|204:128,1,130,2|8,0:0|0:0,0:0:0:0:
260,96,56176,2,0,P|290:106|310:131,1,65,2|0,0:0|0:0,0:0:0:0:
328,196,56638,2,0,P|347:221|378:231,1,65,2|10,0:0|0:0,0:0:0:0:
488,164,57330,6,0,P|508:232|492:288,1,130,2|8,0:0|0:0,0:0:0:0:
440,328,58023,2,0,P|412:348|380:348,1,65,2|0,0:0|0:0,0:0:0:0:
336,300,58484,2,0,P|303:301|278:320,1,65,2|10,0:0|0:0,0:0:0:0:
148,316,59176,2,0,L|88:292,1,65
124,240,59638,2,0,L|84:188,1,65
144,164,60100,2,0,L|132:100,1,65,0|0,0:0|0:0,0:0:0:0:
188,68,60561,2,0,L|188:36,2,32.5
240,100,61023,6,0,P|304:96|368:136,1,130,6|8,0:0|0:0,0:0:0:0:
360,192,61715,2,0,P|303:223|239:219,1,130,2|0,0:0|0:0,0:0:0:0:
183,186,62407,1,10,0:0:0:0:
77,262,62869,2,0,P|105:326|161:354,1,130,2|8,0:0|0:0,0:0:0:0:
220,350,63561,2,0,P|275:318|298:258,1,130,2|0,0:0|0:0,0:0:0:0:
315,195,64253,1,10,0:0:0:0:
324,65,64715,6,0,P|261:53|197:60,1,130,2|8,0:0|0:0,0:0:0:0:
197,125,65407,2,0,P|132:132|69:120,1,130,2|0,0:0|0:0,0:0:0:0:
8,95,66100,1,10,0:0:0:0:
5,224,66561,2,0,P|25:288|77:320,1,130,2|8,0:0|0:0,0:0:0:0:
206,320,67484,2,0,P|259:285|277:224,1,130,0|8,0:0|0:0,0:0:0:0:
152,152,68407,6,0,P|180:92|240:68,1,130,6|8,0:0|0:0,0:0:0:0:
300,68,69100,2,0,P|358:93|384:151,1,130,2|0,0:0|0:0,0:0:0:0:
352,208,69792,1,10,0:0:0:0:
390,331,70253,2,0,P|330:363|270:351,1,130,2|8,0:0|0:0,0:0:0:0:
160,284,71176,1,0,0:0:0:0:
100,168,71638,2,0,L|132:108,1,65,10|2,0:0|0:0,0:0:0:0:
196,108,72100,6,0,P|260:128|320:104,1,130,2|8,0:0|0:0,0:0:0:0:
360,60,72792,2,0,P|424:40|484:64,1,130,2|0,0:0|0:0,0:0:0:0:
500,124,73484,1,8,0:0:0:0:
508,252,73946,2,0,L|468:308,1,65,2|0,0:0|0:0,0:0:0:0:
404,304,74407,2,0,L|366:251,1,65,8|0,0:0|0:0,0:0:0:0:
128,32,75792,6,0,P|148:96|128:156,1,130,6|8,0:0|0:0,0:0:0:0:
96,212,76484,2,0,P|144:304|232:312,1,195,2|10,0:0|0:0,0:0:0:0:
240,184,77638,2,0,P|220:120|240:60,1,130,2|8,0:0|0:0,0:0:0:0:
292,28,78330,2,0,P|384:44|422:129,1,195,2|8,0:0|0:0,0:0:0:0:
424,196,79253,1,2,0:0:0:0:
420,260,79484,6,0,P|364:296|304:284,1,130,2|8,0:0|0:0,0:0:0:0:
280,224,80176,2,0,P|200:164|112:180,1,195,2|10,0:0|0:0,0:0:0:0:
86,307,81330,2,0,P|130:347|166:351,1,97.5,2|2,0:0|0:0,0:0:0:0:
198,351,81792,2,0,L|270:351,2,65,10|2|2,0:0|0:0|0:0,0:0:0:0:
216,72,83176,6,0,P|279:88|340:70,1,130,6|8,0:0|0:0,0:0:0:0:
376,16,83869,2,0,P|456:72|464:164,1,195,2|8,0:0|0:0,0:0:0:0:
376,260,85023,2,0,P|313:244|251:262,1,130,2|8,0:0|0:0,0:0:0:0:
216,316,85716,2,0,P|136:260|128:168,1,195,2|0,0:0|0:0,0:0:0:0:
160,112,86638,1,2,0:0:0:0:
220,88,86869,6,0,P|284:112|340:88,1,130,2|8,0:0|0:0,0:0:0:0:
340,220,87792,2,0,P|280:197|221:221,1,130,0|10,0:0|0:0,0:0:0:0:
140,324,88715,2,0,L|76:312,1,65,0|0,0:0|0:0,0:0:0:0:
48,252,89176,2,0,L|112:240,1,65,0|0,0:0|0:0,0:0:0:0:
140,180,89638,2,0,L|76:168,1,65,0|0,0:0|0:0,0:0:0:0:
44,112,90100,2,0,L|96:88,2,32.5
88,64,90561,6,0,P|148:40|212:72,1,130,6|8,0:0|0:0,0:0:0:0:
260,96,91253,2,0,P|266:127|280:160,1,65,2|0,0:0|0:0,0:0:0:0:
344,158,91715,2,0,P|356:128|362:96,1,65,2|10,0:0|0:0,0:0:0:0:
480,148,92407,2,0,L|448:284,1,130,2|8,0:0|0:0,0:0:0:0:
420,332,93100,2,0,P|392:348|360:348,1,65,2|0,0:0|0:0,0:0:0:0:
320,296,93561,2,0,P|287:296|259:311,1,65,2|8,0:0|0:0,0:0:0:0:
144,368,94253,6,0,P|112:312|132:248,1,130,2|8,0:0|0:0,0:0:0:0:
188,224,94946,2,0,P|196:192|192:160,1,65,2|0,0:0|0:0,0:0:0:0:
128,148,95407,2,0,P|120:116|124:84,1,65,2|10,0:0|0:0,0:0:0:0:
242,31,96100,2,0,P|302:55|362:31,1,130,2|8,0:0|0:0,0:0:0:0:
456,116,97023,2,0,L|500:164,1,65,0|0,0:0|0:0,0:0:0:0:
500,228,97484,2,0,L|456:276,1,65,8|0,0:0|0:0,0:0:0:0:
420,332,97946,6,0,P|361:356|302:332,1,130,6|8,0:0|0:0,0:0:0:0:
318,268,98638,2,0,P|307:237|287:212,1,65,2|0,0:0|0:0,0:0:0:0:
220,212,99100,2,0,P|199:237|189:267,1,65,2|10,0:0|0:0,0:0:0:0:
62,236,99792,2,0,L|118:119,1,130,2|8,0:0|0:0,0:0:0:0:
170,79,100485,2,0,P|197:63|230:63,1,65,2|0,0:0|0:0,0:0:0:0:
276,108,100946,2,0,P|308:107|336:92,1,65,2|10,0:0|0:0,0:0:0:0:
448,28,101638,6,0,P|480:84|460:148,1,130,2|8,0:0|0:0,0:0:0:0:
404,172,102331,2,0,P|396:204|400:236,1,65,2|0,0:0|0:0,0:0:0:0:
464,248,102792,2,0,P|472:280|468:312,1,65,2|10,0:0|0:0,0:0:0:0:
342,346,103485,2,0,P|282:322|222:346,1,130,2|8,0:0|0:0,0:0:0:0:
97,372,104407,2,0,L|65:316,1,65,0|0,0:0|0:0,0:0:0:0:
65,252,104869,2,0,L|97:196,1,65,0|0,0:0|0:0,0:0:0:0:
256,192,105330,12,6,109023,0:0:0:0:
