osu file format v14

[General]
AudioFilename: audio.mp3
AudioLeadIn: 0
PreviewTime: 73720
Countdown: 0
SampleSet: Normal
StackLeniency: 0.7
Mode: 1
LetterboxInBreaks: 0
WidescreenStoryboard: 0

[Editor]
Bookmarks: 4353,18039,31754,45468,52325,60896,74611,88325,102068
DistanceSpacing: 0.8
BeatDivisor: 4
GridSize: 16
TimelineZoom: 4.199998

[Metadata]
Title:iLLness LiLin
TitleUnicode:iLLness LiLin
Artist:Kaneko Chiharu
ArtistUnicode:かねこちはる
Creator:komasy
Version:HEAVENLY
Source:SOUND VOLTEX IV HEAVENLY HAVEN
Tags:SDVX The 6th KONAMI Arcade Championship KAC 2017 オリジナル楽曲コンテスト Original Song Contest Speedcore electronic instrumental video game rhythm Vulkin
BeatmapID:2230907
BeatmapSetID:1065377

[Difficulty]
HPDrainRate:5
CircleSize:3.5
OverallDifficulty:7.5
ApproachRate:9.5
SliderMultiplier:1.4
SliderTickRate:1

[Events]
//Background and Video events
0,0,"bg.jpg",0,140
//Break Periods
2,52519,55747
//Storyboard Layer 0 (Background)
//Storyboard Layer 1 (Fail)
//Storyboard Layer 2 (Pass)
//Storyboard Layer 3 (Foreground)
//Storyboard Layer 4 (Overlay)
//Storyboard Sound Samples

[TimingPoints]
891,214.285714285714,4,1,0,90,1,0
891,-100,4,1,0,90,0,1
944,-66.6666666666667,4,1,0,70,0,1
3408,-90.9090909090909,4,1,0,90,0,1
4265,-133.333333333333,4,1,0,90,0,1
4319,-133.333333333333,4,1,0,90,0,0
10265,-113.636363636364,4,1,0,90,0,0
11230,-100,4,1,0,90,0,0
16319,-80,4,1,0,50,0,0
17176,-90.9090909090909,4,1,0,90,0,1
18033,-100,4,1,0,90,0,0
38605,-90.9090909090909,4,1,0,90,0,1
45140,-92.5925925925926,4,1,0,90,0,1
45248,-94.3396226415094,4,1,0,90,0,1
45355,-97.0873786407767,4,1,0,90,0,1
45462,-100,4,1,0,90,0,0
51569,-103.092783505155,4,1,0,90,0,0
51676,-106.382978723404,4,1,0,90,0,0
51783,-109.89010989011,4,1,0,90,0,0
51890,-113.636363636364,4,1,0,90,0,0
51998,-117.647058823529,4,1,0,90,0,0
52105,-121.951219512195,4,1,0,90,0,0
52212,-126.582278481013,4,1,0,90,0,0
52319,428.571428571429,4,1,0,90,1,0
52319,-66.6666666666667,4,1,0,90,0,0
60890,-100,4,1,0,90,0,1
73747,214.285714285714,4,1,0,90,1,0
74604,214.285714285714,4,1,0,90,1,8
74606,214.285714285714,4,1,0,90,1,0
84891,-90.9090909090909,4,1,0,90,0,1
86605,-90.9090909090909,4,1,0,90,0,0
87463,-133.333333333333,4,1,0,90,0,0
87838,-100,4,1,0,90,0,0
88320,-100,4,1,0,90,0,1
112320,-100,4,1,0,90,0,0
112373,-133.333333333333,4,1,0,90,0,0
113980,-100,4,1,0,90,0,0
116391,-83.3333333333333,4,1,0,90,0,1
117463,-83.3333333333333,4,1,0,90,0,0

[HitObjects]
160,288,891,5,4,0:0:0:0:
256,192,998,12,0,3248,0:0:0:0:
160,96,3462,5,0,0:0:0:0:
160,96,3515,1,0,0:0:0:0:
160,96,3569,1,0,0:0:0:0:
160,96,3623,1,0,0:0:0:0:
160,96,3676,1,0,0:0:0:0:
160,96,3730,1,0,0:0:0:0:
160,96,3783,1,0,0:0:0:0:
160,96,3837,1,0,0:0:0:0:
352,96,3890,1,8,0:0:0:0:
160,288,4319,1,4,0:0:0:0:
160,96,4533,1,0,0:0:0:0:
352,96,4748,1,8,0:0:0:0:
352,96,4855,1,8,0:0:0:0:
160,96,4962,1,0,0:0:0:0:
160,96,5176,1,0,0:0:0:0:
352,96,5390,1,8,0:0:0:0:
352,96,5498,1,8,0:0:0:0:
160,96,5605,1,0,0:0:0:0:
160,96,5819,1,0,0:0:0:0:
352,96,6033,1,8,0:0:0:0:
352,96,6140,1,8,0:0:0:0:
160,96,6248,1,0,0:0:0:0:
160,96,6462,1,0,0:0:0:0:
352,96,6676,1,8,0:0:0:0:
352,96,6783,1,8,0:0:0:0:
160,96,6890,1,0,0:0:0:0:
160,96,7105,1,0,0:0:0:0:
352,96,7319,1,8,0:0:0:0:
352,96,7426,1,8,0:0:0:0:
160,96,7533,1,0,0:0:0:0:
352,96,7640,1,8,0:0:0:0:
160,96,7748,1,0,0:0:0:0:
160,96,7962,1,0,0:0:0:0:
160,96,8069,1,0,0:0:0:0:
352,96,8176,1,8,0:0:0:0:
352,96,8283,1,8,0:0:0:0:
160,96,8390,1,0,0:0:0:0:
160,96,8605,1,0,0:0:0:0:
160,96,8712,1,0,0:0:0:0:
352,96,8819,1,8,0:0:0:0:
352,96,8926,1,8,0:0:0:0:
160,96,9033,1,0,0:0:0:0:
160,96,9248,1,0,0:0:0:0:
160,96,9355,1,0,0:0:0:0:
352,96,9462,1,8,0:0:0:0:
352,96,9569,1,8,0:0:0:0:
160,96,9676,1,0,0:0:0:0:
160,96,9890,1,0,0:0:0:0:
160,96,9998,1,0,0:0:0:0:
352,96,10105,1,8,0:0:0:0:
352,96,10212,1,8,0:0:0:0:
160,96,10319,1,0,0:0:0:0:
160,96,10373,1,0,0:0:0:0:
160,96,10426,1,0,0:0:0:0:
160,96,10480,1,0,0:0:0:0:
352,96,10533,1,8,0:0:0:0:
160,96,10640,1,0,0:0:0:0:
160,96,10694,1,0,0:0:0:0:
352,96,10748,1,8,0:0:0:0:
352,96,10801,1,8,0:0:0:0:
160,96,10855,1,0,0:0:0:0:
352,96,10962,1,8,0:0:0:0:
352,96,11015,1,8,0:0:0:0:
352,96,11069,1,8,0:0:0:0:
352,96,11123,1,8,0:0:0:0:
160,96,11176,1,0,0:0:0:0:
160,96,11390,1,0,0:0:0:0:
160,96,11498,1,0,0:0:0:0:
352,96,11605,1,8,0:0:0:0:
352,96,11712,1,8,0:0:0:0:
160,96,11819,1,0,0:0:0:0:
160,96,11926,1,0,0:0:0:0:
352,96,12033,1,8,0:0:0:0:
160,96,12140,1,0,0:0:0:0:
352,96,12248,1,8,0:0:0:0:
352,96,12355,1,8,0:0:0:0:
160,96,12462,1,0,0:0:0:0:
160,96,12569,1,0,0:0:0:0:
352,96,12676,1,8,0:0:0:0:
160,96,12783,1,0,0:0:0:0:
352,96,12890,1,8,0:0:0:0:
352,96,12998,1,8,0:0:0:0:
160,96,13105,1,0,0:0:0:0:
160,96,13212,1,0,0:0:0:0:
352,96,13319,1,8,0:0:0:0:
160,96,13426,1,0,0:0:0:0:
352,96,13533,1,8,0:0:0:0:
352,96,13640,1,8,0:0:0:0:
160,96,13748,1,0,0:0:0:0:
160,96,13855,1,0,0:0:0:0:
352,96,13962,1,8,0:0:0:0:
160,96,14069,1,0,0:0:0:0:
352,96,14176,1,8,0:0:0:0:
352,96,14283,1,8,0:0:0:0:
160,96,14390,1,0,0:0:0:0:
352,96,14498,1,8,0:0:0:0:
160,96,14605,1,0,0:0:0:0:
160,96,14658,1,0,0:0:0:0:
160,96,14712,1,0,0:0:0:0:
160,96,14765,1,0,0:0:0:0:
352,96,14819,1,8,0:0:0:0:
160,96,14926,1,0,0:0:0:0:
352,96,15033,1,8,0:0:0:0:
352,96,15087,1,8,0:0:0:0:
352,96,15140,1,8,0:0:0:0:
352,96,15194,1,8,0:0:0:0:
160,96,15248,1,0,0:0:0:0:
352,96,15355,1,8,0:0:0:0:
160,96,15462,1,0,0:0:0:0:
160,96,15515,1,0,0:0:0:0:
160,96,15569,1,0,0:0:0:0:
160,96,15623,1,0,0:0:0:0:
352,96,15676,1,8,0:0:0:0:
352,96,15730,1,8,0:0:0:0:
352,96,15783,1,8,0:0:0:0:
352,96,15837,1,8,0:0:0:0:
160,96,15890,1,0,0:0:0:0:
160,96,15944,1,0,0:0:0:0:
352,96,15998,1,8,0:0:0:0:
352,96,16051,1,8,0:0:0:0:
160,96,16105,1,0,0:0:0:0:
352,96,16158,1,8,0:0:0:0:
352,96,16212,1,8,0:0:0:0:
352,96,16265,1,8,0:0:0:0:
160,96,17176,1,0,0:0:0:0:
160,96,17230,1,0,0:0:0:0:
160,96,17283,1,0,0:0:0:0:
160,96,17337,1,0,0:0:0:0:
160,96,17390,1,0,0:0:0:0:
160,96,17444,1,0,0:0:0:0:
160,96,17498,1,0,0:0:0:0:
160,96,17551,1,0,0:0:0:0:
160,96,17605,1,0,0:0:0:0:
160,96,17658,1,0,0:0:0:0:
160,96,17712,1,0,0:0:0:0:
160,96,17765,1,0,0:0:0:0:
352,96,17819,1,8,0:0:0:0:
160,288,18033,1,4,0:0:0:0:
160,96,18248,1,0,0:0:0:0:
352,96,18355,1,8,0:0:0:0:
160,96,18462,1,0,0:0:0:0:
160,96,18515,1,0,0:0:0:0:
352,96,18569,1,8,0:0:0:0:
160,96,18676,1,0,0:0:0:0:
160,96,18783,1,0,0:0:0:0:
352,96,18890,1,8,0:0:0:0:
352,96,18926,1,8,0:0:0:0:
352,96,18962,1,8,0:0:0:0:
160,96,18998,1,0,0:0:0:0:
215,96,19105,1,8,0:0:0:0:
23,96,19212,1,0,0:0:0:0:
352,96,19319,1,8,0:0:0:0:
352,96,19373,1,8,0:0:0:0:
160,96,19426,1,0,0:0:0:0:
352,96,19533,1,8,0:0:0:0:
160,96,19748,1,0,0:0:0:0:
160,96,19801,1,0,0:0:0:0:
352,96,19855,1,8,0:0:0:0:
160,96,19962,1,0,0:0:0:0:
352,96,20069,1,8,0:0:0:0:
160,96,20176,1,0,0:0:0:0:
352,96,20283,1,8,0:0:0:0:
352,96,20337,1,8,0:0:0:0:
160,96,20390,1,0,0:0:0:0:
352,96,20498,1,8,0:0:0:0:
160,96,20605,1,0,0:0:0:0:
160,96,20712,1,0,0:0:0:0:
352,96,20765,1,8,0:0:0:0:
160,96,20819,1,0,0:0:0:0:
352,96,20926,1,8,0:0:0:0:
160,96,21033,1,0,0:0:0:0:
160,96,21087,1,0,0:0:0:0:
160,96,21140,1,0,0:0:0:0:
352,288,21248,1,12,0:0:0:0:
160,96,21462,1,0,0:0:0:0:
352,96,21623,1,8,0:0:0:0:
160,96,21676,1,0,0:0:0:0:
352,96,21783,1,8,0:0:0:0:
160,96,21890,1,0,0:0:0:0:
352,96,21962,1,8,0:0:0:0:
352,96,22033,1,8,0:0:0:0:
160,96,22105,1,0,0:0:0:0:
352,96,22212,1,8,0:0:0:0:
160,96,22319,1,0,0:0:0:0:
352,96,22373,1,8,0:0:0:0:
160,96,22426,1,0,0:0:0:0:
352,96,22533,1,8,0:0:0:0:
160,96,22640,1,0,0:0:0:0:
160,96,22694,1,0,0:0:0:0:
352,96,22748,1,8,0:0:0:0:
352,96,22801,1,8,0:0:0:0:
160,96,22855,1,0,0:0:0:0:
352,96,22962,1,8,0:0:0:0:
160,96,23176,1,0,0:0:0:0:
160,96,23230,1,0,0:0:0:0:
352,96,23283,1,8,0:0:0:0:
160,96,23390,1,0,0:0:0:0:
352,96,23498,1,8,0:0:0:0:
160,96,23605,1,0,0:0:0:0:
352,96,23712,1,8,0:0:0:0:
352,96,23765,1,8,0:0:0:0:
160,96,23819,1,0,0:0:0:0:
352,96,23926,1,8,0:0:0:0:
160,96,24033,1,0,0:0:0:0:
160,96,24140,1,0,0:0:0:0:
352,96,24248,1,8,0:0:0:0:
352,96,24301,1,8,0:0:0:0:
352,96,24355,1,8,0:0:0:0:
352,96,24408,1,8,0:0:0:0:
160,96,24462,1,0,0:0:0:0:
160,96,24569,1,0,0:0:0:0:
352,96,24676,1,8,0:0:0:0:
352,96,24730,1,8,0:0:0:0:
352,96,24783,1,8,0:0:0:0:
352,96,24837,1,8,0:0:0:0:
160,96,24890,1,0,0:0:0:0:
160,96,25051,1,0,0:0:0:0:
352,96,25105,1,8,0:0:0:0:
352,96,25212,1,8,0:0:0:0:
160,96,25319,1,0,0:0:0:0:
160,96,25426,1,0,0:0:0:0:
160,96,25480,1,0,0:0:0:0:
352,96,25533,1,8,0:0:0:0:
352,96,25640,1,8,0:0:0:0:
160,96,25748,1,0,0:0:0:0:
352,96,25783,1,8,0:0:0:0:
352,96,25819,1,8,0:0:0:0:
160,96,25855,1,0,0:0:0:0:
352,96,25962,1,8,0:0:0:0:
160,96,26069,1,0,0:0:0:0:
160,96,26123,1,0,0:0:0:0:
352,96,26176,1,8,0:0:0:0:
352,96,26230,1,8,0:0:0:0:
160,96,26283,1,0,0:0:0:0:
352,96,26390,1,8,0:0:0:0:
160,96,26605,1,0,0:0:0:0:
160,96,26658,1,0,0:0:0:0:
352,96,26712,1,8,0:0:0:0:
160,96,26819,1,0,0:0:0:0:
352,96,26926,1,8,0:0:0:0:
160,96,27033,1,0,0:0:0:0:
352,96,27140,1,8,0:0:0:0:
352,96,27194,1,8,0:0:0:0:
160,96,27248,1,0,0:0:0:0:
352,96,27355,1,8,0:0:0:0:
160,96,27462,1,0,0:0:0:0:
160,96,27676,1,0,0:0:0:0:
352,96,27783,1,0,0:0:0:0:
160,96,27890,1,0,0:0:0:0:
160,96,27998,1,0,0:0:0:0:
352,96,28051,1,8,0:0:0:0:
160,96,28105,1,0,0:0:0:0:
160,96,28212,1,0,0:0:0:0:
352,288,28533,1,12,0:0:0:0:
160,96,28748,1,0,0:0:0:0:
160,96,28801,1,0,0:0:0:0:
160,96,28855,1,0,0:0:0:0:
352,96,28962,1,8,0:0:0:0:
352,96,29069,1,8,0:0:0:0:
352,96,29123,1,8,0:0:0:0:
160,96,29176,1,0,0:0:0:0:
160,96,29283,1,0,0:0:0:0:
352,96,29390,1,8,0:0:0:0:
160,96,29498,1,0,0:0:0:0:
160,96,29551,1,0,0:0:0:0:
352,96,29605,1,8,0:0:0:0:
352,96,29658,1,8,0:0:0:0:
160,96,29712,1,0,0:0:0:0:
352,96,29819,1,8,0:0:0:0:
160,96,30033,1,0,0:0:0:0:
160,96,30140,1,0,0:0:0:0:
352,96,30248,1,8,0:0:0:0:
352,96,30301,1,8,0:0:0:0:
352,96,30355,1,8,0:0:0:0:
352,96,30408,1,8,0:0:0:0:
160,96,30462,1,0,0:0:0:0:
160,96,30569,1,0,0:0:0:0:
352,96,30676,1,8,0:0:0:0:
352,96,30730,1,8,0:0:0:0:
352,96,30783,1,8,0:0:0:0:
352,96,30837,1,8,0:0:0:0:
160,96,30890,1,0,0:0:0:0:
160,96,30944,1,0,0:0:0:0:
160,96,30998,1,0,0:0:0:0:
352,96,31105,1,8,0:0:0:0:
160,96,31212,1,0,0:0:0:0:
160,96,31265,1,0,0:0:0:0:
352,96,31319,1,8,0:0:0:0:
352,96,31373,1,8,0:0:0:0:
160,96,31426,1,0,0:0:0:0:
160,96,31480,1,0,0:0:0:0:
352,96,31533,1,8,0:0:0:0:
352,96,31587,1,8,0:0:0:0:
352,96,31640,1,8,0:0:0:0:
352,96,31694,1,8,0:0:0:0:
160,96,31748,1,0,0:0:0:0:
352,96,31855,1,8,0:0:0:0:
352,96,31962,1,8,0:0:0:0:
160,96,32069,1,0,0:0:0:0:
352,96,32176,1,8,0:0:0:0:
352,96,32283,1,8,0:0:0:0:
160,96,32390,1,0,0:0:0:0:
352,96,32498,1,8,0:0:0:0:
160,96,32712,1,0,0:0:0:0:
160,96,32765,1,0,0:0:0:0:
160,96,32819,1,0,0:0:0:0:
160,96,32926,1,0,0:0:0:0:
352,288,33033,1,12,0:0:0:0:
160,288,33462,1,4,0:0:0:0:
352,96,33623,1,8,0:0:0:0:
160,96,33676,1,0,0:0:0:0:
352,96,33783,1,8,0:0:0:0:
160,96,33890,1,0,0:0:0:0:
352,96,33944,1,8,0:0:0:0:
160,96,33998,1,0,0:0:0:0:
352,96,34105,1,8,0:0:0:0:
160,96,34212,1,0,0:0:0:0:
352,96,34319,1,8,0:0:0:0:
160,96,34390,1,0,0:0:0:0:
160,96,34462,1,0,0:0:0:0:
352,96,34533,1,8,0:0:0:0:
160,96,34640,1,0,0:0:0:0:
352,96,34748,1,8,0:0:0:0:
352,96,34801,1,8,0:0:0:0:
160,96,34855,1,0,0:0:0:0:
160,96,34908,1,0,0:0:0:0:
352,96,34962,1,8,0:0:0:0:
160,96,35176,1,0,0:0:0:0:
160,96,35230,1,0,0:0:0:0:
352,96,35283,1,8,0:0:0:0:
160,96,35390,1,0,0:0:0:0:
352,96,35498,1,8,0:0:0:0:
160,96,35605,1,0,0:0:0:0:
352,96,35712,1,8,0:0:0:0:
352,96,35765,1,8,0:0:0:0:
160,96,35819,1,0,0:0:0:0:
352,96,35926,1,8,0:0:0:0:
160,288,36033,1,4,0:0:0:0:
352,288,36194,1,12,0:0:0:0:
352,288,36355,1,12,0:0:0:0:
160,96,36462,1,0,0:0:0:0:
160,96,36515,1,0,0:0:0:0:
160,96,36569,1,0,0:0:0:0:
160,96,36623,1,0,0:0:0:0:
352,96,36676,1,8,0:0:0:0:
352,96,36730,1,8,0:0:0:0:
352,96,36783,1,8,0:0:0:0:
352,96,36837,1,8,0:0:0:0:
160,96,36890,1,0,0:0:0:0:
352,96,36998,1,8,0:0:0:0:
352,96,37105,1,8,0:0:0:0:
160,96,37212,1,0,0:0:0:0:
352,96,37319,1,8,0:0:0:0:
352,96,37426,1,8,0:0:0:0:
160,96,37533,1,0,0:0:0:0:
352,96,37640,1,8,0:0:0:0:
160,96,37855,1,0,0:0:0:0:
160,96,37908,1,0,0:0:0:0:
160,96,37962,1,0,0:0:0:0:
160,96,38069,1,0,0:0:0:0:
352,288,38176,1,12,0:0:0:0:
160,96,38605,1,0,0:0:0:0:
160,96,38712,1,0,0:0:0:0:
160,96,38819,1,0,0:0:0:0:
160,96,38926,1,0,0:0:0:0:
160,96,39033,1,0,0:0:0:0:
160,96,39140,1,0,0:0:0:0:
160,96,39248,1,0,0:0:0:0:
160,96,39355,1,0,0:0:0:0:
160,96,39462,1,0,0:0:0:0:
160,96,39569,1,0,0:0:0:0:
352,96,39676,1,8,0:0:0:0:
352,96,39730,1,8,0:0:0:0:
352,96,39783,1,8,0:0:0:0:
352,96,39837,1,8,0:0:0:0:
160,96,39890,1,0,0:0:0:0:
160,96,39998,1,0,0:0:0:0:
160,96,40105,1,0,0:0:0:0:
160,96,40212,1,0,0:0:0:0:
160,96,40319,1,0,0:0:0:0:
160,96,40373,1,0,0:0:0:0:
160,96,40426,1,0,0:0:0:0:
160,96,40480,1,0,0:0:0:0:
352,96,40533,1,8,0:0:0:0:
352,96,40587,1,8,0:0:0:0:
352,96,40640,1,8,0:0:0:0:
352,96,40694,1,8,0:0:0:0:
160,96,40748,1,0,0:0:0:0:
160,96,40855,1,0,0:0:0:0:
160,96,40962,1,0,0:0:0:0:
160,96,41069,1,0,0:0:0:0:
160,96,41176,1,0,0:0:0:0:
352,96,41248,1,8,0:0:0:0:
352,96,41319,1,8,0:0:0:0:
160,96,41390,1,0,0:0:0:0:
352,96,41462,1,8,0:0:0:0:
352,96,41533,1,8,0:0:0:0:
160,96,41605,1,0,0:0:0:0:
352,96,41676,1,8,0:0:0:0:
352,96,41748,1,8,0:0:0:0:
160,96,41819,1,0,0:0:0:0:
352,96,41890,1,8,0:0:0:0:
352,96,41962,1,8,0:0:0:0:
160,96,42033,1,0,0:0:0:0:
160,96,42140,1,0,0:0:0:0:
352,96,42248,1,8,0:0:0:0:
160,96,42355,1,0,0:0:0:0:
160,96,42462,1,0,0:0:0:0:
352,96,42569,1,8,0:0:0:0:
160,96,42676,1,0,0:0:0:0:
160,96,42783,1,0,0:0:0:0:
352,96,42890,1,8,0:0:0:0:
352,96,42944,1,8,0:0:0:0:
352,96,42998,1,8,0:0:0:0:
352,96,43051,1,8,0:0:0:0:
160,96,43105,1,0,0:0:0:0:
160,96,43212,1,0,0:0:0:0:
352,288,43319,1,12,0:0:0:0:
160,96,43748,1,0,0:0:0:0:
160,96,43855,1,0,0:0:0:0:
352,96,43962,1,8,0:0:0:0:
352,96,44015,1,8,0:0:0:0:
160,96,44069,1,0,0:0:0:0:
160,96,44176,1,0,0:0:0:0:
352,96,44283,1,8,0:0:0:0:
352,96,44337,1,8,0:0:0:0:
160,96,44390,1,0,0:0:0:0:
160,96,44498,1,0,0:0:0:0:
352,96,44605,1,8,0:0:0:0:
352,96,44640,1,8,0:0:0:0:
352,96,44676,1,8,0:0:0:0:
160,96,44712,1,0,0:0:0:0:
160,96,44819,1,0,0:0:0:0:
160,96,44926,1,0,0:0:0:0:
160,96,44980,1,0,0:0:0:0:
352,96,45033,1,8,0:0:0:0:
352,96,45140,1,8,0:0:0:0:
352,96,45248,1,8,0:0:0:0:
352,96,45355,1,8,0:0:0:0:
160,288,45462,1,4,0:0:0:0:
160,96,45676,1,0,0:0:0:0:
160,96,45783,1,0,0:0:0:0:
352,96,45890,1,8,0:0:0:0:
352,96,45998,1,8,0:0:0:0:
160,96,46105,1,0,0:0:0:0:
160,96,46212,1,0,0:0:0:0:
352,96,46319,1,8,0:0:0:0:
160,96,46426,1,0,0:0:0:0:
352,96,46533,1,8,0:0:0:0:
352,96,46640,1,8,0:0:0:0:
160,96,46748,1,0,0:0:0:0:
160,96,46855,1,0,0:0:0:0:
352,96,46962,1,8,0:0:0:0:
160,96,47069,1,0,0:0:0:0:
352,96,47176,1,8,0:0:0:0:
352,96,47283,1,8,0:0:0:0:
160,96,47390,1,0,0:0:0:0:
160,96,47498,1,0,0:0:0:0:
352,96,47605,1,8,0:0:0:0:
160,96,47712,1,0,0:0:0:0:
352,96,47819,1,8,0:0:0:0:
352,96,47926,1,8,0:0:0:0:
160,96,48033,1,0,0:0:0:0:
160,96,48140,1,0,0:0:0:0:
352,96,48248,1,8,0:0:0:0:
160,96,48355,1,0,0:0:0:0:
352,96,48462,1,8,0:0:0:0:
352,96,48569,1,8,0:0:0:0:
160,96,48676,1,0,0:0:0:0:
352,96,48783,1,8,0:0:0:0:
160,96,48890,1,0,0:0:0:0:
160,96,48944,1,0,0:0:0:0:
160,96,48998,1,0,0:0:0:0:
352,96,49105,1,8,0:0:0:0:
160,96,49212,1,0,0:0:0:0:
352,96,49319,1,8,0:0:0:0:
352,96,49373,1,8,0:0:0:0:
352,96,49426,1,8,0:0:0:0:
160,96,49533,1,0,0:0:0:0:
352,96,49640,1,8,0:0:0:0:
160,96,49748,1,0,0:0:0:0:
160,96,49801,1,0,0:0:0:0:
160,96,49855,1,0,0:0:0:0:
160,96,49908,1,0,0:0:0:0:
352,96,49962,1,8,0:0:0:0:
352,96,50069,1,8,0:0:0:0:
160,96,50176,1,0,0:0:0:0:
160,96,50230,1,0,0:0:0:0:
160,96,50283,5,0,0:0:0:0:
160,96,50337,1,0,0:0:0:0:
352,96,50390,1,8,0:0:0:0:
160,96,50498,1,0,0:0:0:0:
352,96,50605,1,8,0:0:0:0:
352,96,50658,1,8,0:0:0:0:
352,96,50712,1,8,0:0:0:0:
352,96,50765,1,8,0:0:0:0:
160,96,50819,1,0,0:0:0:0:
352,96,50926,1,8,0:0:0:0:
160,96,51033,1,0,0:0:0:0:
160,96,51087,1,0,0:0:0:0:
352,96,51140,1,8,0:0:0:0:
352,96,51194,1,8,0:0:0:0:
160,96,51248,1,0,0:0:0:0:
352,96,51301,1,8,0:0:0:0:
352,96,51355,1,8,0:0:0:0:
352,96,51408,1,8,0:0:0:0:
160,96,51462,5,0,0:0:0:0:
160,96,51569,1,0,0:0:0:0:
352,96,51676,1,8,0:0:0:0:
160,96,51783,1,0,0:0:0:0:
352,96,51890,1,8,0:0:0:0:
352,96,51998,1,8,0:0:0:0:
160,96,52105,1,0,0:0:0:0:
160,96,52212,1,0,0:0:0:0:
352,288,52319,1,12,0:0:0:0:
160,288,57461,5,4,0:0:0:0:
352,96,57676,1,8,0:0:0:0:
352,96,57890,1,8,0:0:0:0:
352,96,58104,1,8,0:0:0:0:
160,288,58319,1,4,0:0:0:0:
352,96,58533,1,8,0:0:0:0:
352,96,58604,1,8,0:0:0:0:
352,96,58676,1,8,0:0:0:0:
352,96,58747,1,8,0:0:0:0:
352,96,58961,1,8,0:0:0:0:
160,288,59176,1,4,0:0:0:0:
352,96,59390,1,8,0:0:0:0:
352,96,59604,1,8,0:0:0:0:
352,96,59819,1,8,0:0:0:0:
352,96,59926,1,8,0:0:0:0:
160,96,60033,1,0,0:0:0:0:
160,288,60890,1,4,0:0:0:0:
160,96,61533,1,0,0:0:0:0:
352,96,61747,1,8,0:0:0:0:
394,186,62176,1,8,0:0:0:0:
352,96,62390,1,8,0:0:0:0:
160,96,62604,1,0,0:0:0:0:
160,96,62926,1,0,0:0:0:0:
160,96,63247,1,0,0:0:0:0:
352,96,63461,1,8,0:0:0:0:
352,96,63783,1,8,0:0:0:0:
352,96,63890,1,8,0:0:0:0:
352,96,64104,1,8,0:0:0:0:
160,96,64319,1,0,0:0:0:0:
160,96,64747,1,0,0:0:0:0:
160,96,64890,1,0,0:0:0:0:
160,96,65033,1,0,0:0:0:0:
352,96,65176,1,8,0:0:0:0:
352,96,65604,1,8,0:0:0:0:
352,96,65819,1,8,0:0:0:0:
160,96,66033,1,0,0:0:0:0:
352,96,66176,1,8,0:0:0:0:
352,96,66461,1,8,0:0:0:0:
160,96,66676,1,0,0:0:0:0:
352,96,66890,1,8,0:0:0:0:
352,96,67319,1,8,0:0:0:0:
352,96,67533,1,8,0:0:0:0:
332,113,67640,1,8,0:0:0:0:
160,96,67747,1,0,0:0:0:0:
160,96,68390,1,0,0:0:0:0:
352,96,68604,1,8,0:0:0:0:
352,96,69033,1,8,0:0:0:0:
352,96,69247,1,8,0:0:0:0:
160,96,69461,1,0,0:0:0:0:
160,96,69676,1,0,0:0:0:0:
160,96,69783,1,0,0:0:0:0:
160,96,69890,1,0,0:0:0:0:
160,96,70104,1,0,0:0:0:0:
352,96,70319,1,8,0:0:0:0:
352,96,70640,1,8,0:0:0:0:
352,96,70747,1,8,0:0:0:0:
352,96,70961,1,8,0:0:0:0:
160,96,71176,1,0,0:0:0:0:
160,96,71604,1,0,0:0:0:0:
160,96,71747,1,0,0:0:0:0:
160,96,71890,1,0,0:0:0:0:
352,96,72033,1,8,0:0:0:0:
352,96,72461,1,8,0:0:0:0:
352,96,72676,1,8,0:0:0:0:
160,96,72890,1,0,0:0:0:0:
211,109,73104,1,8,0:0:0:0:
237,123,73211,1,0,0:0:0:0:
259,131,73319,1,0,0:0:0:0:
352,96,73533,1,0,0:0:0:0:
160,288,74604,1,4,0:0:0:0:
160,96,74713,1,0,0:0:0:0:
352,96,74820,1,8,0:0:0:0:
160,96,74927,1,0,0:0:0:0:
160,96,74981,1,0,0:0:0:0:
352,96,75034,1,8,0:0:0:0:
352,96,75141,1,8,0:0:0:0:
160,96,75248,1,0,0:0:0:0:
352,96,75356,1,8,0:0:0:0:
352,96,75409,1,8,0:0:0:0:
160,96,75463,1,0,0:0:0:0:
160,96,75570,1,0,0:0:0:0:
352,96,75677,1,8,0:0:0:0:
160,96,75784,1,0,0:0:0:0:
352,288,75891,1,12,0:0:0:0:
352,288,75998,1,12,0:0:0:0:
352,288,76106,1,12,0:0:0:0:
160,96,76320,1,0,0:0:0:0:
160,96,76427,1,0,0:0:0:0:
352,96,76534,1,8,0:0:0:0:
352,96,76588,1,8,0:0:0:0:
352,96,76641,1,8,0:0:0:0:
160,96,76748,1,0,0:0:0:0:
160,96,76856,1,0,0:0:0:0:
352,96,76963,1,8,0:0:0:0:
352,96,77016,1,8,0:0:0:0:
352,96,77070,1,8,0:0:0:0:
160,96,77177,1,0,0:0:0:0:
160,96,77231,1,0,0:0:0:0:
160,96,77284,1,0,0:0:0:0:
160,96,77338,1,0,0:0:0:0:
352,96,77391,1,8,0:0:0:0:
352,96,77445,1,8,0:0:0:0:
352,96,77498,1,8,0:0:0:0:
352,96,77552,1,8,0:0:0:0:
160,96,77606,1,0,0:0:0:0:
160,96,77659,1,0,0:0:0:0:
352,96,77713,1,8,0:0:0:0:
352,96,77766,1,8,0:0:0:0:
160,96,77820,1,0,0:0:0:0:
352,96,77873,1,8,0:0:0:0:
352,96,77927,1,8,0:0:0:0:
352,96,77981,1,8,0:0:0:0:
160,96,78034,1,0,0:0:0:0:
160,96,78141,1,0,0:0:0:0:
352,96,78248,1,8,0:0:0:0:
160,96,78356,1,0,0:0:0:0:
160,96,78409,1,0,0:0:0:0:
352,96,78463,1,8,0:0:0:0:
352,96,78570,1,8,0:0:0:0:
160,96,78677,1,0,0:0:0:0:
352,96,78784,1,8,0:0:0:0:
352,96,78838,1,8,0:0:0:0:
160,96,78891,1,0,0:0:0:0:
160,96,78998,1,0,0:0:0:0:
352,96,79106,1,8,0:0:0:0:
160,96,79213,1,0,0:0:0:0:
352,288,79320,1,12,0:0:0:0:
352,288,79427,1,12,0:0:0:0:
352,288,79534,1,12,0:0:0:0:
160,96,79748,1,0,0:0:0:0:
160,96,79856,1,0,0:0:0:0:
352,96,79963,1,8,0:0:0:0:
352,96,80016,1,8,0:0:0:0:
160,96,80070,1,0,0:0:0:0:
352,96,80177,1,8,0:0:0:0:
160,96,80284,1,0,0:0:0:0:
160,96,80338,1,0,0:0:0:0:
352,96,80391,1,8,0:0:0:0:
352,96,80445,1,8,0:0:0:0:
160,96,80498,1,0,0:0:0:0:
352,96,80605,1,8,0:0:0:0:
160,96,80659,1,0,0:0:0:0:
160,96,80713,1,0,0:0:0:0:
160,96,80766,1,0,0:0:0:0:
352,96,80820,1,8,0:0:0:0:
352,96,80873,1,8,0:0:0:0:
160,96,80927,1,0,0:0:0:0:
160,96,80980,1,0,0:0:0:0:
352,96,81034,1,8,0:0:0:0:
160,288,81463,1,4,0:0:0:0:
160,96,81570,1,0,0:0:0:0:
352,96,81677,1,8,0:0:0:0:
160,96,81784,1,0,0:0:0:0:
160,96,81838,1,0,0:0:0:0:
160,96,81891,1,0,0:0:0:0:
160,96,81998,1,0,0:0:0:0:
352,96,82105,1,8,0:0:0:0:
352,96,82213,1,8,0:0:0:0:
160,96,82320,1,0,0:0:0:0:
160,96,82427,1,0,0:0:0:0:
352,96,82534,1,8,0:0:0:0:
160,96,82641,1,0,0:0:0:0:
160,96,82695,1,0,0:0:0:0:
160,96,82748,1,0,0:0:0:0:
160,96,82855,1,0,0:0:0:0:
352,96,82963,1,8,0:0:0:0:
352,96,83070,1,8,0:0:0:0:
352,96,83123,1,8,0:0:0:0:
160,96,83177,1,0,0:0:0:0:
160,96,83284,1,0,0:0:0:0:
352,96,83391,1,8,0:0:0:0:
160,96,83498,1,0,0:0:0:0:
160,96,83552,1,0,0:0:0:0:
160,96,83605,1,0,0:0:0:0:
160,96,83713,1,0,0:0:0:0:
352,96,83820,1,8,0:0:0:0:
352,96,83873,1,8,0:0:0:0:
160,96,83927,1,0,0:0:0:0:
352,96,83980,1,8,0:0:0:0:
160,96,84034,1,0,0:0:0:0:
160,96,84141,1,0,0:0:0:0:
352,96,84248,1,8,0:0:0:0:
352,96,84302,1,8,0:0:0:0:
160,96,84355,1,0,0:0:0:0:
160,96,84409,1,0,0:0:0:0:
352,96,84463,1,8,0:0:0:0:
160,96,84891,1,0,0:0:0:0:
160,96,84945,1,0,0:0:0:0:
160,96,84998,1,0,0:0:0:0:
160,96,85052,1,0,0:0:0:0:
352,96,85105,1,8,0:0:0:0:
352,96,85159,1,8,0:0:0:0:
352,96,85213,1,8,0:0:0:0:
352,96,85266,1,8,0:0:0:0:
160,96,85320,1,0,0:0:0:0:
160,96,85373,1,0,0:0:0:0:
160,96,85427,1,0,0:0:0:0:
160,96,85480,1,0,0:0:0:0:
352,96,85534,1,8,0:0:0:0:
352,96,85588,1,8,0:0:0:0:
352,96,85641,1,8,0:0:0:0:
352,96,85695,1,8,0:0:0:0:
160,96,85748,1,0,0:0:0:0:
160,96,85802,1,0,0:0:0:0:
352,96,85855,1,8,0:0:0:0:
352,96,85909,1,8,0:0:0:0:
160,96,85963,1,0,0:0:0:0:
160,96,86016,1,0,0:0:0:0:
352,96,86070,1,8,0:0:0:0:
352,96,86123,1,8,0:0:0:0:
160,96,86177,1,0,0:0:0:0:
352,96,86230,1,8,0:0:0:0:
352,96,86284,1,8,0:0:0:0:
352,96,86338,1,8,0:0:0:0:
160,96,86391,1,0,0:0:0:0:
352,96,86445,1,8,0:0:0:0:
352,96,86498,1,8,0:0:0:0:
352,96,86552,1,8,0:0:0:0:
160,96,86605,1,0,0:0:0:0:
352,96,87891,1,8,0:0:0:0:
352,96,87945,1,8,0:0:0:0:
352,96,87998,1,8,0:0:0:0:
352,96,88052,1,8,0:0:0:0:
352,96,88105,1,8,0:0:0:0:
352,96,88159,1,8,0:0:0:0:
352,96,88213,1,8,0:0:0:0:
352,96,88266,1,8,0:0:0:0:
160,96,88320,1,0,0:0:0:0:
160,96,88534,1,0,0:0:0:0:
352,96,88641,1,8,0:0:0:0:
160,96,88748,1,0,0:0:0:0:
160,96,88855,1,0,0:0:0:0:
352,96,88963,1,8,0:0:0:0:
160,96,89177,1,0,0:0:0:0:
352,96,89391,1,8,0:0:0:0:
160,96,89463,1,0,0:0:0:0:
160,96,89534,1,0,0:0:0:0:
352,96,89605,1,8,0:0:0:0:
160,96,89677,1,0,0:0:0:0:
160,96,89748,1,0,0:0:0:0:
352,96,89820,1,8,0:0:0:0:
352,96,89891,1,8,0:0:0:0:
352,96,89963,1,8,0:0:0:0:
160,96,90034,1,0,0:0:0:0:
352,96,90248,1,8,0:0:0:0:
352,96,90355,1,8,0:0:0:0:
160,96,90463,1,0,0:0:0:0:
160,96,90570,1,0,0:0:0:0:
352,96,90677,1,8,0:0:0:0:
160,96,90891,1,0,0:0:0:0:
352,96,91105,1,8,0:0:0:0:
160,96,91177,1,0,0:0:0:0:
160,96,91248,1,0,0:0:0:0:
352,96,91320,1,8,0:0:0:0:
352,96,91391,1,8,0:0:0:0:
160,96,91463,1,0,0:0:0:0:
352,96,91534,1,8,0:0:0:0:
352,96,91605,1,8,0:0:0:0:
352,96,91677,1,8,0:0:0:0:
160,96,91748,1,0,0:0:0:0:
160,96,91963,1,0,0:0:0:0:
352,96,92070,1,8,0:0:0:0:
160,96,92177,1,0,0:0:0:0:
160,96,92284,1,0,0:0:0:0:
352,96,92391,1,8,0:0:0:0:
160,96,92605,1,0,0:0:0:0:
160,96,92713,1,0,0:0:0:0:
160,96,92766,1,0,0:0:0:0:
352,96,92820,1,8,0:0:0:0:
160,96,92891,1,0,0:0:0:0:
160,96,92963,1,0,0:0:0:0:
352,96,93034,1,8,0:0:0:0:
160,96,93177,1,0,0:0:0:0:
352,96,93248,1,8,0:0:0:0:
352,96,93320,1,8,0:0:0:0:
352,96,93391,1,8,0:0:0:0:
160,96,93463,1,0,0:0:0:0:
160,96,93677,1,0,0:0:0:0:
352,96,93784,1,8,0:0:0:0:
160,96,93891,1,0,0:0:0:0:
160,96,93998,1,0,0:0:0:0:
352,96,94105,1,8,0:0:0:0:
352,96,94213,1,8,0:0:0:0:
352,96,94266,1,8,0:0:0:0:
160,96,94320,1,0,0:0:0:0:
160,96,94427,1,0,0:0:0:0:
352,96,94534,1,8,0:0:0:0:
160,96,94605,1,0,0:0:0:0:
160,96,94677,1,0,0:0:0:0:
352,96,94748,1,8,0:0:0:0:
352,96,94820,1,8,0:0:0:0:
160,96,94891,1,0,0:0:0:0:
352,96,94963,1,8,0:0:0:0:
352,96,95177,1,8,0:0:0:0:
160,96,95284,1,0,0:0:0:0:
352,96,95391,1,8,0:0:0:0:
352,96,95498,1,8,0:0:0:0:
160,96,95605,1,0,0:0:0:0:
160,96,95713,1,0,0:0:0:0:
352,96,95820,1,8,0:0:0:0:
160,96,95927,1,0,0:0:0:0:
352,96,96034,1,8,0:0:0:0:
160,96,96105,1,0,0:0:0:0:
160,96,96177,1,0,0:0:0:0:
352,96,96248,1,8,0:0:0:0:
160,96,96320,1,0,0:0:0:0:
160,96,96391,1,0,0:0:0:0:
352,96,96463,1,8,0:0:0:0:
352,96,96516,1,8,0:0:0:0:
160,96,96570,1,0,0:0:0:0:
160,96,96623,1,0,0:0:0:0:
352,96,96677,1,8,0:0:0:0:
352,96,96730,1,8,0:0:0:0:
352,96,96784,1,8,0:0:0:0:
352,96,96838,1,8,0:0:0:0:
160,96,96891,1,0,0:0:0:0:
160,96,97105,1,0,0:0:0:0:
160,96,97213,1,0,0:0:0:0:
352,96,97320,1,8,0:0:0:0:
160,96,97427,1,0,0:0:0:0:
352,96,97534,1,8,0:0:0:0:
160,96,97748,1,0,0:0:0:0:
352,96,97963,1,8,0:0:0:0:
160,96,98034,1,0,0:0:0:0:
160,96,98105,1,0,0:0:0:0:
352,96,98177,1,8,0:0:0:0:
352,96,98248,1,8,0:0:0:0:
160,96,98320,1,0,0:0:0:0:
352,96,98391,1,8,0:0:0:0:
160,96,98463,1,0,0:0:0:0:
160,96,98534,1,0,0:0:0:0:
352,96,98605,1,8,0:0:0:0:
160,96,98820,1,0,0:0:0:0:
352,96,98927,1,8,0:0:0:0:
160,96,99034,1,0,0:0:0:0:
160,96,99141,1,0,0:0:0:0:
160,96,99195,1,0,0:0:0:0:
352,96,99248,1,8,0:0:0:0:
160,96,99463,1,0,0:0:0:0:
352,96,99677,1,8,0:0:0:0:
352,96,99784,1,8,0:0:0:0:
352,96,99838,1,8,0:0:0:0:
160,96,99891,1,0,0:0:0:0:
160,96,99998,1,0,0:0:0:0:
352,96,100105,1,8,0:0:0:0:
160,96,100320,1,0,0:0:0:0:
160,96,100427,1,0,0:0:0:0:
352,96,100534,1,8,0:0:0:0:
352,96,100588,1,8,0:0:0:0:
352,96,100641,1,8,0:0:0:0:
352,96,100695,1,8,0:0:0:0:
160,96,100748,1,0,0:0:0:0:
160,96,100855,1,0,0:0:0:0:
352,96,100963,1,8,0:0:0:0:
352,96,101016,1,8,0:0:0:0:
352,96,101070,1,8,0:0:0:0:
352,96,101123,1,8,0:0:0:0:
160,96,101177,1,0,0:0:0:0:
352,96,101248,1,8,0:0:0:0:
352,96,101320,1,8,0:0:0:0:
160,96,101391,1,0,0:0:0:0:
352,96,101463,1,8,0:0:0:0:
352,96,101534,1,8,0:0:0:0:
160,96,101605,1,0,0:0:0:0:
160,96,101659,1,0,0:0:0:0:
352,96,101713,1,8,0:0:0:0:
352,96,101766,1,8,0:0:0:0:
160,96,101820,1,0,0:0:0:0:
352,96,101873,1,8,0:0:0:0:
352,96,101927,1,8,0:0:0:0:
352,96,101980,1,8,0:0:0:0:
160,96,102034,1,0,0:0:0:0:
160,96,102248,1,0,0:0:0:0:
352,96,102355,1,8,0:0:0:0:
160,96,102463,1,0,0:0:0:0:
160,96,102570,1,0,0:0:0:0:
352,96,102677,1,8,0:0:0:0:
160,96,102891,1,0,0:0:0:0:
160,96,102998,1,0,0:0:0:0:
352,96,103105,1,8,0:0:0:0:
160,96,103177,1,0,0:0:0:0:
160,96,103248,1,0,0:0:0:0:
352,96,103320,1,8,0:0:0:0:
160,96,103391,1,0,0:0:0:0:
160,96,103463,1,0,0:0:0:0:
352,96,103534,1,8,0:0:0:0:
352,96,103605,1,8,0:0:0:0:
352,96,103677,1,8,0:0:0:0:
160,96,103748,1,0,0:0:0:0:
352,96,103963,1,8,0:0:0:0:
352,96,104070,1,8,0:0:0:0:
160,96,104177,1,0,0:0:0:0:
160,96,104284,1,0,0:0:0:0:
352,96,104391,1,8,0:0:0:0:
160,96,104605,1,0,0:0:0:0:
160,96,104713,1,0,0:0:0:0:
352,96,104820,1,8,0:0:0:0:
160,96,104891,1,0,0:0:0:0:
160,96,104963,1,0,0:0:0:0:
352,96,105034,1,8,0:0:0:0:
352,96,105105,1,8,0:0:0:0:
160,96,105177,1,0,0:0:0:0:
352,96,105248,1,8,0:0:0:0:
352,96,105320,1,8,0:0:0:0:
352,96,105391,1,8,0:0:0:0:
160,96,105463,1,0,0:0:0:0:
160,96,105677,1,0,0:0:0:0:
352,96,105784,1,8,0:0:0:0:
160,96,105891,1,0,0:0:0:0:
160,96,105998,1,0,0:0:0:0:
352,96,106105,1,8,0:0:0:0:
160,96,106320,1,0,0:0:0:0:
160,96,106427,1,0,0:0:0:0:
160,96,106480,1,0,0:0:0:0:
352,96,106534,1,8,0:0:0:0:
160,96,106605,1,0,0:0:0:0:
160,96,106677,1,0,0:0:0:0:
352,96,106748,1,8,0:0:0:0:
160,96,106820,1,0,0:0:0:0:
160,96,106891,1,0,0:0:0:0:
352,96,106963,1,8,0:0:0:0:
352,96,107034,1,8,0:0:0:0:
160,96,107105,1,0,0:0:0:0:
352,96,107177,1,8,0:0:0:0:
160,96,107391,1,0,0:0:0:0:
352,96,107498,1,8,0:0:0:0:
160,96,107605,1,0,0:0:0:0:
160,96,107713,1,0,0:0:0:0:
352,96,107820,1,8,0:0:0:0:
352,96,107927,1,8,0:0:0:0:
352,96,107980,1,8,0:0:0:0:
160,96,108034,1,0,0:0:0:0:
160,96,108105,1,0,0:0:0:0:
160,96,108177,1,0,0:0:0:0:
352,96,108248,1,8,0:0:0:0:
352,96,108320,1,8,0:0:0:0:
352,96,108391,1,8,0:0:0:0:
160,96,108463,1,0,0:0:0:0:
160,96,108534,1,0,0:0:0:0:
160,96,108605,1,0,0:0:0:0:
352,96,108677,1,8,0:0:0:0:
352,96,108891,1,8,0:0:0:0:
352,96,108945,1,8,0:0:0:0:
352,96,108998,1,8,0:0:0:0:
160,96,109052,1,0,0:0:0:0:
352,96,109105,1,8,0:0:0:0:
352,96,109320,1,8,0:0:0:0:
352,96,109373,1,8,0:0:0:0:
160,96,109427,1,0,0:0:0:0:
160,96,109480,1,0,0:0:0:0:
352,96,109534,1,8,0:0:0:0:
352,96,109748,1,8,0:0:0:0:
160,96,109802,1,0,0:0:0:0:
160,96,109855,1,0,0:0:0:0:
160,96,109909,1,0,0:0:0:0:
352,96,109963,1,8,0:0:0:0:
160,96,110177,1,0,0:0:0:0:
160,96,110230,1,0,0:0:0:0:
160,96,110284,1,0,0:0:0:0:
160,96,110338,1,0,0:0:0:0:
352,96,110391,1,8,0:0:0:0:
352,96,110605,1,8,0:0:0:0:
352,96,110659,1,8,0:0:0:0:
160,96,110713,1,0,0:0:0:0:
160,96,110766,1,0,0:0:0:0:
352,96,110820,1,8,0:0:0:0:
160,96,110873,1,0,0:0:0:0:
160,96,110927,1,0,0:0:0:0:
160,96,110980,1,0,0:0:0:0:
352,96,111034,1,8,0:0:0:0:
352,96,111088,1,8,0:0:0:0:
160,96,111141,1,0,0:0:0:0:
160,96,111195,1,0,0:0:0:0:
352,96,111248,1,8,0:0:0:0:
352,96,111302,1,8,0:0:0:0:
352,96,111355,1,8,0:0:0:0:
352,96,111409,1,8,0:0:0:0:
160,96,111463,1,0,0:0:0:0:
160,96,111516,1,0,0:0:0:0:
160,96,111570,1,0,0:0:0:0:
160,96,111623,1,0,0:0:0:0:
352,96,111677,1,8,0:0:0:0:
352,96,111730,1,8,0:0:0:0:
160,96,111784,1,0,0:0:0:0:
160,96,111838,1,0,0:0:0:0:
352,96,111891,1,8,0:0:0:0:
352,96,112105,1,8,0:0:0:0:
352,96,112177,1,8,0:0:0:0:
352,96,112248,1,8,0:0:0:0:
352,96,112320,1,8,0:0:0:0:
352,96,112641,1,8,0:0:0:0:
352,96,112855,1,8,0:0:0:0:
352,96,112909,1,8,0:0:0:0:
352,96,112963,1,8,0:0:0:0:
352,96,113391,1,8,0:0:0:0:
352,96,113498,1,8,0:0:0:0:
352,96,113605,1,8,0:0:0:0:
160,288,114034,1,4,0:0:0:0:
160,96,116391,1,0,0:0:0:0:
160,96,116445,1,0,0:0:0:0:
160,96,116498,1,0,0:0:0:0:
160,96,116552,1,0,0:0:0:0:
160,96,116605,1,0,0:0:0:0:
160,96,116659,1,0,0:0:0:0:
160,96,116713,1,0,0:0:0:0:
160,96,116766,1,0,0:0:0:0:
160,96,116820,1,0,0:0:0:0:
160,96,116873,1,0,0:0:0:0:
160,96,116927,1,0,0:0:0:0:
160,96,116980,1,0,0:0:0:0:
160,96,117034,1,0,0:0:0:0:
160,96,117088,1,0,0:0:0:0:
160,96,117141,1,0,0:0:0:0:
160,96,117195,1,0,0:0:0:0:
160,96,117248,1,0,0:0:0:0:
160,96,117302,1,0,0:0:0:0:
160,96,117355,1,0,0:0:0:0:
160,96,117409,1,0,0:0:0:0:
352,96,117463,1,8,0:0:0:0:
