osu file format v14

[General]
AudioFilename: audio.mp3
AudioLeadIn: 0
PreviewTime: 73720
Countdown: 0
SampleSet: Normal
StackLeniency: 0.7
Mode: 1
LetterboxInBreaks: 0
WidescreenStoryboard: 0

[Editor]
Bookmarks: 4353,18039,31754,45468,52325,60896,74611,88325,102068
DistanceSpacing: 0.8
BeatDivisor: 1
GridSize: 16
TimelineZoom: 1.1

[Metadata]
Title:iLLness LiLin
TitleUnicode:iLLness LiLin
Artist:Kaneko Chiharu
ArtistUnicode:かねこちはる
Creator:komasy
Version:BASIC
Source:SOUND VOLTEX IV HEAVENLY HAVEN
Tags:SDVX The 6th KONAMI Arcade Championship KAC 2017 オリジナル楽曲コンテスト Original Song Contest Speedcore electronic instrumental video game rhythm Vulkin
BeatmapID:2230906
BeatmapSetID:1065377

[Difficulty]
HPDrainRate:7
CircleSize:3.5
OverallDifficulty:3.5
ApproachRate:7
SliderMultiplier:1.4
SliderTickRate:1

[Events]
//Background and Video events
0,0,"bg.jpg",0,140
//Break Periods
2,52519,55747
//Storyboard Layer 0 (Background)
//Storyboard Layer 1 (Fail)
//Storyboard Layer 2 (Pass)
//Storyboard Layer 3 (Foreground)
//Storyboard Layer 4 (Overlay)
//Storyboard Sound Samples

[TimingPoints]
891,214.285714285714,4,1,0,90,1,0
891,-133.333333333333,4,1,0,90,0,1
944,-133.333333333333,4,1,0,70,0,1
3408,-133.333333333333,4,1,0,90,0,1
4319,-133.333333333333,4,1,0,90,0,0
16319,-133.333333333333,4,1,0,50,0,0
17176,-133.333333333333,4,1,0,90,0,1
18033,-133.333333333333,4,1,0,90,0,0
38605,-133.333333333333,4,1,0,90,0,1
45462,-133.333333333333,4,1,0,90,0,0
52319,428.571428571429,4,1,0,90,1,0
52319,-66.6666666666667,4,1,0,90,0,0
60890,-66.6666666666667,4,1,0,90,0,1
73747,214.285714285714,4,1,0,90,1,0
73747,-133.333333333333,4,1,0,90,0,0
74604,214.285714285714,4,1,0,90,1,8
74606,214.285714285714,4,1,0,90,1,0
74606,-133.333333333333,4,1,0,90,0,0
84891,-133.333333333333,4,1,0,90,0,1
86605,-133.333333333333,4,1,0,90,0,0
88320,-133.333333333333,4,1,0,90,0,1
112320,-133.333333333333,4,1,0,90,0,0
116391,-133.333333333333,4,1,0,90,0,1
117463,-133.333333333333,4,1,0,90,0,0

[HitObjects]
160,288,891,5,4,0:0:0:0:
256,192,1105,12,0,3248,0:0:0:0:
214,153,3462,6,0,L|345:108,2,105.000004005432
160,288,4319,5,4,0:0:0:0:
160,96,5176,1,0,0:0:0:0:
160,96,5819,1,0,0:0:0:0:
160,96,6462,1,0,0:0:0:0:
160,96,7105,1,0,0:0:0:0:
160,96,7748,1,0,0:0:0:0:
352,96,8176,1,8,0:0:0:0:
352,96,8819,1,8,0:0:0:0:
352,96,9462,1,8,0:0:0:0:
352,96,10105,1,8,0:0:0:0:
160,96,10319,1,0,0:0:0:0:
352,96,10748,1,8,0:0:0:0:
352,96,10962,1,8,0:0:0:0:
160,288,11176,1,4,0:0:0:0:
352,96,12033,1,8,0:0:0:0:
160,96,12462,1,0,0:0:0:0:
352,96,12890,1,8,0:0:0:0:
160,96,13105,1,0,0:0:0:0:
352,96,13533,1,8,0:0:0:0:
160,96,13748,1,0,0:0:0:0:
352,96,14176,1,8,0:0:0:0:
160,96,14605,1,0,0:0:0:0:
352,96,15033,1,8,0:0:0:0:
160,96,15462,1,0,0:0:0:0:
160,96,15676,1,0,0:0:0:0:
352,96,15890,1,8,0:0:0:0:
160,96,16105,1,0,0:0:0:0:
219,219,17176,2,4,L|325:193,3,105.000004005432
160,288,18033,1,4,0:0:0:0:
352,96,18462,1,8,0:0:0:0:
160,96,18890,1,0,0:0:0:0:
160,96,19105,1,0,0:0:0:0:
352,96,19319,1,8,0:0:0:0:
160,96,19748,1,0,0:0:0:0:
352,96,19962,1,8,0:0:0:0:
352,96,20390,1,8,0:0:0:0:
160,96,20605,1,0,0:0:0:0:
352,96,21248,1,8,0:0:0:0:
160,96,21462,1,0,0:0:0:0:
352,96,21890,1,8,0:0:0:0:
160,96,22319,1,0,0:0:0:0:
160,96,22533,1,0,0:0:0:0:
352,96,22748,1,8,0:0:0:0:
160,96,23176,1,0,0:0:0:0:
352,96,23390,1,8,0:0:0:0:
352,96,23819,1,8,0:0:0:0:
160,96,24033,1,0,0:0:0:0:
160,96,24248,1,0,0:0:0:0:
352,96,24462,1,8,0:0:0:0:
160,288,24890,1,4,0:0:0:0:
160,96,25748,1,0,0:0:0:0:
160,96,25962,1,0,0:0:0:0:
352,96,26176,1,8,0:0:0:0:
160,96,26605,1,0,0:0:0:0:
352,96,26819,1,8,0:0:0:0:
352,96,27248,1,8,0:0:0:0:
160,96,27462,1,0,0:0:0:0:
160,96,27890,1,0,0:0:0:0:
352,288,28533,1,12,0:0:0:0:
160,96,29176,1,0,0:0:0:0:
160,96,29390,1,0,0:0:0:0:
352,96,29605,1,8,0:0:0:0:
160,96,30033,1,0,0:0:0:0:
352,96,30248,1,8,0:0:0:0:
352,96,30676,1,8,0:0:0:0:
160,96,30890,1,0,0:0:0:0:
352,96,31105,1,8,0:0:0:0:
352,96,31319,1,8,0:0:0:0:
160,288,31748,1,4,0:0:0:0:
352,96,33033,1,8,0:0:0:0:
160,288,33462,1,4,0:0:0:0:
352,96,33890,1,8,0:0:0:0:
352,96,34105,1,8,0:0:0:0:
160,96,34319,1,0,0:0:0:0:
352,96,34748,1,8,0:0:0:0:
160,96,35176,1,0,0:0:0:0:
352,96,35390,1,8,0:0:0:0:
352,96,35819,1,8,0:0:0:0:
160,96,36033,1,0,0:0:0:0:
352,96,36462,1,8,0:0:0:0:
160,288,36890,1,4,0:0:0:0:
352,96,38176,1,8,0:0:0:0:
160,96,38605,1,0,0:0:0:0:
160,96,39033,1,0,0:0:0:0:
160,96,39462,1,0,0:0:0:0:
352,96,39676,1,8,0:0:0:0:
160,96,39890,1,0,0:0:0:0:
352,96,40319,1,8,0:0:0:0:
352,96,40533,1,8,0:0:0:0:
160,96,40748,1,0,0:0:0:0:
352,96,41176,1,8,0:0:0:0:
160,96,42033,1,0,0:0:0:0:
160,96,42462,1,0,0:0:0:0:
352,96,42890,1,8,0:0:0:0:
160,96,43105,1,0,0:0:0:0:
352,96,43319,1,8,0:0:0:0:
160,96,43748,1,0,0:0:0:0:
160,96,44176,1,0,0:0:0:0:
352,96,44605,1,8,0:0:0:0:
352,96,45033,1,8,0:0:0:0:
352,96,45248,1,8,0:0:0:0:
160,288,45462,1,4,0:0:0:0:
352,96,46319,1,8,0:0:0:0:
160,96,46748,1,0,0:0:0:0:
352,96,47176,1,8,0:0:0:0:
160,96,47605,1,0,0:0:0:0:
352,96,47819,1,8,0:0:0:0:
160,96,48248,1,0,0:0:0:0:
352,96,48462,1,8,0:0:0:0:
160,96,48890,1,0,0:0:0:0:
352,96,49319,1,8,0:0:0:0:
160,96,49748,1,0,0:0:0:0:
352,96,50176,1,8,0:0:0:0:
160,96,50605,1,0,0:0:0:0:
352,96,50819,1,8,0:0:0:0:
352,96,51248,1,8,0:0:0:0:
160,96,51462,5,0,0:0:0:0:
352,96,51890,1,8,0:0:0:0:
352,288,52319,1,12,0:0:0:0:
160,288,57461,5,4,0:0:0:0:
160,288,58319,1,4,0:0:0:0:
160,288,59176,1,4,0:0:0:0:
160,96,60033,1,8,0:0:0:0:
160,288,60890,1,4,0:0:0:0:
352,96,61747,1,8,0:0:0:0:
160,96,62604,1,0,0:0:0:0:
160,96,63033,1,0,0:0:0:0:
352,96,63461,1,8,0:0:0:0:
160,96,64319,1,0,0:0:0:0:
352,96,65176,1,8,0:0:0:0:
160,96,66033,1,0,0:0:0:0:
352,96,66890,1,8,0:0:0:0:
160,96,67747,1,0,0:0:0:0:
352,96,68604,1,8,0:0:0:0:
160,96,69461,1,0,0:0:0:0:
160,96,69890,1,0,0:0:0:0:
352,96,70319,1,8,0:0:0:0:
160,96,71176,1,0,0:0:0:0:
352,96,72033,1,8,0:0:0:0:
256,192,72890,12,0,73747,0:0:0:0:
160,288,74606,5,4,0:0:0:0:
352,96,75463,1,8,0:0:0:0:
352,96,75891,1,8,0:0:0:0:
352,96,76106,1,8,0:0:0:0:
160,96,76320,1,0,0:0:0:0:
352,96,76748,1,8,0:0:0:0:
352,96,77177,1,8,0:0:0:0:
352,96,77391,1,8,0:0:0:0:
352,96,77606,1,8,0:0:0:0:
283,122,77820,1,8,0:0:0:0:
160,96,78034,1,0,0:0:0:0:
160,96,78891,1,0,0:0:0:0:
352,96,79320,1,8,0:0:0:0:
352,96,79534,1,8,0:0:0:0:
160,96,79748,1,0,0:0:0:0:
352,96,80177,1,8,0:0:0:0:
160,96,80605,1,0,0:0:0:0:
352,96,80820,1,8,0:0:0:0:
352,96,81034,1,8,0:0:0:0:
160,288,81463,1,4,0:0:0:0:
160,96,82320,1,0,0:0:0:0:
160,96,82748,1,8,0:0:0:0:
160,96,82963,1,0,0:0:0:0:
352,96,83177,1,0,0:0:0:0:
352,96,83605,1,8,0:0:0:0:
352,96,84034,1,0,0:0:0:0:
352,96,84248,1,0,0:0:0:0:
278,61,84463,1,8,0:0:0:0:
256,192,84891,12,0,86605,0:0:0:0:
326,195,87891,5,8,0:0:0:0:
160,288,88320,1,4,0:0:0:0:
160,96,89391,1,0,0:0:0:0:
352,96,89605,1,8,0:0:0:0:
160,96,90034,1,0,0:0:0:0:
352,96,90463,1,8,0:0:0:0:
160,96,90677,1,0,0:0:0:0:
160,96,91105,1,0,0:0:0:0:
352,96,91320,1,8,0:0:0:0:
160,96,91748,1,0,0:0:0:0:
160,96,92391,1,0,0:0:0:0:
352,96,92820,1,8,0:0:0:0:
160,96,93034,1,0,0:0:0:0:
352,96,93463,1,8,0:0:0:0:
160,96,93891,1,0,0:0:0:0:
352,96,94105,1,8,0:0:0:0:
352,96,94534,1,8,0:0:0:0:
352,96,94748,1,8,0:0:0:0:
160,288,95177,1,4,0:0:0:0:
160,96,95605,1,0,0:0:0:0:
160,96,96034,1,0,0:0:0:0:
160,96,96248,1,0,0:0:0:0:
160,96,96463,1,0,0:0:0:0:
160,288,96891,1,4,0:0:0:0:
160,96,97963,1,0,0:0:0:0:
352,96,98177,1,8,0:0:0:0:
160,96,98605,1,0,0:0:0:0:
352,96,99034,1,8,0:0:0:0:
160,96,99248,1,0,0:0:0:0:
160,96,99677,1,0,0:0:0:0:
352,96,99891,1,8,0:0:0:0:
160,96,100320,1,0,0:0:0:0:
160,96,100748,1,0,0:0:0:0:
160,96,100963,1,0,0:0:0:0:
352,96,101177,1,8,0:0:0:0:
352,96,101605,1,8,0:0:0:0:
352,96,101820,1,8,0:0:0:0:
160,288,102034,1,4,0:0:0:0:
160,96,103105,1,0,0:0:0:0:
352,96,103320,1,8,0:0:0:0:
160,96,103748,1,0,0:0:0:0:
352,96,104177,1,8,0:0:0:0:
160,96,104391,1,0,0:0:0:0:
160,96,104820,1,0,0:0:0:0:
352,96,105034,1,8,0:0:0:0:
160,96,105463,1,0,0:0:0:0:
160,96,106105,1,0,0:0:0:0:
352,96,106534,1,8,0:0:0:0:
160,96,106748,1,0,0:0:0:0:
352,96,107177,1,8,0:0:0:0:
160,96,107605,1,0,0:0:0:0:
352,96,107820,1,8,0:0:0:0:
160,96,108034,1,0,0:0:0:0:
160,288,108891,1,4,0:0:0:0:
160,288,109320,1,4,0:0:0:0:
352,288,109748,1,12,0:0:0:0:
352,288,110177,1,12,0:0:0:0:
160,96,110605,1,0,0:0:0:0:
160,96,110820,1,0,0:0:0:0:
352,96,111034,1,8,0:0:0:0:
352,96,111248,1,8,0:0:0:0:
160,96,111463,1,0,0:0:0:0:
352,288,111891,1,12,0:0:0:0:
352,96,112320,1,8,0:0:0:0:
352,96,112963,1,8,0:0:0:0:
352,96,113605,1,8,0:0:0:0:
160,288,114034,1,4,0:0:0:0:
256,192,116391,12,0,117463,0:0:0:0:
