osu file format v14

[General]
AudioFilename: audio.mp3
AudioLeadIn: 0
PreviewTime: 73720
Countdown: 0
SampleSet: Normal
StackLeniency: 0.7
Mode: 1
LetterboxInBreaks: 0
WidescreenStoryboard: 0

[Editor]
Bookmarks: 4353,18039,31754,45468,52325,60896,74611,88325,102068
DistanceSpacing: 0.8
BeatDivisor: 4
GridSize: 4
TimelineZoom: 2.3

[Metadata]
Title:iLLness LiLin
TitleUnicode:iLLness LiLin
Artist:Kaneko Chiharu
ArtistUnicode:かねこちはる
Creator:komasy
Version:ADVANCED
Source:SOUND VOLTEX IV HEAVENLY HAVEN
Tags:SDVX The 6th KONAMI Arcade Championship KAC 2017 オリジナル楽曲コンテスト Original Song Contest Speedcore electronic instrumental video game rhythm Vulkin
BeatmapID:2230908
BeatmapSetID:1065377

[Difficulty]
HPDrainRate:6
CircleSize:6.5
OverallDifficulty:5.5
ApproachRate:5
SliderMultiplier:1.4
SliderTickRate:1

[Events]
//Background and Video events
0,0,"bg.jpg",0,140
//Break Periods
2,52519,55747
//Storyboard Layer 0 (Background)
//Storyboard Layer 1 (Fail)
//Storyboard Layer 2 (Pass)
//Storyboard Layer 3 (Foreground)
//Storyboard Layer 4 (Overlay)
//Storyboard Sound Samples

[TimingPoints]
891,214.285714285714,4,1,0,90,1,0
891,-117.647058823529,4,1,0,90,0,1
944,-117.647058823529,4,1,0,70,0,1
3408,-117.647058823529,4,1,0,90,0,1
4319,-117.647058823529,4,1,0,90,0,0
16319,-117.647058823529,4,1,0,50,0,0
17176,-117.647058823529,4,1,0,90,0,1
18033,-117.647058823529,4,1,0,90,0,0
38605,-117.647058823529,4,1,0,90,0,1
45462,-117.647058823529,4,1,0,90,0,0
52319,428.571428571429,4,1,0,90,1,0
52319,-58.8235294117647,4,1,0,90,0,0
60890,-76.9230769230769,4,1,0,90,0,1
73747,214.285714285714,4,1,0,90,1,0
73747,-117.647058823529,4,1,0,90,0,0
74604,214.285714285714,4,1,0,90,1,8
74606,214.285714285714,4,1,0,90,1,0
74606,-117.647058823529,4,1,0,90,0,0
84891,-117.647058823529,4,1,0,90,0,1
86605,-117.647058823529,4,1,0,90,0,0
88320,-117.647058823529,4,1,0,90,0,1
112320,-117.647058823529,4,1,0,90,0,0
116391,-117.647058823529,4,1,0,90,0,1
117463,-117.647058823529,4,1,0,90,0,0

[HitObjects]
160,288,891,5,4,0:0:0:0:
256,192,998,12,0,3248,0:0:0:0:
258,179,3462,6,0,L|290:176,8,29.7500005674362
160,288,4319,1,4,0:0:0:0:
160,96,4533,1,0,0:0:0:0:
352,96,4748,1,8,0:0:0:0:
160,96,5176,1,0,0:0:0:0:
352,96,5390,1,8,0:0:0:0:
160,96,5819,1,0,0:0:0:0:
352,96,6033,1,8,0:0:0:0:
160,96,6462,1,0,0:0:0:0:
352,96,6676,1,8,0:0:0:0:
160,96,7105,1,0,0:0:0:0:
352,96,7319,1,8,0:0:0:0:
160,96,7533,1,0,0:0:0:0:
160,96,7748,1,0,0:0:0:0:
160,96,7962,1,0,0:0:0:0:
352,96,8176,1,8,0:0:0:0:
352,96,8283,1,8,0:0:0:0:
160,96,8605,1,0,0:0:0:0:
352,96,8819,1,8,0:0:0:0:
352,96,8926,1,8,0:0:0:0:
160,96,9248,1,0,0:0:0:0:
352,96,9462,1,8,0:0:0:0:
352,96,9569,1,8,0:0:0:0:
160,96,9890,1,0,0:0:0:0:
352,96,10105,1,8,0:0:0:0:
352,96,10212,1,8,0:0:0:0:
160,96,10319,1,0,0:0:0:0:
352,96,10533,1,8,0:0:0:0:
160,96,10640,1,0,0:0:0:0:
352,96,10748,1,8,0:0:0:0:
352,96,10855,1,8,0:0:0:0:
160,96,10962,1,0,0:0:0:0:
160,288,11176,1,4,0:0:0:0:
352,96,11605,1,8,0:0:0:0:
160,96,11819,1,0,0:0:0:0:
352,96,12033,1,8,0:0:0:0:
352,96,12248,1,8,0:0:0:0:
352,96,12355,1,8,0:0:0:0:
160,96,12462,1,0,0:0:0:0:
352,96,12676,1,8,0:0:0:0:
352,96,12890,1,8,0:0:0:0:
160,96,13105,1,0,0:0:0:0:
352,96,13319,1,8,0:0:0:0:
352,96,13533,1,8,0:0:0:0:
352,96,13640,1,8,0:0:0:0:
160,96,13748,1,0,0:0:0:0:
352,96,13962,1,8,0:0:0:0:
352,96,14176,1,8,0:0:0:0:
352,96,14283,1,8,0:0:0:0:
160,96,14605,1,0,0:0:0:0:
352,96,14819,1,8,0:0:0:0:
352,96,15033,1,8,0:0:0:0:
352,96,15140,1,8,0:0:0:0:
160,96,15248,1,0,0:0:0:0:
160,96,15462,1,0,0:0:0:0:
352,96,15676,1,8,0:0:0:0:
352,96,15783,1,8,0:0:0:0:
160,96,15890,1,0,0:0:0:0:
160,96,15944,1,0,0:0:0:0:
160,96,15998,1,0,0:0:0:0:
352,96,16105,1,8,0:0:0:0:
352,96,16212,1,8,0:0:0:0:
280,194,17176,2,4,L|309:172,12,29.7500005674362
160,288,18033,1,4,0:0:0:0:
160,96,18248,1,0,0:0:0:0:
352,96,18462,1,8,0:0:0:0:
352,96,18569,1,8,0:0:0:0:
160,96,18676,1,0,0:0:0:0:
160,96,18783,1,0,0:0:0:0:
352,96,18890,1,8,0:0:0:0:
352,96,19105,1,8,0:0:0:0:
160,96,19212,1,0,0:0:0:0:
352,96,19319,1,8,0:0:0:0:
352,96,19533,1,8,0:0:0:0:
160,96,19748,1,0,0:0:0:0:
352,96,19855,1,8,0:0:0:0:
352,96,20069,1,8,0:0:0:0:
352,96,20283,1,8,0:0:0:0:
352,96,20498,1,8,0:0:0:0:
352,96,20712,1,8,0:0:0:0:
352,96,20819,1,8,0:0:0:0:
352,96,20926,1,8,0:0:0:0:
160,96,21033,1,0,0:0:0:0:
352,288,21248,1,12,0:0:0:0:
160,96,21462,1,0,0:0:0:0:
160,96,21783,1,0,0:0:0:0:
352,96,21890,1,8,0:0:0:0:
160,96,22105,1,0,0:0:0:0:
352,96,22319,1,8,0:0:0:0:
352,96,22426,1,8,0:0:0:0:
160,96,22533,1,0,0:0:0:0:
160,96,22640,1,0,0:0:0:0:
352,96,22748,1,8,0:0:0:0:
352,96,22962,1,8,0:0:0:0:
160,96,23176,1,0,0:0:0:0:
352,96,23283,1,8,0:0:0:0:
352,96,23498,1,8,0:0:0:0:
352,96,23712,1,8,0:0:0:0:
352,96,23926,1,8,0:0:0:0:
160,96,24033,1,0,0:0:0:0:
160,96,24140,1,0,0:0:0:0:
352,96,24248,1,8,0:0:0:0:
160,96,24462,1,0,0:0:0:0:
160,96,24569,1,0,0:0:0:0:
352,96,24676,1,8,0:0:0:0:
160,288,24890,1,4,0:0:0:0:
160,96,25319,1,0,0:0:0:0:
160,96,25426,1,0,0:0:0:0:
352,96,25533,1,8,0:0:0:0:
160,96,25748,1,0,0:0:0:0:
352,96,25962,1,8,0:0:0:0:
160,96,26069,1,0,0:0:0:0:
352,96,26176,1,8,0:0:0:0:
352,96,26390,1,8,0:0:0:0:
160,96,26605,1,0,0:0:0:0:
352,96,26712,1,8,0:0:0:0:
352,96,26926,1,8,0:0:0:0:
382,142,27033,1,0,0:0:0:0:
352,96,27140,1,8,0:0:0:0:
352,96,27355,1,8,0:0:0:0:
160,96,27462,1,0,0:0:0:0:
160,96,27676,1,0,0:0:0:0:
160,96,27783,1,0,0:0:0:0:
160,96,27890,1,8,0:0:0:0:
160,96,27998,1,0,0:0:0:0:
160,96,28105,1,8,0:0:0:0:
160,96,28212,1,0,0:0:0:0:
352,288,28533,1,12,0:0:0:0:
160,96,28748,1,0,0:0:0:0:
160,96,28855,1,0,0:0:0:0:
352,96,28962,1,8,0:0:0:0:
352,96,29069,1,8,0:0:0:0:
160,96,29176,1,0,0:0:0:0:
160,96,29390,1,8,0:0:0:0:
160,96,29498,1,0,0:0:0:0:
352,96,29605,1,0,0:0:0:0:
352,96,29819,1,8,0:0:0:0:
160,96,30033,1,0,0:0:0:0:
352,96,30140,1,8,0:0:0:0:
352,96,30355,1,8,0:0:0:0:
160,96,30462,1,0,0:0:0:0:
352,96,30569,1,8,0:0:0:0:
352,96,30783,1,8,0:0:0:0:
160,96,30890,1,0,0:0:0:0:
160,96,30998,1,0,0:0:0:0:
352,96,31105,1,8,0:0:0:0:
352,96,31212,1,8,0:0:0:0:
160,96,31319,1,0,0:0:0:0:
160,96,31373,1,0,0:0:0:0:
160,96,31426,1,0,0:0:0:0:
352,96,31533,1,8,0:0:0:0:
160,288,31748,1,4,0:0:0:0:
160,96,32069,1,0,0:0:0:0:
160,96,32390,1,0,0:0:0:0:
352,96,32498,1,8,0:0:0:0:
160,96,32712,1,0,0:0:0:0:
160,96,32926,1,0,0:0:0:0:
352,96,33033,1,8,0:0:0:0:
160,288,33462,1,4,0:0:0:0:
160,96,33676,1,0,0:0:0:0:
352,96,33890,1,8,0:0:0:0:
352,96,33998,1,8,0:0:0:0:
160,96,34105,1,0,0:0:0:0:
352,96,34319,1,8,0:0:0:0:
160,96,34426,1,0,0:0:0:0:
352,96,34533,1,8,0:0:0:0:
352,96,34640,1,8,0:0:0:0:
160,96,34748,1,0,0:0:0:0:
352,96,34962,1,8,0:0:0:0:
160,96,35176,1,0,0:0:0:0:
352,96,35283,1,8,0:0:0:0:
352,96,35498,1,8,0:0:0:0:
305,94,35605,1,0,0:0:0:0:
352,96,35712,1,8,0:0:0:0:
352,96,35926,1,8,0:0:0:0:
160,96,36033,1,0,0:0:0:0:
352,96,36194,1,8,0:0:0:0:
352,96,36355,1,8,0:0:0:0:
160,96,36462,1,0,0:0:0:0:
160,96,36569,1,0,0:0:0:0:
352,96,36676,1,8,0:0:0:0:
352,96,36783,1,8,0:0:0:0:
160,288,36890,1,4,0:0:0:0:
160,96,37212,1,0,0:0:0:0:
160,96,37533,1,0,0:0:0:0:
352,96,37640,1,8,0:0:0:0:
160,96,37855,1,0,0:0:0:0:
160,96,38069,1,0,0:0:0:0:
352,96,38176,1,8,0:0:0:0:
160,96,38605,1,0,0:0:0:0:
160,96,38712,1,0,0:0:0:0:
160,96,38819,1,0,0:0:0:0:
160,96,39033,1,0,0:0:0:0:
160,96,39140,1,0,0:0:0:0:
160,96,39248,1,0,0:0:0:0:
160,96,39355,1,0,0:0:0:0:
160,96,39462,1,0,0:0:0:0:
352,96,39676,1,8,0:0:0:0:
352,96,39783,1,8,0:0:0:0:
160,96,39890,1,0,0:0:0:0:
160,96,39998,1,0,0:0:0:0:
160,96,40105,1,0,0:0:0:0:
160,96,40319,1,0,0:0:0:0:
160,96,40426,1,0,0:0:0:0:
352,96,40533,1,8,0:0:0:0:
352,96,40640,1,8,0:0:0:0:
160,96,40748,1,0,0:0:0:0:
160,96,40855,1,0,0:0:0:0:
160,96,40962,1,0,0:0:0:0:
352,96,41176,1,8,0:0:0:0:
352,96,41319,1,8,0:0:0:0:
352,96,41390,1,8,0:0:0:0:
352,96,41605,1,8,0:0:0:0:
352,96,41748,1,8,0:0:0:0:
352,96,41819,1,8,0:0:0:0:
160,96,42033,1,0,0:0:0:0:
160,96,42140,1,0,0:0:0:0:
160,96,42248,1,0,0:0:0:0:
160,96,42462,1,0,0:0:0:0:
160,96,42569,1,0,0:0:0:0:
160,96,42676,1,0,0:0:0:0:
352,96,42890,1,8,0:0:0:0:
352,96,42998,1,8,0:0:0:0:
160,96,43105,1,0,0:0:0:0:
160,96,43212,1,0,0:0:0:0:
352,288,43319,1,12,0:0:0:0:
160,96,43748,1,0,0:0:0:0:
160,96,43855,1,0,0:0:0:0:
352,96,43962,1,8,0:0:0:0:
160,96,44176,1,0,0:0:0:0:
352,96,44283,1,8,0:0:0:0:
160,96,44498,1,0,0:0:0:0:
352,96,44605,1,8,0:0:0:0:
352,96,44712,1,8,0:0:0:0:
160,96,44819,1,0,0:0:0:0:
352,96,45033,1,8,0:0:0:0:
352,96,45140,1,8,0:0:0:0:
352,96,45248,1,8,0:0:0:0:
352,96,45355,1,8,0:0:0:0:
160,96,45462,1,0,0:0:0:0:
352,96,45890,1,8,0:0:0:0:
160,96,46105,1,0,0:0:0:0:
352,96,46319,1,8,0:0:0:0:
352,96,46533,1,8,0:0:0:0:
352,96,46640,1,8,0:0:0:0:
160,96,46748,1,0,0:0:0:0:
352,96,46962,1,8,0:0:0:0:
352,96,47176,1,8,0:0:0:0:
160,96,47390,1,0,0:0:0:0:
352,96,47605,1,8,0:0:0:0:
352,96,47819,1,8,0:0:0:0:
352,96,47926,1,8,0:0:0:0:
160,96,48033,1,0,0:0:0:0:
352,96,48248,1,8,0:0:0:0:
352,96,48462,1,8,0:0:0:0:
352,96,48569,1,8,0:0:0:0:
160,96,48890,1,0,0:0:0:0:
352,96,49105,1,8,0:0:0:0:
160,96,49212,1,0,0:0:0:0:
352,96,49319,1,8,0:0:0:0:
160,96,49533,1,0,0:0:0:0:
160,96,49748,1,0,0:0:0:0:
160,96,49855,1,0,0:0:0:0:
352,96,49962,1,8,0:0:0:0:
160,96,50176,1,0,0:0:0:0:
352,96,50390,1,8,0:0:0:0:
160,96,50498,1,0,0:0:0:0:
352,96,50605,1,8,0:0:0:0:
352,96,50712,1,8,0:0:0:0:
160,96,50819,1,0,0:0:0:0:
160,96,51033,1,0,0:0:0:0:
160,96,51140,1,0,0:0:0:0:
352,96,51248,1,8,0:0:0:0:
352,96,51355,1,8,0:0:0:0:
160,96,51462,5,0,0:0:0:0:
352,96,51676,1,8,0:0:0:0:
160,96,51783,1,0,0:0:0:0:
352,96,51890,1,8,0:0:0:0:
352,96,51998,1,8,0:0:0:0:
160,96,52105,1,0,0:0:0:0:
352,288,52319,1,12,0:0:0:0:
160,288,57461,5,4,0:0:0:0:
352,96,57890,1,8,0:0:0:0:
160,288,58319,1,4,0:0:0:0:
352,96,58747,1,8,0:0:0:0:
160,288,59176,1,4,0:0:0:0:
352,96,59604,1,8,0:0:0:0:
352,96,59819,1,8,0:0:0:0:
160,96,60033,1,0,0:0:0:0:
160,288,60890,1,4,0:0:0:0:
352,96,61747,1,8,0:0:0:0:
160,96,62604,1,0,0:0:0:0:
160,96,63247,1,0,0:0:0:0:
352,96,63461,1,8,0:0:0:0:
352,96,63890,1,8,0:0:0:0:
160,96,64319,1,0,0:0:0:0:
160,96,64747,1,0,0:0:0:0:
352,96,65176,1,8,0:0:0:0:
160,96,66033,1,0,0:0:0:0:
352,96,66461,1,8,0:0:0:0:
160,96,66676,1,0,0:0:0:0:
352,96,66890,1,8,0:0:0:0:
160,96,67747,1,0,0:0:0:0:
352,96,68604,1,8,0:0:0:0:
352,96,69033,1,8,0:0:0:0:
352,96,69247,1,8,0:0:0:0:
160,96,69461,1,0,0:0:0:0:
160,96,69890,1,0,0:0:0:0:
160,96,70104,1,0,0:0:0:0:
352,96,70319,1,8,0:0:0:0:
352,96,70747,1,8,0:0:0:0:
160,96,71176,1,0,0:0:0:0:
160,96,71604,1,0,0:0:0:0:
352,96,72033,1,8,0:0:0:0:
256,192,72890,12,0,73747,0:0:0:0:
160,288,74606,5,4,0:0:0:0:
160,96,74820,1,0,0:0:0:0:
160,96,74927,1,0,0:0:0:0:
352,96,75034,1,8,0:0:0:0:
160,96,75248,1,0,0:0:0:0:
352,96,75356,1,8,0:0:0:0:
160,96,75463,1,0,0:0:0:0:
352,96,75677,1,8,0:0:0:0:
352,96,75891,1,8,0:0:0:0:
352,96,75998,1,8,0:0:0:0:
352,96,76106,1,8,0:0:0:0:
160,96,76320,1,0,0:0:0:0:
352,96,76534,1,8,0:0:0:0:
352,96,76641,1,8,0:0:0:0:
160,96,76748,1,0,0:0:0:0:
352,96,76963,1,8,0:0:0:0:
160,96,77177,1,0,0:0:0:0:
160,96,77284,1,0,0:0:0:0:
352,96,77391,1,8,0:0:0:0:
352,96,77498,1,8,0:0:0:0:
160,96,77606,1,0,0:0:0:0:
160,96,77713,1,0,0:0:0:0:
352,96,77820,1,8,0:0:0:0:
160,96,78034,1,0,0:0:0:0:
160,96,78356,1,0,0:0:0:0:
352,96,78463,1,8,0:0:0:0:
160,96,78677,1,0,0:0:0:0:
352,96,78784,1,8,0:0:0:0:
160,96,78891,1,0,0:0:0:0:
352,96,79106,1,8,0:0:0:0:
352,96,79320,1,8,0:0:0:0:
352,96,79427,1,8,0:0:0:0:
352,96,79534,1,8,0:0:0:0:
160,96,79748,1,0,0:0:0:0:
352,96,79963,1,8,0:0:0:0:
352,96,80070,1,8,0:0:0:0:
160,96,80177,1,0,0:0:0:0:
352,96,80391,1,8,0:0:0:0:
160,96,80605,1,0,0:0:0:0:
160,96,80659,1,0,0:0:0:0:
160,96,80713,1,0,0:0:0:0:
160,96,80820,1,0,0:0:0:0:
160,96,80927,1,0,0:0:0:0:
352,96,81034,1,8,0:0:0:0:
160,288,81463,1,4,0:0:0:0:
352,96,81677,1,8,0:0:0:0:
352,96,81784,1,8,0:0:0:0:
160,96,81891,1,0,0:0:0:0:
160,96,82105,1,0,0:0:0:0:
160,96,82320,1,0,0:0:0:0:
352,96,82534,1,8,0:0:0:0:
352,96,82641,1,8,0:0:0:0:
160,96,82748,1,0,0:0:0:0:
160,96,82963,1,0,0:0:0:0:
160,96,83177,1,0,0:0:0:0:
352,96,83391,1,8,0:0:0:0:
352,96,83498,1,8,0:0:0:0:
160,96,83605,1,0,0:0:0:0:
352,96,83713,1,8,0:0:0:0:
160,96,83820,1,0,0:0:0:0:
160,96,84034,1,0,0:0:0:0:
160,96,84141,1,0,0:0:0:0:
352,96,84248,1,8,0:0:0:0:
160,96,84355,1,0,0:0:0:0:
352,96,84463,1,8,0:0:0:0:
200,310,84891,2,4,L|167:276,32,29.7500005674362
206,245,87891,2,0,L|244:247,4,29.7500005674362
160,288,88320,1,4,0:0:0:0:
352,96,88641,1,8,0:0:0:0:
352,96,88963,1,8,0:0:0:0:
160,96,89177,1,0,0:0:0:0:
352,96,89391,1,8,0:0:0:0:
352,96,89605,1,8,0:0:0:0:
352,96,89820,1,8,0:0:0:0:
352,96,89927,1,8,0:0:0:0:
160,96,90034,1,0,0:0:0:0:
352,96,90248,1,8,0:0:0:0:
160,96,90463,1,0,0:0:0:0:
160,96,90570,1,0,0:0:0:0:
352,96,90677,1,8,0:0:0:0:
160,96,90891,1,0,0:0:0:0:
352,96,91105,1,8,0:0:0:0:
352,96,91320,1,8,0:0:0:0:
352,96,91534,1,8,0:0:0:0:
352,96,91641,1,8,0:0:0:0:
160,96,91748,1,0,0:0:0:0:
352,96,92070,1,8,0:0:0:0:
352,96,92391,1,8,0:0:0:0:
160,96,92605,1,0,0:0:0:0:
160,96,92713,1,0,0:0:0:0:
352,96,92820,1,8,0:0:0:0:
160,96,93034,1,0,0:0:0:0:
352,96,93248,1,8,0:0:0:0:
352,96,93355,1,8,0:0:0:0:
160,96,93463,1,0,0:0:0:0:
352,96,93784,1,8,0:0:0:0:
352,96,94105,1,8,0:0:0:0:
160,96,94320,1,0,0:0:0:0:
352,96,94534,1,8,0:0:0:0:
160,96,94641,1,0,0:0:0:0:
352,96,94748,1,8,0:0:0:0:
352,96,94963,1,8,0:0:0:0:
160,288,95177,1,4,0:0:0:0:
352,96,95391,1,8,0:0:0:0:
352,96,95498,1,8,0:0:0:0:
160,96,95605,1,0,0:0:0:0:
352,96,95820,1,8,0:0:0:0:
160,96,96034,1,0,0:0:0:0:
160,96,96141,1,0,0:0:0:0:
352,96,96248,1,8,0:0:0:0:
352,96,96463,1,8,0:0:0:0:
352,96,96516,1,8,0:0:0:0:
352,96,96570,1,8,0:0:0:0:
352,96,96677,1,8,0:0:0:0:
160,288,96891,1,4,0:0:0:0:
160,96,97105,1,0,0:0:0:0:
352,96,97320,1,8,0:0:0:0:
352,96,97534,1,8,0:0:0:0:
160,96,97748,1,0,0:0:0:0:
352,96,97963,1,8,0:0:0:0:
160,96,98070,1,0,0:0:0:0:
352,96,98177,1,8,0:0:0:0:
352,96,98391,1,8,0:0:0:0:
160,96,98605,1,0,0:0:0:0:
352,96,98927,1,8,0:0:0:0:
352,96,99248,1,8,0:0:0:0:
160,96,99463,1,0,0:0:0:0:
352,96,99677,1,8,0:0:0:0:
352,96,99784,1,8,0:0:0:0:
160,96,99891,1,0,0:0:0:0:
160,96,100320,1,0,0:0:0:0:
160,96,100427,1,0,0:0:0:0:
352,96,100534,1,8,0:0:0:0:
160,96,100748,1,0,0:0:0:0:
160,96,100855,1,0,0:0:0:0:
352,96,100963,1,8,0:0:0:0:
352,96,101070,1,8,0:0:0:0:
160,96,101177,1,0,0:0:0:0:
160,96,101391,1,0,0:0:0:0:
352,96,101498,1,8,0:0:0:0:
160,96,101605,1,0,0:0:0:0:
160,96,101659,1,0,0:0:0:0:
160,96,101713,1,0,0:0:0:0:
352,96,101820,1,8,0:0:0:0:
160,288,102034,1,4,0:0:0:0:
352,96,102355,1,8,0:0:0:0:
352,96,102677,1,8,0:0:0:0:
160,96,102891,1,0,0:0:0:0:
352,96,103105,1,8,0:0:0:0:
160,96,103213,1,0,0:0:0:0:
352,96,103320,1,8,0:0:0:0:
352,96,103534,1,8,0:0:0:0:
352,96,103641,1,8,0:0:0:0:
160,96,103748,1,0,0:0:0:0:
352,96,103963,1,8,0:0:0:0:
160,96,104177,1,0,0:0:0:0:
160,96,104284,1,0,0:0:0:0:
352,96,104391,1,8,0:0:0:0:
160,96,104605,1,0,0:0:0:0:
352,96,104820,1,8,0:0:0:0:
352,96,105034,1,8,0:0:0:0:
352,96,105248,1,8,0:0:0:0:
352,96,105355,1,8,0:0:0:0:
160,96,105463,1,0,0:0:0:0:
352,96,105784,1,8,0:0:0:0:
352,96,106105,1,8,0:0:0:0:
160,96,106320,1,0,0:0:0:0:
160,96,106427,1,0,0:0:0:0:
352,96,106534,1,8,0:0:0:0:
160,96,106748,1,0,0:0:0:0:
352,96,106963,1,8,0:0:0:0:
160,96,107070,1,0,0:0:0:0:
352,96,107177,1,8,0:0:0:0:
352,96,107498,1,0,0:0:0:0:
352,96,107820,1,8,0:0:0:0:
160,96,108034,1,0,0:0:0:0:
160,96,108141,1,0,0:0:0:0:
352,96,108248,1,8,0:0:0:0:
352,96,108463,1,8,0:0:0:0:
160,96,108570,1,0,0:0:0:0:
352,96,108677,1,8,0:0:0:0:
160,96,108891,1,0,0:0:0:0:
160,96,108998,1,0,0:0:0:0:
352,96,109105,1,8,0:0:0:0:
160,96,109320,1,0,0:0:0:0:
160,96,109427,1,0,0:0:0:0:
352,96,109534,1,8,0:0:0:0:
160,96,109748,1,0,0:0:0:0:
160,96,109855,1,0,0:0:0:0:
352,96,109963,1,8,0:0:0:0:
160,96,110177,1,0,0:0:0:0:
160,96,110284,1,0,0:0:0:0:
352,96,110391,1,8,0:0:0:0:
160,96,110605,1,0,0:0:0:0:
160,96,110659,1,0,0:0:0:0:
160,96,110713,1,0,0:0:0:0:
160,96,110820,1,0,0:0:0:0:
352,96,111034,1,8,0:0:0:0:
160,96,111141,1,0,0:0:0:0:
352,96,111248,1,8,0:0:0:0:
352,96,111463,1,8,0:0:0:0:
352,96,111516,1,8,0:0:0:0:
352,96,111570,1,8,0:0:0:0:
160,96,111677,1,0,0:0:0:0:
352,288,111891,1,12,0:0:0:0:
352,96,112320,1,8,0:0:0:0:
352,96,112641,1,8,0:0:0:0:
352,96,112855,1,8,0:0:0:0:
352,96,112963,1,8,0:0:0:0:
352,96,113391,1,8,0:0:0:0:
352,96,113498,1,8,0:0:0:0:
352,96,113605,1,8,0:0:0:0:
160,288,114034,1,4,0:0:0:0:
256,182,116391,2,4,L|208:160,16,29.7500005674362
352,288,117463,1,12,0:0:0:0:
