osu file format v14

[General]
AudioFilename: audio.mp3
AudioLeadIn: 0
PreviewTime: 73758
Countdown: 0
SampleSet: Soft
StackLeniency: 0.2
Mode: 0
LetterboxInBreaks: 0
WidescreenStoryboard: 0

[Editor]
Bookmarks: 25464,52303,116641
DistanceSpacing: 1
BeatDivisor: 4
GridSize: 32
TimelineZoom: 2.899999

[Metadata]
Title:iLLness LiLin
TitleUnicode:iLLness LiLin
Artist:Kaneko Chiharu
ArtistUnicode:かねこちはる
Creator:Kroytz
Version:Pono's INFINITE
Source:SOUND VOLTEX IV HEAVENLY HAVEN
Tags:The 6th KAC Original Song Contest Winner Hardcore Piano SDVX 4 09kami yf_bmp Akali PoNo Ponoyoshi [ Drop ] Kawashiro Milr_ White Music Hobbes2 Rizen
BeatmapID:1345674
BeatmapSetID:634147

[Difficulty]
HPDrainRate:5
CircleSize:3.8
OverallDifficulty:8
ApproachRate:9.2
SliderMultiplier:1.56
SliderTickRate:1

[Events]
//Background and Video events
0,0,"BG.jpg",0,0
//Break Periods
2,52556,56929
//Storyboard Layer 0 (Background)
//Storyboard Layer 1 (Fail)
//Storyboard Layer 2 (Pass)
//Storyboard Layer 3 (Foreground)
//Storyboard Sound Samples

[TimingPoints]
930,214.285714285714,4,2,20,80,1,0
3501,-100,4,2,1,80,0,0
3929,-200,4,2,1,100,0,0
4358,214.285714285714,3,2,1,80,1,0
6929,214.285714285714,4,2,1,80,1,0
16357,-100,4,2,0,80,0,0
17214,-100,4,2,1,80,0,0
17857,-66.6666666666667,4,2,1,100,0,0
18071,-100,4,2,1,100,0,0
18928,-83.3333333333333,4,2,1,100,0,0
19786,-100,4,2,1,100,0,0
21928,-71.4285714285714,4,2,1,100,0,0
22143,-200,4,2,1,100,0,0
22357,-83.3333333333333,4,2,1,100,0,0
23214,-100,4,2,1,100,0,0
25786,-83.3333333333333,4,2,1,100,0,0
26643,-100,4,2,1,100,0,0
28571,-66.6666666666667,4,2,1,100,0,0
28786,-83.3333333333333,4,2,1,100,0,0
30071,-100,4,2,1,100,0,0
34357,-83.3333333333333,4,2,1,100,0,0
35214,-100,4,2,1,100,0,0
38214,-100,4,2,0,100,0,0
38643,-83.3333333333333,4,2,1,100,0,0
42071,-100,4,2,1,100,0,0
43357,-200,4,2,1,100,0,0
43786,-100,4,2,1,100,0,0
45500,214.285714285714,3,2,1,80,1,0
48071,214.285714285714,4,2,1,80,1,0
52356,-100,4,2,0,80,0,0
57499,-100,4,2,1,100,0,1
57606,-100,4,2,1,100,0,0
58356,-80,4,2,1,100,0,1
58463,-80,4,2,1,100,0,0
59213,-66.6666666666667,4,2,1,100,0,1
59320,-66.6666666666667,4,2,1,100,0,0
60070,-66.6666666666667,4,2,0,100,0,0
60928,-80,4,2,2,100,0,1
62642,-200,4,2,2,100,0,1
63070,-100,4,2,2,100,0,1
63499,-80,4,2,2,100,0,1
69499,-200,4,2,2,100,0,1
69928,-100,4,2,2,100,0,1
70356,-80,4,2,2,100,0,1
73785,-200,4,2,2,100,0,0
74642,-83.3333333333333,4,2,1,100,0,0
81070,-200,4,2,1,100,0,0
81499,-76.9230769230769,4,2,1,100,0,0
88356,-83.3333333333333,4,2,2,100,0,1
94142,-200,4,2,2,100,0,1
94570,-83.3333333333333,4,2,2,100,0,1
95213,-76.9230769230769,4,2,2,100,0,1
102017,-76.9230769230769,4,2,2,100,0,0
102070,-83.3333333333333,4,2,2,100,0,1
108070,-76.9230769230769,4,2,2,100,0,1
111928,-200,4,2,2,100,0,1
112356,-200,4,2,2,100,0,0
114070,214.285714285714,3,2,1,80,1,0
116373,-100,3,2,1,5,0,0
116427,-100,3,2,1,80,0,0
117498,214.285714285714,4,2,1,80,1,0

[Colours]
Combo1 : 237,235,228
Combo2 : 41,48,82
Combo3 : 101,83,106
Combo4 : 167,145,157
Combo5 : 114,131,163
Combo6 : 166,187,211

[HitObjects]
13,303,930,6,0,L|19:356,5,52,4|0|0|0|0|0,3:1|0:0|0:0|0:0|0:0|0:0,0:0:0:0:
108,264,1358,2,0,L|102:315,5,52,0|0|0|0|0|0,0:0|0:0|0:0|0:0|0:0|0:0,0:0:0:0:
193,319,1787,5,0,0:0:0:0:
193,324,1858,1,0,0:0:0:0:
194,329,1929,1,0,0:0:0:0:
194,334,2001,1,0,0:0:0:0:
195,339,2072,1,0,0:0:0:0:
195,344,2144,1,0,0:0:0:0:
196,350,2215,2,0,L|247:355,5,52,0|0|0|0|0|0,0:0|0:0|0:0|0:0|0:0|0:0,0:0:0:0:
257,276,2644,6,0,L|308:270,7,39,0|0|0|0|0|0|0|0,0:0|0:0|0:0|0:0|0:0|0:0|0:0|0:0,0:0:0:0:
331,348,3072,2,0,L|369:352,7,39,0|0|0|0|0|0|0|0,0:0|0:0|0:0|0:0|0:0|0:0|0:0|0:0,0:0:0:0:
422,287,3501,5,2,3:2:0:0:
421,279,3554,1,2,3:2:0:0:
420,271,3608,1,2,3:2:0:0:
419,263,3662,1,2,3:2:0:0:
418,255,3715,2,0,L|456:259,3,39,2|2|2|2,3:2|3:2|3:2|3:2,0:0:0:0:
478,174,3929,6,0,L|340:185,1,136.5,2|0,3:2|0:0,0:0:0:0:
311,251,4358,6,0,P|268:183|338:114,1,156,12|8,1:0|1:0,0:0:0:0:
181,57,4679,2,0,L|193:219,1,156,0|0,0:0|0:0,0:0:0:0:
73,285,5000,2,0,B|152:247|153:319|234:283,1,156,8|8,1:0|1:0,0:0:0:0:
47,365,5322,2,0,B|-19:328|-19:328|-1:250,1,156,0|0,0:0|0:0,0:0:0:0:
84,188,5643,6,0,B|103:110|103:110|36:73,1,156,8|8,1:0|1:0,0:0:0:0:
181,57,5965,2,0,L|348:50,1,156,0|0,0:0|0:0,0:0:0:0:
479,128,6286,6,0,P|413:116|342:181,1,156,8|8,1:0|1:0,0:0:0:0:
431,207,6607,2,0,L|473:363,1,156,0|0,0:0|0:0,0:0:0:0:
291,322,6929,5,8,1:0:0:0:
280,309,7036,2,0,L|370:305,1,78,0|8,0:0|1:0,0:0:0:0:
223,361,7250,2,0,P|205:286|285:233,1,156,0|0,0:0|0:0,0:0:0:0:
140,141,7571,2,0,L|146:240,1,78,8|0,1:0|0:0,0:0:0:0:
70,318,7786,5,8,1:0:0:0:
58,324,7893,2,0,L|62:246,1,78,0|8,0:3|1:0,0:0:0:0:
89,85,8107,2,0,P|164:67|217:147,1,156,0|0,0:0|0:0,0:0:0:0:
256,235,8428,5,8,1:0:0:0:
262,223,8535,2,0,L|184:227,1,78,0|8,0:0|1:0,0:0:0:0:
322,272,8749,2,0,P|337:196|255:146,1,156,0|0,0:0|0:0,0:0:0:0:
290,63,9071,5,8,1:0:0:0:
284,51,9178,2,0,L|362:55,1,78,0|8,0:0|1:0,0:0:0:0:
495,14,9393,2,0,L|476:190,1,156,0|0,0:0|0:0,0:0:0:0:
489,296,9714,5,8,1:0:0:0:
495,308,9821,2,0,L|417:304,1,78,0|8,0:0|1:0,0:0:0:0:
288,345,10036,2,0,B|234:357|234:357|196:339|196:339|135:357,1,156,0|0,0:0|0:0,0:0:0:0:
21,369,10357,6,0,L|28:310,4,39,8|8|8|8|8,3:0|3:0|3:0|3:0|3:0,0:0:0:0:
38,247,10678,2,0,L|42:208,4,39,8|8|8|8|8,3:0|3:0|3:0|3:0|3:0,0:0:0:0:
54,116,11000,1,8,3:0:0:0:
54,108,11053,1,8,3:0:0:0:
55,100,11107,1,8,3:0:0:0:
56,92,11160,1,8,3:0:0:0:
57,85,11214,6,0,L|160:95,1,78,12|8,1:0|0:1,0:0:0:0:
211,55,11428,2,0,L|314:65,1,78,8|8,1:0|0:1,0:0:0:0:
339,137,11643,2,0,L|442:147,1,78,8|8,1:0|0:1,0:0:0:0:
67,69,11857,6,0,L|168:88,1,78,8|8,1:0|0:1,0:0:0:0:
223,52,12071,2,0,L|324:71,1,78,8|8,1:0|0:1,0:0:0:0:
343,145,12286,2,0,L|445:164,1,78,8|8,1:0|0:1,0:0:0:0:
78,54,12500,6,0,L|178:82,1,78,8|8,1:0|0:1,0:0:0:0:
235,51,12714,2,0,L|335:79,1,78,8|8,1:0|0:1,0:0:0:0:
347,154,12929,2,0,L|447:182,1,78,8|8,1:0|0:1,0:0:0:0:
91,40,13143,6,0,L|188:76,1,78,8|8,1:0|0:1,0:0:0:0:
248,51,13357,2,0,L|344:87,1,78,8|8,1:0|0:1,0:0:0:0:
350,163,13572,2,0,L|447:200,1,78,8|8,1:0|0:1,0:0:0:0:
105,27,13786,6,0,L|198:71,1,78,8|8,1:0|0:1,0:0:0:0:
260,51,14000,2,0,L|352:96,1,78,8|8,1:0|0:1,0:0:0:0:
352,172,14215,2,0,L|445:217,1,78,8|8,1:0|0:1,0:0:0:0:
403,299,14428,1,8,1:0:0:0:
398,308,14536,1,8,0:1:0:0:
394,313,14643,6,0,L|360:369,7,39,8|0|8|0|8|0|8|0,3:1|3:0|3:1|3:0|3:1|3:0|3:1|3:0,0:0:0:0:
254,355,15071,2,0,L|207:332,7,39,8|0|8|0|8|0|8|0,3:1|3:0|3:1|3:0|3:1|3:0|3:1|3:0,0:0:0:0:
212,214,15500,2,0,L|238:169,7,39,8|0|8|0|8|0|8|0,3:1|3:0|3:1|3:0|3:1|3:0|3:1|3:0,0:0:0:0:
352,171,15928,2,0,L|415:202,7,39,8|0|8|0|8|0|8|0,3:1|3:0|3:1|3:0|3:1|3:0|3:1|3:0,0:0:0:0:
324,255,16357,5,2,2:0:0:0:
321,256,16428,1,2,2:0:0:0:
318,257,16500,1,2,2:0:0:0:
315,258,16571,1,2,2:0:0:0:
312,259,16643,1,2,2:0:0:0:
309,260,16714,1,2,2:0:0:0:
306,261,16786,1,2,2:0:0:0:
303,262,16857,1,2,2:0:0:0:
300,263,16929,1,2,2:0:0:0:
297,264,17000,1,2,2:0:0:0:
294,265,17072,1,2,2:0:0:0:
291,266,17143,1,2,2:0:0:0:
255,274,17214,6,0,L|197:266,11,39,2|2|2|2|2|2|2|2|2|2|2|2,3:2|3:2|3:2|3:2|3:2|3:2|3:2|3:2|3:2|3:2|3:2|3:2,0:0:0:0:
130,236,17857,2,0,L|138:309,1,58.500002231598,0|0,3:2|0:0,0:0:0:0:
9,352,18071,6,0,P|-4:306|12:247,1,78,12|0,1:0|0:0,0:0:0:0:
56,190,18286,2,0,P|68:153|65:114,1,78,8|0,1:0|0:0,0:0:0:0:
5,12,18500,1,8,1:0:0:0:
8,22,18607,1,0,0:0:0:0:
11,32,18714,2,0,L|99:39,1,78,8|0,1:0|0:0,0:0:0:0:
231,50,18928,6,0,P|174:61|170:161,1,140.399995715332,8|0,1:0|0:0,0:0:0:0:
250,182,19143,2,0,P|291:164|364:196,1,93.5999971435548,8|0,1:0|0:0,0:0:0:0:
427,259,19357,2,0,L|437:150,1,93.5999971435548,8|0,1:0|0:0,0:0:0:0:
444,72,19571,2,0,L|435:165,1,93.5999971435548,8|0,1:0|0:0,0:0:0:0:
418,352,19786,5,8,1:0:0:0:
418,358,19893,2,0,P|380:340|327:346,1,78,0|8,0:0|1:0,0:0:0:0:
175,350,20107,2,0,P|213:368|266:362,1,78,0|8,0:0|1:0,0:0:0:0:
175,350,20321,2,0,P|215:361|266:346,1,78,0|8,0:0|1:0,0:0:0:0:
175,350,20536,2,0,P|216:353|264:330,1,78,0|8,0:0|1:0,0:0:0:0:
129,234,20750,5,0,0:0:0:0:
121,229,20857,1,8,1:0:0:0:
113,224,20964,1,0,0:0:0:0:
105,219,21071,2,0,L|114:319,1,78,8|0,1:0|0:0,0:0:0:0:
15,346,21286,2,0,L|7:394,3,39,8|0|0|0,1:0|0:0|0:0|0:0,0:0:0:0:
0,322,21500,6,0,L|13:234,1,78,8|0,1:0|0:0,0:0:0:0:
105,219,21714,2,0,L|92:131,1,78,8|0,1:0|0:0,0:0:0:0:
27,83,21928,6,0,P|84:52|175:129,1,163.799995001221,8|0,1:0|0:0,0:0:0:0:
232,150,22143,6,0,L|225:216,1,58.5,8|0,1:0|0:0,0:0:0:0:
205,288,22357,6,0,L|327:276,1,93.5999971435548,8|0,1:0|0:0,0:0:0:0:
401,280,22571,2,0,L|307:289,1,93.5999971435548,8|0,1:0|0:0,0:0:0:0:
466,322,22786,2,0,P|478:277|444:218,1,93.5999971435548,8|0,1:0|0:0,0:0:0:0:
394,178,23000,2,0,P|382:133|416:74,1,93.5999971435548,8|0,1:0|0:0,0:0:0:0:
493,14,23214,5,8,1:0:0:0:
497,5,23321,2,0,L|407:12,1,78,0|8,0:0|1:0,0:0:0:0:
225,40,23536,2,0,L|315:47,1,78,0|8,0:0|1:0,0:0:0:0:
224,40,23750,2,0,L|311:62,1,78,0|8,0:0|1:0,0:0:0:0:
398,90,23964,1,0,0:0:0:0:
285,147,24071,6,0,L|296:194,7,39,8|0|8|0|8|0|8|0,1:0|0:0|0:1|0:0|1:0|0:0|0:1|0:0,0:0:0:0:
242,262,24500,1,8,3:1:0:0:
239,281,24607,1,0,3:0:0:0:
236,300,24714,1,8,3:1:0:0:
233,319,24821,1,0,3:0:0:0:
230,338,24928,6,0,L|120:350,1,78,12|0,1:0|0:0,0:0:0:0:
47,310,25143,2,0,P|86:277|104:223,1,78,10|0,1:0|0:0,0:0:0:0:
42,135,25357,1,8,1:0:0:0:
34,146,25464,2,0,P|82:163|137:151,1,78,0|10,0:0|1:0,0:0:0:0:
229,102,25678,1,0,0:0:0:0:
235,90,25786,6,0,B|190:67|190:67|173:122|198:165,1,140.399995715332,8|0,1:0|0:0,0:0:0:0:
276,166,26000,2,0,B|321:143|321:143|338:198|313:241,1,140.399995715332,10|0,1:0|0:0,0:0:0:0:
209,313,26214,2,0,P|253:302|324:320,1,93.5999971435548,8|0,1:0|0:0,0:0:0:0:
395,316,26428,2,0,P|351:327|280:309,1,93.5999971435548,10|0,1:0|0:0,0:0:0:0:
124,331,26643,5,8,1:0:0:0:
118,331,26750,2,0,P|136:293|130:240,1,78,0|10,0:0|1:0,0:0:0:0:
126,88,26964,2,0,P|108:126|114:179,1,78,0|8,0:0|1:0,0:0:0:0:
126,88,27178,2,0,P|115:128|130:179,1,78,0|10,0:0|1:0,0:0:0:0:
226,212,27393,1,0,0:0:0:0:
234,224,27500,2,0,P|245:184|230:133,1,78,8|0,1:0|0:0,0:0:0:0:
217,63,27714,1,8,1:0:0:0:
222,55,27821,1,8,1:0:0:0:
296,99,27928,5,8,1:0:0:0:
301,107,28035,1,8,1:0:0:0:
306,115,28142,1,8,1:0:0:0:
311,123,28250,1,8,1:0:0:0:
405,94,28571,6,0,L|378:244,1,117.000004463196,14|0,1:0|0:0,0:0:0:0:
271,294,28786,2,0,B|319:284|319:284|371:292,1,93.5999971435548,8|0,1:0|0:0,0:0:0:0:
460,300,29000,2,0,B|412:310|412:310|360:302,1,93.5999971435548,10|0,1:0|0:0,0:0:0:0:
245,220,29214,6,0,P|200:258|214:344,1,140.399995715332,8|0,1:0|0:0,0:0:0:0:
99,384,29428,2,0,P|108:314|100:278,1,93.5999971435548,10|0,1:0|0:0,0:0:0:0:
28,213,29643,2,0,P|21:166|31:121,1,93.5999971435548,8|0,1:0|0:0,0:0:0:0:
138,44,29857,2,0,L|14:27,1,93.5999971435548,10|0,1:0|0:0,0:0:0:0:
205,120,30071,5,8,1:0:0:0:
204,113,30178,2,0,P|238:130|277:130,1,78,0|10,0:0|1:0,0:0:0:0:
448,122,30392,2,0,P|413:104|374:104,1,78,0|8,1:0|1:0,0:0:0:0:
447,121,30606,2,0,P|409:110|371:116,1,78,0|10,0:0|1:0,0:0:0:0:
447,122,30821,2,0,P|408:118|371:131,1,78,0|8,1:0|3:1,0:0:0:0:
494,238,31035,5,8,3:1:0:0:
502,243,31142,1,8,3:1:0:0:
510,248,31249,1,8,3:1:0:0:
437,292,31356,5,8,3:1:0:0:
429,297,31463,1,8,3:1:0:0:
421,302,31570,1,8,3:1:0:0:
413,307,31678,1,8,3:1:0:0:
337,283,31786,6,0,L|248:267,2,78,8|2|2,1:0|1:0|1:0,0:0:0:0:
395,202,32107,1,8,1:0:0:0:
402,212,32214,2,0,L|313:196,1,78,2|2,1:0|1:0,0:0:0:0:
220,179,32428,2,0,L|131:163,1,78,8|2,1:0|1:0,0:0:0:0:
48,105,32643,5,8,1:0:0:0:
53,118,32750,1,8,3:1:0:0:
58,131,32857,1,8,3:1:0:0:
27,204,32964,5,0,0:0:0:0:
22,217,33071,1,0,0:0:0:0:
17,230,33178,1,0,0:0:0:0:
12,243,33286,1,0,0:0:0:0:
7,256,33393,1,0,0:0:0:0:
63,320,33500,6,0,L|154:314,1,78,12|0,1:0|0:0,0:0:0:0:
216,259,33714,2,0,L|293:264,1,78,8|0,1:0|0:0,0:0:0:0:
373,328,33929,1,8,1:0:0:0:
383,325,34036,1,0,0:0:0:0:
393,322,34143,2,0,L|400:234,1,78,8|0,1:0|0:0,0:0:0:0:
394,103,34357,6,0,P|337:114|333:214,1,140.399995715332,8|0,1:0|0:0,0:0:0:0:
216,259,34572,2,0,P|224:213|206:171,1,93.5999971435548,10|0,1:0|0:0,0:0:0:0:
87,69,34786,2,0,L|95:162,1,93.5999971435548,8|0,1:0|0:0,0:0:0:0:
96,264,35000,2,0,L|87:171,1,93.5999971435548,10|0,1:0|0:0,0:0:0:0:
243,91,35215,5,8,1:0:0:0:
240,100,35322,2,0,P|201:92|153:113,1,78,0|8,0:0|1:0,0:0:0:0:
13,168,35536,2,0,P|52:160|100:181,1,78,0|8,0:0|1:0,0:0:0:0:
13,168,35750,2,0,P|52:166|96:195,1,78,0|8,0:0|1:0,0:0:0:0:
110,275,35964,1,0,0:0:0:0:
231,323,36071,6,0,L|167:328,1,39,8|0,1:0|0:0,0:0:0:0:
355,313,36232,2,0,L|291:318,1,39,8|0,1:0|0:0,0:0:0:0:
480,303,36393,2,0,L|416:308,1,39,8|0,1:0|0:0,0:0:0:0:
404,223,36500,6,0,L|468:228,7,39,0|0|0|0|0|0|0|0,3:0|3:0|3:0|3:0|3:0|3:0|3:0|3:0,0:0:0:0:
297,205,36928,6,0,L|208:189,2,78,8|2|2,1:0|1:0|1:0,0:0:0:0:
367,85,37249,1,8,1:0:0:0:
377,78,37356,2,0,L|361:167,1,78,2|2,1:0|1:0,0:0:0:0:
276,105,37570,2,0,L|187:89,1,78,8|2,1:0|1:0,0:0:0:0:
110,29,37785,5,8,1:0:0:0:
115,42,37892,1,8,3:1:0:0:
120,55,37999,1,8,3:1:0:0:
130,141,38106,5,0,0:0:0:0:
125,154,38214,2,0,L|87:223,5,52,2|2|2|2|2|2,0:0|0:0|0:0|0:0|0:0|0:0,0:0:0:0:
24,287,38643,6,0,P|75:277|118:291,1,93.5999971435548,12|8,0:1|0:1,0:0:0:0:
197,345,38857,2,0,P|241:356|286:346,1,93.5999971435548,8|8,0:1|0:1,0:0:0:0:
389,248,39071,2,0,L|375:357,1,93.5999971435548,8|8,0:1|0:1,0:0:0:0:
241,269,39286,2,0,L|229:176,1,93.5999971435548,8|8,0:1|0:1,0:0:0:0:
409,112,39500,5,8,0:1:0:0:
409,116,39607,1,8,0:1:0:0:
408,121,39714,2,0,L|397:203,3,46.7999985717774,8|8|8|8,3:1|3:1|3:1|3:1,0:0:0:0:
316,48,39928,5,8,0:1:0:0:
316,48,40035,1,8,0:1:0:0:
316,48,40143,1,8,0:1:0:0:
316,48,40249,1,8,0:1:0:0:
316,48,40357,6,0,L|318:129,7,46.7999985717774,8|8|8|8|8|8|8|8,3:1|3:1|3:1|3:1|3:1|3:1|3:1|3:1,0:0:0:0:
230,129,40786,5,8,3:1:0:0:
230,129,40893,1,8,0:1:0:0:
230,129,41001,1,8,0:1:0:0:
230,129,41107,1,8,0:1:0:0:
230,129,41215,6,0,L|228:191,5,62.3999980957032,8|8|8|8|8|8,3:1|3:1|3:1|3:1|3:1|3:1,0:0:0:0:
136,220,41643,2,0,L|138:158,5,62.3999980957032,8|8|8|8|8|8,3:1|3:1|3:1|3:1|3:1|3:1,0:0:0:0:
50,106,42071,6,0,L|47:184,1,78,8|8,0:1|0:1,0:0:0:0:
43,280,42286,2,0,L|40:358,1,78,8|8,0:1|0:1,0:0:0:0:
207,328,42500,2,0,L|128:325,1,78,8|8,0:1|0:1,0:0:0:0:
302,331,42714,2,0,L|380:333,1,78,8|8,0:1|0:1,0:0:0:0:
345,244,42928,6,0,L|346:201,3,39,8|8|8|8,3:1|3:1|3:1|3:1,0:0:0:0:
381,120,43143,2,0,L|302:117,1,78,8|0,3:1|0:1,0:0:0:0:
127,108,43357,6,0,L|48:105,1,78,0|0,0:0|0:1,0:0:0:0:
10,183,43786,5,8,0:1:0:0:
13,194,43893,1,8,0:1:0:0:
16,205,44000,2,0,L|30:266,2,39,8|8|8,3:1|3:1|3:1,0:0:0:0:
139,199,44214,1,0,0:1:0:0:
138,212,44321,2,0,L|134:267,1,39,8|8,3:1|3:1,0:0:0:0:
78,313,44428,5,8,3:1:0:0:
81,324,44535,1,8,0:1:0:0:
84,335,44642,6,0,L|98:396,4,39,8|8|8|8|8,3:1|3:1|3:1|3:1|3:1,0:0:0:0:
217,282,44964,2,0,L|213:337,1,39,8|8,3:1|3:1,0:0:0:0:
315,384,45071,6,0,L|305:279,1,78,0|0,0:0|0:0,0:0:0:0:
296,212,45286,2,0,L|286:107,1,78,0|0,0:0|0:0,0:0:0:0:
389,44,45500,6,0,P|365:98|367:133,1,78,12|0,1:0|0:0,0:0:0:0:
273,59,45714,2,0,P|279:117|298:147,1,78,8|0,1:0|0:0,0:0:0:0:
180,129,45928,2,0,P|214:176|246:192,1,78,8|0,1:0|0:0,0:0:0:0:
357,24,46142,6,0,P|342:81|350:115,1,78,8|0,1:0|0:0,0:0:0:0:
245,59,46356,2,0,P|261:115|285:141,1,78,8|0,1:0|0:0,0:0:0:0:
166,144,46570,2,0,P|208:185|242:195,1,78,8|0,1:0|0:0,0:0:0:0:
323,10,46785,6,0,P|318:68|332:101,1,78,8|0,1:0|0:0,0:0:0:0:
219,64,46999,2,0,P|244:117|273:138,1,78,8|0,1:0|0:0,0:0:0:0:
155,162,47213,2,0,P|204:195|238:199,1,78,8|0,1:0|0:0,0:0:0:0:
286,3,47428,6,0,P|292:61|311:91,1,78,8|0,1:0|0:0,0:0:0:0:
194,74,47642,2,0,P|228:121|260:137,1,78,8|0,1:0|0:0,0:0:0:0:
148,181,47856,2,0,P|201:205|237:203,1,78,8|0,1:0|0:0,0:0:0:0:
250,3,48071,6,0,P|266:59|290:85,1,78,8|0,1:0|0:0,0:0:0:0:
170,88,48285,2,0,P|212:129|246:139,1,78,8|0,1:0|0:0,0:0:0:0:
144,201,48499,2,0,P|201:215|235:207,1,78,8|0,1:0|0:0,0:0:0:0:
401,148,48713,1,8,1:0:0:0:
403,138,48821,1,0,0:0:0:0:
406,129,48928,6,0,L|420:73,7,39,8|0|0|0|8|0|0|0,3:1|3:0|3:0|3:0|3:1|3:0|3:0|3:0,0:0:0:0:
415,229,49356,6,0,L|451:214,7,39,8|0|0|0|8|0|0|0,3:1|3:0|3:0|3:0|3:1|3:0|3:0|3:0,0:0:0:0:
330,284,49785,6,0,L|389:308,7,39,8|0|8|0|8|0|8|0,3:1|3:0|3:1|3:0|3:1|3:0|3:1|3:0,0:0:0:0:
212,348,50213,6,0,L|248:333,7,39,8|0|8|0|8|0|8|0,3:1|3:0|3:1|3:0|3:1|3:0|3:1|3:0,0:0:0:0:
118,307,50642,6,0,L|122:273,14,19.5,8|0|0|0|8|0|0|0|8|0|0|0|8|0|0,3:1|0:0|3:0|0:0|3:1|0:0|3:0|0:0|3:1|0:0|3:0|0:0|3:1|0:0|3:0,0:0:0:0:
228,234,51070,2,0,L|224:200,14,19.5,8|0|0|0|8|0|0|0|8|0|0|0|8|0|0,3:1|0:0|3:0|0:0|3:1|0:0|3:0|0:0|3:1|0:0|3:0|0:0|3:1|0:0|3:0,0:0:0:0:
94,167,51499,5,0,0:0:0:0:
96,146,51606,1,0,0:0:0:0:
98,125,51713,2,0,L|103:217,1,78,0|0,0:0|0:0,0:0:0:0:
189,112,51928,5,0,0:0:0:0:
187,91,52035,1,0,0:0:0:0:
185,70,52142,2,0,L|180:162,1,78,0|0,0:0|0:0,0:0:0:0:
168,306,52356,5,2,0:0:0:0:
57,243,57499,6,0,B|-12:233|-4:144|82:84|167:207|167:207|132:267|150:333|197:389|284:359|296:295|249:264,1,546,4|0,0:1|0:0,0:0:0:0:
285,166,58356,2,0,B|201:181|271:39|364:172|364:172|471:211|534:117|499:15|303:40|349:204|386:330,1,682.5,4|0,0:1|0:0,0:0:0:0:
267,283,59213,2,0,B|333:324|261:422|148:325|148:325|59:244|148:140|274:249|148:326|148:326|72:271|5:317|5:317|59:244|37:144,1,819.000031242372,4|0,0:1|0:0,0:0:0:0:
0,49,60070,5,2,0:0:0:0:
467,272,60928,6,0,B|481:322|455:371|455:371|503:278|465:156,1,292.5,6|0,1:2|0:0,0:0:0:0:
363,92,61356,2,0,B|396:89|418:47|418:47|399:131|399:131|398:151|398:151|392:165|392:165|368:280,1,292.5,0|0,0:0|0:0,0:0:0:0:
277,343,61785,5,8,0:0:0:0:
275,331,61856,1,0,0:0:0:0:
273,319,61928,1,0,0:0:0:0:
271,307,61999,1,0,0:0:0:0:
269,295,62071,1,0,0:0:0:0:
267,283,62142,1,0,0:0:0:0:
249,264,62213,2,0,L|260:189,5,65,0|0|0|0|0|0,0:0|0:0|0:0|0:0|0:0|0:0,0:0:0:0:
143,165,62642,6,0,L|164:312,1,130,2|0,1:2|0:0,0:0:0:0:
8,267,63070,2,0,P|40:295|48:359,1,78,0|0,0:0|0:0,0:0:0:0:
143,165,63285,2,0,P|111:193|103:257,1,78,0|0,0:0|0:0,0:0:0:0:
29,123,63499,6,0,B|-38:118|-12:37|128:42|68:164|235:111,1,292.5,8|0,0:0|0:0,0:0:0:0:
357,59,63928,2,0,B|362:3|362:3|263:85|402:108|340:220,1,292.5,0|0,0:0|0:0,0:0:0:0:
258,297,64356,5,2,1:2:0:0:
246,299,64427,1,0,0:0:0:0:
234,301,64499,1,0,0:0:0:0:
222,303,64570,1,0,0:0:0:0:
210,305,64642,1,0,0:0:0:0:
198,307,64713,1,0,0:0:0:0:
179,325,64784,2,0,L|104:314,5,65,0|0|0|0|0|0,0:0|0:0|0:0|0:0|0:0|0:0,0:0:0:0:
41,260,65213,5,8,0:0:0:0:
51,243,65284,1,0,0:0:0:0:
58,225,65355,1,0,0:0:0:0:
63,206,65427,1,0,0:0:0:0:
66,187,65498,1,0,0:0:0:0:
66,167,65570,1,0,0:0:0:0:
64,151,65642,2,0,L|40:64,5,65,0|0|0|0|0|0,0:0|0:0|0:0|0:0|0:0|0:0,0:0:0:0:
130,57,66070,6,0,B|291:12|235:125|428:74,1,292.5,2|0,1:2|0:0,0:0:0:0:
331,177,66499,2,0,B|313:148|328:92|328:92|278:197|357:307,1,292.5,0|0,0:0|0:0,0:0:0:0:
312,374,66928,6,0,B|214:339|214:339|132:367|132:367|17:327,1,292.5,8|0,0:0|0:0,0:0:0:0:
80,217,67356,2,0,B|68:162|68:162|182:172|182:172|118:312,1,292.5,0|0,0:0|0:0,0:0:0:0:
246,255,67785,5,2,1:2:0:0:
254,245,67856,1,0,0:0:0:0:
264,237,67927,1,0,0:0:0:0:
275,230,67999,1,0,0:0:0:0:
287,225,68070,1,0,0:0:0:0:
299,221,68142,1,0,0:0:0:0:
324,230,68213,2,0,P|357:230|402:249,5,65,0|0|0|0|0|0,0:0|0:0|0:0|0:0|0:0|0:0,0:0:0:0:
480,292,68642,5,8,0:0:0:0:
478,272,68713,1,0,0:0:0:0:
477,253,68784,1,0,0:0:0:0:
476,233,68856,1,0,0:0:0:0:
475,214,68927,1,0,0:0:0:0:
473,194,68999,1,0,0:0:0:0:
484,174,69070,2,0,L|493:88,5,65,0|0|0|0|0|0,0:0|0:0|0:0|0:0|0:0|0:0,0:0:0:0:
409,35,69499,6,0,L|396:179,1,130,2|0,1:2|0:0,0:0:0:0:
245,139,69928,2,0,P|284:132|325:146,1,78,0|0,0:0|0:0,0:0:0:0:
190,43,70142,2,0,P|227:53|265:46,1,78,0|0,0:0|0:0,0:0:0:0:
143,175,70356,6,0,B|45:116|125:44|219:111|123:277,1,292.5,8|0,0:0|0:0,0:0:0:0:
21,368,70785,2,0,B|110:342|110:342|207:376|207:376|303:344,1,292.5,0|0,0:0|0:0,0:0:0:0:
414,242,71213,5,2,1:2:0:0:
402,244,71284,1,0,0:0:0:0:
390,246,71356,1,0,0:0:0:0:
378,248,71427,1,0,0:0:0:0:
366,250,71499,1,0,0:0:0:0:
354,252,71570,1,0,0:0:0:0:
335,270,71641,2,0,L|260:259,5,65,0|0|0|0|0|0,0:0|0:0|0:0|0:0|0:0|0:0,0:0:0:0:
204,207,72070,6,0,L|139:216,5,65,8|0|0|0|0|0,0:0|0:0|0:0|0:0|0:0|0:0,0:0:0:0:
46,261,72499,2,0,L|55:196,5,65,0|0|0|0|0|0,0:0|0:0|0:0|0:0|0:0|0:0,0:0:0:0:
66,118,72928,5,2,1:2:0:0:
66,114,72999,1,0,0:0:0:0:
66,111,73070,1,0,0:0:0:0:
67,108,73142,1,0,0:0:0:0:
67,105,73213,1,0,0:0:0:0:
68,102,73284,1,0,0:0:0:0:
68,99,73356,5,0,0:0:0:0:
95,70,73428,1,0,0:0:0:0:
146,64,73499,1,0,0:0:0:0:
192,86,73570,1,0,0:0:0:0:
235,123,73642,1,0,0:0:0:0:
301,129,73713,1,0,0:0:0:0:
349,64,73785,6,0,L|346:15,1,26,0|0,0:0|0:0,0:0:0:0:
484,32,74642,6,0,L|462:158,1,93.5999971435548,12|8,1:0|0:1,0:0:0:0:
345,101,74856,2,0,L|361:193,1,93.5999971435548,8|8,0:1|0:1,0:0:0:0:
377,285,75070,1,8,1:0:0:0:
381,302,75178,1,8,0:1:0:0:
384,318,75285,2,0,P|332:296|266:308,1,93.5999971435548,8|8,0:1|0:1,0:0:0:0:
185,353,75499,6,0,P|138:352|96:332,1,93.5999971435548,8|8,1:0|0:1,0:0:0:0:
41,241,75713,1,8,0:1:0:0:
44,225,75820,1,8,0:1:0:0:
88,150,75928,1,8,1:0:0:0:
85,134,76035,1,8,1:0:0:0:
82,118,76142,2,0,P|128:118|170:138,1,93.5999971435548,8|0,1:0|0:0,0:0:0:0:
241,204,76356,5,8,1:0:0:0:
244,220,76463,1,8,0:1:0:0:
247,236,76570,2,0,L|261:307,2,46.7999985717774,8|8|8,1:0|1:0|1:0,0:0:0:0:
324,178,76785,5,8,1:0:0:0:
327,162,76892,1,8,0:1:0:0:
330,146,76999,2,0,L|344:75,2,46.7999985717774,8|8|8,1:0|1:0|1:1,0:0:0:0:
398,212,77213,6,0,L|412:283,3,46.7999985717774,8|8|8|8,3:1|3:1|3:1|3:1,0:0:0:0:
346,321,77428,2,0,L|355:366,3,46.7999985717774,8|8|8|8,3:1|3:1|3:1|3:1,0:0:0:0:
256,281,77642,2,0,L|270:352,3,46.7999985717774,8|8|8|8,3:1|3:1|3:1|3:1,0:0:0:0:
179,339,77857,2,0,L|188:384,3,46.7999985717774,8|8|8|8,3:1|3:1|3:1|3:1,0:0:0:0:
110,280,78070,6,0,P|131:241|117:171,1,93.5999971435548,8|8,1:0|0:1,0:0:0:0:
66,122,78285,2,0,P|63:75|84:34,1,93.5999971435548,8|0,0:1|0:0,0:0:0:0:
209,140,78499,1,8,1:0:0:0:
205,123,78607,1,8,0:1:0:0:
202,107,78714,2,0,P|254:129|320:117,1,93.5999971435548,8|8,0:1|0:1,0:0:0:0:
399,29,78928,6,0,P|377:81|389:147,1,93.5999971435548,8|8,1:0|0:1,0:0:0:0:
435,194,79142,1,8,0:1:0:0:
432,210,79249,1,8,0:1:0:0:
387,291,79357,1,8,1:0:0:0:
390,307,79464,1,8,1:0:0:0:
392,323,79571,2,0,L|276:306,1,93.5999971435548,8|8,1:0|0:1,0:0:0:0:
119,301,79785,5,8,1:0:0:0:
116,317,79892,1,8,0:1:0:0:
114,333,79999,2,0,L|183:322,2,46.7999985717774,8|0|0,1:0|0:0|0:0,0:0:0:0:
28,296,80213,2,0,L|38:226,2,46.7999985717774,8|0|8,1:0|0:0|0:1,0:0:0:0:
100,190,80428,2,0,L|89:120,2,46.7999985717774,8|8|0,1:0|1:0|1:0,0:0:0:0:
21,87,80642,6,0,L|31:17,7,46.7999985717774,0|0|0|0|0|0|0|0,3:0|3:0|3:0|3:0|3:0|3:0|3:0|3:0,0:0:0:0:
113,59,81070,2,0,L|261:37,1,136.5,0|0,0:0|0:0,0:0:0:0:
342,97,81499,5,12,1:0:0:0:
365,100,81606,1,8,0:1:0:0:
388,103,81713,2,0,L|272:119,1,101.399995358277,8|8,0:1|0:1,0:0:0:0:
139,149,81928,1,8,1:0:0:0:
116,146,82035,1,8,0:1:0:0:
93,143,82142,2,0,L|209:127,1,101.399995358277,8|8,0:1|0:1,0:0:0:0:
343,105,82356,5,8,1:0:0:0:
366,110,82463,1,8,0:1:0:0:
389,115,82570,2,0,L|272:121,1,101.399995358277,8|8,0:1|0:1,0:0:0:0:
137,140,82785,1,8,1:0:0:0:
114,135,82892,1,8,0:1:0:0:
91,130,82999,2,0,L|208:124,1,101.399995358277,8|8,0:1|0:1,0:0:0:0:
344,115,83213,5,8,1:0:0:0:
367,121,83320,1,8,0:1:0:0:
389,128,83427,2,0,L|272:124,1,101.399995358277,8|8,0:1|0:1,0:0:0:0:
136,130,83642,1,8,1:0:0:0:
113,124,83749,1,8,0:1:0:0:
91,117,83856,2,0,L|208:121,1,101.399995358277,8|8,0:1|0:1,0:0:0:0:
344,109,84070,5,8,1:0:0:0:
365,117,84177,1,8,0:1:0:0:
386,126,84284,2,0,L|270:112,1,101.399995358277,8|8,0:1|0:1,0:0:0:0:
91,89,84499,1,8,1:0:0:0:
91,89,84928,6,0,L|102:145,3,50.6999976791383,8|8|8|8,3:1|3:1|3:1|3:1,0:0:0:0:
30,193,85142,2,0,L|19:249,3,50.6999976791383,8|8|8|8,3:1|3:1|3:1|3:1,0:0:0:0:
92,322,85356,2,0,L|101:272,3,50.6999976791383,8|8|8|8,3:1|3:1|3:1|3:1,0:0:0:0:
190,267,85570,2,0,L|180:217,3,50.6999976791383,8|8|8|8,3:1|3:1|3:1|3:1,0:0:0:0:
291,325,85785,6,0,L|281:275,3,50.6999976791383,8|8|8|8,3:1|3:1|3:1|3:1,0:0:0:0:
373,259,85999,2,0,L|382:209,3,50.6999976791383,8|8|8|8,3:1|3:1|3:1|3:1,0:0:0:0:
250,169,86213,2,0,L|326:200,3,50.6999976791383,8|8|8|8,3:1|3:1|3:1|3:1,0:0:0:0:
406,107,86428,2,0,L|330:138,3,50.6999976791383,8|8|8|8,3:1|3:1|3:1|3:1,0:0:0:0:
272,62,86642,5,0,0:0:0:0:
256,192,86695,12,0,87874,0:0:0:0:
31,297,87928,6,0,L|21:362,7,50.6999976791383,8|8|8|8|8|8|8|8,3:1|3:1|3:1|3:1|3:1|3:1|3:1|3:1,0:0:0:0:
99,348,88356,6,0,B|197:301|186:385|298:339,1,187.19999428711,6|8,0:0|0:0,0:0:0:0:
362,297,88678,2,0,L|382:105,1,187.19999428711,0|0,0:0|0:0,0:0:0:0:
279,195,88999,2,0,L|161:181,1,93.5999971435548,8|0,0:0|0:0,0:0:0:0:
7,163,89213,2,0,L|99:174,1,93.5999971435548,2|0,0:0|0:0,0:0:0:0:
153,107,89428,2,0,L|162:30,2,62.3999980957032,8|0|0,0:0|0:0|0:0,0:0:0:0:
135,250,89642,2,0,L|127:311,2,62.3999980957032,2|0|0,0:0|0:0|0:0,0:0:0:0:
7,163,89856,1,8,0:0:0:0:
7,163,89928,1,0,0:0:0:0:
7,163,89999,1,0,0:0:0:0:
7,163,90070,6,0,L|15:283,1,93.5999971435548,2|0,0:0|0:0,0:0:0:0:
135,250,90285,2,0,L|123:349,1,93.5999971435548,8|0,0:0|0:0,0:0:0:0:
279,195,90499,2,0,L|285:288,1,93.5999971435548,2|0,0:0|0:0,0:0:0:0:
396,360,90713,2,0,L|402:266,1,93.5999971435548,8|0,0:0|0:0,0:0:0:0:
414,124,90928,5,2,0:0:0:0:
416,100,91035,1,0,0:0:0:0:
418,76,91142,2,0,L|425:-7,2,62.3999980957032,8|0|0,0:0|0:0|0:0,0:0:0:0:
273,132,91356,2,0,L|278:194,2,62.3999980957032,2|0|0,0:0|0:0|0:0,0:0:0:0:
165,62,91570,2,0,L|176:11,3,46.7999985717774,8|0|0|0,0:0|0:0|0:0|0:0,0:0:0:0:
77,79,91785,6,0,B|85:150|85:150|94:160|94:160|88:174|88:174|96:275,1,187.19999428711,2|8,0:0|0:0,0:0:0:0:
154,351,92106,2,0,P|225:298|304:339,1,187.19999428711,0|0,0:0|0:0,0:0:0:0:
456,207,92428,6,0,B|480:186|523:200|523:200|498:105|358:117|379:232,1,280.799991430664,8|0,0:0|0:0,0:0:0:0:
418,273,92803,1,0,0:0:0:0:
431,284,92856,2,0,L|527:297,2,62.3999980957032,8|0|0,0:0|0:0|0:0,0:0:0:0:
304,339,93070,2,0,L|365:330,2,62.3999980957032,2|0|0,0:0|0:0|0:0,0:0:0:0:
245,274,93285,2,0,L|199:264,3,46.7999985717774,8|0|0|0,0:0|0:0|0:0|0:0,0:0:0:0:
142,313,93499,6,0,P|127:239|233:197,1,187.19999428711,2|8,0:0|0:0,0:0:0:0:
316,122,93820,2,0,L|98:98,1,187.19999428711,0|0,0:0|0:0,0:0:0:0:
42,51,94142,6,0,L|57:185,1,117,8|0,0:0|0:0,0:0:0:0:
65,269,94570,6,0,L|71:335,2,62.3999980957032,8|0|0,0:0|0:0|0:0,0:0:0:0:
174,210,94785,1,2,0:0:0:0:
172,228,94856,1,0,0:0:0:0:
170,247,94927,1,0,0:0:0:0:
168,265,94999,1,8,0:0:0:0:
255,344,95213,5,4,0:0:0:0:
286,337,95320,1,0,0:0:0:0:
317,330,95428,1,8,0:0:0:0:
282,237,95535,5,0,0:0:0:0:
313,244,95643,1,2,0:0:0:0:
343,250,95750,1,0,0:0:0:0:
398,314,95856,5,8,0:0:0:0:
429,307,95963,1,0,0:0:0:0:
460,300,96070,6,0,L|520:290,7,50.6999976791383,2|0|0|0|8|0|0|0,3:2|3:0|3:0|3:0|3:2|3:0|3:0|3:0,0:0:0:0:
419,210,96499,2,0,L|478:219,7,50.6999976791383,2|0|0|0|8|0|0|0,3:2|3:0|3:0|3:0|3:2|3:0|3:0|3:0,0:0:0:0:
470,124,96928,6,0,L|355:137,1,101.399995358277,6|0,0:0|0:0,0:0:0:0:
308,45,97142,2,0,L|207:33,1,101.399995358277,8|0,0:0|0:0,0:0:0:0:
238,223,97356,2,0,L|249:122,1,101.399995358277,2|0,0:0|0:0,0:0:0:0:
85,66,97570,2,0,L|73:166,1,101.399995358277,8|0,0:0|0:0,0:0:0:0:
61,270,97785,5,2,0:0:0:0:
59,294,97892,1,0,0:0:0:0:
56,318,97999,2,0,L|48:401,2,67.5999969055177,8|0|0,0:0|0:0|0:0,0:0:0:0:
148,280,98213,2,0,L|140:211,2,67.5999969055177,2|0|0,0:0|0:0|0:0,0:0:0:0:
238,314,98428,2,0,L|230:381,2,67.5999969055177,8|0|0,0:0|0:0|0:0,0:0:0:0:
311,268,98642,6,0,L|542:289,1,202.799990716553,2|8,0:0|0:0,0:0:0:0:
468,162,98963,2,0,B|444:171|423:203|423:203|455:39,1,202.799990716553,0|0,0:0|0:0,0:0:0:0:
338,18,99231,1,0,0:0:0:0:
340,32,99285,2,0,B|353:116|353:116|197:86|197:86|258:32,1,304.19998607483,8|0,0:0|0:0,0:0:0:0:
270,186,99713,1,8,0:0:0:0:
273,199,99820,1,0,0:0:0:0:
276,212,99928,2,0,L|392:231,1,101.399995358277,2|0,0:0|0:0,0:0:0:0:
240,320,100142,2,0,L|139:336,1,101.399995358277,8|0,0:0|0:0,0:0:0:0:
276,212,100356,5,2,3:2:0:0:
273,199,100464,1,0,3:0:0:0:
270,186,100570,2,0,L|260:124,4,50.6999976791383,2|2|2|2|2,3:2|3:2|3:2|3:2|3:2,0:0:0:0:
364,155,100892,1,0,3:0:0:0:
361,142,100999,2,0,L|351:80,3,50.6999976791383,2|2|2|2,3:2|3:2|3:2|3:2,0:0:0:0:
452,91,101213,6,0,L|442:29,7,50.6999976791383,2|2|2|2|2|2|2|2,3:2|3:2|3:2|3:2|3:2|3:2|3:2|3:2,0:0:0:0:
465,177,101642,2,0,L|473:227,7,50.6999976791383,2|2|2|2|2|2|2|2,3:2|3:2|3:2|3:2|3:2|3:2|3:2|3:2,0:0:0:0:
487,315,102070,6,0,B|422:302|422:302|373:328|373:328|280:312,1,187.19999428711,6|8,0:0|0:0,0:0:0:0:
235,384,102392,2,0,B|214:289|214:289|295:194,1,187.19999428711,0|0,0:0|0:0,0:0:0:0:
361,142,102713,2,0,L|248:133,1,93.5999971435548,8|0,0:0|0:0,0:0:0:0:
86,120,102928,2,0,L|179:127,1,93.5999971435548,2|0,0:0|0:0,0:0:0:0:
96,205,103142,6,0,L|90:267,2,62.3999980957032,8|0|0,0:0|0:0|0:0,0:0:0:0:
179,127,103356,2,0,L|184:64,2,62.3999980957032,2|0|0,0:0|0:0|0:0,0:0:0:0:
272,220,103570,1,8,0:0:0:0:
269,251,103641,1,0,0:0:0:0:
266,282,103712,1,0,0:0:0:0:
321,349,103785,6,0,L|451:327,1,93.5999971435548,2|0,0:0|0:0,0:0:0:0:
174,266,103999,2,0,L|266:281,1,93.5999971435548,8|0,0:0|0:0,0:0:0:0:
80,297,104213,2,0,L|95:204,1,93.5999971435548,2|0,0:0|0:0,0:0:0:0:
194,34,104428,2,0,L|178:126,1,93.5999971435548,8|0,0:0|0:0,0:0:0:0:
319,151,104642,5,2,0:0:0:0:
316,130,104749,1,0,0:0:0:0:
313,109,104856,2,0,L|308:37,2,62.3999980957032,8|0|0,0:0|0:0|0:0,0:0:0:0:
408,170,105070,2,0,L|403:232,2,62.3999980957032,2|0|0,0:0|0:0|0:0,0:0:0:0:
261,219,105285,1,8,0:0:0:0:
263,250,105356,1,0,0:0:0:0:
266,280,105427,1,0,0:0:0:0:
323,365,105499,6,0,L|131:350,1,187.19999428711,2|8,0:0|0:0,0:0:0:0:
37,259,105820,2,0,B|72:292|72:292|81:114,1,187.19999428711,0|0,0:0|0:0,0:0:0:0:
7,73,106142,2,0,B|93:50|93:50|172:96|172:96|284:69,1,280.799991430664,8|0,0:0|0:0,0:0:0:0:
384,42,106517,1,0,0:0:0:0:
392,31,106570,6,0,L|383:151,1,93.5999971435548,8|0,0:0|0:0,0:0:0:0:
375,225,106785,2,0,L|367:318,1,93.5999971435548,2|0,0:0|0:0,0:0:0:0:
274,355,106999,1,8,0:0:0:0:
274,355,107070,1,0,0:0:0:0:
274,355,107142,1,0,0:0:0:0:
274,355,107213,6,0,P|232:314|71:353,1,187.19999428711,2|8,0:0|0:0,0:0:0:0:
15,370,107535,2,0,L|32:173,1,187.19999428711,0|0,0:0|0:0,0:0:0:0:
45,11,107856,2,0,L|36:118,1,93.5999971435548,8|0,0:0|0:0,0:0:0:0:
119,210,108070,5,2,3:2:0:0:
155,226,108141,1,0,3:2:0:0:
195,226,108212,1,0,3:2:0:0:
231,208,108285,5,8,3:2:0:0:
267,190,108357,1,0,3:2:0:0:
307,190,108428,1,0,3:2:0:0:
344,207,108499,1,2,3:2:0:0:
377,256,108570,1,0,3:2:0:0:
377,329,108642,1,0,3:2:0:0:
315,376,108713,1,8,3:2:0:0:
315,376,108928,6,0,L|262:362,7,50.6999976791383,2|2|2|2|8|0|0|0,3:2|3:2|3:2|3:2|3:2|0:0|0:0|0:0,0:0:0:0:
177,316,109356,2,0,L|127:328,7,50.6999976791383,2|2|2|2|8|0|0|0,3:2|3:2|3:2|3:2|3:2|0:0|0:0|0:0,0:0:0:0:
39,374,109785,2,0,L|26:324,7,50.6999976791383,2|2|2|2|8|0|0|0,3:2|3:2|3:2|3:2|3:2|0:0|0:0|0:0,0:0:0:0:
85,248,110213,2,0,L|97:198,7,50.6999976791383,2|2|2|2|8|0|0|0,3:2|3:2|3:2|3:2|3:2|0:0|0:0|0:0,0:0:0:0:
28,131,110642,6,0,L|15:81,15,50.6999976791383,2|2|2|2|2|2|2|2|2|2|2|2|2|2|2|2,3:2|3:2|3:2|3:2|3:2|3:2|3:2|3:2|3:2|3:2|3:2|3:2|3:2|3:2|3:2|3:2,0:0:0:0:
6,59,111499,6,0,B|174:169|157:3|351:113,1,354.899983753968,2|2,3:2|3:2,0:0:0:0:
456,208,111928,6,0,L|312:233,1,136.5,2|0,3:2|0:0,0:0:0:0:
309,235,112356,5,0,0:0:0:0:
28,132,112678,1,0,0:0:0:0:
133,371,112892,1,0,0:0:0:0:
133,371,112945,1,0,0:0:0:0:
133,371,112999,1,0,0:0:0:0:
333,63,113428,5,0,0:0:0:0:
321,149,113535,1,0,0:0:0:0:
309,235,113642,1,0,0:0:0:0:
309,235,114070,5,4,0:1:0:0:
256,192,114123,12,0,116373,0:0:0:0:
510,342,116427,6,0,L|470:353,3,39,2|2|2|2,3:2|3:2|3:2|3:2,0:0:0:0:
418,278,116641,2,0,L|380:267,3,39,2|2|2|2,3:2|3:2|3:2|3:2,0:0:0:0:
346,354,116855,2,0,L|306:365,3,39,2|2|2|2,3:2|3:2|3:2|3:2,0:0:0:0:
254,290,117069,2,0,L|216:279,3,39,2|2|2|2,3:2|3:2|3:2|3:2,0:0:0:0:
309,214,117284,2,0,L|319:176,3,39,2|2|2|2,3:2|3:2|3:2|3:2,0:0:0:0:
352,38,117498,1,4,3:0:0:0:
