osu file format v14

[General]
AudioFilename: audio.mp3
AudioLeadIn: 0
PreviewTime: 73758
Countdown: 0
SampleSet: Soft
StackLeniency: 0.2
Mode: 0
LetterboxInBreaks: 0
WidescreenStoryboard: 0

[Editor]
DistanceSpacing: 1.1
BeatDivisor: 4
GridSize: 32
TimelineZoom: 5.099997

[Metadata]
Title:iLLness LiLin
TitleUnicode:iLLness LiLin
Artist:Kaneko Chiharu
ArtistUnicode:かねこちはる
Creator:Kroytz
Version:Akali's GRAVITY
Source:SOUND VOLTEX IV HEAVENLY HAVEN
Tags:The 6th KAC Original Song Contest Winner Hardcore Piano SDVX 4 09kami yf_bmp Akali PoNo Ponoyoshi [ Drop ] Kawashiro Milr_ White Music Hobbes2 Rizen
BeatmapID:1345671
BeatmapSetID:634147

[Difficulty]
HPDrainRate:5
CircleSize:4
OverallDifficulty:8.5
ApproachRate:9.6
SliderMultiplier:1.8
SliderTickRate:1

[Events]
//Background and Video events
0,0,"BG.jpg",0,0
//Break Periods
//Storyboard Layer 0 (Background)
//Storyboard Layer 1 (Fail)
//Storyboard Layer 2 (Pass)
//Storyboard Layer 3 (Foreground)
//Storyboard Sound Samples

[TimingPoints]
930,214.285714285714,4,2,20,80,1,0
1358,-100,4,2,1,80,0,0
3929,-149.253731343284,4,2,1,80,0,0
3983,-149.253731343284,4,2,1,5,0,0
4304,-149.253731343284,4,2,1,80,0,0
4358,214.285714285714,3,2,1,80,1,0
4358,-125,3,2,1,80,0,0
6929,214.285714285714,4,2,1,80,1,0
6929,-125,4,2,1,80,0,0
11214,-100,4,2,1,80,0,0
16357,-100,4,2,0,80,0,0
17215,-100,4,2,1,80,0,0
17911,-100,4,2,1,5,0,0
18071,-75.187969924812,4,2,1,80,0,0
18607,-75.187969924812,4,2,1,80,0,0
18661,-75.187969924812,4,2,1,5,0,0
18714,-75.187969924812,4,2,1,80,0,0
18768,-75.187969924812,4,2,1,5,0,0
18821,-75.187969924812,4,2,1,80,0,0
18875,-75.187969924812,4,2,1,5,0,0
18928,-59.8802395209581,4,2,1,80,0,0
19357,-75.187969924812,4,2,1,80,0,0
21446,-75.187969924812,4,2,1,5,0,0
21500,-75.187969924812,4,2,1,80,0,0
21928,-59.8802395209581,4,2,1,80,0,0
22786,-75.187969924812,4,2,1,80,0,0
25303,-75.187969924812,4,2,1,5,0,0
25357,-75.187969924812,4,2,1,80,0,0
25786,-59.8802395209581,4,2,1,80,0,0
25946,-75.187969924812,4,2,1,5,0,0
26000,-75.187969924812,4,2,1,80,0,0
27500,-59.8802395209581,4,2,1,80,0,0
28250,-200,4,2,1,80,0,0
28303,-200,4,2,1,5,0,0
28571,-59.8802395209581,4,2,1,80,0,0
29214,-75.187969924812,4,2,1,80,0,0
31786,-100,4,2,1,80,0,0
33500,-59.8802395209581,4,2,1,80,0,0
33661,-59.8802395209581,4,2,1,5,0,0
33714,-59.8802395209581,4,2,1,80,0,0
34518,-59.8802395209581,4,2,1,5,0,0
34571,-59.8802395209581,4,2,1,80,0,0
34732,-59.8802395209581,4,2,1,5,0,0
34786,-75.187969924812,4,2,1,80,0,0
36928,-100,4,2,1,80,0,0
38214,-100,4,2,0,80,0,0
38643,-59.8802395209581,4,2,1,80,0,0
45071,-100,4,2,1,80,0,0
45500,214.285714285714,3,2,1,80,1,0
48071,214.285714285714,4,2,1,80,1,0
49785,-75.187969924812,4,2,1,80,0,0
51285,-100,4,2,1,80,0,0
52357,-149.253731343284,4,2,0,80,0,0
57499,-149.253731343284,4,2,1,80,0,0
57606,-149.253731343284,4,2,0,80,0,0
58356,-149.253731343284,4,2,1,80,0,0
58463,-149.253731343284,4,2,0,80,0,0
59213,-149.253731343284,4,2,1,80,0,0
59320,-149.253731343284,4,2,0,80,0,0
60070,-149.253731343284,4,2,0,80,0,0
60928,-100,4,2,2,80,0,1
62642,-149.253731343284,4,2,2,80,0,1
64142,-100,4,2,2,80,0,1
66928,-149.253731343284,4,2,2,80,0,1
67570,-100,4,2,2,80,0,1
69499,-149.253731343284,4,2,2,80,0,1
71213,-100,4,2,2,80,0,1
74642,-75.187969924812,4,2,1,80,0,0
76785,-59.8802395209581,4,2,1,80,0,0
77642,-100,4,2,1,80,0,0
78070,-75.187969924812,4,2,1,80,0,0
79785,-59.8802395209581,4,2,1,80,0,0
79945,-59.8802395209581,4,2,1,5,0,0
79999,-59.8802395209581,4,2,1,80,0,0
81070,-200,4,2,1,80,0,0
81499,-75.187969924812,4,2,1,80,0,0
86642,-100,4,2,1,80,0,0
87285,-125,4,2,1,80,0,0
88356,-100,4,2,2,80,0,1
112356,-125,4,2,2,80,0,0
114016,-125,4,2,2,5,0,0
114070,214.285714285714,4,2,1,80,1,0
117498,214.285714285714,4,2,1,80,1,0
117498,-149.253731343284,4,2,1,80,0,0
117551,-149.253731343284,4,2,1,5,0,0

[Colours]
Combo1 : 237,235,228
Combo2 : 41,48,82
Combo3 : 101,83,106
Combo4 : 167,145,157
Combo5 : 114,131,163
Combo6 : 166,187,211

[HitObjects]
19,115,930,6,0,P|13:191|101:101,1,300,4|0,3:1|0:0,0:0:0:0:
98,27,1358,2,0,P|92:56|97:85,5,60,0|0|0|0|0|0,0:0|0:0|0:0|0:0|0:0|0:0,0:0:0:0:
114,111,1787,5,0,0:0:0:0:
139,126,1858,1,0,0:0:0:0:
168,133,1929,1,0,0:0:0:0:
197,129,2001,1,0,0:0:0:0:
224,116,2072,1,0,0:0:0:0:
249,101,2144,1,0,0:0:0:0:
280,99,2216,1,0,0:0:0:0:
309,105,2287,1,0,0:0:0:0:
334,121,2358,1,0,0:0:0:0:
348,147,2429,2,0,P|353:176|347:205,2,60,0|0|0,0:0|0:0|0:0,0:0:0:0:
277,233,2644,6,0,P|284:262|299:282,7,45,0|0|0|0|0|0|0|0,0:0|0:0|0:0|0:0|0:0|0:0|0:0|0:0,0:0:0:0:
385,284,3072,2,0,P|400:267|408:247,7,45
351,160,3501,6,0,L|346:205,7,45,2|2|2|2|2|2|2|2,3:2|3:2|3:2|3:2|3:2|3:2|3:2|3:2,0:0:0:0:
277,233,3929,6,0,B|317:223|317:223|486:239,1,211.049990016861,2|0,3:2|0:0,0:0:0:0:
480,271,4358,6,0,L|408:264,1,72,12|0,1:0|0:0,0:0:0:0:
256,352,4572,2,0,L|350:344,1,72,8|0,1:0|0:0,0:0:0:0:
277,233,4786,1,8,1:0:0:0:
169,223,4893,1,0,0:0:0:0:
74,276,5000,6,0,L|67:347,1,72,8|0,1:0|0:0,0:0:0:0:
255,261,5215,2,0,L|248:189,1,72,8|0,1:0|0:0,0:0:0:0:
138,143,5429,1,8,1:0:0:0:
147,251,5536,1,0,0:0:0:0:
49,205,5643,6,0,L|55:133,1,72,8|0,1:0|0:0,0:0:0:0:
199,53,5857,2,0,L|127:59,1,72,8|0,1:0|0:0,0:0:0:0:
246,152,6072,1,8,1:0:0:0:
354,161,6179,1,0,0:0:0:0:
450,110,6286,6,0,L|444:38,1,72,8|0,1:0|0:0,0:0:0:0:
450,212,6500,2,0,L|444:284,1,72,8|0,1:0|0:0,0:0:0:0:
293,251,6715,1,8,1:0:0:0:
354,161,6822,1,0,0:0:0:0:
342,53,6929,6,0,P|306:32|266:26,1,72,8|0,1:0|0:0,0:0:0:0:
190,195,7143,2,0,P|221:178|245:151,1,72,8|0,1:0|0:0,0:0:0:0:
86,47,7357,1,8,1:0:0:0:
52,164,7464,1,0,0:0:0:0:
80,282,7571,2,0,P|90:316|89:352,1,72,8|0,1:0|0:0,0:0:0:0:
30,192,7786,5,8,1:0:0:0:
96,163,7893,1,0,0:3:0:0:
167,170,8000,1,8,1:0:0:0:
225,212,8107,1,0,0:0:0:0:
252,278,8214,5,8,1:0:0:0:
151,239,8321,1,0,0:0:0:0:
239,177,8428,2,0,L|311:171,1,72,8|0,1:0|0:0,0:0:0:0:
429,44,8643,6,0,L|398:109,1,72,8|0,1:0|0:0,0:0:0:0:
310,171,8857,1,8,1:0:0:0:
300,64,8964,1,0,0:0:0:0:
193,54,9071,5,8,1:0:0:0:
134,96,9178,1,0,0:0:0:0:
105,161,9286,1,8,1:0:0:0:
112,232,9393,1,0,0:0:0:0:
153,289,9500,5,8,1:0:0:0:
258,266,9607,1,0,0:0:0:0:
310,171,9714,2,0,L|316:99,1,72,8|0,1:0|0:0,0:0:0:0:
56,28,9928,2,0,L|62:100,1,72,8|0,1:0|0:0,0:0:0:0:
153,289,10143,5,8,1:0:0:0:
200,176,10250,1,0,0:0:0:0:
46,203,10357,6,0,L|48:239,3,36,8|8|8|8,3:0|3:0|3:0|3:0,0:0:0:0:
81,252,10571,5,8,3:0:0:0:
177,301,10678,2,0,L|179:265,3,36,8|8|8|8,3:0|3:0|3:0|3:0,0:0:0:0:
215,256,10893,5,8,3:0:0:0:
311,305,11000,2,0,L|347:307,3,36,8|8|8|8,3:0|3:0|3:0|3:0,0:0:0:0:
382,278,11214,6,0,L|277:271,1,90,12|8,1:0|0:1,0:0:0:0:
112,170,11428,2,0,B|157:184|157:184|200:176,1,90,8|8,1:0|0:1,0:0:0:0:
400,124,11643,1,8,1:0:0:0:
394,117,11750,1,8,0:1:0:0:
299,21,11858,2,0,L|292:125,1,90,8|8,1:0|0:1,0:0:0:0:
154,249,12071,6,0,P|185:218|199:175,1,90,8|8,1:0|0:1,0:0:0:0:
28,18,12286,2,0,P|39:61|69:93,1,90,8|8,1:0|0:1,0:0:0:0:
299,21,12500,5,8,1:0:0:0:
160,97,12607,1,8,0:1:0:0:
292,110,12714,1,8,1:0:0:0:
200,176,12821,1,8,0:1:0:0:
332,189,12928,6,0,B|340:232|340:232|326:277,1,90,8|8,1:0|0:1,0:0:0:0:
75,357,13143,2,0,L|68:253,1,90,8|8,1:0|0:1,0:0:0:0:
160,97,13357,2,0,L|153:186,1,90,8|8,1:0|0:1,0:0:0:0:
200,316,13571,1,8,1:0:0:0:
206,322,13678,1,8,0:1:0:0:
333,369,13786,6,0,L|437:376,1,90,8|8,1:0|0:1,0:0:0:0:
254,211,14000,2,0,L|165:218,1,90,8|8,1:0|0:1,0:0:0:0:
326,276,14214,5,8,1:0:0:0:
435,151,14321,1,8,0:1:0:0:
345,182,14428,1,8,1:0:0:0:
507,213,14536,1,8,0:1:0:0:
488,306,14643,6,0,L|427:300,3,45,8|0|8|0,3:1|3:0|3:1|3:0,0:0:0:0:
370,271,14857,2,0,L|326:276,3,45,8|0|8|0,3:1|3:0|3:1|3:0,0:0:0:0:
250,326,15071,6,0,L|205:321,3,45,8|0|8|0,3:1|3:0|3:1|3:0,0:0:0:0:
132,291,15286,2,0,L|87:295,3,45,8|0|8|0,3:1|3:0|3:1|3:0,0:0:0:0:
97,200,15500,6,0,L|141:204,3,45,8|0|8|0,3:1|3:0|3:1|3:0,0:0:0:0:
205,159,15714,2,0,L|209:114,3,45,8|0|8|0,3:1|3:0|3:1|3:0,0:0:0:0:
303,114,15928,6,0,L|307:159,3,45,8|0|8|0,3:1|3:0|3:1|3:0,0:0:0:0:
371,204,16143,2,0,L|415:200,3,45,8|0|8|0,3:1|3:0|3:1|3:0,0:0:0:0:
464,138,16357,5,2,0:0:0:0:
457,108,16428,1,2,0:0:0:0:
435,85,16500,1,2,0:0:0:0:
405,76,16571,1,2,0:0:0:0:
374,83,16643,1,2,0:0:0:0:
350,104,16714,1,2,0:0:0:0:
339,134,16786,5,2,0:0:0:0:
353,129,16857,1,2,0:0:0:0:
367,124,16928,1,2,0:0:0:0:
381,119,17000,1,2,0:0:0:0:
395,114,17071,1,2,0:0:0:0:
409,109,17143,1,2,0:0:0:0:
423,104,17214,2,0,L|420:161,9,45,2|2|2|2|2|2|2|2|2|2,3:2|3:2|3:2|3:2|3:2|3:2|3:2|3:2|3:2|3:2,0:0:0:0:
371,204,17750,6,0,L|375:269,1,45,2|2,3:2|3:2,0:0:0:0:
414,308,17857,2,0,P|381:263|301:309,1,135,0|0,3:2|0:0,0:0:0:0:
292,311,18071,6,0,L|149:323,1,119.699995068512,12|0,1:0|0:0,0:0:0:0:
119,114,18286,1,8,1:0:0:0:
262,128,18393,2,0,P|262:187|236:240,1,119.699995068512,0|8,0:0|1:0,0:0:0:0:
57,255,18607,6,0,L|116:248,1,59.8499975342561,0|0,0:0|0:0,0:0:0:0:
155,163,18714,2,0,L|119:114,1,59.8499975342561,8|0,1:0|0:0,0:0:0:0:
26,124,18821,2,0,L|1:178,1,59.8499975342561,0|0,0:0|0:0,0:0:0:0:
32,310,18928,6,0,B|57:255|57:255|117:249|117:249|152:298|152:298|212:292|212:292|259:193,1,300.599990597077,8|8,1:0|1:0,0:0:0:0:
222,59,19250,1,0,0:0:0:0:
129,52,19358,6,0,B|123:111|123:111|155:163,1,119.699995068512,8|0,1:0|0:0,0:0:0:0:
305,149,19571,2,0,B|329:93|329:93|314:37,1,119.699995068512,8|0,1:0|0:0,0:0:0:0:
237,238,19786,6,0,L|380:250,1,119.699995068512,8|0,1:0|0:0,0:0:0:0:
436,69,20000,1,8,1:0:0:0:
456,80,20107,2,0,P|456:139|430:192,1,119.699995068512,0|8,0:0|1:0,0:0:0:0:
476,91,20321,2,0,P|476:150|450:203,1,119.699995068512,0|8,0:0|1:0,0:0:0:0:
256,248,20536,2,0,L|376:259,1,119.699995068512,0|8,0:0|1:0,0:0:0:0:
222,59,20750,5,0,0:0:0:0:
133,67,20857,1,8,1:0:0:0:
185,141,20964,1,0,0:0:0:0:
96,149,21071,1,8,1:0:0:0:
148,223,21178,1,0,0:0:0:0:
59,231,21286,6,0,B|70:351|70:351|104:288,1,179.549992602768,8|0,1:0|0:0,0:0:0:0:
107,269,21500,6,0,L|96:149,1,119.699995068512,8|0,1:0|0:0,0:0:0:0:
311,51,21714,1,8,1:0:0:0:
294,229,21821,1,0,0:0:0:0:
185,141,21928,6,0,B|300:155|300:155|429:132|429:132|362:151|342:218|405:250|461:229|465:167|416:170,1,450.899985895615,8|0,1:0|0:0,0:0:0:0:
413,102,22357,6,0,L|298:123,1,75.1499976492692,8|0,1:0|0:0,0:0:0:0:
402,89,22464,2,0,L|328:102,1,75.1499976492692,0|0,0:0|0:0,0:0:0:0:
311,51,22571,6,0,L|332:166,1,75.1499976492692,8|0,1:0|0:0,0:0:0:0:
298,62,22678,2,0,L|311:135,1,75.1499976492692,0|0,0:0|0:0,0:0:0:0:
294,229,22786,6,0,B|234:241|234:241|180:215,1,119.699995068512,8|0,1:0|0:0,0:0:0:0:
148,38,23000,1,8,1:0:0:0:
154,45,23107,1,0,0:0:0:0:
185,141,23214,6,0,L|65:130,1,119.699995068512,8|0,1:0|0:0,0:0:0:0:
32,307,23428,1,8,1:0:0:0:
43,287,23536,2,0,P|102:287|155:313,1,119.699995068512,0|8,0:0|1:0,0:0:0:0:
54,267,23750,2,0,P|113:267|166:293,1,119.699995068512,0|8,0:0|1:0,0:0:0:0:
294,229,23964,1,0,0:0:0:0:
328,251,24071,6,0,P|314:270|272:294,1,59.8499975342561,8|0,1:0|0:0,0:0:0:0:
346,287,24178,2,0,P|324:297|276:296,1,59.8499975342561,8|0,0:1|0:0,0:0:0:0:
343,327,24286,2,0,P|319:324|278:300,1,59.8499975342561,8|0,1:0|0:0,0:0:0:0:
321,361,24393,2,0,P|301:347|277:305,1,59.8499975342561,8|0,0:1|0:0,0:0:0:0:
284,380,24500,6,0,P|250:322|263:256,1,119.699995068512,8|0,3:1|3:0,0:0:0:0:
418,227,24714,2,0,P|391:280|339:307,1,119.699995068512,8|0,3:1|3:0,0:0:0:0:
219,188,24928,6,0,P|278:184|328:217,1,119.699995068512,12|0,1:0|0:0,0:0:0:0:
463,366,25143,2,0,L|284:380,1,179.549992602768,10|0,1:0|0:0,0:0:0:0:
201,352,25357,2,0,L|321:361,1,119.699995068512,8|0,1:0|0:0,0:0:0:0:
440,257,25571,2,0,L|448:137,1,119.699995068512,10|0,1:0|0:0,0:0:0:0:
317,73,25786,6,0,B|288:108|278:138|288:193|328:217|328:217|315:193|309:159|315:129|329:122,1,225.449992947808,8|0,1:0|0:0,0:0:0:0:
229,72,26000,2,0,B|218:96|215:116|215:116|211:126|211:126|214:139|214:139|213:162|219:188,1,119.699995068512,10|0,1:0|0:0,0:0:0:0:
201,352,26214,6,0,B|168:303|168:303|110:284,1,119.699995068512,8|0,1:0|0:0,0:0:0:0:
0,252,26428,2,0,B|48:219|48:219|67:161,1,119.699995068512,10|0,1:0|0:0,0:0:0:0:
1,33,26643,6,0,L|120:49,1,119.699995068512,8|0,1:0|0:0,0:0:0:0:
317,73,26857,1,10,1:0:0:0:
317,96,26964,2,0,P|266:126|207:131,1,119.699995068512,0|8,0:0|1:0,0:0:0:0:
318,119,27178,2,0,P|267:149|208:154,1,119.699995068512,0|10,0:0|1:0,0:0:0:0:
67,161,27393,1,0,0:0:0:0:
110,284,27500,6,0,B|139:324|139:324|189:319|189:319|218:264,1,150.299995298538,8|0,1:0|0:0,0:0:0:0:
398,155,27714,2,0,B|368:114|368:114|318:119|318:119|289:174,1,150.299995298538,8|8,1:0|1:0,0:0:0:0:
357,301,27928,5,8,1:0:0:0:
391,187,28036,1,8,1:0:0:0:
276,151,28143,1,8,1:0:0:0:
243,267,28250,2,0,P|277:240|241:241,1,90,8|0,1:0|0:0,0:0:0:0:
146,179,28571,6,0,P|217:195|276:152,1,150.299995298538,14|0,1:0|0:0,0:0:0:0:
212,21,28786,1,8,1:0:0:0:
199,105,28893,1,0,0:0:0:0:
77,116,29000,1,10,1:0:0:0:
50,36,29107,1,0,0:0:0:0:
133,51,29214,6,0,B|127:132|127:132|93:208|93:208|86:311,1,239.399990137024,8|10,1:0|1:0,0:0:0:0:
307,224,29536,1,0,0:0:0:0:
190,178,29643,2,0,B|166:234|166:234|163:293,1,119.699995068512,8|0,1:0|0:0,0:0:0:0:
318,351,29857,1,10,1:0:0:0:
324,344,29964,1,0,0:0:0:0:
413,330,30071,5,8,1:0:0:0:
330,337,30178,1,0,0:0:0:0:
247,344,30286,2,0,L|253:266,3,59.8499975342561,10|0|0|0,1:0|1:0|1:0|1:0,0:0:0:0:
307,224,30500,5,8,1:0:0:0:
224,231,30607,1,0,0:0:0:0:
141,238,30714,2,0,L|147:160,3,59.8499975342561,10|0|0|0,1:0|1:0|1:0|1:0,0:0:0:0:
213,119,30928,6,0,L|291:125,3,59.8499975342561,8|0|8|0,3:1|3:0|3:1|3:0,0:0:0:0:
298,101,31143,6,0,L|299:71,6,29.924998767128,8|0|0|0|8|0|0,3:1|3:0|3:0|3:0|3:1|3:0|3:0,0:0:0:0:
357,159,31357,6,0,L|358:188,6,29.924998767128,8|0|0|0|8|0|0,3:1|3:0|3:0|3:0|3:1|3:0|3:0,0:0:0:0:
436,138,31571,6,0,L|437:108,6,29.924998767128,8|0|0|0|8|0|0,3:1|3:0|3:0|3:0|3:1|3:0|3:0,0:0:0:0:
447,173,31786,6,0,P|445:219|407:266,1,90,8|2,1:0|1:0,0:0:0:0:
256,320,32000,1,2,1:0:0:0:
145,178,32107,6,0,P|147:224|185:271,1,90,8|2,1:0|1:0,0:0:0:0:
264,304,32321,1,2,1:0:0:0:
234,197,32428,1,8,1:0:0:0:
67,298,32536,1,2,1:0:0:0:
203,345,32643,2,0,L|222:287,3,45,8|0|8|8,1:0|0:0|3:1|3:1,0:0:0:0:
256,320,32857,5,8,3:1:0:0:
268,208,32964,1,8,1:0:0:0:
222,105,33071,5,8,1:0:0:0:
262,124,33178,1,0,0:0:0:0:
306,120,33286,1,0,0:0:0:0:
342,94,33393,1,0,0:0:0:0:
360,54,33500,6,0,B|289:71|289:71|212:52|212:52|106:89,1,225.449992947808,12|0,1:0|0:0,0:0:0:0:
83,38,33714,2,0,P|72:74|80:110,2,75.1499976492692,8|0|0,1:0|0:0|0:0,0:0:0:0:
222,105,33928,6,0,L|214:221,1,75.1499976492692,8|0,1:0|0:0,0:0:0:0:
206,112,34036,2,0,L|200:186,1,75.1499976492692,0|0,0:0|0:0,0:0:0:0:
109,183,34143,6,0,L|116:299,1,75.1499976492692,8|0,1:0|0:0,0:0:0:0:
125,190,34250,2,0,L|130:264,1,75.1499976492692,0|0,0:0|0:0,0:0:0:0:
230,272,34357,6,0,B|211:240|170:217|115:218|69:250|69:250|113:257,1,225.449992947808,8|0,1:0|0:0,0:0:0:0:
176,354,34571,2,0,P|230:282|156:165,1,225.449992947808,10|0,1:0|0:0,0:0:0:0:
124,191,34786,6,0,B|173:172|173:172|255:174,1,119.699995068512,8|0,1:0|0:0,0:0:0:0:
509,181,35000,1,10,1:0:0:0:
312,0,35214,6,0,L|318:133,1,119.699995068512,8|0,1:0|0:0,0:0:0:0:
253,308,35428,1,10,1:0:0:0:
233,297,35536,2,0,P|233:238|259:185,1,119.699995068512,0|8,0:0|1:0,0:0:0:0:
420,286,35750,2,0,P|414:226|382:176,1,119.699995068512,0|10,0:0|1:0,0:0:0:0:
223,74,35964,1,0,0:0:0:0:
124,191,36071,5,8,1:0:0:0:
317,119,36232,5,8,1:0:0:0:
50,89,36393,5,8,1:0:0:0:
50,225,36500,2,0,P|54:259|79:295,1,59.8499975342561,0|0,3:0|3:0,0:0:0:0:
77,258,36607,2,0,P|98:285|137:303,1,59.8499975342561,0|0,3:0|3:0,0:0:0:0:
117,273,36714,2,0,P|148:285|192:282,1,59.8499975342561,0|0,3:0|3:0,0:0:0:0:
159,266,36821,2,0,P|193:261|228:235,1,59.8499975342561,0|0,3:0|3:0,0:0:0:0:
124,191,36928,6,0,P|119:241|148:286,1,90,8|2,1:0|1:0,0:0:0:0:
305,332,37143,1,2,1:0:0:0:
317,119,37250,6,0,P|287:159|290:213,1,90,8|2,1:0|1:0,0:0:0:0:
313,316,37464,1,2,1:0:0:0:
365,184,37571,1,8,1:0:0:0:
199,224,37678,1,2,1:0:0:0:
321,300,37786,6,0,L|380:297,3,45,8|0|8|8,1:0|0:0|3:1|3:1,0:0:0:0:
418,279,38000,2,0,L|329:284,1,90,8|0,3:1|0:0,0:0:0:0:
199,224,38214,5,2,0:0:0:0:
212,196,38286,1,2,0:0:0:0:
209,165,38357,1,2,0:0:0:0:
191,139,38428,1,2,0:0:0:0:
162,126,38500,1,2,0:0:0:0:
130,129,38571,1,2,0:0:0:0:
103,147,38643,6,0,L|116:304,1,150.299995298538,12|8,0:1|0:1,0:0:0:0:
409,147,38857,2,0,L|396:296,1,150.299995298538,8|8,0:1|0:1,0:0:0:0:
130,129,39071,6,0,L|143:286,1,150.299995298538,8|8,0:1|0:1,0:0:0:0:
382,129,39286,2,0,L|369:278,1,150.299995298538,8|8,0:1|0:1,0:0:0:0:
463,248,39500,5,8,0:1:0:0:
285,204,39607,1,8,0:1:0:0:
177,274,39714,2,0,L|183:348,1,75.1499976492692,8|8,3:1|3:1,0:0:0:0:
204,256,39821,2,0,L|210:330,1,75.1499976492692,8|8,3:1|3:1,0:0:0:0:
268,291,39928,2,0,P|210:331|136:282,1,150.299995298538,8|8,0:1|0:1,0:0:0:0:
130,129,40143,2,0,P|188:89|262:138,1,150.299995298538,8|8,0:1|0:1,0:0:0:0:
359,210,40357,6,0,L|285:204,3,75.1499976492692,8|8|8|8,3:1|3:1|3:1|3:1,0:0:0:0:
253,120,40571,2,0,L|259:45,3,75.1499976492692,8|8|8|8,3:1|3:1|3:1|3:1,0:0:0:0:
335,26,40786,2,0,B|348:100|348:100|320:170,1,150.299995298538,8|8,3:1|0:1,0:0:0:0:
140,220,41000,2,0,B|127:294|127:294|155:363,1,150.299995298538,8|8,0:1|0:1,0:0:0:0:
268,291,41214,5,8,3:1:0:0:
264,240,41286,1,8,3:1:0:0:
231,204,41357,1,8,3:1:0:0:
182,196,41428,1,8,3:1:0:0:
140,220,41500,1,8,3:1:0:0:
91,220,41571,1,8,3:1:0:0:
55,190,41643,5,8,3:1:0:0:
86,191,41714,1,8,3:1:0:0:
118,193,41786,1,8,3:1:0:0:
150,194,41857,1,8,3:1:0:0:
182,196,41928,1,8,3:1:0:0:
214,197,42000,1,8,3:1:0:0:
246,199,42071,6,0,B|217:127|217:127|89:121,1,150.299995298538,8|8,0:1|0:1,0:0:0:0:
0,301,42286,2,0,L|150:308,1,150.299995298538,8|8,0:1|0:1,0:0:0:0:
324,195,42500,6,0,P|265:239|255:312,1,150.299995298538,8|8,0:1|0:1,0:0:0:0:
512,301,42714,2,0,L|361:308,1,150.299995298538,8|8,0:1|0:1,0:0:0:0:
324,195,42928,6,0,L|410:198,1,75.1499976492692,8|8,3:1|3:1,0:0:0:0:
340,166,43036,2,0,L|426:169,1,75.1499976492692,8|0,3:1|0:0,0:0:0:0:
356,137,43143,2,0,L|506:143,1,150.299995298538,8|0,3:1|0:1,0:0:0:0:
431,15,43357,6,0,B|408:28|390:47|390:47|374:57|374:57|373:77|373:77|360:100|355:137|355:137|307:151|274:136|274:136|231:147|211:182|211:182|172:165|172:165|143:182|113:185|81:168,1,450.899985895615,0|0,0:0|0:0,0:0:0:0:
123,87,43786,5,8,0:1:0:0:
124,207,43893,1,8,0:1:0:0:
125,327,44000,2,0,L|219:338,3,75.1499976492692,8|8|8|0,3:1|3:1|3:1|0:0,0:0:0:0:
256,277,44214,1,0,0:1:0:0:
151,222,44321,2,0,L|155:168,2,37.5749988246346,8|8|8,3:1|3:1|3:1,0:0:0:0:
124,207,44428,6,0,B|180:240|180:240|269:254,1,150.299995298538,8|8,3:1|0:1,0:0:0:0:
476,196,44643,2,0,L|472:142,8,37.5749988246346,8|8|8|8|8|8|8|8|8,3:1|3:1|3:1|3:1|3:1|3:1|3:1|3:1|3:1,0:0:0:0:
414,261,44964,1,8,0:1:0:0:
352,326,45071,2,0,P|391:350|445:347,1,90,0|0,0:0|0:0,0:0:0:0:
476,196,45286,2,0,P|437:172|383:175,1,90,0|0,0:0|0:0,0:0:0:0:
256,277,45500,6,0,L|249:180,1,90,12|0,1:0|0:0,0:0:0:0:
323,18,45714,2,0,L|316:107,1,90,8|0,1:0|0:0,0:0:0:0:
147,169,45928,1,8,1:0:0:0:
240,70,46035,1,0,0:0:0:0:
351,205,46142,2,0,L|440:198,1,90,8|0,1:0|0:0,0:0:0:0:
161,349,46357,6,0,L|72:342,1,90,8|0,1:0|0:0,0:0:0:0:
17,209,46571,1,8,1:0:0:0:
147,169,46678,1,0,0:0:0:0:
58,10,46785,2,0,L|65:99,1,90,8|0,1:0|0:0,0:0:0:0:
161,349,47000,2,0,L|168:260,1,90,8|0,1:0|0:0,0:0:0:0:
351,205,47214,5,8,1:0:0:0:
269,313,47321,1,0,0:0:0:0:
404,331,47428,2,0,L|493:324,1,90,8|0,1:0|0:0,0:0:0:0:
315,107,47642,2,0,L|308:196,1,90,8|0,1:0|0:0,0:0:0:0:
486,223,47857,1,8,1:0:0:0:
404,115,47964,1,0,0:0:0:0:
233,178,48071,6,0,P|188:182|146:168,1,90,8|0,1:0|0:0,0:0:0:0:
72,0,48285,2,0,P|98:35|107:79,1,90,8|0,1:0|0:0,0:0:0:0:
17,208,48499,1,8,1:0:0:0:
76,328,48607,1,0,0:0:0:0:
209,311,48714,1,8,1:0:0:0:
233,178,48821,1,0,0:0:0:0:
106,224,48928,6,0,L|115:271,2,45,8|0|0,3:1|3:0|3:0,0:0:0:0:
224,42,49142,2,0,L|177:51,2,45,8|0|0,3:1|3:0|3:0,0:0:0:0:
406,160,49357,2,0,L|397:113,2,45,8|0|0,3:1|3:0|3:0,0:0:0:0:
288,342,49571,2,0,L|335:333,2,45,8|0|0,3:1|3:0|3:0,0:0:0:0:
91,308,49785,6,0,B|149:321|149:321|209:311,1,119.699995068512,8|8,3:1|3:1,0:0:0:0:
283,196,49999,1,8,3:1:0:0:
106,224,50107,1,8,3:1:0:0:
288,342,50214,6,0,B|301:284|301:284|291:224,1,119.699995068512,8|8,3:1|3:1,0:0:0:0:
224,42,50428,2,0,B|211:100|211:100|221:160,1,119.699995068512,8|8,3:1|3:1,0:0:0:0:
369,200,50642,5,8,3:1:0:0:
429,0,50749,1,8,3:1:0:0:
224,42,50857,2,0,P|270:67|347:62,1,119.699995068512,8|8,3:1|3:1,0:0:0:0:
288,342,51071,2,0,P|286:289|243:225,1,119.699995068512,8|8,3:1|3:1,0:0:0:0:
59,146,51285,5,8,3:1:0:0:
106,224,51392,1,8,3:1:0:0:
185,268,51499,1,0,0:0:0:0:
276,266,51607,1,0,0:0:0:0:
353,219,51714,5,0,0:0:0:0:
274,176,51820,1,0,0:0:0:0:
227,99,51928,5,0,0:0:0:0:
306,56,52035,1,0,0:0:0:0:
230,10,52142,5,0,0:0:0:0:
151,53,52249,1,0,0:0:0:0:
55,119,52357,6,0,P|155:183|274:176,1,241.199988590699,2|2,0:0|0:0,0:0:0:0:
274,176,52999,2,0,L|266:300,1,120.599994295349,2|2,0:0|0:0,0:0:0:0:
341,344,53320,5,2,0:0:0:0:
394,273,53428,2,0,P|394:242|383:214,1,60.2999971476747,2|2,0:0|0:0,0:0:0:0:
274,176,53642,2,0,P|300:190|330:194,1,60.2999971476747,2|2,0:0|0:0,0:0:0:0:
432,121,53856,1,2,0:0:0:0:
438,76,53963,1,2,0:0:0:0:
420,34,54070,5,2,0:0:0:0:
214,102,54285,1,2,0:0:0:0:
338,183,54499,1,2,0:0:0:0:
338,183,54820,5,2,0:0:0:0:
268,240,54928,2,0,P|239:250|209:251,1,60.2999971476747,2|2,0:0|0:0,0:0:0:0:
49,206,55142,1,2,0:0:0:0:
55,251,55249,1,2,0:0:0:0:
126,322,55356,1,2,0:0:0:0:
132,277,55463,1,2,0:0:0:0:
203,206,55570,1,2,0:0:0:0:
209,251,55678,1,2,0:0:0:0:
280,322,55785,6,0,P|308:332|338:333,1,60.2999971476747,2|0,0:0|0:0,0:0:0:0:
423,150,55999,1,2,0:0:0:0:
338,183,56106,1,2,0:0:0:0:
247,169,56213,2,0,P|188:156|128:164,1,120.599994295349,2|2,0:0|0:0,0:0:0:0:
234,287,56535,5,0,0:0:0:0:
310,235,56642,2,0,P|328:211|338:183,1,60.2999971476747,2|0,0:0|0:0,0:0:0:0:
362,33,56856,2,0,P|351:61|350:91,1,60.2999971476747,2|0,0:0|0:0,0:0:0:0:
508,275,57070,1,2,0:0:0:0:
502,230,57178,1,2,0:0:0:0:
431,159,57285,1,2,0:0:0:0:
425,204,57392,1,2,0:0:0:0:
353,274,57499,6,0,P|335:250|310:235,1,60.2999971476747,4|0,0:1|0:0,0:0:0:0:
121,340,57713,2,0,P|150:343|180:337,1,60.2999971476747,2|0,0:0|0:0,0:0:0:0:
128,163,57928,2,0,P|100:174|77:194,1,60.2999971476747,2|0,0:0|0:0,0:0:0:0:
123,354,58142,2,0,P|153:349|180:336,1,60.2999971476747,2|0,0:0|0:0,0:0:0:0:
353,274,58356,6,0,P|334:250|308:234,1,60.2999971476747,4|0,0:1|0:0,0:0:0:0:
128,163,58570,1,2,0:0:0:0:
144,174,58642,1,2,0:0:0:0:
162,181,58713,1,2,0:0:0:0:
182,182,58785,2,0,P|211:177|238:163,1,60.2999971476747,2|0,0:0|0:0,0:0:0:0:
336,81,58999,2,0,P|325:109|323:139,1,60.2999971476747,2|0,0:0|0:0,0:0:0:0:
372,331,59213,6,0,L|353:275,1,60.2999971476747,4|0,0:1|0:0,0:0:0:0:
461,140,59428,2,0,L|402:129,1,60.2999971476747,2|0,0:0|0:0,0:0:0:0:
248,39,59642,2,0,L|208:84,1,60.2999971476747,2|0,0:0|0:0,0:0:0:0:
182,182,59856,2,0,L|201:238,1,60.2999971476747,2|0,0:0|0:0,0:0:0:0:
377,154,60070,6,0,P|316:128|238:144,1,120.599994295349,2|2,0:0|0:0,0:0:0:0:
269,152,60356,1,2,0:0:0:0:
279,168,60428,1,2,0:0:0:0:
295,176,60499,1,2,0:0:0:0:
411,54,60713,1,2,0:0:0:0:
459,216,60928,5,6,1:2:0:0:
451,245,60999,1,0,0:0:0:0:
429,266,61070,1,0,0:0:0:0:
399,273,61142,1,0,0:0:0:0:
370,265,61213,1,0,0:0:0:0:
339,264,61285,1,0,0:0:0:0:
311,278,61356,2,0,P|296:304|296:346,5,60,0|0|0|0|0|0,0:0|0:0|0:0|0:0|0:0|0:0,0:0:0:0:
367,328,61785,5,8,0:0:0:0:
375,315,61856,1,0,0:0:0:0:
381,302,61928,1,0,0:0:0:0:
385,287,61999,1,0,0:0:0:0:
385,272,62070,1,0,0:0:0:0:
383,257,62142,1,0,0:0:0:0:
377,243,62213,1,0,0:0:0:0:
369,231,62285,1,0,0:0:0:0:
359,220,62356,1,0,0:0:0:0:
347,212,62428,5,0,0:0:0:0:
385,187,62499,1,0,0:0:0:0:
405,146,62570,1,0,0:0:0:0:
401,100,62642,6,0,L|280:90,2,120.599994295349,2|0|0,1:2|0:0|0:0,0:0:0:0:
511,51,63285,1,0,0:0:0:0:
281,90,63499,5,8,0:0:0:0:
60,7,63713,2,0,L|140:37,1,60.2999971476747,0|0,0:0|0:0,0:0:0:0:
281,90,63928,2,0,L|224:68,1,60.2999971476747,0|0,0:0|0:0,0:0:0:0:
68,175,64142,5,0,0:0:0:0:
60,188,64213,1,0,0:0:0:0:
54,201,64285,1,0,0:0:0:0:
53,216,64356,5,2,1:2:0:0:
61,245,64428,1,0,0:0:0:0:
83,266,64499,1,0,0:0:0:0:
113,273,64570,1,0,0:0:0:0:
142,265,64642,1,0,0:0:0:0:
173,264,64713,1,0,0:0:0:0:
201,278,64785,2,0,P|216:304|216:346,5,60,0|0|0|0|0|0,0:0|0:0|0:0|0:0|0:0|0:0,0:0:0:0:
145,328,65213,5,8,0:0:0:0:
137,315,65285,1,0,0:0:0:0:
131,302,65356,1,0,0:0:0:0:
127,287,65428,1,0,0:0:0:0:
127,272,65499,1,0,0:0:0:0:
129,257,65570,1,0,0:0:0:0:
135,243,65642,1,0,0:0:0:0:
143,231,65713,1,0,0:0:0:0:
153,220,65785,1,0,0:0:0:0:
165,212,65856,5,0,0:0:0:0:
127,187,65929,1,0,0:0:0:0:
107,146,65999,1,0,0:0:0:0:
110,100,66070,6,0,B|198:128|198:128|375:114,1,270,2|0,1:2|0:0,0:0:0:0:
198,95,66499,2,0,B|283:121|283:121|375:114|375:114|463:142,1,270
421,219,66928,6,0,L|341:194,1,60.2999971476747,8|0,0:0|0:0,0:0:0:0:
231,160,67142,2,0,L|249:240,1,60.2999971476747,0|0,0:0|0:0,0:0:0:0:
414,271,67356,2,0,L|334:246,1,60.2999971476747
145,328,67570,5,0,0:0:0:0:
148,313,67642,1,0,0:0:0:0:
143,299,67713,1,0,0:0:0:0:
134,287,67785,5,2,1:2:0:0:
160,272,67856,1,0,0:0:0:0:
181,250,67928,1,0,0:0:0:0:
196,224,67999,1,0,0:0:0:0:
203,194,68070,1,0,0:0:0:0:
203,163,68142,1,0,0:0:0:0:
193,133,68213,2,0,P|164:140|135:136,5,60,0|0|0|0|0|0,0:0|0:0|0:0|0:0|0:0|0:0,0:0:0:0:
70,97,68642,5,8,0:0:0:0:
82,81,68713,1,0,0:0:0:0:
98,69,68785,1,0,0:0:0:0:
116,62,68856,1,0,0:0:0:0:
136,60,68928,1,0,0:0:0:0:
156,63,68999,1,0,0:0:0:0:
174,71,69070,1,0,0:0:0:0:
189,83,69142,1,0,0:0:0:0:
201,99,69213,1,0,0:0:0:0:
207,117,69285,5,0,0:0:0:0:
179,153,69356,1,0,0:0:0:0:
171,197,69428,1,0,0:0:0:0:
186,239,69499,6,0,B|240:234|240:234|305:252|305:252|370:218,1,180.899991443024,2|0,1:2|0:0,0:0:0:0:
329,135,69928,6,0,B|293:153|293:153|246:139,2,80.3999961968996,0|0|0,0:0|0:0|0:0,0:0:0:0:
387,47,70356,6,0,P|405:66|412:95,5,40.1999980984498,8|0|0|0|0|0,0:0|0:0|0:0|0:0|0:0|0:0,0:0:0:0:
444,151,70785,2,0,P|436:176|414:196,5,40.1999980984498,0|0|0|0|0|0,0:0|0:0|0:0|0:0|0:0|0:0,0:0:0:0:
357,224,71213,5,2,1:2:0:0:
326,227,71285,1,0,0:0:0:0:
300,245,71356,1,0,0:0:0:0:
287,273,71428,1,0,0:0:0:0:
289,304,71499,1,0,0:0:0:0:
306,329,71570,1,0,0:0:0:0:
333,342,71642,2,0,P|376:340|411:309,5,60,0|0|0|0|0|0,0:0|0:0|0:0|0:0|0:0|0:0,0:0:0:0:
464,231,72070,2,0,P|440:194|396:179,5,60,8|0|0|0|0|0,0:0|0:0|0:0|0:0|0:0|0:0,0:0:0:0:
357,224,72499,6,0,P|329:235|299:233,1,60,0|0,0:0|0:0,0:0:0:0:
281,229,72642,6,0,P|257:210|244:184,1,60,0|0,0:0|0:0,0:0:0:0:
239,166,72785,6,0,P|242:136|259:111,1,60,0|0,0:0|0:0,0:0:0:0:
272,98,72928,5,2,1:2:0:0:
300,87,72999,1,0,0:0:0:0:
329,87,73070,1,0,0:0:0:0:
357,96,73142,1,0,0:0:0:0:
380,113,73213,1,0,0:0:0:0:
405,129,73285,1,0,0:0:0:0:
434,130,73356,5,0,0:0:0:0:
397,106,73428,1,0,0:0:0:0:
352,103,73499,1,0,0:0:0:0:
311,121,73570,1,0,0:0:0:0:
266,118,73642,1,0,0:0:0:0:
229,94,73713,1,0,0:0:0:0:
75,22,74642,6,0,L|80:153,1,119.699995068512,12|8,1:0|0:1,0:0:0:0:
140,278,74856,1,8,0:1:0:0:
257,185,74963,2,0,P|228:177|193:183,1,59.8499975342561,8|0,0:1|0:0,0:0:0:0:
260,168,75070,2,0,P|196:162|134:202,1,119.699995068512,8|8,1:0|0:1,0:0:0:0:
206,326,75285,2,0,P|270:332|332:292,1,119.699995068512,8|8,0:1|0:1,0:0:0:0:
358,144,75499,6,0,B|347:330|347:330|412:244,1,239.399990137024,8|8,1:0|0:1,0:0:0:0:
439,200,75820,1,8,0:1:0:0:
260,168,75928,1,8,1:0:0:0:
439,200,76035,1,8,1:0:0:0:
447,102,76142,2,0,P|406:58|349:46,1,119.699995068512,8|0,1:0|0:0,0:0:0:0:
232,26,76356,5,8,1:0:0:0:
195,107,76463,1,8,0:1:0:0:
260,168,76570,2,0,L|257:227,2,59.8499975342561,8|8|8,1:0|1:0|1:0,0:0:0:0:
84,280,76785,6,0,B|106:331|106:331|196:269,1,150.299995298538,8|8,1:0|0:1,0:0:0:0:
423,297,76999,6,0,B|395:345|395:345|312:274,1,150.299995298538,8|8,1:0|1:1,0:0:0:0:
206,195,77213,6,0,B|256:228|256:228|240:226,1,75.1499976492692,8|8,3:1|3:1,0:0:0:0:
229,174,77320,2,0,B|256:228|256:228|245:219,1,75.1499976492692,8|8,3:1|3:1,0:0:0:0:
260,168,77428,2,0,B|256:229|256:229|251:215,1,75.1499976492692,8|8,3:1|3:1,0:0:0:0:
289,177,77535,2,0,B|255:227|255:227|257:214,1,75.1499976492692,8|8,3:1|3:1,0:0:0:0:
310,201,77642,6,0,L|316:136,1,45,8|8,3:1|3:1,0:0:0:0:
344,198,77749,2,0,L|350:133,1,45,8|8,3:1|3:1,0:0:0:0:
378,195,77856,2,0,L|384:130,1,45,8|8,3:1|3:1,0:0:0:0:
412,192,77963,2,0,L|418:127,1,45,8|8,3:1|3:1,0:0:0:0:
446,189,78070,6,0,L|457:68,1,119.699995068512,8|8,1:0|0:1,0:0:0:0:
268,24,78285,2,0,B|301:76|301:76|363:90,1,119.699995068512,8|0,0:1|0:0,0:0:0:0:
344,198,78499,2,0,P|290:223|232:216,1,119.699995068512,8|8,1:0|0:1,0:0:0:0:
31,150,78713,2,0,P|84:124|143:132,1,119.699995068512,8|8,0:1|0:1,0:0:0:0:
119,319,78928,6,0,L|-1:329,2,119.699995068512,8|8|8,1:0|0:1|0:1,0:0:0:0:
313,306,79249,1,8,0:1:0:0:
232,217,79356,1,8,1:0:0:0:
334,328,79463,1,8,1:0:0:0:
455,316,79570,2,0,P|433:259|372:213,1,119.699995068512,8|8,1:0|0:1,0:0:0:0:
322,78,79785,6,0,B|332:128|296:159|296:159|326:188|323:231|315:264|285:288,1,225.449992947808,8|0,1:0|0:0,0:0:0:0:
201,282,79999,2,0,P|208:246|232:217,2,75.1499976492692,8|0|0,1:0|0:0|0:0,0:0:0:0:
119,319,80213,2,0,P|119:250|162:168,1,150.299995298538,8|8,1:0|0:1,0:0:0:0:
322,79,80428,2,0,P|251:102|177:90,1,150.299995298538,8|0,1:0|1:0,0:0:0:0:
6,48,80642,6,0,B|44:40|44:40|84:55,1,75.1499976492692,0|0,3:0|3:0,0:0:0:0:
14,98,80749,2,0,B|48:80|48:80|91:84,1,75.1499976492692,0|0,3:0|3:0,0:0:0:0:
34,144,80856,2,0,B|62:118|62:118|105:111,1,75.1499976492692,0|0,3:0|3:0,0:0:0:0:
65,183,80963,2,0,B|86:150|86:150|119:135,1,75.1499976492692,0|0,3:0|3:0,0:0:0:0:
125,97,81070,6,0,B|119:135|119:135|137:155|137:155|112:175|112:175|105:212,1,135
341,125,81499,6,0,P|246:191|137:155,1,239.399990137024,12|8,1:0|0:1,0:0:0:0:
229,66,81820,1,8,0:1:0:0:
286,209,81928,2,0,B|309:265|309:265|291:346,1,119.699995068512,8|8,1:0|0:1,0:0:0:0:
82,294,82142,2,0,L|205:281,1,119.699995068512,8|8,0:1|0:1,0:0:0:0:
341,125,82356,6,0,B|401:260|401:260|376:375,1,239.399990137024,8|8,1:0|0:1,0:0:0:0:
296,322,82678,1,8,0:1:0:0:
435,259,82785,2,0,P|465:209|457:124,1,119.699995068512,8|8,1:0|0:1,0:0:0:0:
229,66,82999,1,8,0:1:0:0:
238,185,83106,1,8,0:1:0:0:
341,125,83213,6,0,B|290:155|290:155|190:145,1,119.699995068512,8|8,1:0|0:1,0:0:0:0:
27,95,83428,2,0,B|70:134|70:134|167:144,1,119.699995068512,8|8,0:1|0:1,0:0:0:0:
196,18,83642,1,8,1:0:0:0:
39,67,83749,1,8,0:1:0:0:
65,221,83856,2,0,L|205:232,1,119.699995068512,8|8,0:1|0:1,0:0:0:0:
341,125,84070,5,8,1:0:0:0:
130,140,84178,1,8,0:1:0:0:
303,239,84285,1,8,0:1:0:0:
188,334,84392,1,8,0:1:0:0:
394,328,84928,6,0,L|399:269,1,59.8499975342561,8|8,3:1|3:1,0:0:0:0:
362,318,85035,2,0,L|367:259,1,59.8499975342561,8|8,3:1|3:1,0:0:0:0:
330,308,85142,2,0,L|335:249,1,59.8499975342561,8|8,3:1|3:1,0:0:0:0:
298,298,85249,2,0,L|303:239,1,59.8499975342561,8|8,3:1|3:1,0:0:0:0:
239,259,85356,6,0,L|234:199,1,59.8499975342561,8|8,3:1|3:1,0:0:0:0:
271,249,85463,2,0,L|266:189,1,59.8499975342561,8|8,3:1|3:1,0:0:0:0:
303,239,85570,2,0,L|298:179,1,59.8499975342561,8|8,3:1|3:1,0:0:0:0:
335,229,85678,2,0,L|330:169,1,59.8499975342561,8|8,3:1|3:1,0:0:0:0:
362,179,85785,6,0,L|366:119,1,59.8499975342561,8|8,3:1|3:1,0:0:0:0:
312,164,85892,2,0,L|331:107,1,59.8499975342561,8|8,3:1|3:1,0:0:0:0:
267,136,85999,2,0,L|300:86,1,59.8499975342561,8|8,3:1|3:1,0:0:0:0:
230,97,86106,2,0,L|275:58,1,59.8499975342561,8|8,3:1|3:1,0:0:0:0:
153,106,86213,6,0,L|96:84,1,59.8499975342561,8|8,3:1|3:1,0:0:0:0:
132,156,86320,2,0,L|83:121,1,59.8499975342561,8|8,3:1|3:1,0:0:0:0:
99,197,86428,2,0,L|61:150,1,59.8499975342561,8|8,3:1|3:1,0:0:0:0:
58,229,86535,2,0,L|33:174,1,59.8499975342561,8|8,3:1|3:1,0:0:0:0:
0,174,86642,6,0,L|202:185,1,180,0|0,0:0|0:0,0:0:0:0:
179,183,87070,1,0,0:0:0:0:
143,37,87285,6,0,L|116:104,1,72,0|0,0:0|0:0,0:0:0:0:
127,324,87499,6,0,L|107:254,1,72,0|0,0:0|0:0,0:0:0:0:
211,192,87713,6,0,P|184:225|179:183,1,108,0|0,0:0|0:0,0:0:0:0:
215,118,87928,2,0,L|250:121,7,36,8|8|8|8|8|8|8|8,3:1|3:1|3:1|3:1|3:1|3:1|3:1|3:1,0:0:0:0:
268,90,88356,6,0,P|399:106|485:223,2,270,6|0|8,0:0|0:0|0:0,0:0:0:0:
127,324,89213,2,0,L|305:303,1,180,2|8,0:0|0:0,0:0:0:0:
306,304,89642,2,0,P|263:310|183:279,1,90,2|0,0:0|0:0,0:0:0:0:
84,127,89856,2,0,P|127:121|207:152,1,90,8|0,0:0|0:0,0:0:0:0:
264,198,90070,5,2,0:0:0:0:
127,324,90285,1,8,0:0:0:0:
78,98,90499,1,2,0:0:0:0:
388,63,90713,2,0,L|367:241,2,180,8|2|8,0:0|0:0|0:0,0:0:0:0:
266,109,91356,2,0,P|257:153|264:198,1,90,2|0,0:0|0:0,0:0:0:0:
340,331,91570,5,8,0:0:0:0:
318,309,91642,1,0,0:0:0:0:
293,294,91713,1,0,0:0:0:0:
264,284,91785,2,0,B|180:251|172:312|65:274,1,180,2|8,0:0|0:0,0:0:0:0:
92,201,92106,2,0,P|175:190|181:107,1,180,0|0,0:0|0:0,0:0:0:0:
51,104,92428,2,0,L|60:193,2,90,8|0|2,0:0|0:0|0:0,0:0:0:0:
161,42,92749,6,0,L|156:91,2,45,0|0|8,0:0|0:0|0:0,0:0:0:0:
270,153,92963,2,0,L|266:109,2,45,0|0|2,0:0|0:0|0:0,0:0:0:0:
324,225,93178,2,0,P|351:191|353:125,1,90,0|8,0:0|0:0,0:0:0:0:
306,93,93356,5,0,0:0:0:0:
317,66,93428,1,0,0:0:0:0:
339,45,93499,2,0,B|251:55|251:55|133:38,1,180,2|8,0:0|0:0,0:0:0:0:
104,134,93820,2,0,P|183:172|270:153,1,180,0|0,0:0|0:0,0:0:0:0:
248,352,94142,2,0,P|168:314|82:333,1,180,8|2,0:0|0:0,0:0:0:0:
267,237,94570,5,8,0:0:0:0:
295,227,94642,1,0,0:0:0:0:
324,225,94713,1,0,0:0:0:0:
352,231,94785,1,2,0:0:0:0:
380,237,94856,1,0,0:0:0:0:
409,235,94928,1,0,0:0:0:0:
435,189,94999,1,8,0:0:0:0:
4,48,95213,6,0,L|14:150,1,90,4|0,0:0|0:0,0:0:0:0:
82,333,95428,2,0,L|90:243,1,90,8|0,0:0|0:0,0:0:0:0:
150,150,95642,1,2,0:0:0:0:
154,194,95749,1,0,0:0:0:0:
191,305,95856,1,8,0:0:0:0:
196,260,95963,1,0,0:0:0:0:
272,178,96070,6,0,L|263:222,1,45,2|0,3:2|3:0,0:0:0:0:
307,195,96178,2,0,L|286:234,1,45,0|0,3:0|3:0,0:0:0:0:
335,219,96285,2,0,L|304:252,1,45,8|0,3:2|3:0,0:0:0:0:
356,250,96392,2,0,L|318:274,1,45,0|0,3:0|3:0,0:0:0:0:
368,285,96499,2,0,L|334:295,12,22.5,2|0|0|0|0|0|0|0|8|0|0|0|0,3:2|3:0|3:0|3:0|3:0|3:0|3:0|3:0|3:2|3:0|3:0|3:0|3:0,0:0:0:0:
421,337,96928,6,0,L|431:231,1,90,6|0,0:0|0:0,0:0:0:0:
326,129,97142,2,0,L|334:218,1,90,8|0,0:0|0:0,0:0:0:0:
159,315,97356,2,0,P|207:322|262:297,1,90,2|0,0:0|0:0,0:0:0:0:
400,73,97570,2,0,P|322:37|254:187,1,270,8|0,0:0|0:0,0:0:0:0:
303,232,97999,6,0,P|264:218|226:224,2,60,8|0|0,0:0|0:0|0:0,0:0:0:0:
159,315,98213,6,0,P|190:288|204:252,2,60,2|0|0,0:0|0:0|0:0,0:0:0:0:
159,148,98428,6,0,P|166:188|190:218,2,60,8|0|0,0:0|0:0|0:0,0:0:0:0:
114,84,98642,6,0,P|123:160|56:274,1,180,2|8,0:0|0:0,0:0:0:0:
167,343,98963,1,0,0:0:0:0:
256,352,99070,1,2,0:0:0:0:
324,293,99178,2,0,L|328:248,1,45,0|0,0:0|0:0,0:0:0:0:
303,232,99285,2,0,L|302:110,1,90,8|0,0:0|0:0,0:0:0:0:
378,72,99499,6,0,B|409:110|409:110|413:278,1,180,2|8,0:0|0:0,0:0:0:0:
351,318,99820,1,0,0:0:0:0:
256,352,99928,2,0,B|222:316|222:316|55:292,1,180,2|8,0:0|0:0,0:0:0:0:
29,72,100356,5,2,3:2:0:0:
81,145,100463,1,0,3:0:0:0:
162,182,100570,2,0,P|189:187|218:183,1,45,2|2,3:2|3:2,0:0:0:0:
250,173,100678,2,0,P|275:163|298:145,1,45,2|2,3:2|3:2,0:0:0:0:
323,121,100785,1,2,3:2:0:0:
347,207,100892,1,0,3:0:0:0:
324,293,100999,6,0,P|305:305|283:311,1,45,2|2,3:2|3:2,0:0:0:0:
273,312,101106,2,0,P|250:310|229:304,1,45,2|2,3:2|3:2,0:0:0:0:
219,300,101213,2,0,P|201:286|187:268,1,45,2|2,3:2|3:2,0:0:0:0:
183,258,101320,2,0,P|176:236|175:214,1,45,2|2,3:2|3:2,0:0:0:0:
178,203,101428,2,0,P|184:181|196:162,1,45,2|2,3:2|3:2,0:0:0:0:
204,155,101535,2,0,P|221:141|242:132,1,45,2|2,3:2|3:2,0:0:0:0:
253,130,101642,6,0,P|275:129|297:133,1,45,2|2,3:2|3:2,0:0:0:0:
257,163,101749,2,0,P|276:173|293:188,1,45,2|2,3:2|3:2,0:0:0:0:
243,193,101856,2,0,P|255:211|261:233,1,45,2|2,3:2|3:2,0:0:0:0:
215,211,101963,2,0,P|215:233|211:255,1,45,2|2,3:2|3:2,0:0:0:0:
178,203,102070,6,0,L|396:187,1,180,6|8,0:0|0:0,0:0:0:0:
474,75,102392,2,0,L|256:59,1,180,0|0,0:0|0:0,0:0:0:0:
128,97,102713,2,0,P|112:176|206:104,1,270,8|0,0:0|0:0,0:0:0:0:
36,81,103142,6,0,P|22:123|24:183,1,90,8|0,0:0|0:0,0:0:0:0:
172,287,103356,2,0,P|215:278|266:246,1,90,2|0,0:0|0:0,0:0:0:0:
283,67,103570,2,0,P|253:33|200:5,1,90,8|0,0:0|0:0,0:0:0:0:
163,145,103785,6,0,L|283:168,1,90,2|0,0:0|0:0,0:0:0:0:
466,187,103999,2,0,L|346:210,1,90,8|0,0:0|0:0,0:0:0:0:
172,287,104213,6,0,L|292:310,1,90,2|0,0:0|0:0,0:0:0:0:
475,329,104428,2,0,L|355:352,1,90,8|0,0:0|0:0,0:0:0:0:
224,219,104642,6,0,P|188:245|172:287,1,90
18,300,104856,6,0,L|24:359,2,60,8|0|0,0:0|0:0|0:0,0:0:0:0:
92,200,105070,2,0,L|99:141,2,60,2|0|0,0:0|0:0|0:0,0:0:0:0:
36,81,105285,5,8,0:0:0:0:
59,62,105356,1,0,0:0:0:0:
88,55,105428,1,0,0:0:0:0:
117,58,105499,2,0,P|175:88|296:56,1,180,2|8,0:0|0:0,0:0:0:0:
466,187,105820,2,0,P|408:157|287:189,1,180,0|0,0:0|0:0,0:0:0:0:
416,303,106142,2,0,P|408:248|356:319,1,180,8|2,0:0|0:0,0:0:0:0:
209,362,106463,6,0,L|200:305,1,45,0|0,0:0|0:0,0:0:0:0:
161,307,106570,2,0,P|193:267|203:205,1,90,8|0,0:0|0:0,0:0:0:0:
300,179,106785,2,0,P|268:139|258:77,1,90,2|0,0:0|0:0,0:0:0:0:
439,65,106999,5,8,0:0:0:0:
470,99,107070,1,0,0:0:0:0:
480,144,107142,1,0,0:0:0:0:
466,187,107213,2,0,B|445:226|445:226|453:301,1,90,2|0,0:0|0:0,0:0:0:0:
344,384,107428,2,0,L|335:280,1,90,8|0,0:0|0:0,0:0:0:0:
203,230,107642,2,0,L|210:319,1,90,2|0,0:0|0:0,0:0:0:0:
64,384,107856,2,0,B|85:345|85:345|77:270,1,90,8|0,0:0|0:0,0:0:0:0:
16,140,108070,5,2,3:2:0:0:
57,159,108142,1,0,3:2:0:0:
101,166,108213,1,0,3:2:0:0:
146,161,108285,1,8,3:2:0:0:
187,146,108356,1,0,3:2:0:0:
215,112,108428,1,0,3:2:0:0:
256,96,108499,1,2,3:2:0:0:
297,112,108570,1,0,3:2:0:0:
325,146,108642,1,0,3:2:0:0:
366,161,108713,1,8,3:2:0:0:
108,34,108928,6,0,L|101:92,1,45,2|2,3:2|3:2,0:0:0:0:
123,77,109035,2,0,L|116:135,1,45,2|2,3:2|3:2,0:0:0:0:
138,120,109142,1,8,3:2:0:0:
404,34,109356,6,0,L|411:92,1,45,2|2,3:2|3:2,0:0:0:0:
389,77,109463,2,0,L|396:135,1,45,2|2,3:2|3:2,0:0:0:0:
374,120,109570,1,8,3:2:0:0:
104,259,109785,6,0,L|152:265,1,45,2|2,3:2|3:2,0:0:0:0:
129,240,109892,2,0,L|177:246,1,45,2|2,3:2|3:2,0:0:0:0:
154,221,109999,1,8,3:2:0:0:
408,259,110213,6,0,L|360:265,1,45,2|2,3:2|3:2,0:0:0:0:
383,240,110320,2,0,L|335:246,1,45,2|2,3:2|3:2,0:0:0:0:
358,221,110428,1,8,3:2:0:0:
201,50,110642,6,0,L|204:109,1,45,2|2,3:2|3:2,0:0:0:0:
215,63,110749,2,0,L|218:122,1,45,2|2,3:2|3:2,0:0:0:0:
312,104,110856,6,0,L|309:163,1,45,2|2,3:2|3:2,0:0:0:0:
298,117,110963,2,0,L|295:176,1,45,2|2,3:2|3:2,0:0:0:0:
210,196,111070,6,0,L|213:255,1,45,2|2,3:2|3:2,0:0:0:0:
224,209,111178,2,0,L|227:268,1,45,2|2,3:2|3:2,0:0:0:0:
281,306,111285,6,0,L|278:365,1,45,2|2,3:2|3:2,0:0:0:0:
267,319,111392,2,0,L|264:378,1,45,2|2,3:2|3:2,0:0:0:0:
253,332,111499,6,0,L|194:329,3,45,2|2|2|2,3:2|3:2|3:2|3:2,0:0:0:0:
143,375,111713,6,0,P|131:347|130:317,2,60,2|2|0,3:2|3:2|3:0,0:0:0:0:
58,286,111928,2,0,P|75:261|101:246,2,60,2|2|0,3:2|3:2|3:0,0:0:0:0:
91,167,112142,2,0,P|120:170|146:184,2,60,2|2|0,3:2|3:2|3:0,0:0:0:0:
225,209,112356,6,0,P|269:230|427:185,1,216,0|0,0:0|0:0,0:0:0:0:
343,40,112892,6,0,L|339:80,1,36,0|0,0:0|0:0,0:0:0:0:
309,85,112999,2,0,B|289:158|289:158|311:188|315:226|297:261|272:277|272:277|288:381,1,288,0|0,0:0|0:0,0:0:0:0:
225,209,113535,5,0,0:0:0:0:
165,268,113642,2,0,P|147:234|144:199,1,72,0|0,0:0|0:0,0:0:0:0:
177,102,113856,2,0,P|171:155|144:202,1,108
53,208,114070,6,0,L|143:201,1,90,4|0,0:1|0:0,0:0:0:0:
266,282,114284,2,0,L|355:289,1,90,0|0,0:0|0:0,0:0:0:0:
465,147,114498,1,0,0:0:0:0:
410,218,114605,1,0,0:0:0:0:
355,289,114712,6,0,L|266:282,1,90,0|0,0:0|0:0,0:0:0:0:
143,201,114927,2,0,L|53:208,1,90,0|0,0:0|0:0,0:0:0:0:
16,29,115141,1,0,0:0:0:0:
35,119,115248,1,0,0:0:0:0:
53,208,115355,6,0,L|143:201,1,90,0|0,0:0|0:0,0:0:0:0:
377,135,115570,2,0,L|287:127,1,90,0|0,0:0|0:0,0:0:0:0:
148,10,115784,1,0,0:0:0:0:
218,69,115891,1,0,0:0:0:0:
287,127,115998,6,0,L|377:135,1,90,0|0,0:0|0:0,0:0:0:0:
143,201,116212,2,0,L|53:208,1,90,0|0,0:0|0:0,0:0:0:0:
148,327,116427,6,0,P|157:306|170:288,1,45,2|2,3:2|3:2,0:0:0:0:
187,350,116534,2,0,P|190:328|197:306,1,45,2|2,3:2|3:2,0:0:0:0:
230,362,116641,2,0,P|227:340|229:318,1,45,2|2,3:2|3:2,0:0:0:0:
275,363,116748,2,0,P|267:342|263:320,1,45,2|2,3:2|3:2,0:0:0:0:
319,352,116855,2,0,P|305:334|296:314,1,45,2|2,3:2|3:2,0:0:0:0:
359,330,116962,2,0,P|341:316|326:299,1,45,2|2,3:2|3:2,0:0:0:0:
391,299,117070,2,0,P|370:290|352:278,1,45,2|2,3:2|3:2,0:0:0:0:
414,260,117177,2,0,P|392:257|370:250,1,45,2|2,3:2|3:2,0:0:0:0:
426,217,117284,2,0,P|404:220|382:218,1,45,2|2,3:2|3:2,0:0:0:0:
427,172,117391,2,0,P|406:180|384:184,1,45,2|2,3:2|3:2,0:0:0:0:
416,128,117498,6,0,P|298:65|433:67,1,361.799982886048,4|0,3:0|0:0,0:0:0:0:
