osu file format v14

[General]
AudioFilename: audio.mp3
AudioLeadIn: 0
PreviewTime: 88368
Countdown: 0
SampleSet: Normal
StackLeniency: 0.7
Mode: 1
LetterboxInBreaks: 0
WidescreenStoryboard: 1

[Editor]
Bookmarks: 940,4368,7797,11225,14654,18082,24939,31797,38654,45511,52368,57511,60939,67797,74654,81511,88368,95225,102082,108939,112368,114082,117511
DistanceSpacing: 0.8
BeatDivisor: 2
GridSize: 32
TimelineZoom: 3.099999

[Metadata]
Title:iLLness LiLin
TitleUnicode:iLLness LiLin
Artist:Kaneko Chiharu
ArtistUnicode:かねこちはる
Creator:Kantan
Version:Oni
Source:
Tags:
BeatmapID:1494215
BeatmapSetID:706692

[Difficulty]
HPDrainRate:5
CircleSize:7
OverallDifficulty:5
ApproachRate:10
SliderMultiplier:1.4
SliderTickRate:1

[Events]
//Background and Video events
0,0,"002.jpg",0,80
//Break Periods
//Storyboard Layer 0 (Background)
//Storyboard Layer 1 (Fail)
//Storyboard Layer 2 (Pass)
//Storyboard Layer 3 (Foreground)
//Storyboard Sound Samples

[TimingPoints]
940,214.285714285714,4,1,0,100,1,0
88368,-100,4,1,0,100,0,1
112368,-100,4,1,0,100,0,0
114082,-100,4,1,0,100,0,1
117511,-100,4,1,0,100,0,0

[HitObjects]
256,192,940,12,0,2439,0:0:0:0:
256,192,2654,5,0,0:0:0:0:
256,192,2725,1,0,0:0:0:0:
256,192,2797,1,0,0:0:0:0:
256,192,2868,1,0,0:0:0:0:
256,192,3082,1,8,0:0:0:0:
256,192,3154,1,8,0:0:0:0:
256,192,3225,1,8,0:0:0:0:
256,192,3297,1,8,0:0:0:0:
256,192,3511,1,0,0:0:0:0:
256,192,3618,1,0,0:0:0:0:
256,192,3725,1,0,0:0:0:0:
256,192,3832,1,0,0:0:0:0:
256,192,3939,1,8,0:0:0:0:
256,192,4368,1,4,0:0:0:0:
256,192,4582,1,0,0:0:0:0:
256,192,4689,1,0,0:0:0:0:
256,192,4797,1,8,0:0:0:0:
256,192,4904,1,8,0:0:0:0:
256,192,5011,1,0,0:0:0:0:
256,192,5225,1,0,0:0:0:0:
256,192,5332,1,0,0:0:0:0:
256,192,5439,1,8,0:0:0:0:
256,192,5547,1,8,0:0:0:0:
256,192,5654,1,0,0:0:0:0:
256,192,5868,1,0,0:0:0:0:
256,192,5975,1,0,0:0:0:0:
256,192,6082,1,8,0:0:0:0:
256,192,6189,1,8,0:0:0:0:
256,192,6297,1,0,0:0:0:0:
256,192,6511,1,0,0:0:0:0:
256,192,6618,1,0,0:0:0:0:
256,192,6725,1,8,0:0:0:0:
256,192,6832,1,8,0:0:0:0:
256,192,6939,1,0,0:0:0:0:
256,192,7154,1,0,0:0:0:0:
256,192,7261,1,0,0:0:0:0:
256,192,7368,1,8,0:0:0:0:
256,192,7475,1,8,0:0:0:0:
256,192,7582,1,0,0:0:0:0:
256,192,7689,1,8,0:0:0:0:
256,192,7797,1,0,0:0:0:0:
256,192,8011,1,0,0:0:0:0:
256,192,8118,1,0,0:0:0:0:
256,192,8225,1,8,0:0:0:0:
256,192,8332,1,8,0:0:0:0:
256,192,8439,1,8,0:0:0:0:
256,192,8654,1,0,0:0:0:0:
256,192,8761,1,0,0:0:0:0:
256,192,8868,1,8,0:0:0:0:
256,192,8975,1,8,0:0:0:0:
256,192,9082,1,8,0:0:0:0:
256,192,9297,1,0,0:0:0:0:
256,192,9404,1,0,0:0:0:0:
256,192,9511,1,8,0:0:0:0:
256,192,9618,1,8,0:0:0:0:
256,192,9725,1,8,0:0:0:0:
256,192,9939,1,0,0:0:0:0:
256,192,10047,1,0,0:0:0:0:
256,192,10154,1,8,0:0:0:0:
256,192,10261,1,8,0:0:0:0:
256,192,10368,1,8,0:0:0:0:
256,192,10475,1,0,0:0:0:0:
256,192,10689,1,8,0:0:0:0:
256,192,10797,1,0,0:0:0:0:
256,192,10904,1,8,0:0:0:0:
256,192,11011,1,0,0:0:0:0:
256,192,11118,1,0,0:0:0:0:
256,192,11225,1,12,0:0:0:0:
256,192,11439,1,0,0:0:0:0:
256,192,11547,1,0,0:0:0:0:
256,192,11654,1,8,0:0:0:0:
256,192,11761,1,8,0:0:0:0:
256,192,11868,1,0,0:0:0:0:
256,192,12082,1,0,0:0:0:0:
256,192,12189,1,0,0:0:0:0:
256,192,12297,1,8,0:0:0:0:
256,192,12404,1,8,0:0:0:0:
256,192,12511,1,0,0:0:0:0:
256,192,12725,1,0,0:0:0:0:
256,192,12832,1,0,0:0:0:0:
256,192,12939,1,8,0:0:0:0:
256,192,13047,1,8,0:0:0:0:
256,192,13154,1,0,0:0:0:0:
256,192,13368,1,0,0:0:0:0:
256,192,13475,1,0,0:0:0:0:
256,192,13582,1,8,0:0:0:0:
256,192,13689,1,8,0:0:0:0:
256,192,13797,1,0,0:0:0:0:
256,192,14011,1,0,0:0:0:0:
256,192,14118,1,0,0:0:0:0:
256,192,14225,1,8,0:0:0:0:
256,192,14332,1,8,0:0:0:0:
256,192,14439,1,0,0:0:0:0:
256,192,14547,1,8,0:0:0:0:
256,192,14761,1,8,0:0:0:0:
256,192,14868,1,0,0:0:0:0:
256,192,14975,1,0,0:0:0:0:
256,192,15082,1,8,0:0:0:0:
256,192,15189,1,8,0:0:0:0:
256,192,15297,1,0,0:0:0:0:
256,192,15511,1,0,0:0:0:0:
256,192,15618,1,0,0:0:0:0:
256,192,15725,1,8,0:0:0:0:
256,192,15832,1,8,0:0:0:0:
256,192,15939,1,0,0:0:0:0:
256,192,16047,1,8,0:0:0:0:
256,192,16154,1,0,0:0:0:0:
256,192,16368,1,8,0:0:0:0:
256,192,16439,1,8,0:0:0:0:
256,192,16511,1,8,0:0:0:0:
256,192,16582,1,8,0:0:0:0:
256,192,16654,1,8,0:0:0:0:
256,192,16725,1,8,0:0:0:0:
256,192,16797,1,0,0:0:0:0:
256,192,16868,1,0,0:0:0:0:
256,192,16939,1,0,0:0:0:0:
256,192,17011,1,0,0:0:0:0:
256,192,17082,1,0,0:0:0:0:
256,192,17154,1,0,0:0:0:0:
256,192,17225,12,0,17654,0:0:0:0:
256,192,17868,5,12,0:0:0:0:
256,192,18082,1,4,0:0:0:0:
256,192,18297,1,0,0:0:0:0:
256,192,18404,1,8,0:0:0:0:
256,192,18511,1,0,0:0:0:0:
256,192,18618,1,8,0:0:0:0:
256,192,18725,1,8,0:0:0:0:
256,192,18832,1,8,0:0:0:0:
256,192,18939,1,0,0:0:0:0:
256,192,19154,1,8,0:0:0:0:
256,192,19368,1,0,0:0:0:0:
256,192,19582,1,8,0:0:0:0:
256,192,19797,1,0,0:0:0:0:
256,192,19904,1,8,0:0:0:0:
256,192,20118,1,8,0:0:0:0:
256,192,20332,1,8,0:0:0:0:
256,192,20547,1,8,0:0:0:0:
256,192,20761,1,8,0:0:0:0:
256,192,20868,1,8,0:0:0:0:
256,192,20975,1,8,0:0:0:0:
256,192,21082,1,8,0:0:0:0:
256,192,21189,1,8,0:0:0:0:
256,192,21297,1,12,0:0:0:0:
256,192,21511,1,4,0:0:0:0:
256,192,21725,1,8,0:0:0:0:
256,192,21832,1,8,0:0:0:0:
256,192,21939,1,0,0:0:0:0:
256,192,22047,1,0,0:0:0:0:
256,192,22154,1,8,0:0:0:0:
256,192,22368,1,8,0:0:0:0:
256,192,22582,1,8,0:0:0:0:
256,192,22689,1,0,0:0:0:0:
256,192,22797,1,8,0:0:0:0:
256,192,23011,1,0,0:0:0:0:
256,192,23225,1,0,0:0:0:0:
256,192,23332,1,8,0:0:0:0:
256,192,23547,1,8,0:0:0:0:
256,192,23761,1,8,0:0:0:0:
256,192,23975,1,8,0:0:0:0:
256,192,24082,1,8,0:0:0:0:
256,192,24154,1,8,0:0:0:0:
256,192,24225,1,8,0:0:0:0:
224,192,24297,1,0,0:0:0:0:
224,192,24404,1,0,0:0:0:0:
224,192,24511,1,0,0:0:0:0:
224,192,24618,1,0,0:0:0:0:
224,192,24725,1,8,0:0:0:0:
256,192,24939,1,4,0:0:0:0:
256,192,25154,1,8,0:0:0:0:
256,192,25368,1,0,0:0:0:0:
256,192,25475,1,0,0:0:0:0:
256,192,25582,1,8,0:0:0:0:
256,192,25797,1,0,0:0:0:0:
256,192,26011,1,8,0:0:0:0:
256,192,26225,1,0,0:0:0:0:
256,192,26439,1,8,0:0:0:0:
256,192,26654,1,0,0:0:0:0:
256,192,26761,1,8,0:0:0:0:
256,192,26975,1,8,0:0:0:0:
256,192,27189,1,8,0:0:0:0:
256,192,27404,1,8,0:0:0:0:
256,192,27511,1,0,0:0:0:0:
256,192,27725,1,0,0:0:0:0:
256,192,27832,1,0,0:0:0:0:
256,192,27939,1,8,0:0:0:0:
256,192,28047,1,0,0:0:0:0:
256,192,28154,1,8,0:0:0:0:
256,192,28261,1,0,0:0:0:0:
256,192,28582,1,12,0:0:0:0:
256,192,28797,1,0,0:0:0:0:
256,192,29011,1,8,0:0:0:0:
256,192,29118,1,8,0:0:0:0:
256,192,29225,1,0,0:0:0:0:
256,192,29332,1,0,0:0:0:0:
256,192,29439,1,8,0:0:0:0:
256,192,29654,1,0,0:0:0:0:
256,192,29868,1,8,0:0:0:0:
256,192,30082,1,0,0:0:0:0:
256,192,30189,1,8,0:0:0:0:
256,192,30297,1,0,0:0:0:0:
256,192,30404,1,8,0:0:0:0:
256,192,30511,1,0,0:0:0:0:
256,192,30725,1,0,0:0:0:0:
256,192,30832,1,8,0:0:0:0:
256,192,30939,1,0,0:0:0:0:
256,192,31047,1,8,0:0:0:0:
256,192,31154,1,0,0:0:0:0:
256,192,31261,1,8,0:0:0:0:
256,192,31368,1,0,0:0:0:0:
256,192,31475,1,8,0:0:0:0:
256,192,31582,1,12,0:0:0:0:
256,192,31797,1,0,0:0:0:0:
256,192,31904,1,8,0:0:0:0:
256,192,32011,1,8,0:0:0:0:
256,192,32118,1,0,0:0:0:0:
256,192,32225,1,8,0:0:0:0:
256,192,32332,1,8,0:0:0:0:
256,192,32439,1,0,0:0:0:0:
256,192,32547,1,8,0:0:0:0:
256,192,32761,1,0,0:0:0:0:
256,192,32814,1,0,0:0:0:0:
256,192,32868,1,0,0:0:0:0:
256,192,32975,1,0,0:0:0:0:
256,192,33082,1,8,0:0:0:0:
256,192,33189,1,8,0:0:0:0:
256,192,33297,1,8,0:0:0:0:
256,192,33404,1,8,0:0:0:0:
256,192,33511,1,4,0:0:0:0:
256,192,33725,1,12,0:0:0:0:
256,192,33939,1,8,0:0:0:0:
256,192,34047,1,0,0:0:0:0:
256,192,34154,1,8,0:0:0:0:
256,192,34261,1,8,0:0:0:0:
256,192,34368,1,0,0:0:0:0:
256,192,34475,1,0,0:0:0:0:
256,192,34582,1,8,0:0:0:0:
256,192,34797,1,0,0:0:0:0:
256,192,35011,1,8,0:0:0:0:
256,192,35225,1,0,0:0:0:0:
256,192,35332,1,8,0:0:0:0:
256,192,35547,1,8,0:0:0:0:
256,192,35761,1,8,0:0:0:0:
256,192,35975,1,8,0:0:0:0:
256,192,36082,1,12,0:0:0:0:
256,192,36243,1,12,0:0:0:0:
256,192,36404,1,12,0:0:0:0:
256,192,36511,12,8,36832,0:0:0:0:
256,192,36939,5,0,0:0:0:0:
256,192,37047,1,8,0:0:0:0:
256,192,37154,1,8,0:0:0:0:
256,192,37261,1,0,0:0:0:0:
256,192,37368,1,8,0:0:0:0:
256,192,37475,1,8,0:0:0:0:
256,192,37582,1,0,0:0:0:0:
256,192,37689,1,8,0:0:0:0:
256,192,37904,1,0,0:0:0:0:
256,192,37957,1,0,0:0:0:0:
256,192,38011,1,0,0:0:0:0:
256,192,38118,1,0,0:0:0:0:
256,192,38225,1,8,0:0:0:0:
256,192,38297,1,8,0:0:0:0:
256,192,38368,1,8,0:0:0:0:
256,192,38439,1,8,0:0:0:0:
256,192,38547,1,8,0:0:0:0:
256,192,38654,1,8,0:0:0:0:
256,192,38761,1,0,0:0:0:0:
256,192,38868,1,8,0:0:0:0:
256,192,38975,1,0,0:0:0:0:
256,192,39082,1,8,0:0:0:0:
256,192,39189,1,8,0:0:0:0:
256,192,39297,1,12,0:0:0:0:
256,192,39511,1,8,0:0:0:0:
256,192,39618,1,8,0:0:0:0:
256,192,39725,1,8,0:0:0:0:
256,192,39832,1,0,0:0:0:0:
256,192,39939,1,8,0:0:0:0:
256,192,40047,1,0,0:0:0:0:
256,192,40154,1,8,0:0:0:0:
256,192,40368,1,8,0:0:0:0:
256,192,40422,1,8,0:0:0:0:
256,192,40475,1,8,0:0:0:0:
256,192,40529,1,8,0:0:0:0:
256,192,40582,1,8,0:0:0:0:
256,192,40797,1,8,0:0:0:0:
256,192,40904,1,8,0:0:0:0:
256,192,41011,1,8,0:0:0:0:
256,192,41118,1,8,0:0:0:0:
256,192,41225,1,0,0:0:0:0:
256,192,41297,1,0,0:0:0:0:
256,192,41368,1,0,0:0:0:0:
256,192,41439,1,0,0:0:0:0:
256,192,41511,1,0,0:0:0:0:
256,192,41582,1,0,0:0:0:0:
256,192,41654,1,8,0:0:0:0:
256,192,41761,1,0,0:0:0:0:
256,192,41868,1,8,0:0:0:0:
256,192,42082,1,12,0:0:0:0:
256,192,42189,1,8,0:0:0:0:
256,192,42297,1,8,0:0:0:0:
256,192,42404,1,8,0:0:0:0:
256,192,42511,1,8,0:0:0:0:
256,192,42618,1,0,0:0:0:0:
256,192,42725,1,8,0:0:0:0:
256,192,42939,1,0,0:0:0:0:
256,192,42993,1,0,0:0:0:0:
256,192,43047,1,8,0:0:0:0:
256,192,43261,1,0,0:0:0:0:
256,192,43368,1,8,0:0:0:0:
256,192,43582,1,0,0:0:0:0:
256,192,43797,1,0,0:0:0:0:
256,192,43904,1,0,0:0:0:0:
256,192,44011,1,8,0:0:0:0:
256,192,44225,1,0,0:0:0:0:
256,192,44332,1,12,0:0:0:0:
256,192,44547,1,0,0:0:0:0:
256,192,44654,1,12,0:0:0:0:
256,192,44868,1,0,0:0:0:0:
256,192,44975,1,8,0:0:0:0:
256,192,45511,1,4,0:0:0:0:
256,192,45725,1,0,0:0:0:0:
256,192,45832,1,8,0:0:0:0:
256,192,45939,1,8,0:0:0:0:
256,192,46047,1,0,0:0:0:0:
256,192,46261,1,8,0:0:0:0:
256,192,46368,1,0,0:0:0:0:
256,192,46475,1,8,0:0:0:0:
256,192,46582,1,8,0:0:0:0:
256,192,46689,1,0,0:0:0:0:
256,192,46904,1,8,0:0:0:0:
256,192,47011,1,0,0:0:0:0:
256,192,47118,1,8,0:0:0:0:
256,192,47225,1,8,0:0:0:0:
256,192,47332,1,0,0:0:0:0:
256,192,47547,1,8,0:0:0:0:
256,192,47654,1,0,0:0:0:0:
256,192,47761,1,8,0:0:0:0:
256,192,47868,1,8,0:0:0:0:
256,192,47975,1,0,0:0:0:0:
256,192,48189,1,8,0:0:0:0:
256,192,48296,1,0,0:0:0:0:
256,192,48403,1,8,0:0:0:0:
256,192,48510,1,8,0:0:0:0:
256,192,48617,1,0,0:0:0:0:
256,192,48725,1,0,0:0:0:0:
256,192,48832,1,8,0:0:0:0:
256,192,49047,1,8,0:0:0:0:
256,192,49154,1,0,0:0:0:0:
256,192,49261,1,0,0:0:0:0:
256,192,49368,1,0,0:0:0:0:
256,192,49475,1,8,0:0:0:0:
256,192,49689,1,8,0:0:0:0:
256,192,49797,1,0,0:0:0:0:
256,192,49904,1,0,0:0:0:0:
256,192,50011,1,8,0:0:0:0:
256,192,50118,1,8,0:0:0:0:
256,192,50332,1,8,0:0:0:0:
256,192,50439,1,0,0:0:0:0:
256,192,50547,1,0,0:0:0:0:
256,192,50654,1,8,0:0:0:0:
256,192,50761,1,8,0:0:0:0:
256,192,50975,1,8,0:0:0:0:
256,192,51082,1,0,0:0:0:0:
256,192,51189,1,0,0:0:0:0:
256,192,51297,1,0,0:0:0:0:
256,192,51404,1,8,0:0:0:0:
256,192,51511,1,0,0:0:0:0:
256,192,51618,1,0,0:0:0:0:
256,192,51725,1,0,0:0:0:0:
256,192,51832,1,0,0:0:0:0:
256,192,51939,1,8,0:0:0:0:
256,192,52047,1,8,0:0:0:0:
256,192,52154,1,0,0:0:0:0:
256,192,52261,1,8,0:0:0:0:
256,192,52368,1,0,0:0:0:0:
256,192,52797,1,8,0:0:0:0:
256,192,53011,1,8,0:0:0:0:
256,192,53225,1,0,0:0:0:0:
256,192,53332,1,8,0:0:0:0:
256,192,53439,1,8,0:0:0:0:
256,192,53547,1,8,0:0:0:0:
256,192,53654,1,0,0:0:0:0:
256,192,53761,1,8,0:0:0:0:
256,192,53868,1,8,0:0:0:0:
256,192,53975,1,8,0:0:0:0:
256,192,54082,1,0,0:0:0:0:
256,192,54297,1,8,0:0:0:0:
256,192,54511,1,8,0:0:0:0:
256,192,54832,1,8,0:0:0:0:
256,192,54939,1,0,0:0:0:0:
256,192,55047,1,8,0:0:0:0:
256,192,55154,1,0,0:0:0:0:
256,192,55261,1,0,0:0:0:0:
256,192,55368,1,8,0:0:0:0:
256,192,55475,1,0,0:0:0:0:
256,192,55582,1,8,0:0:0:0:
256,192,55689,1,0,0:0:0:0:
256,192,55797,1,0,0:0:0:0:
256,192,56011,1,0,0:0:0:0:
256,192,56118,1,0,0:0:0:0:
256,192,56225,1,8,0:0:0:0:
256,192,56439,1,0,0:0:0:0:
256,192,56547,1,0,0:0:0:0:
256,192,56654,1,8,0:0:0:0:
256,192,56868,1,0,0:0:0:0:
256,192,56975,1,0,0:0:0:0:
256,192,57082,1,0,0:0:0:0:
256,192,57189,1,0,0:0:0:0:
256,192,57297,1,8,0:0:0:0:
256,192,57511,1,12,0:0:0:0:
256,192,57725,1,8,0:0:0:0:
256,192,57832,1,0,0:0:0:0:
256,192,57939,1,8,0:0:0:0:
256,192,58047,1,0,0:0:0:0:
256,192,58154,1,8,0:0:0:0:
256,192,58368,1,12,0:0:0:0:
256,192,58582,1,8,0:0:0:0:
256,192,58654,1,8,0:0:0:0:
256,192,58725,1,8,0:0:0:0:
256,192,58797,1,8,0:0:0:0:
256,192,59011,1,8,0:0:0:0:
256,192,59225,1,12,0:0:0:0:
256,192,59439,1,8,0:0:0:0:
256,192,59547,1,0,0:0:0:0:
256,192,59654,1,8,0:0:0:0:
256,192,59761,1,0,0:0:0:0:
256,192,59868,1,8,0:0:0:0:
256,192,60082,1,8,0:0:0:0:
256,192,60297,1,8,0:0:0:0:
256,192,60368,1,8,0:0:0:0:
256,192,60439,1,8,0:0:0:0:
256,192,60511,1,8,0:0:0:0:
256,192,60725,1,8,0:0:0:0:
256,192,60939,1,8,0:0:0:0:
256,192,61011,1,8,0:0:0:0:
256,192,61082,1,8,0:0:0:0:
256,192,61154,1,8,0:0:0:0:
256,192,61368,1,0,0:0:0:0:
256,192,61439,1,0,0:0:0:0:
256,192,61511,1,0,0:0:0:0:
256,192,61582,1,0,0:0:0:0:
256,192,61797,1,12,0:0:0:0:
256,192,62011,1,0,0:0:0:0:
256,192,62082,1,0,0:0:0:0:
256,192,62154,1,0,0:0:0:0:
256,192,62225,1,0,0:0:0:0:
256,192,62439,1,0,0:0:0:0:
256,192,62654,1,8,0:0:0:0:
256,192,63082,1,8,0:0:0:0:
256,192,63297,1,0,0:0:0:0:
256,192,63511,1,12,0:0:0:0:
256,192,63832,1,0,0:0:0:0:
256,192,63886,1,0,0:0:0:0:
256,192,63939,1,8,0:0:0:0:
256,192,64047,1,0,0:0:0:0:
256,192,64154,1,8,0:0:0:0:
256,192,64368,1,8,0:0:0:0:
256,192,64439,1,8,0:0:0:0:
256,192,64511,1,8,0:0:0:0:
256,192,64582,1,8,0:0:0:0:
256,192,64797,1,0,0:0:0:0:
256,192,64868,1,0,0:0:0:0:
256,192,64939,1,0,0:0:0:0:
256,192,65011,1,0,0:0:0:0:
256,192,65225,1,12,0:0:0:0:
256,192,65439,1,0,0:0:0:0:
256,192,65511,1,0,0:0:0:0:
256,192,65582,1,0,0:0:0:0:
256,192,65654,1,8,0:0:0:0:
256,192,65868,1,0,0:0:0:0:
256,192,66082,1,8,0:0:0:0:
256,192,66511,1,0,0:0:0:0:
256,192,66939,1,12,0:0:0:0:
256,192,67261,1,0,0:0:0:0:
256,192,67314,1,0,0:0:0:0:
256,192,67368,1,8,0:0:0:0:
256,192,67475,1,0,0:0:0:0:
256,192,67529,1,0,0:0:0:0:
256,192,67582,1,8,0:0:0:0:
256,192,67797,1,8,0:0:0:0:
256,192,67868,1,8,0:0:0:0:
256,192,67939,1,8,0:0:0:0:
256,192,68011,1,8,0:0:0:0:
256,192,68225,1,0,0:0:0:0:
256,192,68297,1,0,0:0:0:0:
256,192,68368,1,0,0:0:0:0:
256,192,68439,1,0,0:0:0:0:
256,192,68654,1,12,0:0:0:0:
256,192,68868,1,0,0:0:0:0:
256,192,68939,1,0,0:0:0:0:
256,192,69011,1,0,0:0:0:0:
256,192,69082,1,0,0:0:0:0:
256,192,69297,1,0,0:0:0:0:
256,192,69511,1,8,0:0:0:0:
256,192,69939,1,8,0:0:0:0:
256,192,70154,1,0,0:0:0:0:
256,192,70368,1,12,0:0:0:0:
256,192,70689,1,0,0:0:0:0:
256,192,70743,1,0,0:0:0:0:
256,192,70797,1,8,0:0:0:0:
256,192,70904,1,0,0:0:0:0:
256,192,71011,1,8,0:0:0:0:
256,192,71225,1,8,0:0:0:0:
256,192,71297,1,8,0:0:0:0:
256,192,71368,1,8,0:0:0:0:
256,192,71439,1,8,0:0:0:0:
256,192,71654,1,0,0:0:0:0:
256,192,71725,1,0,0:0:0:0:
256,192,71797,1,0,0:0:0:0:
256,192,71868,1,0,0:0:0:0:
256,192,72082,1,12,0:0:0:0:
256,192,72297,1,0,0:0:0:0:
256,192,72368,1,0,0:0:0:0:
256,192,72439,1,0,0:0:0:0:
256,192,72511,1,0,0:0:0:0:
256,192,72725,1,0,0:0:0:0:
256,192,72939,1,4,0:0:0:0:
256,192,73154,1,8,0:0:0:0:
256,192,73225,1,8,0:0:0:0:
256,192,73297,1,8,0:0:0:0:
256,192,73368,1,0,0:0:0:0:
256,192,73439,1,0,0:0:0:0:
256,192,73511,1,0,0:0:0:0:
256,192,73582,1,8,0:0:0:0:
256,192,73797,1,8,0:0:0:0:
256,192,74654,1,8,0:0:0:0:
256,192,74761,1,0,0:0:0:0:
256,192,74868,1,8,0:0:0:0:
256,192,74975,1,0,0:0:0:0:
256,192,75082,1,8,0:0:0:0:
256,192,75189,1,8,0:0:0:0:
256,192,75404,1,8,0:0:0:0:
256,192,75511,1,0,0:0:0:0:
256,192,75618,1,0,0:0:0:0:
256,192,75725,1,8,0:0:0:0:
256,192,75832,1,0,0:0:0:0:
256,192,75939,1,0,0:0:0:0:
256,192,76047,1,0,0:0:0:0:
256,192,76154,1,8,0:0:0:0:
256,192,76368,1,0,0:0:0:0:
256,192,76475,1,0,0:0:0:0:
256,192,76582,1,8,0:0:0:0:
256,192,76689,1,0,0:0:0:0:
256,192,76797,1,0,0:0:0:0:
256,192,76904,1,0,0:0:0:0:
256,192,77011,1,8,0:0:0:0:
256,128,77225,2,0,P|384:160|224:256,1,420
256,192,78082,1,8,0:0:0:0:
256,192,78189,1,0,0:0:0:0:
256,192,78296,1,8,0:0:0:0:
256,192,78403,1,0,0:0:0:0:
256,192,78510,1,8,0:0:0:0:
256,192,78617,1,8,0:0:0:0:
256,192,78832,1,8,0:0:0:0:
256,192,78939,1,0,0:0:0:0:
256,192,79046,1,0,0:0:0:0:
256,192,79153,1,8,0:0:0:0:
256,192,79260,1,0,0:0:0:0:
256,192,79367,1,0,0:0:0:0:
256,192,79475,1,0,0:0:0:0:
256,192,79582,1,8,0:0:0:0:
256,192,79796,1,0,0:0:0:0:
256,192,79903,1,0,0:0:0:0:
256,192,80010,1,8,0:0:0:0:
256,192,80117,1,0,0:0:0:0:
256,192,80225,1,0,0:0:0:0:
256,192,80332,1,0,0:0:0:0:
256,192,80439,1,8,0:0:0:0:
320,128,80654,2,0,P|192:160|288:256,1,280
256,192,81511,1,8,0:0:0:0:
256,192,81725,1,0,0:0:0:0:
256,192,81832,1,8,0:0:0:0:
256,192,82047,1,0,0:0:0:0:
256,192,82154,1,8,0:0:0:0:
256,192,82368,1,8,0:0:0:0:
256,192,82582,1,0,0:0:0:0:
256,192,82689,1,8,0:0:0:0:
256,192,82797,1,0,0:0:0:0:
256,192,82904,1,0,0:0:0:0:
256,192,83011,1,8,0:0:0:0:
256,192,83225,1,8,0:0:0:0:
256,192,83439,1,0,0:0:0:0:
256,192,83547,1,8,0:0:0:0:
256,192,83761,1,0,0:0:0:0:
256,192,83868,1,8,0:0:0:0:
256,192,84082,1,8,0:0:0:0:
256,192,84297,1,0,0:0:0:0:
256,192,84404,1,8,0:0:0:0:
256,192,84511,1,0,0:0:0:0:
32,32,84939,2,0,B|128:32|128:32|128:320|128:320|384:320|384:320|384:63|384:63|480:64|480:64|480:224,1,1120
256,192,86868,1,0,0:0:0:0:
256,192,87082,1,8,0:0:0:0:
256,192,87297,1,8,0:0:0:0:
256,192,87404,1,8,0:0:0:0:
256,192,87511,1,0,0:0:0:0:
256,192,87618,1,8,0:0:0:0:
256,192,87725,1,0,0:0:0:0:
256,192,87939,12,0,88154,0:0:0:0:
256,192,88368,5,0,0:0:0:0:
256,192,88582,1,8,0:0:0:0:
256,192,88689,1,8,0:0:0:0:
256,192,88904,1,0,0:0:0:0:
256,192,89011,1,8,0:0:0:0:
256,192,89225,1,0,0:0:0:0:
256,192,89439,1,8,0:0:0:0:
256,192,89547,1,0,0:0:0:0:
256,192,89654,1,0,0:0:0:0:
256,192,89761,1,0,0:0:0:0:
256,192,89868,1,8,0:0:0:0:
256,192,90082,1,0,0:0:0:0:
256,192,90297,1,8,0:0:0:0:
256,192,90511,1,0,0:0:0:0:
256,192,90725,1,8,0:0:0:0:
256,192,90939,1,0,0:0:0:0:
256,192,91047,1,0,0:0:0:0:
256,192,91154,1,8,0:0:0:0:
256,192,91368,1,0,0:0:0:0:
256,192,91582,1,8,0:0:0:0:
256,192,91689,1,8,0:0:0:0:
256,192,91797,1,0,0:0:0:0:
256,192,92011,1,8,0:0:0:0:
256,192,92118,1,0,0:0:0:0:
256,192,92332,1,0,0:0:0:0:
256,192,92439,1,8,0:0:0:0:
256,192,92654,1,0,0:0:0:0:
256,192,92761,1,8,0:0:0:0:
256,192,92868,1,8,0:0:0:0:
256,192,93082,1,0,0:0:0:0:
256,192,93297,1,8,0:0:0:0:
256,192,93404,1,8,0:0:0:0:
256,192,93511,1,0,0:0:0:0:
256,192,93618,1,8,0:0:0:0:
256,192,93832,1,8,0:0:0:0:
256,192,93939,1,0,0:0:0:0:
256,192,94154,1,8,0:0:0:0:
256,192,94368,1,0,0:0:0:0:
256,192,94582,1,8,0:0:0:0:
256,192,94689,1,8,0:0:0:0:
256,192,94797,1,0,0:0:0:0:
256,192,94904,1,0,0:0:0:0:
256,192,95011,1,8,0:0:0:0:
256,192,95225,1,0,0:0:0:0:
256,192,95332,1,8,0:0:0:0:
256,192,95439,1,8,0:0:0:0:
256,192,95547,1,8,0:0:0:0:
256,192,95654,1,0,0:0:0:0:
256,192,95761,1,8,0:0:0:0:
256,192,95868,1,8,0:0:0:0:
256,192,96082,1,0,0:0:0:0:
256,192,96189,1,0,0:0:0:0:
256,192,96297,1,8,0:0:0:0:
256,192,96404,1,0,0:0:0:0:
256,192,96511,1,8,0:0:0:0:
256,192,96618,1,8,0:0:0:0:
256,192,96725,1,0,0:0:0:0:
256,192,96832,1,0,0:0:0:0:
256,192,96939,1,8,0:0:0:0:
256,192,97154,1,0,0:0:0:0:
256,192,97368,1,8,0:0:0:0:
256,192,97582,1,8,0:0:0:0:
256,192,97797,1,0,0:0:0:0:
256,192,98011,1,8,0:0:0:0:
256,192,98118,1,0,0:0:0:0:
256,192,98225,1,0,0:0:0:0:
256,192,98439,1,8,0:0:0:0:
256,192,98547,1,8,0:0:0:0:
256,192,98654,1,0,0:0:0:0:
256,192,98868,1,8,0:0:0:0:
256,192,98975,1,0,0:0:0:0:
256,192,99189,1,0,0:0:0:0:
256,192,99297,1,8,0:0:0:0:
256,192,99511,1,0,0:0:0:0:
256,192,99725,1,8,0:0:0:0:
256,192,99832,1,8,0:0:0:0:
256,192,99939,1,0,0:0:0:0:
256,192,100047,1,0,0:0:0:0:
256,192,100154,1,8,0:0:0:0:
256,192,100368,1,0,0:0:0:0:
256,192,100475,1,0,0:0:0:0:
256,192,100582,1,8,0:0:0:0:
256,192,100689,1,0,0:0:0:0:
256,192,100797,1,0,0:0:0:0:
256,192,100904,1,0,0:0:0:0:
256,192,100957,1,0,0:0:0:0:
256,192,101011,1,8,0:0:0:0:
256,192,101225,1,8,0:0:0:0:
256,192,101332,1,0,0:0:0:0:
256,192,101439,1,8,0:0:0:0:
256,192,101547,1,0,0:0:0:0:
256,192,101654,1,8,0:0:0:0:
256,192,101761,1,0,0:0:0:0:
256,192,101868,1,8,0:0:0:0:
256,192,102082,1,4,0:0:0:0:
256,192,102296,1,8,0:0:0:0:
256,192,102403,1,8,0:0:0:0:
256,192,102618,1,0,0:0:0:0:
256,192,102725,1,8,0:0:0:0:
256,192,102939,1,0,0:0:0:0:
256,192,103153,1,8,0:0:0:0:
256,192,103261,1,0,0:0:0:0:
256,192,103368,1,0,0:0:0:0:
256,192,103475,1,0,0:0:0:0:
256,192,103582,1,8,0:0:0:0:
256,192,103796,1,0,0:0:0:0:
256,192,104011,1,8,0:0:0:0:
256,192,104225,1,0,0:0:0:0:
256,192,104439,1,8,0:0:0:0:
256,192,104653,1,0,0:0:0:0:
256,192,104761,1,0,0:0:0:0:
256,192,104868,1,8,0:0:0:0:
256,192,105082,1,0,0:0:0:0:
256,192,105296,1,8,0:0:0:0:
256,192,105403,1,8,0:0:0:0:
256,192,105511,1,0,0:0:0:0:
256,192,105725,1,8,0:0:0:0:
256,192,105832,1,0,0:0:0:0:
256,192,106046,1,0,0:0:0:0:
256,192,106153,1,8,0:0:0:0:
256,192,106368,1,0,0:0:0:0:
256,192,106475,1,8,0:0:0:0:
256,192,106582,1,8,0:0:0:0:
256,192,106796,1,0,0:0:0:0:
256,192,107011,1,8,0:0:0:0:
256,192,107118,1,8,0:0:0:0:
256,192,107225,1,0,0:0:0:0:
256,192,107332,1,8,0:0:0:0:
256,192,107546,1,8,0:0:0:0:
256,192,107653,1,0,0:0:0:0:
256,192,107868,1,8,0:0:0:0:
256,192,108082,1,0,0:0:0:0:
256,192,108189,1,0,0:0:0:0:
256,192,108296,1,8,0:0:0:0:
256,192,108403,1,8,0:0:0:0:
256,192,108511,1,0,0:0:0:0:
256,192,108618,1,0,0:0:0:0:
256,192,108725,1,8,0:0:0:0:
256,192,108939,1,0,0:0:0:0:
256,192,109011,1,0,0:0:0:0:
256,192,109082,1,0,0:0:0:0:
256,192,109154,1,0,0:0:0:0:
256,192,109368,1,8,0:0:0:0:
256,192,109439,1,8,0:0:0:0:
256,192,109511,1,8,0:0:0:0:
256,192,109582,1,8,0:0:0:0:
256,192,109797,1,0,0:0:0:0:
256,192,109868,1,0,0:0:0:0:
256,192,109939,1,0,0:0:0:0:
256,192,110011,1,8,0:0:0:0:
256,192,110225,1,0,0:0:0:0:
256,192,110297,1,0,0:0:0:0:
256,192,110368,1,0,0:0:0:0:
256,192,110439,1,8,0:0:0:0:
256,192,110654,1,0,0:0:0:0:
256,192,110868,1,8,0:0:0:0:
256,192,111082,1,0,0:0:0:0:
256,192,111297,1,8,0:0:0:0:
256,192,111511,1,0,0:0:0:0:
256,192,111725,1,8,0:0:0:0:
256,192,111832,1,0,0:0:0:0:
256,192,111939,1,0,0:0:0:0:
256,192,112154,1,8,0:0:0:0:
256,192,112261,1,8,0:0:0:0:
256,192,112368,1,0,0:0:0:0:
256,192,112689,1,0,0:0:0:0:
256,192,112939,1,0,0:0:0:0:
256,192,113011,1,8,0:0:0:0:
256,192,113439,1,8,0:0:0:0:
256,192,113547,1,8,0:0:0:0:
256,192,113654,1,0,0:0:0:0:
256,192,114082,1,12,0:0:0:0:
256,192,114297,1,0,0:0:0:0:
256,192,114404,1,0,0:0:0:0:
256,192,114511,1,8,0:0:0:0:
256,192,114618,1,8,0:0:0:0:
256,192,114832,1,0,0:0:0:0:
256,192,114939,1,0,0:0:0:0:
256,192,115047,1,0,0:0:0:0:
256,192,115154,1,8,0:0:0:0:
256,192,115261,1,8,0:0:0:0:
256,192,115475,1,0,0:0:0:0:
256,192,115582,1,0,0:0:0:0:
256,192,115689,1,0,0:0:0:0:
256,192,115797,1,8,0:0:0:0:
256,192,115904,1,8,0:0:0:0:
256,192,116118,1,0,0:0:0:0:
256,192,116225,1,0,0:0:0:0:
256,192,116332,1,0,0:0:0:0:
256,192,116439,1,8,0:0:0:0:
256,192,116511,1,8,0:0:0:0:
256,192,116582,1,8,0:0:0:0:
256,192,116654,1,8,0:0:0:0:
256,192,116725,1,8,0:0:0:0:
256,192,116797,1,8,0:0:0:0:
256,192,116868,1,0,0:0:0:0:
256,192,116939,1,0,0:0:0:0:
256,192,117011,1,0,0:0:0:0:
256,192,117082,1,0,0:0:0:0:
256,192,117154,1,0,0:0:0:0:
256,192,117225,1,0,0:0:0:0:
256,192,117297,1,0,0:0:0:0:
256,192,117368,1,0,0:0:0:0:
256,192,117439,1,0,0:0:0:0:
256,192,117511,1,0,0:0:0:0:
