osu file format v14

[General]
AudioFilename: audio.mp3
AudioLeadIn: 0
PreviewTime: 18072
Countdown: 0
SampleSet: Soft
StackLeniency: 0.7
Mode: 3
LetterboxInBreaks: 0
SpecialStyle: 0
WidescreenStoryboard: 0

[Editor]
Bookmarks: 24929,46358
DistanceSpacing: 1.3
BeatDivisor: 4
GridSize: 4
TimelineZoom: 2.699999

[Metadata]
Title:iLLness LiLin
TitleUnicode:iLLness LiLin
Artist:Kaneko Chiharu
ArtistUnicode:かねこちはる
Creator:Fresh Chicken
Version:HEAVENLY
Source:SOUND VOLTEX IV HEAVENLY HAVEN
Tags:The 6th KAC Original Song Contest Winner Aonasai jakads Pirates Rasis Grace Hardcore Piano SDVX 4
BeatmapID:1243559
BeatmapSetID:587269

[Difficulty]
HPDrainRate:9
CircleSize:4
OverallDifficulty:8.5
ApproachRate:5
SliderMultiplier:1.4
SliderTickRate:1

[Events]
//Background and Video events
0,0,"170317_1_1.png",0,0
//Break Periods
//Storyboard Layer 0 (Background)
//Storyboard Layer 1 (Fail)
//Storyboard Layer 2 (Pass)
//Storyboard Layer 3 (Foreground)
//Storyboard Sound Samples
Sample,24929,0,"normal-hitclap.wav",60
Sample,44162,0,"normal-hitclap.wav",60
Sample,74965,0,"normal-hitclap.wav",60
Sample,88358,0,"normal-hitclap.wav",60
Sample,95269,0,"normal-hitfinish.wav",60
Sample,102072,0,"normal-hitfinish.wav",60
Sample,102554,0,"normal-hitclap.wav",60
Sample,117501,0,"drum-hitclap.wav",40

[TimingPoints]
930,214.285714285714,4,2,0,20,1,0
17858,-50,4,2,0,20,0,0
17894,-100,4,2,0,20,0,0
27501,-76.9230769230769,4,2,0,20,0,0
27608,-142.857142857143,4,2,0,20,0,0
27715,-100,4,2,0,20,0,0
28251,-100,4,2,0,20,0,0
28358,-500,4,2,0,20,0,0
28465,-55.5555555555556,4,2,0,20,0,0
28572,-100,4,2,0,20,0,0
35001,-50,4,2,0,20,0,0
35037,-100,4,2,0,20,0,0
36072,-66.6666666666667,4,2,0,20,0,0
36153,-200,4,2,0,20,0,0
36233,-60.6060606060606,4,2,0,20,0,0
36314,-285.714285714286,4,2,0,20,0,0
36394,-55.5555555555556,4,2,0,20,0,0
36447,-500,4,2,0,20,0,0
36501,-100,4,2,0,20,0,0
43358,-142.857142857143,4,2,0,20,0,0
43412,-117.647058823529,4,2,0,20,0,0
43465,-100,4,2,0,20,0,0
43519,-86.9565217391304,4,2,0,20,0,0
43572,-76.9230769230769,4,2,0,20,0,0
43679,-142.857142857143,4,2,0,20,0,0
43787,-100,4,2,0,20,0,0
51929,-101.010101010101,4,2,0,20,0,0
51983,-102.040816326531,4,2,0,20,0,0
52037,-103.092783505155,4,2,0,20,0,0
52090,-104.166666666667,4,2,0,20,0,0
52144,-105.263157894737,4,2,0,20,0,0
52197,-106.382978723404,4,2,0,20,0,0
52251,-107.52688172043,4,2,0,20,0,0
52304,-108.695652173913,4,2,0,20,0,0
52358,-111.111111111111,4,2,0,20,0,0
57501,-50,4,2,0,20,0,0
57528,-100,4,2,0,20,0,0
58358,-50,4,2,0,20,0,0
58385,-100,4,2,0,20,0,0
59215,-50,4,2,0,20,0,0
59242,-100,4,2,0,20,0,0
73787,-1000,4,2,0,20,0,0
74322,-100,4,2,0,20,0,0
75929,-66.6666666666667,4,2,0,20,0,0
75983,-200,4,2,0,20,0,0
76037,-66.6666666666667,4,2,0,20,0,0
76091,-200,4,2,0,20,0,0
76144,-66.6666666666667,4,2,0,20,0,0
76198,-200,4,2,0,20,0,0
76251,-100,4,2,0,20,0,0
79358,-66.6666666666667,4,2,0,20,0,0
79412,-200,4,2,0,20,0,0
79466,-66.6666666666667,4,2,0,20,0,0
79520,-200,4,2,0,20,0,0
79573,-66.6666666666667,4,2,0,20,0,0
79627,-200,4,2,0,20,0,0
79680,-100,4,2,0,20,0,0
81072,-45.4545454545455,4,2,0,20,0,0
81179,-125,4,2,0,20,0,0
81501,-100,4,2,0,20,0,0
84394,-52.6315789473684,4,2,0,20,0,0
84554,-1000,4,2,0,20,0,0
84715,-100,4,2,0,20,0,0
86644,-1000,4,2,0,20,0,0
87608,-100,4,2,0,20,0,0
96929,-62.5,4,2,0,20,0,0
97037,-250,4,2,0,20,0,0
97144,-62.5,4,2,0,20,0,0
97252,-250,4,2,0,20,0,0
97358,-62.5,4,2,0,20,0,0
97466,-250,4,2,0,20,0,0
97572,-62.5,4,2,0,20,0,0
97680,-250,4,2,0,20,0,0
97787,-100,4,2,0,20,0,0
108715,-200,4,2,0,20,0,0
108769,-100,4,2,0,20,0,0
108876,-66.6666666666667,4,2,0,20,0,0
108929,-100,4,2,0,20,0,0

[HitObjects]
64,192,930,5,0,0:0:0:60:normal-hitclap.wav
448,192,930,128,0,3501:0:0:0:60:drum-hitfinish.wav
192,192,930,1,0,0:0:0:0:
320,192,930,1,0,0:0:0:0:
64,192,1144,1,0,0:0:0:0:
192,192,1215,1,0,0:0:0:0:
320,192,1287,1,0,0:0:0:0:
192,192,1358,1,0,0:0:0:0:
64,192,1429,1,0,0:0:0:0:
192,192,1501,1,0,0:0:0:0:
320,192,1572,1,0,0:0:0:0:
64,192,1644,1,0,0:0:0:0:
192,192,1715,1,0,0:0:0:0:
320,192,1787,1,0,0:0:0:0:
192,192,1858,1,0,0:0:0:0:
64,192,1929,1,0,0:0:0:0:
320,192,2001,1,0,0:0:0:0:
192,192,2072,1,0,0:0:0:0:
64,192,2144,1,0,0:0:0:0:
320,192,2215,1,0,0:0:0:0:
64,192,2287,1,0,0:0:0:0:
192,192,2358,1,0,0:0:0:0:
320,192,2429,1,0,0:0:0:0:
64,192,2501,1,0,0:0:0:0:
320,192,2572,1,0,0:0:0:0:
64,192,2644,1,0,0:0:0:0:
192,192,2697,1,0,0:0:0:0:
320,192,2751,1,0,0:0:0:0:
64,192,2804,1,0,0:0:0:0:
192,192,2858,1,0,0:0:0:0:
320,192,2912,1,0,0:0:0:0:
64,192,2965,1,0,0:0:0:0:
192,192,3019,1,0,0:0:0:0:
320,192,3072,1,0,0:0:0:0:
64,192,3126,1,0,0:0:0:0:
192,192,3179,1,0,0:0:0:0:
320,192,3233,1,0,0:0:0:0:
64,192,3287,1,0,0:0:0:0:
192,192,3340,1,0,0:0:0:0:
320,192,3394,1,0,0:0:0:0:
64,192,3447,1,0,0:0:0:0:
192,192,3501,1,0,0:0:0:40:drum-hitclap.wav
320,192,3554,1,0,0:0:0:40:drum-hitclap.wav
448,192,3554,1,0,0:0:0:0:
64,192,3608,1,0,0:0:0:40:drum-hitclap.wav
192,192,3608,1,0,0:0:0:0:
320,192,3662,1,0,0:0:0:40:drum-hitclap.wav
448,192,3662,1,0,0:0:0:0:
192,192,3715,1,0,0:0:0:40:drum-hitclap.wav
64,192,3715,1,0,0:0:0:0:
320,192,3769,1,0,0:0:0:40:drum-hitclap.wav
448,192,3769,1,0,0:0:0:0:
192,192,3822,1,0,0:0:0:40:drum-hitclap.wav
64,192,3822,1,0,0:0:0:0:
320,192,3876,1,0,0:0:0:40:drum-hitclap.wav
448,192,3876,1,0,0:0:0:0:
64,192,3929,1,0,0:0:0:40:drum-hitclap.wav
192,192,3929,1,0,0:0:0:0:
448,192,4358,1,0,0:0:0:60:normal-hitclap.wav
64,192,4358,1,0,0:0:0:60:normal-hitfinish.wav
320,192,4358,1,0,0:0:0:0:
192,192,4572,1,0,0:0:0:60:normal-hitclap.wav
64,192,4572,1,0,0:0:0:0:
320,192,4679,1,0,0:0:0:0:
192,192,4787,1,0,0:0:0:60:normal-hitclap.wav
64,192,4787,1,0,0:0:0:0:
448,192,4894,1,0,0:0:0:0:
192,192,5001,1,0,0:0:0:60:normal-hitclap.wav
64,192,5001,1,0,0:0:0:0:
64,192,5108,1,0,0:0:0:0:
320,192,5215,1,0,0:0:0:60:normal-hitclap.wav
448,192,5215,1,0,0:0:0:0:
192,192,5322,1,0,0:0:0:0:
320,192,5429,1,0,0:0:0:60:normal-hitclap.wav
448,192,5429,1,0,0:0:0:0:
64,192,5537,1,0,0:0:0:0:
320,192,5644,1,0,0:0:0:60:normal-hitclap.wav
448,192,5644,1,0,0:0:0:0:
448,192,5751,1,0,0:0:0:0:
192,192,5858,1,0,0:0:0:60:normal-hitclap.wav
64,192,5858,1,0,0:0:0:0:
320,192,5965,1,0,0:0:0:0:
192,192,6072,1,0,0:0:0:60:normal-hitclap.wav
64,192,6072,1,0,0:0:0:0:
448,192,6179,1,0,0:0:0:0:
192,192,6287,1,0,0:0:0:60:normal-hitclap.wav
64,192,6287,1,0,0:0:0:0:
64,192,6394,1,0,0:0:0:0:
320,192,6501,1,0,0:0:0:60:normal-hitclap.wav
448,192,6501,1,0,0:0:0:0:
192,192,6608,1,0,0:0:0:0:
320,192,6715,1,0,0:0:0:60:normal-hitclap.wav
448,192,6715,1,0,0:0:0:0:
64,192,6822,1,0,0:0:0:0:
320,192,6929,1,0,0:0:0:60:normal-hitclap.wav
448,192,6929,1,0,0:0:0:0:
448,192,7037,1,0,0:0:0:0:
192,192,7144,1,0,0:0:0:60:normal-hitclap.wav
64,192,7144,1,0,0:0:0:0:
448,192,7251,1,0,0:0:0:0:
192,192,7358,1,0,0:0:0:60:normal-hitclap.wav
64,192,7358,1,0,0:0:0:0:
320,192,7465,1,0,0:0:0:0:
64,192,7572,1,0,0:0:0:60:normal-hitclap.wav
192,192,7572,1,0,0:0:0:0:
192,192,7679,1,0,0:0:0:0:
320,192,7787,1,0,0:0:0:60:normal-hitclap.wav
448,192,7787,1,0,0:0:0:0:
64,192,7894,1,0,0:0:0:0:
320,192,8001,1,0,0:0:0:60:normal-hitclap.wav
448,192,8001,1,0,0:0:0:0:
192,192,8108,1,0,0:0:0:0:
320,192,8215,1,0,0:0:0:60:normal-hitclap.wav
448,192,8215,1,0,0:0:0:0:
64,192,8322,1,0,0:0:0:0:
320,192,8429,1,0,0:0:0:60:normal-hitclap.wav
448,192,8429,1,0,0:0:0:0:
320,192,8537,1,0,0:0:0:0:
192,192,8644,1,0,0:0:0:60:normal-hitclap.wav
64,192,8644,1,0,0:0:0:0:
448,192,8751,1,0,0:0:0:0:
192,192,8858,1,0,0:0:0:60:normal-hitclap.wav
64,192,8858,1,0,0:0:0:0:
320,192,8965,1,0,0:0:0:0:
192,192,9072,1,0,0:0:0:60:normal-hitclap.wav
64,192,9072,1,0,0:0:0:0:
192,192,9179,1,0,0:0:0:0:
320,192,9287,1,0,0:0:0:60:normal-hitclap.wav
448,192,9287,1,0,0:0:0:0:
64,192,9394,1,0,0:0:0:0:
320,192,9501,1,0,0:0:0:60:normal-hitclap.wav
448,192,9501,1,0,0:0:0:0:
192,192,9608,1,0,0:0:0:0:
320,192,9715,1,0,0:0:0:60:normal-hitclap.wav
448,192,9715,1,0,0:0:0:0:
320,192,9822,1,0,0:0:0:0:
192,192,9929,1,0,0:0:0:60:normal-hitclap.wav
64,192,9929,1,0,0:0:0:0:
448,192,10037,1,0,0:0:0:0:
192,192,10144,1,0,0:0:0:60:normal-hitclap.wav
64,192,10144,1,0,0:0:0:0:
320,192,10251,1,0,0:0:0:0:
192,192,10358,5,0,0:0:0:40:drum-hitclap.wav
64,192,10358,1,0,0:0:0:0:
320,192,10412,1,0,0:0:0:40:drum-hitclap.wav
64,192,10465,1,0,0:0:0:40:drum-hitclap.wav
448,192,10465,1,0,0:0:0:0:
192,192,10519,1,0,0:0:0:40:drum-hitclap.wav
320,192,10572,1,0,0:0:0:40:drum-hitclap.wav
448,192,10572,1,0,0:0:0:0:
64,192,10679,1,0,0:0:0:40:drum-hitclap.wav
192,192,10679,1,0,0:0:0:0:
448,192,10733,1,0,0:0:0:40:drum-hitclap.wav
320,192,10787,1,0,0:0:0:40:drum-hitclap.wav
64,192,10787,1,0,0:0:0:0:
192,192,10840,1,0,0:0:0:40:drum-hitclap.wav
448,192,10894,1,0,0:0:0:40:drum-hitclap.wav
320,192,10894,1,0,0:0:0:0:
192,192,11001,1,0,0:0:0:40:drum-hitclap.wav
64,192,11001,1,0,0:0:0:0:
448,192,11054,1,0,0:0:0:40:drum-hitclap.wav
320,192,11054,1,0,0:0:0:0:
192,192,11108,1,0,0:0:0:40:drum-hitclap.wav
64,192,11108,1,0,0:0:0:0:
320,192,11162,1,0,0:0:0:40:drum-hitclap.wav
448,192,11162,1,0,0:0:0:0:
192,192,11215,1,0,0:0:0:40:drum-hitclap.wav
64,192,11215,1,0,0:0:0:60:normal-hitfinish.wav
320,192,11322,1,0,0:0:0:60:normal-hitclap.wav
448,192,11429,1,0,0:0:0:60:normal-hitclap.wav
64,192,11429,1,0,0:0:0:0:
64,192,11537,1,0,0:0:0:60:normal-hitclap.wav
320,192,11537,1,0,0:0:0:0:
448,192,11644,1,0,0:0:0:60:normal-hitclap.wav
192,192,11644,1,0,0:0:0:0:
448,192,11751,1,0,0:0:0:60:normal-hitclap.wav
192,192,11751,1,0,0:0:0:0:
320,192,11858,1,0,0:0:0:60:normal-hitclap.wav
64,192,11858,1,0,0:0:0:0:
192,192,11965,1,0,0:0:0:60:normal-hitclap.wav
448,192,12072,1,0,0:0:0:60:normal-hitclap.wav
64,192,12072,1,0,0:0:0:0:
192,192,12179,1,0,0:0:0:60:normal-hitclap.wav
448,192,12179,1,0,0:0:0:0:
320,192,12287,1,0,0:0:0:60:normal-hitclap.wav
64,192,12287,1,0,0:0:0:0:
320,192,12394,1,0,0:0:0:60:normal-hitclap.wav
64,192,12394,1,0,0:0:0:0:
192,192,12501,1,0,0:0:0:60:normal-hitclap.wav
448,192,12501,1,0,0:0:0:0:
64,192,12608,1,0,0:0:0:60:normal-hitclap.wav
192,192,12715,1,0,0:0:0:60:normal-hitclap.wav
448,192,12715,1,0,0:0:0:0:
320,192,12822,1,0,0:0:0:60:normal-hitclap.wav
448,192,12822,1,0,0:0:0:0:
192,192,12929,1,0,0:0:0:60:normal-hitclap.wav
64,192,12929,1,0,0:0:0:0:
192,192,13037,1,0,0:0:0:60:normal-hitclap.wav
64,192,13037,1,0,0:0:0:0:
448,192,13144,1,0,0:0:0:60:normal-hitclap.wav
320,192,13144,1,0,0:0:0:0:
448,192,13251,1,0,0:0:0:60:normal-hitclap.wav
64,192,13358,1,0,0:0:0:60:normal-hitclap.wav
320,192,13358,1,0,0:0:0:0:
64,192,13465,1,0,0:0:0:60:normal-hitclap.wav
192,192,13465,1,0,0:0:0:0:
448,192,13572,1,0,0:0:0:60:normal-hitclap.wav
320,192,13572,1,0,0:0:0:0:
448,192,13679,1,0,0:0:0:60:normal-hitclap.wav
320,192,13679,1,0,0:0:0:0:
192,192,13787,1,0,0:0:0:60:normal-hitclap.wav
64,192,13787,1,0,0:0:0:0:
448,192,13894,1,0,0:0:0:60:normal-hitclap.wav
192,192,14001,1,0,0:0:0:60:normal-hitclap.wav
64,192,14001,1,0,0:0:0:0:
320,192,14108,1,0,0:0:0:60:normal-hitclap.wav
64,192,14108,1,0,0:0:0:0:
192,192,14215,1,0,0:0:0:60:normal-hitclap.wav
448,192,14215,1,0,0:0:0:0:
448,192,14322,1,0,0:0:0:60:normal-hitclap.wav
192,192,14322,1,0,0:0:0:0:
320,192,14429,1,0,0:0:0:60:normal-hitclap.wav
64,192,14429,1,0,0:0:0:0:
320,192,14537,5,0,0:0:0:60:normal-hitclap.wav
192,192,14537,1,0,0:0:0:0:
448,192,14644,1,0,0:0:0:60:normal-hitclap.wav
64,192,14644,1,0,0:0:0:0:
192,192,14697,1,0,0:0:0:60:normal-hitclap.wav
320,192,14751,1,0,0:0:0:60:normal-hitclap.wav
448,192,14804,1,0,0:0:0:60:normal-hitclap.wav
192,192,14858,1,0,0:0:0:60:normal-hitclap.wav
64,192,14858,1,0,0:0:0:0:
448,192,14912,1,0,0:0:0:60:normal-hitclap.wav
320,192,14965,1,0,0:0:0:60:normal-hitclap.wav
192,192,15019,1,0,0:0:0:60:normal-hitclap.wav
64,192,15072,1,0,0:0:0:60:normal-hitclap.wav
448,192,15072,1,0,0:0:0:0:
320,192,15126,1,0,0:0:0:60:normal-hitclap.wav
192,192,15179,1,0,0:0:0:60:normal-hitclap.wav
64,192,15233,1,0,0:0:0:60:normal-hitclap.wav
320,192,15287,1,0,0:0:0:60:normal-hitclap.wav
448,192,15287,1,0,0:0:0:0:
64,192,15340,1,0,0:0:0:60:normal-hitclap.wav
192,192,15394,1,0,0:0:0:60:normal-hitclap.wav
320,192,15447,1,0,0:0:0:60:normal-hitclap.wav
448,192,15501,1,0,0:0:0:60:normal-hitclap.wav
64,192,15501,1,0,0:0:0:0:
192,192,15554,1,0,0:0:0:60:normal-hitclap.wav
320,192,15608,1,0,0:0:0:60:normal-hitclap.wav
448,192,15662,1,0,0:0:0:60:normal-hitclap.wav
192,192,15715,1,0,0:0:0:60:normal-hitclap.wav
64,192,15715,1,0,0:0:0:0:
448,192,15769,1,0,0:0:0:60:normal-hitclap.wav
320,192,15822,1,0,0:0:0:60:normal-hitclap.wav
64,192,15876,1,0,0:0:0:60:normal-hitclap.wav
448,192,15929,1,0,0:0:0:60:normal-hitclap.wav
192,192,15929,1,0,0:0:0:0:
320,192,15983,1,0,0:0:0:60:normal-hitclap.wav
64,192,16037,1,0,0:0:0:60:normal-hitclap.wav
192,192,16090,1,0,0:0:0:60:normal-hitclap.wav
448,192,16144,1,0,0:0:0:60:normal-hitclap.wav
320,192,16144,1,0,0:0:0:0:
64,192,16197,1,0,0:0:0:60:normal-hitclap.wav
192,192,16251,1,0,0:0:0:60:normal-hitclap.wav
320,192,16304,1,0,0:0:0:60:normal-hitclap.wav
64,192,16358,5,0,0:0:0:0:
448,192,16358,1,0,0:0:0:0:
192,192,16429,1,0,0:0:0:0:
320,192,16501,1,0,0:0:0:0:
448,192,16572,1,0,0:0:0:0:
320,192,16644,1,0,0:0:0:0:
192,192,16715,1,0,0:0:0:0:
64,192,16787,1,0,0:0:0:0:
192,192,16858,1,0,0:0:0:0:
320,192,16929,1,0,0:0:0:0:
192,192,17001,1,0,0:0:0:0:
320,192,17072,1,0,0:0:0:0:
448,192,17144,1,0,0:0:0:0:
192,192,17215,1,0,0:0:0:40:drum-hitclap.wav
64,192,17215,1,0,0:0:0:0:
320,192,17269,1,0,0:0:0:40:drum-hitclap.wav
448,192,17269,1,0,0:0:0:0:
192,192,17322,1,0,0:0:0:40:drum-hitclap.wav
64,192,17322,1,0,0:0:0:0:
320,192,17376,1,0,0:0:0:40:drum-hitclap.wav
448,192,17376,1,0,0:0:0:0:
192,192,17429,1,0,0:0:0:40:drum-hitclap.wav
64,192,17429,1,0,0:0:0:0:
320,192,17483,1,0,0:0:0:40:drum-hitclap.wav
448,192,17483,1,0,0:0:0:0:
64,192,17537,1,0,0:0:0:40:drum-hitclap.wav
192,192,17537,1,0,0:0:0:0:
448,192,17590,1,0,0:0:0:40:drum-hitclap.wav
320,192,17590,1,0,0:0:0:0:
64,192,17644,1,0,0:0:0:40:drum-hitclap.wav
192,192,17644,1,0,0:0:0:0:
448,192,17697,1,0,0:0:0:40:drum-hitclap.wav
320,192,17697,1,0,0:0:0:0:
192,192,17751,1,0,0:0:0:40:drum-hitclap.wav
64,192,17751,1,0,0:0:0:0:
320,192,17804,1,0,0:0:0:40:drum-hitclap.wav
448,192,17804,1,0,0:0:0:0:
192,192,17858,1,0,0:0:0:60:drum-hitfinish.wav
64,192,17858,1,0,0:0:0:50:normal-hitwhistle.wav
192,192,18072,1,0,0:0:0:60:normal-hitclap.wav
448,192,18072,1,0,0:0:0:60:normal-hitfinish.wav
64,192,18072,1,0,0:0:0:40:drum-hitclap.wav
320,192,18072,1,0,0:0:0:0:
448,192,18179,1,0,0:0:0:0:
320,192,18287,1,0,0:0:0:60:normal-hitclap.wav
64,192,18287,1,0,0:0:0:40:drum-hitclap.wav
192,192,18287,1,0,0:0:0:0:
64,192,18394,1,0,0:0:0:0:
448,192,18501,1,0,0:0:0:60:normal-hitclap.wav
320,192,18501,1,0,0:0:0:40:drum-hitclap.wav
192,192,18501,1,0,0:0:0:0:
320,192,18608,1,0,0:0:0:0:
448,192,18715,1,0,0:0:0:60:normal-hitclap.wav
192,192,18715,1,0,0:0:0:40:drum-hitclap.wav
64,192,18715,1,0,0:0:0:0:
320,192,18822,1,0,0:0:0:0:
192,192,18822,1,0,0:0:0:0:
320,192,18929,1,0,0:0:0:60:normal-hitclap.wav
64,192,18929,1,0,0:0:0:40:drum-hitclap.wav
448,192,18929,1,0,0:0:0:0:
64,192,19037,1,0,0:0:0:0:
320,192,19144,1,0,0:0:0:60:normal-hitclap.wav
192,192,19144,1,0,0:0:0:40:drum-hitclap.wav
448,192,19144,1,0,0:0:0:0:
448,192,19251,1,0,0:0:0:0:
320,192,19358,1,0,0:0:0:60:normal-hitclap.wav
192,192,19358,1,0,0:0:0:40:drum-hitclap.wav
64,192,19358,1,0,0:0:0:0:
192,192,19465,1,0,0:0:0:0:
64,192,19572,1,0,0:0:0:60:normal-hitclap.wav
320,192,19572,1,0,0:0:0:40:drum-hitclap.wav
448,192,19572,1,0,0:0:0:0:
320,192,19679,1,0,0:0:0:0:
192,192,19787,1,0,0:0:0:40:drum-hitclap.wav
64,192,19787,1,0,0:0:0:60:normal-hitclap.wav
448,192,19787,1,0,0:0:0:0:
320,192,19894,128,0,20001:0:0:0:0:
192,192,20001,1,0,0:0:0:40:drum-hitclap.wav
448,192,20001,1,0,0:0:0:60:normal-hitclap.wav
64,192,20001,1,0,0:0:0:0:
64,192,20108,128,0,20215:0:0:0:0:
448,192,20215,1,0,0:0:0:60:normal-hitclap.wav
192,192,20215,1,0,0:0:0:40:drum-hitclap.wav
320,192,20215,1,0,0:0:0:0:
448,192,20322,128,0,20429:0:0:0:0:
192,192,20429,1,0,0:0:0:60:normal-hitclap.wav
320,192,20429,1,0,0:0:0:40:drum-hitclap.wav
64,192,20429,1,0,0:0:0:0:
192,192,20537,128,0,20644:0:0:0:0:
320,192,20644,1,0,0:0:0:40:drum-hitclap.wav
64,192,20644,1,0,0:0:0:0:
448,192,20644,1,0,0:0:0:60:normal-hitclap.wav
192,192,20751,1,0,0:0:0:0:
448,192,20858,1,0,0:0:0:40:drum-hitclap.wav
192,192,20858,1,0,0:0:0:60:normal-hitclap.wav
320,192,20858,1,0,0:0:0:0:
192,192,20965,1,0,0:0:0:0:
448,192,21072,1,0,0:0:0:60:normal-hitclap.wav
192,192,21072,1,0,0:0:0:40:drum-hitclap.wav
320,192,21072,1,0,0:0:0:0:
192,192,21179,1,0,0:0:0:0:
64,192,21287,1,0,0:0:0:40:drum-hitclap.wav
320,192,21287,128,0,21501:0:0:0:60:normal-hitclap.wav
64,192,21501,1,0,0:0:0:60:normal-hitclap.wav
192,192,21501,1,0,0:0:0:40:drum-hitclap.wav
448,192,21501,1,0,0:0:0:0:
64,192,21608,1,0,0:0:0:0:
448,192,21715,1,0,0:0:0:60:normal-hitclap.wav
320,192,21715,1,0,0:0:0:40:drum-hitclap.wav
192,192,21715,1,0,0:0:0:0:
448,192,21822,1,0,0:0:0:0:
192,192,21929,1,0,0:0:0:40:drum-hitclap.wav
64,192,21929,1,0,0:0:0:60:normal-hitclap.wav
320,192,21929,128,0,22144:0:0:0:0:
64,192,22144,1,0,0:0:0:40:drum-hitclap.wav
192,192,22144,1,0,0:0:0:60:normal-hitclap.wav
448,192,22144,1,0,0:0:0:0:
192,192,22251,1,0,0:0:0:0:
320,192,22358,1,0,0:0:0:60:normal-hitclap.wav
448,192,22358,1,0,0:0:0:40:drum-hitclap.wav
64,192,22358,1,0,0:0:0:0:
448,192,22465,1,0,0:0:0:0:
192,192,22465,1,0,0:0:0:0:
320,192,22572,1,0,0:0:0:60:normal-hitclap.wav
64,192,22572,1,0,0:0:0:40:drum-hitclap.wav
192,192,22572,1,0,0:0:0:0:
64,192,22679,1,0,0:0:0:0:
448,192,22679,1,0,0:0:0:0:
320,192,22787,1,0,0:0:0:40:drum-hitclap.wav
192,192,22787,1,0,0:0:0:60:normal-hitclap.wav
448,192,22787,1,0,0:0:0:0:
320,192,22894,1,0,0:0:0:0:
64,192,23001,1,0,0:0:0:60:normal-hitclap.wav
448,192,23001,1,0,0:0:0:40:drum-hitclap.wav
192,192,23001,1,0,0:0:0:0:
192,192,23108,1,0,0:0:0:0:
64,192,23215,1,0,0:0:0:40:drum-hitclap.wav
448,192,23215,1,0,0:0:0:60:normal-hitclap.wav
320,192,23215,1,0,0:0:0:0:
320,192,23322,128,0,23429:0:0:0:0:
448,192,23429,1,0,0:0:0:40:drum-hitclap.wav
192,192,23429,1,0,0:0:0:60:normal-hitclap.wav
64,192,23429,1,0,0:0:0:0:
192,192,23537,128,0,23644:0:0:0:0:
448,192,23644,1,0,0:0:0:60:normal-hitclap.wav
64,192,23644,1,0,0:0:0:40:drum-hitclap.wav
320,192,23644,1,0,0:0:0:0:
448,192,23751,128,0,23858:0:0:0:0:
192,192,23858,1,0,0:0:0:60:normal-hitclap.wav
64,192,23858,1,0,0:0:0:40:drum-hitclap.wav
320,192,23858,1,0,0:0:0:0:
64,192,23965,128,0,24072:0:0:0:0:
320,192,24072,1,0,0:0:0:40:drum-hitclap.wav
448,192,24072,1,0,0:0:0:0:
192,192,24126,1,0,0:0:0:0:
448,192,24179,1,0,0:0:0:60:normal-hitclap.wav
64,192,24179,1,0,0:0:0:0:
320,192,24233,1,0,0:0:0:0:
192,192,24287,1,0,0:0:0:40:drum-hitclap.wav
64,192,24287,1,0,0:0:0:0:
320,192,24340,1,0,0:0:0:40:drum-hitclap.wav
448,192,24340,1,0,0:0:0:0:
192,192,24394,1,0,0:0:0:40:drum-hitclap.wav
64,192,24394,1,0,0:0:0:0:
320,192,24447,1,0,0:0:0:40:drum-hitclap.wav
448,192,24447,1,0,0:0:0:0:
192,192,24501,1,0,0:0:0:60:normal-hitclap.wav
64,192,24501,1,0,0:0:0:0:
448,192,24608,1,0,0:0:0:60:normal-hitclap.wav
64,192,24608,1,0,0:0:0:0:
448,192,24715,1,0,0:0:0:40:drum-hitclap.wav
320,192,24715,1,0,0:0:0:0:
192,192,24769,1,0,0:0:0:40:drum-hitclap.wav
64,192,24769,1,0,0:0:0:0:
448,192,24822,1,0,0:0:0:40:drum-hitclap.wav
320,192,24822,1,0,0:0:0:0:
192,192,24876,1,0,0:0:0:40:drum-hitclap.wav
64,192,24876,1,0,0:0:0:0:
448,192,24929,1,0,0:0:0:60:normal-hitfinish.wav
320,192,24929,1,0,0:0:0:40:drum-hitclap.wav
192,192,25037,1,0,0:0:0:0:
448,192,25144,1,0,0:0:0:50:normal-hitwhistle.wav
320,192,25144,1,0,0:0:0:40:drum-hitclap.wav
64,192,25144,1,0,0:0:0:0:
192,192,25144,1,0,0:0:0:0:
448,192,25251,1,0,0:0:0:0:
192,192,25358,1,0,0:0:0:60:normal-hitclap.wav
320,192,25358,1,0,0:0:0:40:drum-hitclap.wav
64,192,25358,1,0,0:0:0:0:
448,192,25465,1,0,0:0:0:0:
192,192,25572,1,0,0:0:0:50:normal-hitwhistle.wav
64,192,25572,1,0,0:0:0:40:drum-hitclap.wav
448,192,25572,1,0,0:0:0:0:
320,192,25572,1,0,0:0:0:0:
192,192,25679,1,0,0:0:0:0:
64,192,25787,1,0,0:0:0:40:drum-hitclap.wav
320,192,25787,1,0,0:0:0:60:normal-hitclap.wav
448,192,25787,1,0,0:0:0:0:
192,192,25894,1,0,0:0:0:0:
64,192,26001,1,0,0:0:0:50:normal-hitwhistle.wav
320,192,26001,1,0,0:0:0:40:drum-hitclap.wav
192,192,26001,1,0,0:0:0:0:
448,192,26001,1,0,0:0:0:0:
320,192,26108,1,0,0:0:0:0:
192,192,26215,1,0,0:0:0:60:normal-hitclap.wav
448,192,26215,1,0,0:0:0:40:drum-hitclap.wav
64,192,26215,1,0,0:0:0:0:
64,192,26322,1,0,0:0:0:0:
64,192,26429,1,0,0:0:0:50:normal-hitwhistle.wav
448,192,26429,1,0,0:0:0:40:drum-hitclap.wav
192,192,26429,1,0,0:0:0:0:
320,192,26429,1,0,0:0:0:0:
320,192,26537,1,0,0:0:0:0:
64,192,26644,1,0,0:0:0:40:drum-hitclap.wav
448,192,26644,1,0,0:0:0:60:normal-hitclap.wav
192,192,26644,1,0,0:0:0:0:
320,192,26751,128,0,26858:0:0:0:0:
448,192,26858,1,0,0:0:0:50:normal-hitwhistle.wav
192,192,26858,1,0,0:0:0:40:drum-hitclap.wav
64,192,26858,1,0,0:0:0:0:
192,192,26965,128,0,27072:0:0:0:0:
448,192,27072,1,0,0:0:0:40:drum-hitclap.wav
64,192,27072,1,0,0:0:0:60:normal-hitclap.wav
320,192,27072,1,0,0:0:0:0:
448,192,27179,128,0,27287:0:0:0:0:
320,192,27287,1,0,0:0:0:40:drum-hitclap.wav
192,192,27287,1,0,0:0:0:50:normal-hitwhistle.wav
64,192,27287,1,0,0:0:0:0:
64,192,27394,128,0,27501:0:0:0:0:
192,192,27501,1,0,0:0:0:60:normal-hitclap.wav
448,192,27501,1,0,0:0:0:40:drum-hitclap.wav
320,192,27501,128,0,27715:0:0:0:0:
192,192,27715,1,0,0:0:0:60:normal-hitclap.wav
64,192,27715,1,0,0:0:0:40:drum-hitclap.wav
448,192,27715,1,0,0:0:0:0:
320,192,27822,1,0,0:0:0:40:drum-hitclap.wav
192,192,27822,1,0,0:0:0:60:normal-hitclap.wav
64,192,27822,1,0,0:0:0:0:
192,192,27929,1,0,0:0:0:60:normal-hitclap.wav
320,192,27929,1,0,0:0:0:40:drum-hitclap.wav
448,192,27929,1,0,0:0:0:0:
320,192,28037,1,0,0:0:0:40:drum-hitclap.wav
448,192,28037,1,0,0:0:0:60:normal-hitclap.wav
64,192,28037,1,0,0:0:0:0:
320,192,28144,1,0,0:0:0:40:drum-hitclap.wav
448,192,28144,1,0,0:0:0:60:normal-hitclap.wav
192,192,28144,1,0,0:0:0:0:
320,192,28251,1,0,0:0:0:60:normal-hitclap.wav
448,192,28251,1,0,0:0:0:40:drum-hitclap.wav
64,192,28251,1,0,0:0:0:0:
448,192,28572,1,0,0:0:0:60:drum-hitfinish.wav
64,192,28572,1,0,0:0:0:40:drum-hitclap.wav
192,192,28572,1,0,0:0:0:50:normal-hitwhistle.wav
320,192,28572,1,0,0:0:0:0:
64,192,28679,1,0,0:0:0:0:
448,192,28787,1,0,0:0:0:40:drum-hitclap.wav
320,192,28787,1,0,0:0:0:60:normal-hitclap.wav
192,192,28787,1,0,0:0:0:0:
64,192,28894,1,0,0:0:0:0:
192,192,29001,1,0,0:0:0:40:drum-hitclap.wav
448,192,29001,1,0,0:0:0:50:normal-hitwhistle.wav
64,192,29001,1,0,0:0:0:0:
320,192,29001,1,0,0:0:0:0:
320,192,29108,1,0,0:0:0:0:
64,192,29215,1,0,0:0:0:60:normal-hitclap.wav
192,192,29215,1,0,0:0:0:40:drum-hitclap.wav
448,192,29215,1,0,0:0:0:0:
320,192,29322,1,0,0:0:0:0:
64,192,29429,1,0,0:0:0:40:drum-hitclap.wav
192,192,29429,1,0,0:0:0:50:normal-hitwhistle.wav
320,192,29429,1,0,0:0:0:0:
448,192,29429,1,0,0:0:0:0:
448,192,29537,1,0,0:0:0:0:
192,192,29644,1,0,0:0:0:40:drum-hitclap.wav
64,192,29644,1,0,0:0:0:60:normal-hitclap.wav
320,192,29644,1,0,0:0:0:0:
192,192,29751,1,0,0:0:0:0:
320,192,29858,1,0,0:0:0:40:drum-hitclap.wav
448,192,29858,1,0,0:0:0:50:normal-hitwhistle.wav
192,192,29858,1,0,0:0:0:0:
64,192,29858,1,0,0:0:0:0:
320,192,29965,1,0,0:0:0:0:
64,192,30072,1,0,0:0:0:40:drum-hitclap.wav
192,192,30072,1,0,0:0:0:0:
448,192,30072,1,0,0:0:0:0:
192,192,30179,1,0,0:0:0:60:normal-hitclap.wav
64,192,30179,1,0,0:0:0:0:
320,192,30287,1,0,0:0:0:40:drum-hitclap.wav
448,192,30287,1,0,0:0:0:0:
64,192,30340,1,0,0:0:0:40:drum-hitclap.wav
192,192,30394,1,0,0:0:0:40:drum-hitclap.wav
448,192,30394,1,0,0:0:0:0:
320,192,30447,1,0,0:0:0:40:drum-hitclap.wav
192,192,30501,1,0,0:0:0:60:normal-hitclap.wav
64,192,30501,1,0,0:0:0:0:
64,192,30608,1,0,0:0:0:60:normal-hitclap.wav
192,192,30608,1,0,0:0:0:0:
320,192,30715,1,0,0:0:0:40:drum-hitclap.wav
448,192,30715,1,0,0:0:0:0:
192,192,30769,1,0,0:0:0:40:drum-hitclap.wav
64,192,30822,1,0,0:0:0:40:drum-hitclap.wav
448,192,30822,1,0,0:0:0:0:
320,192,30876,1,0,0:0:0:40:drum-hitclap.wav
192,192,30929,1,0,0:0:0:60:normal-hitclap.wav
64,192,30929,1,0,0:0:0:0:
320,192,30983,1,0,0:0:0:40:drum-hitclap.wav
448,192,30983,1,0,0:0:0:0:
192,192,31037,1,0,0:0:0:40:drum-hitclap.wav
64,192,31037,1,0,0:0:0:0:
448,192,31090,1,0,0:0:0:40:drum-hitclap.wav
320,192,31090,1,0,0:0:0:0:
192,192,31144,1,0,0:0:0:60:normal-hitclap.wav
64,192,31171,1,0,0:0:0:0:
448,192,31197,1,0,0:0:0:40:drum-hitclap.wav
320,192,31224,1,0,0:0:0:0:
192,192,31251,1,0,0:0:0:40:drum-hitclap.wav
64,192,31278,1,0,0:0:0:0:
448,192,31304,1,0,0:0:0:40:drum-hitclap.wav
320,192,31331,1,0,0:0:0:0:
64,192,31358,1,0,0:0:0:60:normal-hitclap.wav
192,192,31358,1,0,0:0:0:0:
320,192,31412,1,0,0:0:0:40:drum-hitclap.wav
448,192,31412,1,0,0:0:0:0:
64,192,31465,1,0,0:0:0:40:drum-hitclap.wav
192,192,31465,1,0,0:0:0:0:
320,192,31519,1,0,0:0:0:40:drum-hitclap.wav
448,192,31519,1,0,0:0:0:0:
64,192,31572,1,0,0:0:0:60:normal-hitclap.wav
192,192,31599,1,0,0:0:0:0:
320,192,31626,1,0,0:0:0:40:drum-hitclap.wav
448,192,31653,1,0,0:0:0:0:
64,192,31679,1,0,0:0:0:40:drum-hitclap.wav
192,192,31706,1,0,0:0:0:0:
320,192,31733,1,0,0:0:0:40:drum-hitclap.wav
448,192,31760,1,0,0:0:0:0:
64,192,31787,1,0,0:0:0:60:normal-hitclap.wav
192,192,31787,1,0,0:0:0:0:
320,192,31894,1,0,0:0:0:50:normal-hitwhistle.wav
448,192,31894,1,0,0:0:0:0:
320,192,32001,1,0,0:0:0:50:normal-hitwhistle.wav
448,192,32001,1,0,0:0:0:0:
192,192,32108,1,0,0:0:0:60:normal-hitclap.wav
320,192,32215,1,0,0:0:0:50:normal-hitwhistle.wav
64,192,32215,1,0,0:0:0:0:
320,192,32322,1,0,0:0:0:50:normal-hitwhistle.wav
64,192,32322,1,0,0:0:0:0:
448,192,32429,1,0,0:0:0:60:normal-hitclap.wav
320,192,32537,1,0,0:0:0:50:normal-hitwhistle.wav
192,192,32537,1,0,0:0:0:0:
64,192,32644,1,0,0:0:0:0:
448,192,32751,1,0,0:0:0:60:normal-hitclap.wav
320,192,32804,1,0,0:0:0:60:normal-hitclap.wav
192,192,32858,1,0,0:0:0:60:normal-hitclap.wav
192,192,32965,1,0,0:0:0:60:normal-hitclap.wav
448,192,33072,1,0,0:0:0:40:drum-hitclap.wav
64,192,33072,1,0,0:0:0:0:
192,192,33179,1,0,0:0:0:0:
320,192,33287,1,0,0:0:0:0:
448,192,33394,1,0,0:0:0:0:
320,192,33501,1,0,0:0:0:60:normal-hitclap.wav
64,192,33501,1,0,0:0:0:40:drum-hitclap.wav
192,192,33501,1,0,0:0:0:60:normal-hitfinish.wav
192,192,33608,1,0,0:0:0:0:
320,192,33715,1,0,0:0:0:40:drum-hitclap.wav
448,192,33715,1,0,0:0:0:60:normal-hitclap.wav
64,192,33715,1,0,0:0:0:0:
192,192,33769,1,0,0:0:0:0:
320,192,33822,1,0,0:0:0:0:
448,192,33876,1,0,0:0:0:0:
320,192,33929,1,0,0:0:0:40:drum-hitclap.wav
192,192,33929,1,0,0:0:0:60:normal-hitclap.wav
64,192,33929,1,0,0:0:0:0:
64,192,34037,1,0,0:0:0:0:
192,192,34037,1,0,0:0:0:0:
192,192,34144,1,0,0:0:0:60:normal-hitclap.wav
320,192,34144,1,0,0:0:0:40:drum-hitclap.wav
448,192,34144,1,0,0:0:0:0:
448,192,34251,1,0,0:0:0:0:
320,192,34251,1,0,0:0:0:0:
64,192,34358,1,0,0:0:0:60:normal-hitclap.wav
448,192,34358,1,0,0:0:0:40:drum-hitclap.wav
192,192,34358,128,0,34465:0:0:0:0:
64,192,34465,1,0,0:0:0:0:
192,192,34572,1,0,0:0:0:40:drum-hitclap.wav
320,192,34572,1,0,0:0:0:50:normal-hitwhistle.wav
448,192,34572,128,0,34679:0:0:0:0:
320,192,34679,1,0,0:0:0:0:
448,192,34787,1,0,0:0:0:60:normal-hitclap.wav
192,192,34787,1,0,0:0:0:40:drum-hitclap.wav
64,192,34787,1,0,0:0:0:0:
320,192,34894,1,0,0:0:0:0:
320,192,35001,1,0,0:0:0:40:drum-hitclap.wav
448,192,35001,1,0,0:0:0:50:normal-hitwhistle.wav
192,192,35001,1,0,0:0:0:0:
64,192,35001,1,0,0:0:0:0:
448,192,35215,1,0,0:0:0:60:normal-hitclap.wav
192,192,35215,1,0,0:0:0:40:drum-hitclap.wav
64,192,35215,1,0,0:0:0:0:
192,192,35322,128,0,35429:0:0:0:0:
448,192,35429,1,0,0:0:0:40:drum-hitclap.wav
64,192,35429,1,0,0:0:0:60:normal-hitclap.wav
320,192,35429,1,0,0:0:0:0:
320,192,35537,128,0,35644:0:0:0:0:
448,192,35644,1,0,0:0:0:40:drum-hitclap.wav
64,192,35644,1,0,0:0:0:60:normal-hitclap.wav
192,192,35644,1,0,0:0:0:0:
64,192,35751,128,0,35858:0:0:0:0:
320,192,35858,1,0,0:0:0:60:normal-hitclap.wav
192,192,35858,1,0,0:0:0:40:drum-hitclap.wav
448,192,35858,1,0,0:0:0:0:
448,192,35965,128,0,36072:0:0:0:0:
320,192,36072,1,0,0:0:0:60:normal-hitclap.wav
192,192,36072,1,0,0:0:0:40:drum-hitclap.wav
64,192,36072,1,0,0:0:0:0:
320,192,36233,1,0,0:0:0:40:drum-hitclap.wav
448,192,36233,1,0,0:0:0:60:normal-hitclap.wav
64,192,36233,1,0,0:0:0:0:
192,192,36394,1,0,0:0:0:40:drum-hitclap.wav
64,192,36394,1,0,0:0:0:60:normal-hitclap.wav
448,192,36394,1,0,0:0:0:0:
192,192,36501,1,0,0:0:0:40:drum-hitclap.wav
64,192,36501,1,0,0:0:0:0:
320,192,36554,1,0,0:0:0:40:drum-hitclap.wav
448,192,36554,1,0,0:0:0:0:
192,192,36608,1,0,0:0:0:40:drum-hitclap.wav
64,192,36608,1,0,0:0:0:0:
320,192,36662,1,0,0:0:0:40:drum-hitclap.wav
448,192,36662,1,0,0:0:0:0:
192,192,36715,1,0,0:0:0:40:drum-hitclap.wav
64,192,36715,1,0,0:0:0:0:
320,192,36769,1,0,0:0:0:40:drum-hitclap.wav
448,192,36769,1,0,0:0:0:0:
192,192,36822,1,0,0:0:0:40:drum-hitclap.wav
64,192,36822,1,0,0:0:0:0:
320,192,36876,1,0,0:0:0:40:drum-hitclap.wav
448,192,36876,1,0,0:0:0:0:
192,192,36929,1,0,0:0:0:60:normal-hitclap.wav
64,192,36929,1,0,0:0:0:0:
320,192,37037,1,0,0:0:0:50:normal-hitwhistle.wav
448,192,37037,1,0,0:0:0:0:
448,192,37144,1,0,0:0:0:50:normal-hitwhistle.wav
320,192,37144,1,0,0:0:0:0:
192,192,37251,1,0,0:0:0:60:normal-hitclap.wav
64,192,37358,1,0,0:0:0:50:normal-hitwhistle.wav
320,192,37358,1,0,0:0:0:0:
64,192,37465,1,0,0:0:0:50:normal-hitwhistle.wav
320,192,37465,1,0,0:0:0:0:
448,192,37572,1,0,0:0:0:60:normal-hitclap.wav
320,192,37679,1,0,0:0:0:50:normal-hitwhistle.wav
192,192,37679,1,0,0:0:0:0:
64,192,37679,1,0,0:0:0:0:
64,192,37787,1,0,0:0:0:0:
448,192,37894,1,0,0:0:0:60:normal-hitclap.wav
192,192,37894,1,0,0:0:0:0:
320,192,37947,1,0,0:0:0:60:normal-hitclap.wav
192,192,38001,1,0,0:0:0:60:normal-hitclap.wav
320,192,38108,1,0,0:0:0:60:normal-hitclap.wav
64,192,38215,1,0,0:0:0:40:drum-hitclap.wav
448,192,38215,1,0,0:0:0:0:
192,192,38287,1,0,0:0:0:0:
320,192,38358,1,0,0:0:0:0:
448,192,38429,1,0,0:0:0:0:
64,192,38501,1,0,0:0:0:0:
192,192,38572,1,0,0:0:0:0:
320,192,38644,5,0,0:0:0:60:normal-hitclap.wav
448,192,38644,1,0,0:0:0:0:
64,192,38644,1,0,0:0:0:0:
320,192,38751,1,0,0:0:0:60:normal-hitclap.wav
64,192,38751,1,0,0:0:0:0:
448,192,38858,1,0,0:0:0:60:normal-hitclap.wav
192,192,38858,1,0,0:0:0:0:
448,192,38965,1,0,0:0:0:60:normal-hitclap.wav
192,192,38965,1,0,0:0:0:0:
320,192,39072,1,0,0:0:0:60:normal-hitclap.wav
64,192,39072,1,0,0:0:0:0:
448,192,39072,1,0,0:0:0:0:
192,192,39179,1,0,0:0:0:60:normal-hitclap.wav
320,192,39179,1,0,0:0:0:0:
448,192,39287,1,0,0:0:0:60:normal-hitclap.wav
64,192,39287,1,0,0:0:0:0:
320,192,39394,1,0,0:0:0:60:normal-hitclap.wav
64,192,39394,1,0,0:0:0:0:
448,192,39501,1,0,0:0:0:60:normal-hitclap.wav
192,192,39501,1,0,0:0:0:0:
64,192,39501,1,0,0:0:0:0:
320,192,39608,1,0,0:0:0:60:normal-hitclap.wav
448,192,39608,1,0,0:0:0:0:
192,192,39715,1,0,0:0:0:60:normal-hitclap.wav
64,192,39715,1,0,0:0:0:0:
320,192,39769,1,0,0:0:0:60:normal-hitclap.wav
448,192,39769,1,0,0:0:0:0:
192,192,39822,1,0,0:0:0:60:normal-hitclap.wav
64,192,39822,1,0,0:0:0:0:
320,192,39876,1,0,0:0:0:0:
448,192,39876,1,0,0:0:0:0:
192,192,39929,1,0,0:0:0:60:normal-hitclap.wav
64,192,39929,1,0,0:0:0:0:
448,192,40037,1,0,0:0:0:60:normal-hitclap.wav
320,192,40037,1,0,0:0:0:0:
64,192,40144,1,0,0:0:0:60:normal-hitclap.wav
448,192,40144,1,0,0:0:0:0:
192,192,40251,1,0,0:0:0:60:normal-hitclap.wav
64,192,40251,1,0,0:0:0:0:
320,192,40358,1,0,0:0:0:60:normal-hitclap.wav
448,192,40358,1,0,0:0:0:0:
192,192,40412,1,0,0:0:0:60:normal-hitclap.wav
448,192,40465,1,0,0:0:0:60:normal-hitclap.wav
64,192,40465,1,0,0:0:0:0:
320,192,40519,1,0,0:0:0:60:normal-hitclap.wav
192,192,40572,1,0,0:0:0:60:normal-hitclap.wav
64,192,40572,1,0,0:0:0:0:
320,192,40626,1,0,0:0:0:60:normal-hitclap.wav
448,192,40626,1,0,0:0:0:0:
192,192,40679,1,0,0:0:0:60:normal-hitclap.wav
64,192,40679,1,0,0:0:0:0:
320,192,40733,1,0,0:0:0:60:normal-hitclap.wav
448,192,40733,1,0,0:0:0:0:
192,192,40787,1,0,0:0:0:60:normal-hitclap.wav
64,192,40787,1,0,0:0:0:0:
320,192,40894,1,0,0:0:0:60:normal-hitclap.wav
448,192,40894,1,0,0:0:0:0:
448,192,41001,1,0,0:0:0:60:normal-hitclap.wav
192,192,41001,1,0,0:0:0:0:
64,192,41001,1,0,0:0:0:0:
192,192,41108,1,0,0:0:0:60:normal-hitclap.wav
64,192,41108,1,0,0:0:0:0:
320,192,41215,1,0,0:0:0:60:normal-hitclap.wav
448,192,41215,1,0,0:0:0:0:
192,192,41287,1,0,0:0:0:60:normal-hitclap.wav
64,192,41287,1,0,0:0:0:0:
448,192,41358,1,0,0:0:0:60:normal-hitclap.wav
320,192,41358,1,0,0:0:0:0:
64,192,41429,1,0,0:0:0:60:normal-hitclap.wav
192,192,41429,1,0,0:0:0:0:
448,192,41501,1,0,0:0:0:60:normal-hitclap.wav
320,192,41501,1,0,0:0:0:0:
64,192,41572,1,0,0:0:0:60:normal-hitclap.wav
448,192,41644,1,0,0:0:0:60:normal-hitclap.wav
192,192,41644,1,0,0:0:0:0:
320,192,41715,1,0,0:0:0:60:normal-hitclap.wav
64,192,41715,1,0,0:0:0:0:
192,192,41787,1,0,0:0:0:60:normal-hitclap.wav
448,192,41787,1,0,0:0:0:0:
320,192,41858,1,0,0:0:0:60:normal-hitclap.wav
64,192,41858,1,0,0:0:0:0:
192,192,41929,1,0,0:0:0:60:normal-hitclap.wav
448,192,41929,1,0,0:0:0:0:
320,192,42001,1,0,0:0:0:60:normal-hitclap.wav
192,192,42072,1,0,0:0:0:60:normal-hitclap.wav
64,192,42072,1,0,0:0:0:0:
448,192,42072,1,0,0:0:0:0:
192,192,42179,1,0,0:0:0:60:normal-hitclap.wav
64,192,42179,1,0,0:0:0:0:
320,192,42287,1,0,0:0:0:60:normal-hitclap.wav
448,192,42287,1,0,0:0:0:0:
448,192,42394,1,0,0:0:0:60:normal-hitclap.wav
192,192,42394,1,0,0:0:0:0:
320,192,42501,1,0,0:0:0:60:normal-hitclap.wav
64,192,42501,1,0,0:0:0:0:
192,192,42501,1,0,0:0:0:0:
64,192,42608,1,0,0:0:0:60:normal-hitclap.wav
320,192,42608,1,0,0:0:0:0:
192,192,42715,1,0,0:0:0:60:normal-hitclap.wav
448,192,42715,1,0,0:0:0:0:
320,192,42822,1,0,0:0:0:60:normal-hitclap.wav
64,192,42822,1,0,0:0:0:0:
64,192,42929,1,0,0:0:0:60:normal-hitclap.wav
192,192,42929,1,0,0:0:0:0:
448,192,42983,1,0,0:0:0:60:normal-hitclap.wav
320,192,42983,1,0,0:0:0:0:
64,192,43037,1,0,0:0:0:60:normal-hitclap.wav
192,192,43037,1,0,0:0:0:0:
448,192,43090,1,0,0:0:0:0:
320,192,43090,1,0,0:0:0:0:
64,192,43144,1,0,0:0:0:60:normal-hitclap.wav
192,192,43144,1,0,0:0:0:0:
448,192,43251,1,0,0:0:0:60:normal-hitclap.wav
320,192,43251,1,0,0:0:0:0:
192,192,43358,128,0,43572:0:0:0:0:
320,192,43572,128,0,43787:0:0:0:0:
192,192,43787,1,0,0:0:0:60:normal-hitclap.wav
64,192,43787,1,0,0:0:0:0:
448,192,43787,1,0,0:0:0:0:
192,192,43894,1,0,0:0:0:60:normal-hitclap.wav
320,192,43894,1,0,0:0:0:0:
448,192,44001,1,0,0:0:0:60:normal-hitclap.wav
64,192,44001,1,0,0:0:0:0:
320,192,44054,1,0,0:0:0:60:normal-hitclap.wav
192,192,44054,1,0,0:0:0:0:
448,192,44108,1,0,0:0:0:60:normal-hitclap.wav
64,192,44108,1,0,0:0:0:0:
320,192,44215,1,0,0:0:0:60:normal-hitclap.wav
448,192,44215,1,0,0:0:0:0:
192,192,44215,1,0,0:0:0:0:
64,192,44322,1,0,0:0:0:40:drum-hitclap.wav
192,192,44349,1,0,0:0:0:0:
448,192,44376,1,0,0:0:0:40:drum-hitclap.wav
320,192,44403,1,0,0:0:0:0:
192,192,44429,1,0,0:0:0:40:drum-hitclap.wav
64,192,44429,1,0,0:0:0:0:
320,192,44537,1,0,0:0:0:60:normal-hitclap.wav
448,192,44537,1,0,0:0:0:0:
64,192,44644,1,0,0:0:0:40:drum-hitclap.wav
192,192,44671,1,0,0:0:0:0:
320,192,44697,1,0,0:0:0:40:drum-hitclap.wav
448,192,44724,1,0,0:0:0:0:
64,192,44751,1,0,0:0:0:40:drum-hitclap.wav
192,192,44778,1,0,0:0:0:0:
320,192,44804,1,0,0:0:0:40:drum-hitclap.wav
448,192,44831,1,0,0:0:0:0:
192,192,44858,1,0,0:0:0:60:normal-hitclap.wav
64,192,44858,1,0,0:0:0:0:
448,192,44965,1,0,0:0:0:40:drum-hitclap.wav
320,192,44992,1,0,0:0:0:0:
192,192,45019,1,0,0:0:0:40:drum-hitclap.wav
64,192,45046,1,0,0:0:0:0:
448,192,45072,1,0,0:0:0:0:
320,192,45179,1,0,0:0:0:0:
64,192,45287,1,0,0:0:0:0:
192,192,45394,1,0,0:0:0:0:
320,192,45501,1,0,0:0:0:40:drum-hitclap.wav
448,192,45501,1,0,0:0:0:60:drum-hitfinish.wav
64,192,45501,1,0,0:0:0:0:
192,192,45608,1,0,0:0:0:60:normal-hitclap.wav
320,192,45715,1,0,0:0:0:40:drum-hitclap.wav
448,192,45715,1,0,0:0:0:0:
64,192,45715,1,0,0:0:0:0:
192,192,45822,1,0,0:0:0:60:normal-hitclap.wav
320,192,45822,1,0,0:0:0:0:
192,192,45929,1,0,0:0:0:40:drum-hitclap.wav
64,192,45929,1,0,0:0:0:0:
448,192,45929,1,0,0:0:0:0:
64,192,46037,1,0,0:0:0:60:normal-hitclap.wav
320,192,46037,1,0,0:0:0:0:
448,192,46144,1,0,0:0:0:40:drum-hitclap.wav
64,192,46144,1,0,0:0:0:0:
320,192,46144,1,0,0:0:0:0:
192,192,46251,1,0,0:0:0:60:normal-hitclap.wav
64,192,46358,1,0,0:0:0:40:drum-hitclap.wav
448,192,46358,1,0,0:0:0:0:
192,192,46358,1,0,0:0:0:0:
320,192,46465,1,0,0:0:0:60:normal-hitclap.wav
192,192,46465,1,0,0:0:0:0:
448,192,46572,1,0,0:0:0:40:drum-hitclap.wav
320,192,46572,1,0,0:0:0:0:
64,192,46572,1,0,0:0:0:0:
192,192,46679,1,0,0:0:0:60:normal-hitclap.wav
448,192,46679,1,0,0:0:0:0:
448,192,46787,1,0,0:0:0:40:drum-hitclap.wav
192,192,46787,1,0,0:0:0:0:
64,192,46787,1,0,0:0:0:0:
320,192,46894,1,0,0:0:0:60:normal-hitclap.wav
192,192,47001,1,0,0:0:0:40:drum-hitclap.wav
64,192,47001,1,0,0:0:0:0:
448,192,47001,1,0,0:0:0:0:
64,192,47108,1,0,0:0:0:60:normal-hitclap.wav
320,192,47108,1,0,0:0:0:0:
192,192,47215,1,0,0:0:0:40:drum-hitclap.wav
448,192,47215,1,0,0:0:0:0:
320,192,47215,1,0,0:0:0:0:
192,192,47322,1,0,0:0:0:60:normal-hitclap.wav
448,192,47322,1,0,0:0:0:0:
192,192,47429,1,0,0:0:0:40:drum-hitclap.wav
320,192,47429,1,0,0:0:0:0:
64,192,47429,1,0,0:0:0:0:
448,192,47537,1,0,0:0:0:60:normal-hitclap.wav
320,192,47644,1,0,0:0:0:40:drum-hitclap.wav
192,192,47644,1,0,0:0:0:0:
64,192,47644,1,0,0:0:0:0:
192,192,47751,1,0,0:0:0:60:normal-hitclap.wav
448,192,47751,1,0,0:0:0:0:
320,192,47858,1,0,0:0:0:40:drum-hitclap.wav
448,192,47858,1,0,0:0:0:0:
64,192,47858,1,0,0:0:0:0:
64,192,47965,1,0,0:0:0:60:normal-hitclap.wav
320,192,47965,1,0,0:0:0:0:
320,192,48072,1,0,0:0:0:40:drum-hitclap.wav
448,192,48072,1,0,0:0:0:0:
192,192,48072,1,0,0:0:0:0:
64,192,48179,1,0,0:0:0:60:normal-hitclap.wav
320,192,48287,1,0,0:0:0:40:drum-hitclap.wav
448,192,48287,1,0,0:0:0:0:
192,192,48287,1,0,0:0:0:0:
320,192,48394,1,0,0:0:0:60:normal-hitclap.wav
64,192,48394,1,0,0:0:0:0:
192,192,48501,1,0,0:0:0:40:drum-hitclap.wav
448,192,48501,1,0,0:0:0:0:
64,192,48501,1,0,0:0:0:0:
192,192,48608,1,0,0:0:0:60:normal-hitclap.wav
448,192,48608,1,0,0:0:0:0:
192,192,48715,1,0,0:0:0:40:drum-hitclap.wav
320,192,48715,1,0,0:0:0:0:
64,192,48715,1,0,0:0:0:0:
448,192,48822,1,0,0:0:0:60:normal-hitclap.wav
192,192,48929,1,0,0:0:0:40:drum-hitclap.wav
64,192,48929,1,0,0:0:0:0:
320,192,48983,1,0,0:0:0:40:drum-hitclap.wav
448,192,49037,1,0,0:0:0:40:drum-hitclap.wav
64,192,49037,1,0,0:0:0:0:
192,192,49090,1,0,0:0:0:40:drum-hitclap.wav
320,192,49144,1,0,0:0:0:40:drum-hitclap.wav
448,192,49144,1,0,0:0:0:0:
64,192,49197,1,0,0:0:0:40:drum-hitclap.wav
192,192,49251,1,0,0:0:0:40:drum-hitclap.wav
320,192,49251,1,0,0:0:0:0:
448,192,49304,1,0,0:0:0:40:drum-hitclap.wav
192,192,49358,1,0,0:0:0:40:drum-hitclap.wav
64,192,49358,1,0,0:0:0:0:
448,192,49412,1,0,0:0:0:40:drum-hitclap.wav
320,192,49465,1,0,0:0:0:40:drum-hitclap.wav
64,192,49465,1,0,0:0:0:0:
192,192,49519,1,0,0:0:0:40:drum-hitclap.wav
320,192,49572,1,0,0:0:0:40:drum-hitclap.wav
448,192,49572,1,0,0:0:0:0:
64,192,49626,1,0,0:0:0:40:drum-hitclap.wav
192,192,49679,1,0,0:0:0:40:drum-hitclap.wav
448,192,49679,1,0,0:0:0:0:
320,192,49733,1,0,0:0:0:40:drum-hitclap.wav
192,192,49787,1,0,0:0:0:40:drum-hitclap.wav
64,192,49787,1,0,0:0:0:0:
448,192,49840,1,0,0:0:0:40:drum-hitclap.wav
320,192,49894,1,0,0:0:0:40:drum-hitclap.wav
192,192,49894,1,0,0:0:0:0:
64,192,49947,1,0,0:0:0:40:drum-hitclap.wav
320,192,50001,1,0,0:0:0:40:drum-hitclap.wav
448,192,50001,1,0,0:0:0:0:
192,192,50054,1,0,0:0:0:40:drum-hitclap.wav
64,192,50108,1,0,0:0:0:40:drum-hitclap.wav
448,192,50108,1,0,0:0:0:0:
320,192,50162,1,0,0:0:0:40:drum-hitclap.wav
192,192,50215,1,0,0:0:0:40:drum-hitclap.wav
64,192,50215,1,0,0:0:0:0:
320,192,50269,1,0,0:0:0:40:drum-hitclap.wav
448,192,50322,1,0,0:0:0:40:drum-hitclap.wav
192,192,50322,1,0,0:0:0:0:
64,192,50376,1,0,0:0:0:40:drum-hitclap.wav
320,192,50429,1,0,0:0:0:40:drum-hitclap.wav
448,192,50429,1,0,0:0:0:0:
192,192,50483,1,0,0:0:0:40:drum-hitclap.wav
64,192,50537,1,0,0:0:0:40:drum-hitclap.wav
320,192,50537,1,0,0:0:0:0:
448,192,50590,1,0,0:0:0:40:drum-hitclap.wav
192,192,50644,1,0,0:0:0:40:drum-hitclap.wav
64,192,50644,1,0,0:0:0:0:
320,192,50697,1,0,0:0:0:40:drum-hitclap.wav
448,192,50751,1,0,0:0:0:40:drum-hitclap.wav
64,192,50751,1,0,0:0:0:0:
192,192,50804,1,0,0:0:0:40:drum-hitclap.wav
320,192,50858,1,0,0:0:0:40:drum-hitclap.wav
448,192,50858,1,0,0:0:0:0:
64,192,50912,1,0,0:0:0:40:drum-hitclap.wav
192,192,50965,1,0,0:0:0:40:drum-hitclap.wav
320,192,50965,1,0,0:0:0:0:
448,192,51019,1,0,0:0:0:40:drum-hitclap.wav
192,192,51072,1,0,0:0:0:40:drum-hitclap.wav
64,192,51072,1,0,0:0:0:0:
448,192,51126,1,0,0:0:0:40:drum-hitclap.wav
320,192,51179,1,0,0:0:0:40:drum-hitclap.wav
64,192,51179,1,0,0:0:0:0:
192,192,51233,1,0,0:0:0:40:drum-hitclap.wav
320,192,51287,1,0,0:0:0:40:drum-hitclap.wav
448,192,51287,1,0,0:0:0:0:
64,192,51340,1,0,0:0:0:40:drum-hitclap.wav
448,192,51394,1,0,0:0:0:40:drum-hitclap.wav
192,192,51394,1,0,0:0:0:0:
320,192,51447,1,0,0:0:0:40:drum-hitclap.wav
64,192,51501,1,0,0:0:0:0:
320,192,51608,1,0,0:0:0:0:
192,192,51715,1,0,0:0:0:0:
448,192,51822,1,0,0:0:0:0:
64,192,51929,1,0,0:0:0:0:
192,192,52037,1,0,0:0:0:0:
320,192,52144,1,0,0:0:0:0:
448,192,52251,1,0,0:0:0:0:
64,192,52358,1,0,0:0:0:0:
320,192,52358,1,0,0:0:0:0:
192,192,52572,1,0,0:0:0:0:
320,192,52787,1,0,0:0:0:0:
64,192,53001,1,0,0:0:0:0:
448,192,53215,1,0,0:0:0:0:
192,192,53322,1,0,0:0:0:0:
320,192,53429,1,0,0:0:0:0:
64,192,53644,1,0,0:0:0:0:
192,192,53751,1,0,0:0:0:0:
320,192,53858,1,0,0:0:0:0:
448,192,53965,1,0,0:0:0:0:
192,192,54072,1,0,0:0:0:0:
64,192,54072,1,0,0:0:0:0:
320,192,54287,1,0,0:0:0:0:
64,192,54501,1,0,0:0:0:0:
448,192,54822,1,0,0:0:0:0:
192,192,54929,1,0,0:0:0:0:
64,192,54929,1,0,0:0:0:0:
320,192,55037,1,0,0:0:0:0:
64,192,55144,1,0,0:0:0:0:
192,192,55251,1,0,0:0:0:0:
64,192,55358,1,0,0:0:0:0:
448,192,55465,1,0,0:0:0:0:
320,192,55572,1,0,0:0:0:0:
192,192,55679,1,0,0:0:0:0:
448,192,55787,1,0,0:0:0:0:
64,192,55787,1,0,0:0:0:0:
320,192,55894,1,0,0:0:0:0:
448,192,56001,1,0,0:0:0:0:
192,192,56108,1,0,0:0:0:0:
448,192,56215,1,0,0:0:0:0:
64,192,56322,1,0,0:0:0:0:
448,192,56429,1,0,0:0:0:0:
320,192,56537,1,0,0:0:0:0:
64,192,56644,1,0,0:0:0:0:
448,192,56644,1,0,0:0:0:0:
192,192,56751,1,0,0:0:0:0:
64,192,56858,1,0,0:0:0:0:
320,192,56965,1,0,0:0:0:0:
64,192,57072,1,0,0:0:0:0:
448,192,57179,1,0,0:0:0:0:
64,192,57287,1,0,0:0:0:0:
192,192,57394,1,0,0:0:0:0:
64,192,57501,1,0,0:0:0:60:normal-hitfinish.wav
320,192,57501,1,0,0:0:0:50:normal-hitwhistle.wav
448,192,57501,1,0,0:0:0:60:drum-hitfinish.wav
192,192,57608,1,0,0:0:0:0:
448,192,57715,1,0,0:0:0:0:
192,192,57822,1,0,0:0:0:0:
320,192,57929,1,0,0:0:0:0:
192,192,58037,1,0,0:0:0:0:
448,192,58144,1,0,0:0:0:0:
448,192,58358,1,0,0:0:0:60:drum-hitfinish.wav
64,192,58358,1,0,0:0:0:50:normal-hitwhistle.wav
192,192,58358,1,0,0:0:0:60:normal-hitfinish.wav
320,192,58465,1,0,0:0:0:0:
192,192,58572,1,0,0:0:0:0:
320,192,58644,1,0,0:0:0:0:
192,192,58715,1,0,0:0:0:0:
448,192,58787,1,0,0:0:0:0:
320,192,58894,1,0,0:0:0:0:
64,192,59001,1,0,0:0:0:0:
320,192,59215,1,0,0:0:0:60:normal-hitfinish.wav
448,192,59215,1,0,0:0:0:50:normal-hitwhistle.wav
64,192,59215,1,0,0:0:0:60:drum-hitfinish.wav
192,192,59322,1,0,0:0:0:0:
448,192,59429,1,0,0:0:0:0:
192,192,59537,1,0,0:0:0:0:
320,192,59644,1,0,0:0:0:0:
192,192,59751,1,0,0:0:0:0:
448,192,59858,1,0,0:0:0:0:
320,192,60072,1,0,0:0:0:0:
64,192,60072,1,0,0:0:0:0:
320,192,60287,1,0,0:0:0:0:
192,192,60358,1,0,0:0:0:0:
320,192,60429,1,0,0:0:0:0:
448,192,60501,1,0,0:0:0:0:
64,192,60715,1,0,0:0:0:0:
448,192,60929,1,0,0:0:0:50:drum-hitclap.wav
192,192,60929,1,0,0:0:0:60:normal-hitfinish.wav
64,192,60929,128,0,61733:0:0:0:0:
320,192,61001,1,0,0:0:0:0:
192,192,61072,1,0,0:0:0:0:
320,192,61144,1,0,0:0:0:0:
448,192,61215,1,0,0:0:0:0:
320,192,61287,1,0,0:0:0:0:
192,192,61358,1,0,0:0:0:0:
448,192,61429,1,0,0:0:0:0:
320,192,61501,1,0,0:0:0:0:
192,192,61572,1,0,0:0:0:0:
448,192,61644,1,0,0:0:0:0:
320,192,61715,1,0,0:0:0:0:
448,192,61787,128,0,62644:0:0:0:50:normal-hitwhistle.wav
192,192,61787,1,0,0:0:0:0:
64,192,61787,1,0,0:0:0:0:
320,192,61858,1,0,0:0:0:0:
192,192,61929,1,0,0:0:0:0:
64,192,62001,1,0,0:0:0:0:
192,192,62072,1,0,0:0:0:0:
320,192,62144,1,0,0:0:0:0:
64,192,62215,1,0,0:0:0:0:
192,192,62287,1,0,0:0:0:0:
320,192,62358,1,0,0:0:0:0:
64,192,62429,1,0,0:0:0:0:
192,192,62501,1,0,0:0:0:0:
320,192,62572,1,0,0:0:0:0:
192,192,62644,128,0,63501:0:0:0:50:drum-hitclap.wav
64,192,62644,1,0,0:0:0:0:
448,192,62858,128,0,63072:0:0:0:0:
320,192,63072,128,0,63287:0:0:0:0:
64,192,63287,128,0,63501:0:0:0:0:
320,192,63501,1,0,0:0:0:50:normal-hitwhistle.wav
448,192,63501,1,0,0:0:0:0:
192,192,63572,1,0,0:0:0:0:
64,192,63644,1,0,0:0:0:0:
192,192,63715,1,0,0:0:0:0:
320,192,63787,1,0,0:0:0:0:
192,192,63858,1,0,0:0:0:0:
64,192,63929,1,0,0:0:0:0:
448,192,64001,1,0,0:0:0:0:
192,192,64072,1,0,0:0:0:0:
320,192,64144,1,0,0:0:0:0:
448,192,64215,1,0,0:0:0:0:
64,192,64287,1,0,0:0:0:0:
192,192,64358,128,0,65162:0:0:0:50:drum-hitclap.wav
448,192,64358,1,0,0:0:0:0:
320,192,64429,1,0,0:0:0:0:
64,192,64501,1,0,0:0:0:0:
320,192,64572,1,0,0:0:0:0:
448,192,64644,1,0,0:0:0:0:
320,192,64715,1,0,0:0:0:0:
64,192,64787,1,0,0:0:0:0:
320,192,64858,1,0,0:0:0:0:
448,192,64929,1,0,0:0:0:0:
64,192,65001,1,0,0:0:0:0:
320,192,65072,1,0,0:0:0:0:
448,192,65144,1,0,0:0:0:0:
320,192,65215,128,0,66072:0:0:0:50:normal-hitwhistle.wav
64,192,65215,1,0,0:0:0:0:
192,192,65215,1,0,0:0:0:0:
448,192,65287,1,0,0:0:0:0:
192,192,65358,1,0,0:0:0:0:
64,192,65429,1,0,0:0:0:0:
192,192,65501,1,0,0:0:0:0:
448,192,65572,1,0,0:0:0:0:
64,192,65644,1,0,0:0:0:0:
192,192,65715,1,0,0:0:0:0:
448,192,65787,1,0,0:0:0:0:
64,192,65858,1,0,0:0:0:0:
192,192,65929,1,0,0:0:0:0:
448,192,66001,1,0,0:0:0:0:
192,192,66072,1,0,0:0:0:50:drum-hitclap.wav
64,192,66072,128,0,66929:0:0:0:0:
448,192,66179,128,0,66394:0:0:0:0:
320,192,66394,1,0,0:0:0:0:
448,192,66501,128,0,66822:0:0:0:0:
320,192,66822,1,0,0:0:0:0:
192,192,66929,1,0,0:0:0:50:normal-hitwhistle.wav
320,192,66929,1,0,0:0:0:0:
448,192,66929,1,0,0:0:0:0:
64,192,67001,1,0,0:0:0:0:
192,192,67072,1,0,0:0:0:0:
320,192,67144,1,0,0:0:0:0:
192,192,67215,1,0,0:0:0:0:
64,192,67287,1,0,0:0:0:0:
448,192,67358,1,0,0:0:0:0:
320,192,67429,1,0,0:0:0:0:
192,192,67501,1,0,0:0:0:0:
64,192,67572,1,0,0:0:0:0:
192,192,67644,1,0,0:0:0:0:
320,192,67715,1,0,0:0:0:0:
448,192,67787,1,0,0:0:0:50:drum-hitclap.wav
192,192,67787,1,0,0:0:0:0:
64,192,67787,128,0,68590:0:0:0:0:
320,192,67858,1,0,0:0:0:0:
192,192,67929,1,0,0:0:0:0:
320,192,68001,1,0,0:0:0:0:
448,192,68072,1,0,0:0:0:0:
320,192,68144,1,0,0:0:0:0:
192,192,68215,1,0,0:0:0:0:
448,192,68287,1,0,0:0:0:0:
320,192,68358,1,0,0:0:0:0:
192,192,68429,1,0,0:0:0:0:
448,192,68501,1,0,0:0:0:0:
320,192,68572,1,0,0:0:0:0:
448,192,68644,128,0,69501:0:0:0:50:normal-hitwhistle.wav
64,192,68644,1,0,0:0:0:0:
192,192,68644,1,0,0:0:0:0:
320,192,68715,1,0,0:0:0:0:
192,192,68787,1,0,0:0:0:0:
64,192,68858,1,0,0:0:0:0:
192,192,68929,1,0,0:0:0:0:
320,192,69001,1,0,0:0:0:0:
64,192,69072,1,0,0:0:0:0:
192,192,69144,1,0,0:0:0:0:
320,192,69215,1,0,0:0:0:0:
64,192,69287,1,0,0:0:0:0:
192,192,69358,1,0,0:0:0:0:
320,192,69429,1,0,0:0:0:0:
64,192,69501,1,0,0:0:0:50:drum-hitclap.wav
192,192,69501,128,0,70358:0:0:0:0:
448,192,69715,128,0,69929:0:0:0:0:
320,192,69929,1,0,0:0:0:0:
320,192,70072,1,0,0:0:0:0:
320,192,70215,1,0,0:0:0:0:
320,192,70358,1,0,0:0:0:50:normal-hitwhistle.wav
448,192,70358,1,0,0:0:0:0:
192,192,70429,1,0,0:0:0:0:
64,192,70501,1,0,0:0:0:0:
192,192,70572,1,0,0:0:0:0:
320,192,70644,1,0,0:0:0:0:
192,192,70715,1,0,0:0:0:0:
64,192,70787,1,0,0:0:0:0:
448,192,70858,1,0,0:0:0:0:
320,192,70929,1,0,0:0:0:0:
192,192,71001,1,0,0:0:0:0:
64,192,71072,1,0,0:0:0:0:
320,192,71144,1,0,0:0:0:0:
192,192,71215,128,0,72019:0:0:0:50:drum-hitclap.wav
448,192,71215,1,0,0:0:0:0:
320,192,71287,1,0,0:0:0:0:
64,192,71358,1,0,0:0:0:0:
320,192,71429,1,0,0:0:0:0:
448,192,71501,1,0,0:0:0:0:
320,192,71572,1,0,0:0:0:0:
64,192,71644,1,0,0:0:0:0:
320,192,71715,1,0,0:0:0:0:
448,192,71787,1,0,0:0:0:0:
64,192,71858,1,0,0:0:0:0:
320,192,71929,1,0,0:0:0:0:
448,192,72001,1,0,0:0:0:0:
64,192,72072,1,0,0:0:0:50:normal-hitwhistle.wav
320,192,72072,128,0,72929:0:0:0:0:
192,192,72072,1,0,0:0:0:0:
448,192,72144,1,0,0:0:0:0:
192,192,72215,1,0,0:0:0:0:
64,192,72287,1,0,0:0:0:0:
192,192,72358,1,0,0:0:0:0:
448,192,72429,1,0,0:0:0:0:
64,192,72501,1,0,0:0:0:0:
192,192,72572,1,0,0:0:0:0:
448,192,72644,1,0,0:0:0:0:
64,192,72715,1,0,0:0:0:0:
192,192,72787,5,0,0:0:0:0:
448,192,72858,1,0,0:0:0:0:
64,192,72929,128,0,73787:0:0:0:50:drum-hitclap.wav
192,192,72929,1,0,0:0:0:0:
448,192,73001,1,0,0:0:0:0:
320,192,73072,1,0,0:0:0:0:
192,192,73144,1,0,0:0:0:0:
448,192,73215,1,0,0:0:0:0:
320,192,73287,1,0,0:0:0:0:
192,192,73358,1,0,0:0:0:0:
320,192,73429,1,0,0:0:0:0:
448,192,73501,1,0,0:0:0:0:
192,192,73572,1,0,0:0:0:0:
320,192,73644,1,0,0:0:0:0:
448,192,73715,1,0,0:0:0:0:
320,192,74644,5,0,0:0:0:40:drum-hitclap.wav
448,192,74644,1,0,0:0:0:60:normal-hitclap.wav
64,192,74644,1,0,0:0:0:60:normal-hitfinish.wav
320,192,74751,1,0,0:0:0:60:normal-hitclap.wav
448,192,74751,1,0,0:0:0:40:drum-hitclap.wav
64,192,74858,1,0,0:0:0:60:normal-hitclap.wav
192,192,74858,1,0,0:0:0:40:drum-hitclap.wav
448,192,74965,1,0,0:0:0:40:drum-hitclap.wav
320,192,74965,1,0,0:0:0:0:
192,192,75019,1,0,0:0:0:0:
64,192,75019,1,0,0:0:0:0:
320,192,75072,1,0,0:0:0:60:normal-hitclap.wav
448,192,75072,1,0,0:0:0:40:drum-hitclap.wav
448,192,75179,1,0,0:0:0:40:drum-hitclap.wav
192,192,75179,1,0,0:0:0:60:normal-hitclap.wav
320,192,75287,1,0,0:0:0:40:drum-hitclap.wav
64,192,75287,1,0,0:0:0:60:normal-hitclap.wav
320,192,75394,1,0,0:0:0:60:normal-hitclap.wav
64,192,75394,1,0,0:0:0:40:drum-hitclap.wav
192,192,75501,1,0,0:0:0:40:drum-hitclap.wav
320,192,75501,1,0,0:0:0:60:normal-hitclap.wav
448,192,75501,1,0,0:0:0:0:
320,192,75608,1,0,0:0:0:60:normal-hitclap.wav
448,192,75608,1,0,0:0:0:40:drum-hitclap.wav
192,192,75715,1,0,0:0:0:40:drum-hitclap.wav
64,192,75715,1,0,0:0:0:60:normal-hitclap.wav
448,192,75822,1,0,0:0:0:60:normal-hitclap.wav
192,192,75822,1,0,0:0:0:40:drum-hitclap.wav
64,192,75822,1,0,0:0:0:0:
320,192,75929,1,0,0:0:0:60:normal-hitclap.wav
64,192,75929,1,0,0:0:0:40:drum-hitclap.wav
192,192,75929,1,0,0:0:0:0:
320,192,76037,1,0,0:0:0:40:drum-hitclap.wav
192,192,76037,1,0,0:0:0:60:normal-hitclap.wav
64,192,76037,1,0,0:0:0:0:
320,192,76144,1,0,0:0:0:60:normal-hitclap.wav
192,192,76144,1,0,0:0:0:40:drum-hitclap.wav
64,192,76144,1,0,0:0:0:0:
320,192,76358,1,0,0:0:0:60:normal-hitclap.wav
64,192,76358,1,0,0:0:0:40:drum-hitclap.wav
192,192,76465,1,0,0:0:0:40:drum-hitclap.wav
448,192,76465,1,0,0:0:0:60:normal-hitclap.wav
320,192,76572,1,0,0:0:0:40:drum-hitclap.wav
64,192,76572,1,0,0:0:0:0:
192,192,76626,1,0,0:0:0:40:drum-hitclap.wav
448,192,76626,1,0,0:0:0:0:
320,192,76679,1,0,0:0:0:40:drum-hitclap.wav
64,192,76679,1,0,0:0:0:0:
448,192,76787,1,0,0:0:0:40:drum-hitclap.wav
192,192,76787,1,0,0:0:0:60:normal-hitclap.wav
64,192,76894,1,0,0:0:0:60:normal-hitclap.wav
320,192,76894,1,0,0:0:0:40:drum-hitclap.wav
320,192,77001,1,0,0:0:0:40:drum-hitclap.wav
448,192,77001,1,0,0:0:0:0:
64,192,77054,1,0,0:0:0:40:drum-hitclap.wav
192,192,77054,1,0,0:0:0:0:
320,192,77108,1,0,0:0:0:40:drum-hitclap.wav
448,192,77108,1,0,0:0:0:0:
192,192,77215,1,0,0:0:0:40:drum-hitclap.wav
64,192,77215,1,0,0:0:0:0:
320,192,77269,1,0,0:0:0:40:drum-hitclap.wav
448,192,77269,1,0,0:0:0:0:
192,192,77322,1,0,0:0:0:40:drum-hitclap.wav
64,192,77322,1,0,0:0:0:0:
320,192,77376,1,0,0:0:0:40:drum-hitclap.wav
448,192,77376,1,0,0:0:0:0:
192,192,77429,1,0,0:0:0:40:drum-hitclap.wav
64,192,77429,1,0,0:0:0:0:
320,192,77483,1,0,0:0:0:40:drum-hitclap.wav
448,192,77483,1,0,0:0:0:0:
64,192,77537,1,0,0:0:0:40:drum-hitclap.wav
192,192,77537,1,0,0:0:0:0:
448,192,77590,1,0,0:0:0:40:drum-hitclap.wav
320,192,77590,1,0,0:0:0:0:
64,192,77644,1,0,0:0:0:40:drum-hitclap.wav
192,192,77644,1,0,0:0:0:0:
448,192,77697,1,0,0:0:0:40:drum-hitclap.wav
320,192,77697,1,0,0:0:0:0:
192,192,77751,1,0,0:0:0:40:drum-hitclap.wav
64,192,77751,1,0,0:0:0:0:
320,192,77804,1,0,0:0:0:40:drum-hitclap.wav
448,192,77804,1,0,0:0:0:0:
192,192,77858,1,0,0:0:0:40:drum-hitclap.wav
64,192,77858,1,0,0:0:0:0:
320,192,77912,1,0,0:0:0:40:drum-hitclap.wav
448,192,77912,1,0,0:0:0:0:
64,192,77965,1,0,0:0:0:40:drum-hitclap.wav
192,192,77965,1,0,0:0:0:0:
448,192,78019,1,0,0:0:0:40:drum-hitclap.wav
320,192,78019,1,0,0:0:0:0:
192,192,78072,1,0,0:0:0:60:normal-hitclap.wav
64,192,78072,1,0,0:0:0:40:drum-hitclap.wav
320,192,78179,1,0,0:0:0:40:drum-hitclap.wav
448,192,78179,1,0,0:0:0:60:normal-hitclap.wav
320,192,78287,1,0,0:0:0:40:drum-hitclap.wav
192,192,78287,1,0,0:0:0:60:normal-hitclap.wav
192,192,78394,1,0,0:0:0:40:drum-hitclap.wav
64,192,78394,1,0,0:0:0:60:normal-hitclap.wav
320,192,78501,1,0,0:0:0:40:drum-hitclap.wav
64,192,78501,1,0,0:0:0:60:normal-hitclap.wav
320,192,78608,1,0,0:0:0:60:normal-hitclap.wav
64,192,78608,1,0,0:0:0:40:drum-hitclap.wav
192,192,78715,1,0,0:0:0:40:drum-hitclap.wav
448,192,78715,1,0,0:0:0:60:normal-hitclap.wav
320,192,78822,1,0,0:0:0:40:drum-hitclap.wav
64,192,78822,1,0,0:0:0:60:normal-hitclap.wav
320,192,78929,1,0,0:0:0:60:normal-hitclap.wav
448,192,78929,1,0,0:0:0:40:drum-hitclap.wav
192,192,79037,1,0,0:0:0:60:normal-hitclap.wav
64,192,79037,1,0,0:0:0:40:drum-hitclap.wav
320,192,79144,1,0,0:0:0:40:drum-hitclap.wav
448,192,79144,1,0,0:0:0:60:normal-hitclap.wav
320,192,79251,1,0,0:0:0:40:drum-hitclap.wav
448,192,79251,1,0,0:0:0:60:normal-hitclap.wav
64,192,79251,1,0,0:0:0:0:
448,192,79358,1,0,0:0:0:40:drum-hitclap.wav
320,192,79358,1,0,0:0:0:60:normal-hitclap.wav
192,192,79358,1,0,0:0:0:0:
192,192,79465,1,0,0:0:0:60:normal-hitclap.wav
320,192,79465,1,0,0:0:0:40:drum-hitclap.wav
448,192,79465,1,0,0:0:0:0:
448,192,79572,1,0,0:0:0:60:normal-hitclap.wav
320,192,79572,1,0,0:0:0:40:drum-hitclap.wav
192,192,79572,1,0,0:0:0:0:
192,192,79787,1,0,0:0:0:40:drum-hitclap.wav
64,192,79787,1,0,0:0:0:60:normal-hitclap.wav
192,192,79894,1,0,0:0:0:60:normal-hitclap.wav
448,192,79894,1,0,0:0:0:40:drum-hitclap.wav
320,192,80001,1,0,0:0:0:40:drum-hitclap.wav
64,192,80001,1,0,0:0:0:0:
192,192,80054,1,0,0:0:0:40:drum-hitclap.wav
448,192,80054,1,0,0:0:0:0:
320,192,80108,1,0,0:0:0:40:drum-hitclap.wav
64,192,80108,1,0,0:0:0:0:
64,192,80215,1,0,0:0:0:60:normal-hitclap.wav
192,192,80215,1,0,0:0:0:40:drum-hitclap.wav
320,192,80322,1,0,0:0:0:60:normal-hitclap.wav
448,192,80322,1,0,0:0:0:40:drum-hitclap.wav
64,192,80429,1,0,0:0:0:40:drum-hitclap.wav
192,192,80429,1,0,0:0:0:0:
320,192,80483,1,0,0:0:0:40:drum-hitclap.wav
448,192,80483,1,0,0:0:0:0:
192,192,80537,1,0,0:0:0:40:drum-hitclap.wav
64,192,80537,1,0,0:0:0:0:
320,192,80644,1,0,0:0:0:40:drum-hitclap.wav
448,192,80644,1,0,0:0:0:0:
192,192,80697,1,0,0:0:0:40:drum-hitclap.wav
64,192,80697,1,0,0:0:0:0:
320,192,80751,1,0,0:0:0:40:drum-hitclap.wav
448,192,80751,1,0,0:0:0:0:
192,192,80804,1,0,0:0:0:40:drum-hitclap.wav
64,192,80804,1,0,0:0:0:0:
448,192,80858,1,0,0:0:0:40:drum-hitclap.wav
320,192,80858,1,0,0:0:0:0:
192,192,80912,1,0,0:0:0:40:drum-hitclap.wav
64,192,80912,1,0,0:0:0:0:
320,192,80965,1,0,0:0:0:40:drum-hitclap.wav
448,192,80965,1,0,0:0:0:0:
192,192,81019,1,0,0:0:0:40:drum-hitclap.wav
64,192,81019,1,0,0:0:0:0:
320,192,81072,128,0,81501:0:0:0:60:normal-hitclap.wav
192,192,81501,1,0,0:0:0:40:drum-hitclap.wav
64,192,81501,1,0,0:0:0:60:normal-hitclap.wav
448,192,81501,1,0,0:0:0:0:
320,192,81608,1,0,0:0:0:60:normal-hitclap.wav
64,192,81608,1,0,0:0:0:40:drum-hitclap.wav
192,192,81715,1,0,0:0:0:40:drum-hitclap.wav
320,192,81715,1,0,0:0:0:60:normal-hitclap.wav
192,192,81822,1,0,0:0:0:60:normal-hitclap.wav
64,192,81822,1,0,0:0:0:40:drum-hitclap.wav
448,192,81822,1,0,0:0:0:0:
320,192,81929,1,0,0:0:0:60:normal-hitclap.wav
192,192,81929,1,0,0:0:0:40:drum-hitclap.wav
64,192,81929,1,0,0:0:0:0:
448,192,82037,1,0,0:0:0:40:drum-hitclap.wav
64,192,82037,1,0,0:0:0:60:normal-hitclap.wav
192,192,82144,1,0,0:0:0:60:normal-hitclap.wav
320,192,82144,1,0,0:0:0:40:drum-hitclap.wav
448,192,82144,1,0,0:0:0:0:
320,192,82251,1,0,0:0:0:60:normal-hitclap.wav
64,192,82251,1,0,0:0:0:40:drum-hitclap.wav
64,192,82358,1,0,0:0:0:40:drum-hitclap.wav
320,192,82358,1,0,0:0:0:60:normal-hitclap.wav
448,192,82358,1,0,0:0:0:0:
448,192,82465,1,0,0:0:0:60:normal-hitclap.wav
192,192,82465,1,0,0:0:0:40:drum-hitclap.wav
192,192,82572,1,0,0:0:0:60:normal-hitclap.wav
320,192,82572,1,0,0:0:0:40:drum-hitclap.wav
448,192,82679,1,0,0:0:0:40:drum-hitclap.wav
320,192,82679,1,0,0:0:0:60:normal-hitclap.wav
64,192,82679,1,0,0:0:0:0:
448,192,82787,1,0,0:0:0:40:drum-hitclap.wav
320,192,82787,1,0,0:0:0:60:normal-hitclap.wav
192,192,82787,1,0,0:0:0:0:
448,192,82894,1,0,0:0:0:40:drum-hitclap.wav
64,192,82894,1,0,0:0:0:60:normal-hitclap.wav
64,192,83001,1,0,0:0:0:60:normal-hitclap.wav
192,192,83001,1,0,0:0:0:40:drum-hitclap.wav
320,192,83001,1,0,0:0:0:0:
192,192,83108,1,0,0:0:0:40:drum-hitclap.wav
448,192,83108,1,0,0:0:0:60:normal-hitclap.wav
64,192,83215,1,0,0:0:0:40:drum-hitclap.wav
320,192,83215,1,0,0:0:0:60:normal-hitclap.wav
448,192,83215,1,0,0:0:0:0:
320,192,83322,1,0,0:0:0:60:normal-hitclap.wav
192,192,83322,1,0,0:0:0:40:drum-hitclap.wav
192,192,83429,1,0,0:0:0:40:drum-hitclap.wav
64,192,83429,1,0,0:0:0:60:normal-hitclap.wav
64,192,83537,1,0,0:0:0:60:normal-hitclap.wav
320,192,83537,1,0,0:0:0:40:drum-hitclap.wav
448,192,83537,1,0,0:0:0:0:
320,192,83644,1,0,0:0:0:60:normal-hitclap.wav
192,192,83644,1,0,0:0:0:40:drum-hitclap.wav
448,192,83644,1,0,0:0:0:0:
64,192,83751,1,0,0:0:0:40:drum-hitclap.wav
448,192,83751,1,0,0:0:0:60:normal-hitclap.wav
64,192,83858,1,0,0:0:0:40:drum-hitclap.wav
192,192,83858,1,0,0:0:0:60:normal-hitclap.wav
320,192,83858,1,0,0:0:0:0:
192,192,83965,1,0,0:0:0:60:normal-hitclap.wav
448,192,83965,1,0,0:0:0:40:drum-hitclap.wav
448,192,84072,1,0,0:0:0:60:normal-hitclap.wav
64,192,84072,1,0,0:0:0:40:drum-hitclap.wav
192,192,84072,1,0,0:0:0:0:
320,192,84179,1,0,0:0:0:40:drum-hitclap.wav
64,192,84179,1,0,0:0:0:60:normal-hitclap.wav
192,192,84287,1,0,0:0:0:60:normal-hitclap.wav
320,192,84287,1,0,0:0:0:40:drum-hitclap.wav
448,192,84287,1,0,0:0:0:0:
192,192,84394,1,0,0:0:0:40:drum-hitclap.wav
448,192,84394,1,0,0:0:0:60:normal-hitclap.wav
64,192,84394,1,0,0:0:0:0:
192,192,84929,5,0,0:0:0:40:drum-hitclap.wav
64,192,84929,1,0,0:0:0:0:
320,192,84983,1,0,0:0:0:40:drum-hitclap.wav
448,192,84983,1,0,0:0:0:0:
192,192,85037,1,0,0:0:0:40:drum-hitclap.wav
64,192,85037,1,0,0:0:0:0:
320,192,85090,1,0,0:0:0:40:drum-hitclap.wav
448,192,85090,1,0,0:0:0:0:
192,192,85144,1,0,0:0:0:40:drum-hitclap.wav
64,192,85144,1,0,0:0:0:0:
320,192,85197,1,0,0:0:0:40:drum-hitclap.wav
448,192,85197,1,0,0:0:0:0:
64,192,85251,1,0,0:0:0:40:drum-hitclap.wav
192,192,85251,1,0,0:0:0:0:
320,192,85304,1,0,0:0:0:40:drum-hitclap.wav
448,192,85304,1,0,0:0:0:0:
192,192,85358,1,0,0:0:0:40:drum-hitclap.wav
64,192,85358,1,0,0:0:0:0:
448,192,85412,1,0,0:0:0:40:drum-hitclap.wav
320,192,85412,1,0,0:0:0:0:
192,192,85465,1,0,0:0:0:40:drum-hitclap.wav
64,192,85465,1,0,0:0:0:0:
320,192,85519,1,0,0:0:0:40:drum-hitclap.wav
448,192,85519,1,0,0:0:0:0:
192,192,85572,1,0,0:0:0:40:drum-hitclap.wav
64,192,85572,1,0,0:0:0:0:
448,192,85626,1,0,0:0:0:40:drum-hitclap.wav
320,192,85626,1,0,0:0:0:0:
192,192,85679,1,0,0:0:0:40:drum-hitclap.wav
64,192,85679,1,0,0:0:0:0:
320,192,85733,1,0,0:0:0:40:drum-hitclap.wav
448,192,85733,1,0,0:0:0:0:
192,192,85787,1,0,0:0:0:40:drum-hitclap.wav
64,192,85787,1,0,0:0:0:0:
448,192,85840,1,0,0:0:0:40:drum-hitclap.wav
320,192,85840,1,0,0:0:0:0:
64,192,85894,1,0,0:0:0:40:drum-hitclap.wav
192,192,85894,1,0,0:0:0:0:
320,192,85947,1,0,0:0:0:40:drum-hitclap.wav
448,192,85947,1,0,0:0:0:0:
64,192,86001,1,0,0:0:0:40:drum-hitclap.wav
192,192,86001,1,0,0:0:0:0:
320,192,86054,1,0,0:0:0:40:drum-hitclap.wav
448,192,86054,1,0,0:0:0:0:
64,192,86108,1,0,0:0:0:40:drum-hitclap.wav
192,192,86108,1,0,0:0:0:0:
448,192,86162,1,0,0:0:0:40:drum-hitclap.wav
320,192,86162,1,0,0:0:0:0:
192,192,86215,1,0,0:0:0:40:drum-hitclap.wav
64,192,86215,1,0,0:0:0:0:
448,192,86269,1,0,0:0:0:40:drum-hitclap.wav
320,192,86269,1,0,0:0:0:0:
64,192,86322,1,0,0:0:0:40:drum-hitclap.wav
192,192,86322,1,0,0:0:0:0:
448,192,86376,1,0,0:0:0:40:drum-hitclap.wav
320,192,86376,1,0,0:0:0:0:
64,192,86429,1,0,0:0:0:40:drum-hitclap.wav
192,192,86429,1,0,0:0:0:0:
320,192,86483,1,0,0:0:0:40:drum-hitclap.wav
448,192,86483,1,0,0:0:0:0:
64,192,86537,1,0,0:0:0:40:drum-hitclap.wav
192,192,86537,1,0,0:0:0:0:
320,192,86590,1,0,0:0:0:40:drum-hitclap.wav
448,192,86590,1,0,0:0:0:0:
192,192,86644,1,0,0:0:0:60:normal-hitclap.wav
64,192,86644,1,0,0:0:0:0:
192,192,87929,1,0,0:0:0:40:drum-hitclap.wav
64,192,87929,1,0,0:0:0:0:
320,192,87983,1,0,0:0:0:40:drum-hitclap.wav
448,192,87983,1,0,0:0:0:0:
192,192,88037,1,0,0:0:0:40:drum-hitclap.wav
64,192,88037,1,0,0:0:0:0:
320,192,88090,1,0,0:0:0:40:drum-hitclap.wav
448,192,88090,1,0,0:0:0:0:
192,192,88144,1,0,0:0:0:40:drum-hitclap.wav
64,192,88144,1,0,0:0:0:0:
320,192,88197,1,0,0:0:0:40:drum-hitclap.wav
448,192,88197,1,0,0:0:0:0:
192,192,88251,1,0,0:0:0:40:drum-hitclap.wav
64,192,88251,1,0,0:0:0:0:
320,192,88304,1,0,0:0:0:40:drum-hitclap.wav
448,192,88304,1,0,0:0:0:0:
192,192,88358,1,0,0:0:0:60:drum-hitfinish.wav
64,192,88358,128,0,88679:0:0:0:60:normal-hitfinish.wav
320,192,88465,1,0,0:0:0:0:
448,192,88572,1,0,0:0:0:50:normal-hitwhistle.wav
320,192,88572,1,0,0:0:0:0:
192,192,88679,128,0,89001:0:0:0:0:
448,192,88679,1,0,0:0:0:0:
320,192,88787,1,0,0:0:0:60:normal-hitclap.wav
64,192,88787,1,0,0:0:0:0:
448,192,88894,1,0,0:0:0:0:
320,192,89001,128,0,89429:0:0:0:50:normal-hitwhistle.wav
64,192,89001,1,0,0:0:0:0:
192,192,89108,1,0,0:0:0:0:
448,192,89215,1,0,0:0:0:60:normal-hitclap.wav
64,192,89215,1,0,0:0:0:0:
192,192,89322,1,0,0:0:0:0:
448,192,89429,128,0,89644:0:0:0:50:normal-hitwhistle.wav
64,192,89429,1,0,0:0:0:0:
192,192,89501,1,0,0:0:0:0:
64,192,89572,1,0,0:0:0:0:
320,192,89644,128,0,89858:0:0:0:60:normal-hitclap.wav
192,192,89644,1,0,0:0:0:0:
448,192,89715,1,0,0:0:0:0:
64,192,89787,1,0,0:0:0:0:
192,192,89858,128,0,90072:0:0:0:50:normal-hitwhistle.wav
448,192,89858,1,0,0:0:0:0:
320,192,89929,1,0,0:0:0:0:
64,192,90001,1,0,0:0:0:0:
320,192,90072,1,0,0:0:0:60:normal-hitclap.wav
448,192,90072,1,0,0:0:0:0:
192,192,90179,1,0,0:0:0:0:
320,192,90287,1,0,0:0:0:50:normal-hitwhistle.wav
448,192,90287,1,0,0:0:0:0:
64,192,90287,1,0,0:0:0:0:
192,192,90394,1,0,0:0:0:0:
192,192,90501,1,0,0:0:0:60:normal-hitclap.wav
64,192,90501,1,0,0:0:0:0:
448,192,90501,1,0,0:0:0:0:
320,192,90608,1,0,0:0:0:0:
448,192,90715,1,0,0:0:0:50:normal-hitwhistle.wav
192,192,90715,1,0,0:0:0:0:
64,192,90715,1,0,0:0:0:0:
320,192,90822,1,0,0:0:0:0:
320,192,90929,1,0,0:0:0:60:normal-hitclap.wav
448,192,90929,1,0,0:0:0:0:
64,192,90929,1,0,0:0:0:0:
192,192,91037,1,0,0:0:0:0:
448,192,91144,128,0,91358:0:0:0:50:normal-hitwhistle.wav
320,192,91144,1,0,0:0:0:0:
64,192,91144,1,0,0:0:0:0:
192,192,91215,1,0,0:0:0:0:
64,192,91287,1,0,0:0:0:0:
320,192,91358,128,0,91572:0:0:0:60:normal-hitclap.wav
192,192,91358,1,0,0:0:0:0:
448,192,91429,1,0,0:0:0:0:
192,192,91501,1,0,0:0:0:0:
64,192,91572,1,0,0:0:0:50:normal-hitwhistle.wav
448,192,91572,1,0,0:0:0:0:
192,192,91644,1,0,0:0:0:0:
320,192,91715,1,0,0:0:0:0:
192,192,91787,128,0,92108:0:0:0:60:normal-hitclap.wav
64,192,91787,1,0,0:0:0:0:
448,192,91787,1,0,0:0:0:0:
320,192,91894,1,0,0:0:0:0:
448,192,92001,1,0,0:0:0:50:normal-hitwhistle.wav
64,192,92001,1,0,0:0:0:0:
320,192,92108,128,0,92429:0:0:0:0:
448,192,92108,1,0,0:0:0:0:
192,192,92215,1,0,0:0:0:60:normal-hitclap.wav
64,192,92215,1,0,0:0:0:0:
448,192,92322,1,0,0:0:0:0:
64,192,92429,128,0,92751:0:0:0:50:normal-hitwhistle.wav
192,192,92429,1,0,0:0:0:0:
320,192,92537,1,0,0:0:0:0:
192,192,92644,1,0,0:0:0:60:normal-hitclap.wav
448,192,92644,1,0,0:0:0:0:
320,192,92751,1,0,0:0:0:0:
192,192,92804,1,0,0:0:0:0:
448,192,92858,128,0,93072:0:0:0:50:normal-hitwhistle.wav
64,192,92858,1,0,0:0:0:0:
192,192,92965,1,0,0:0:0:0:
320,192,93072,1,0,0:0:0:60:normal-hitclap.wav
64,192,93072,1,0,0:0:0:0:
192,192,93144,1,0,0:0:0:0:
320,192,93215,1,0,0:0:0:0:
448,192,93287,1,0,0:0:0:50:normal-hitwhistle.wav
192,192,93287,1,0,0:0:0:0:
64,192,93287,1,0,0:0:0:0:
320,192,93358,1,0,0:0:0:0:
64,192,93429,1,0,0:0:0:0:
448,192,93501,1,0,0:0:0:60:normal-hitclap.wav
320,192,93501,1,0,0:0:0:0:
192,192,93501,128,0,93822:0:0:0:0:
64,192,93608,1,0,0:0:0:0:
320,192,93715,1,0,0:0:0:50:normal-hitwhistle.wav
448,192,93715,1,0,0:0:0:0:
320,192,93822,128,0,94144:0:0:0:0:
64,192,93822,1,0,0:0:0:0:
448,192,93929,1,0,0:0:0:60:normal-hitclap.wav
192,192,93929,1,0,0:0:0:0:
64,192,94037,1,0,0:0:0:0:
448,192,94144,128,0,94572:0:0:0:50:normal-hitwhistle.wav
192,192,94144,1,0,0:0:0:0:
64,192,94251,1,0,0:0:0:0:
320,192,94358,1,0,0:0:0:60:normal-hitclap.wav
192,192,94358,1,0,0:0:0:0:
192,192,94465,1,0,0:0:0:0:
320,192,94572,1,0,0:0:0:50:normal-hitwhistle.wav
64,192,94572,1,0,0:0:0:0:
192,192,94644,1,0,0:0:0:0:
320,192,94715,1,0,0:0:0:0:
192,192,94787,1,0,0:0:0:60:normal-hitclap.wav
64,192,94787,1,0,0:0:0:0:
448,192,94787,1,0,0:0:0:0:
320,192,94858,1,0,0:0:0:0:
64,192,94929,1,0,0:0:0:0:
192,192,95001,1,0,0:0:0:50:normal-hitwhistle.wav
320,192,95001,1,0,0:0:0:0:
448,192,95001,1,0,0:0:0:0:
320,192,95215,1,0,0:0:0:60:normal-hitclap.wav
192,192,95215,1,0,0:0:0:0:
64,192,95215,1,0,0:0:0:0:
192,192,95322,1,0,0:0:0:60:normal-hitclap.wav
64,192,95322,1,0,0:0:0:0:
192,192,95429,1,0,0:0:0:50:normal-hitwhistle.wav
320,192,95429,1,0,0:0:0:0:
448,192,95429,1,0,0:0:0:0:
320,192,95537,1,0,0:0:0:60:normal-hitclap.wav
448,192,95537,1,0,0:0:0:0:
448,192,95644,1,0,0:0:0:60:normal-hitclap.wav
192,192,95644,1,0,0:0:0:0:
64,192,95644,1,0,0:0:0:0:
192,192,95751,1,0,0:0:0:60:normal-hitclap.wav
64,192,95751,1,0,0:0:0:0:
64,192,95858,1,0,0:0:0:50:normal-hitwhistle.wav
320,192,95858,1,0,0:0:0:0:
448,192,95858,1,0,0:0:0:0:
320,192,95965,1,0,0:0:0:60:normal-hitclap.wav
448,192,95965,1,0,0:0:0:0:
192,192,96072,1,0,0:0:0:60:normal-hitclap.wav
64,192,96072,1,0,0:0:0:0:
320,192,96126,1,0,0:0:0:60:normal-hitclap.wav
448,192,96126,1,0,0:0:0:0:
192,192,96179,1,0,0:0:0:60:normal-hitclap.wav
64,192,96179,1,0,0:0:0:0:
320,192,96233,1,0,0:0:0:60:normal-hitclap.wav
448,192,96233,1,0,0:0:0:0:
192,192,96287,1,0,0:0:0:60:normal-hitclap.wav
64,192,96287,1,0,0:0:0:0:
320,192,96340,1,0,0:0:0:60:normal-hitclap.wav
448,192,96340,1,0,0:0:0:0:
192,192,96394,1,0,0:0:0:60:normal-hitclap.wav
64,192,96394,1,0,0:0:0:0:
320,192,96447,1,0,0:0:0:60:normal-hitclap.wav
448,192,96447,1,0,0:0:0:0:
64,192,96501,1,0,0:0:0:60:normal-hitclap.wav
192,192,96528,1,0,0:0:0:0:
320,192,96554,1,0,0:0:0:60:normal-hitclap.wav
448,192,96581,1,0,0:0:0:0:
64,192,96608,1,0,0:0:0:60:normal-hitclap.wav
192,192,96635,1,0,0:0:0:0:
320,192,96662,1,0,0:0:0:60:normal-hitclap.wav
448,192,96688,1,0,0:0:0:0:
64,192,96715,1,0,0:0:0:60:normal-hitclap.wav
192,192,96742,1,0,0:0:0:0:
320,192,96769,1,0,0:0:0:60:normal-hitclap.wav
448,192,96796,1,0,0:0:0:0:
64,192,96822,1,0,0:0:0:60:normal-hitclap.wav
192,192,96876,1,0,0:0:0:60:normal-hitclap.wav
64,192,96929,1,0,0:0:0:60:normal-hitclap.wav
448,192,96929,1,0,0:0:0:40:drum-hitclap.wav
320,192,96929,1,0,0:0:0:0:
192,192,97144,1,0,0:0:0:50:normal-hitwhistle.wav
64,192,97144,1,0,0:0:0:60:normal-hitclap.wav
448,192,97144,1,0,0:0:0:0:
192,192,97358,1,0,0:0:0:40:drum-hitclap.wav
320,192,97358,1,0,0:0:0:60:normal-hitclap.wav
448,192,97358,1,0,0:0:0:0:
320,192,97572,1,0,0:0:0:50:normal-hitwhistle.wav
192,192,97572,1,0,0:0:0:60:normal-hitclap.wav
64,192,97572,1,0,0:0:0:0:
192,192,97787,1,0,0:0:0:60:normal-hitclap.wav
64,192,97787,1,0,0:0:0:0:
448,192,97787,1,0,0:0:0:0:
320,192,97894,1,0,0:0:0:0:
320,192,98001,1,0,0:0:0:50:normal-hitwhistle.wav
192,192,98001,1,0,0:0:0:0:
64,192,98001,1,0,0:0:0:0:
448,192,98072,1,0,0:0:0:0:
64,192,98144,1,0,0:0:0:0:
192,192,98215,1,0,0:0:0:60:normal-hitclap.wav
320,192,98215,1,0,0:0:0:0:
448,192,98215,1,0,0:0:0:0:
64,192,98287,1,0,0:0:0:0:
320,192,98358,1,0,0:0:0:0:
192,192,98429,1,0,0:0:0:50:normal-hitwhistle.wav
64,192,98429,1,0,0:0:0:0:
448,192,98429,1,0,0:0:0:0:
320,192,98501,1,0,0:0:0:0:
192,192,98572,1,0,0:0:0:0:
448,192,98644,1,0,0:0:0:60:normal-hitclap.wav
64,192,98644,1,0,0:0:0:0:
320,192,98644,128,0,98965:0:0:0:0:
192,192,98751,1,0,0:0:0:0:
64,192,98858,1,0,0:0:0:50:normal-hitwhistle.wav
448,192,98858,1,0,0:0:0:0:
192,192,98965,128,0,99179:0:0:0:0:
64,192,98965,1,0,0:0:0:0:
320,192,99072,1,0,0:0:0:60:normal-hitclap.wav
448,192,99072,1,0,0:0:0:0:
64,192,99179,1,0,0:0:0:0:
192,192,99233,1,0,0:0:0:0:
64,192,99287,1,0,0:0:0:50:normal-hitwhistle.wav
320,192,99287,1,0,0:0:0:0:
448,192,99287,128,0,99715:0:0:0:0:
192,192,99394,1,0,0:0:0:0:
320,192,99501,1,0,0:0:0:60:normal-hitclap.wav
64,192,99501,1,0,0:0:0:0:
64,192,99608,1,0,0:0:0:0:
192,192,99715,1,0,0:0:0:50:normal-hitwhistle.wav
320,192,99715,1,0,0:0:0:0:
320,192,99822,1,0,0:0:0:0:
64,192,99929,1,0,0:0:0:60:normal-hitclap.wav
192,192,99929,1,0,0:0:0:0:
448,192,99929,1,0,0:0:0:0:
320,192,100037,1,0,0:0:0:0:
192,192,100144,1,0,0:0:0:50:normal-hitwhistle.wav
64,192,100144,1,0,0:0:0:0:
320,192,100144,1,0,0:0:0:0:
448,192,100251,1,0,0:0:0:0:
192,192,100358,5,0,0:0:0:60:normal-hitclap.wav
64,192,100358,1,0,0:0:0:0:
320,192,100465,1,0,0:0:0:60:normal-hitclap.wav
448,192,100465,1,0,0:0:0:0:
192,192,100572,1,0,0:0:0:40:drum-hitclap.wav
64,192,100572,1,0,0:0:0:0:
448,192,100626,1,0,0:0:0:40:drum-hitclap.wav
320,192,100679,1,0,0:0:0:40:drum-hitclap.wav
192,192,100679,1,0,0:0:0:0:
64,192,100733,1,0,0:0:0:40:drum-hitclap.wav
320,192,100787,1,0,0:0:0:60:normal-hitclap.wav
448,192,100787,1,0,0:0:0:0:
64,192,100894,1,0,0:0:0:60:normal-hitclap.wav
192,192,100894,1,0,0:0:0:0:
448,192,101001,1,0,0:0:0:40:drum-hitclap.wav
320,192,101001,1,0,0:0:0:0:
64,192,101054,1,0,0:0:0:40:drum-hitclap.wav
320,192,101108,1,0,0:0:0:40:drum-hitclap.wav
192,192,101108,1,0,0:0:0:0:
448,192,101162,1,0,0:0:0:40:drum-hitclap.wav
192,192,101215,1,0,0:0:0:40:drum-hitclap.wav
64,192,101215,1,0,0:0:0:0:
448,192,101269,1,0,0:0:0:40:drum-hitclap.wav
320,192,101269,1,0,0:0:0:0:
192,192,101322,1,0,0:0:0:40:drum-hitclap.wav
64,192,101322,1,0,0:0:0:0:
448,192,101376,1,0,0:0:0:40:drum-hitclap.wav
320,192,101376,1,0,0:0:0:0:
192,192,101429,1,0,0:0:0:40:drum-hitclap.wav
64,192,101429,1,0,0:0:0:0:
448,192,101483,1,0,0:0:0:40:drum-hitclap.wav
320,192,101483,1,0,0:0:0:0:
64,192,101537,1,0,0:0:0:40:drum-hitclap.wav
192,192,101537,1,0,0:0:0:0:
448,192,101590,1,0,0:0:0:40:drum-hitclap.wav
320,192,101590,1,0,0:0:0:0:
192,192,101644,1,0,0:0:0:40:drum-hitclap.wav
64,192,101644,1,0,0:0:0:0:
320,192,101697,1,0,0:0:0:40:drum-hitclap.wav
448,192,101697,1,0,0:0:0:0:
192,192,101751,1,0,0:0:0:40:drum-hitclap.wav
64,192,101751,1,0,0:0:0:0:
448,192,101804,1,0,0:0:0:40:drum-hitclap.wav
320,192,101804,1,0,0:0:0:0:
64,192,101858,1,0,0:0:0:40:drum-hitclap.wav
192,192,101858,1,0,0:0:0:0:
448,192,101912,1,0,0:0:0:40:drum-hitclap.wav
320,192,101912,1,0,0:0:0:0:
192,192,101965,1,0,0:0:0:40:drum-hitclap.wav
64,192,101965,1,0,0:0:0:0:
448,192,102019,1,0,0:0:0:40:drum-hitclap.wav
320,192,102019,1,0,0:0:0:0:
64,192,102072,128,0,104644:0:0:0:60:drum-hitfinish.wav
192,192,102072,1,0,0:0:0:60:normal-hitclap.wav
448,192,102179,1,0,0:0:0:0:
448,192,102287,1,0,0:0:0:50:normal-hitwhistle.wav
320,192,102287,1,0,0:0:0:0:
192,192,102287,1,0,0:0:0:0:
320,192,102394,1,0,0:0:0:0:
448,192,102501,1,0,0:0:0:0:
192,192,102501,1,0,0:0:0:0:
320,192,102608,1,0,0:0:0:0:
320,192,102715,1,0,0:0:0:50:normal-hitwhistle.wav
448,192,102715,1,0,0:0:0:0:
192,192,102715,1,0,0:0:0:0:
192,192,102822,1,0,0:0:0:0:
320,192,102929,1,0,0:0:0:60:normal-hitclap.wav
448,192,102929,1,0,0:0:0:0:
448,192,103037,1,0,0:0:0:0:
320,192,103144,1,0,0:0:0:50:normal-hitwhistle.wav
192,192,103144,1,0,0:0:0:0:
448,192,103215,1,0,0:0:0:0:
320,192,103287,1,0,0:0:0:0:
448,192,103358,1,0,0:0:0:60:normal-hitclap.wav
192,192,103358,1,0,0:0:0:0:
320,192,103429,1,0,0:0:0:0:
192,192,103501,1,0,0:0:0:0:
320,192,103572,1,0,0:0:0:50:normal-hitwhistle.wav
448,192,103572,1,0,0:0:0:0:
192,192,103644,1,0,0:0:0:0:
448,192,103715,1,0,0:0:0:0:
320,192,103787,1,0,0:0:0:60:normal-hitclap.wav
192,192,103787,1,0,0:0:0:0:
448,192,103894,1,0,0:0:0:0:
448,192,104001,1,0,0:0:0:50:normal-hitwhistle.wav
320,192,104001,1,0,0:0:0:0:
192,192,104001,1,0,0:0:0:0:
320,192,104108,1,0,0:0:0:0:
448,192,104215,1,0,0:0:0:60:normal-hitclap.wav
192,192,104215,1,0,0:0:0:0:
320,192,104322,1,0,0:0:0:0:
448,192,104429,1,0,0:0:0:50:normal-hitwhistle.wav
320,192,104429,1,0,0:0:0:0:
192,192,104429,1,0,0:0:0:0:
448,192,104537,1,0,0:0:0:0:
192,192,104644,128,0,105072:0:0:0:60:normal-hitclap.wav
320,192,104644,1,0,0:0:0:0:
448,192,104751,1,0,0:0:0:0:
448,192,104858,1,0,0:0:0:50:normal-hitwhistle.wav
320,192,104858,1,0,0:0:0:0:
64,192,104929,1,0,0:0:0:0:
448,192,105001,1,0,0:0:0:0:
320,192,105072,128,0,105501:0:0:0:60:normal-hitclap.wav
64,192,105072,1,0,0:0:0:0:
192,192,105144,1,0,0:0:0:0:
448,192,105215,1,0,0:0:0:0:
192,192,105287,1,0,0:0:0:50:normal-hitwhistle.wav
64,192,105287,1,0,0:0:0:0:
448,192,105358,1,0,0:0:0:0:
64,192,105429,1,0,0:0:0:0:
448,192,105501,128,0,106144:0:0:0:60:normal-hitclap.wav
192,192,105501,1,0,0:0:0:0:
64,192,105608,1,0,0:0:0:0:
64,192,105715,1,0,0:0:0:50:normal-hitwhistle.wav
192,192,105715,1,0,0:0:0:0:
320,192,105715,1,0,0:0:0:0:
320,192,105822,1,0,0:0:0:0:
192,192,105929,1,0,0:0:0:60:normal-hitclap.wav
64,192,105929,1,0,0:0:0:0:
320,192,106037,1,0,0:0:0:0:
192,192,106144,1,0,0:0:0:50:normal-hitwhistle.wav
64,192,106144,1,0,0:0:0:0:
320,192,106144,128,0,106787:0:0:0:0:
64,192,106251,1,0,0:0:0:0:
192,192,106358,1,0,0:0:0:60:normal-hitclap.wav
448,192,106358,1,0,0:0:0:0:
64,192,106465,1,0,0:0:0:0:
192,192,106519,1,0,0:0:0:0:
448,192,106572,1,0,0:0:0:50:normal-hitwhistle.wav
64,192,106572,1,0,0:0:0:0:
192,192,106644,1,0,0:0:0:0:
448,192,106715,1,0,0:0:0:0:
192,192,106787,128,0,107215:0:0:0:60:normal-hitclap.wav
64,192,106787,1,0,0:0:0:0:
320,192,106858,1,0,0:0:0:0:
448,192,106929,1,0,0:0:0:0:
320,192,107001,1,0,0:0:0:50:normal-hitwhistle.wav
64,192,107001,1,0,0:0:0:0:
448,192,107072,5,0,0:0:0:0:
320,192,107144,1,0,0:0:0:0:
448,192,107215,1,0,0:0:0:60:normal-hitclap.wav
64,192,107215,128,0,108072:0:0:0:0:
320,192,107322,1,0,0:0:0:0:
448,192,107429,1,0,0:0:0:50:normal-hitwhistle.wav
320,192,107429,1,0,0:0:0:0:
192,192,107429,1,0,0:0:0:0:
448,192,107537,1,0,0:0:0:0:
320,192,107644,1,0,0:0:0:60:normal-hitclap.wav
192,192,107644,1,0,0:0:0:0:
320,192,107751,1,0,0:0:0:0:
192,192,107858,1,0,0:0:0:50:normal-hitwhistle.wav
320,192,107858,1,0,0:0:0:0:
448,192,107858,1,0,0:0:0:0:
448,192,107965,1,0,0:0:0:0:
320,192,108072,1,0,0:0:0:60:normal-hitclap.wav
192,192,108072,1,0,0:0:0:0:
448,192,108144,1,0,0:0:0:60:normal-hitclap.wav
64,192,108144,1,0,0:0:0:0:
320,192,108215,1,0,0:0:0:60:normal-hitclap.wav
192,192,108215,1,0,0:0:0:0:
448,192,108287,1,0,0:0:0:50:normal-hitwhistle.wav
64,192,108287,1,0,0:0:0:0:
192,192,108358,1,0,0:0:0:60:normal-hitclap.wav
320,192,108358,1,0,0:0:0:0:
64,192,108429,1,0,0:0:0:60:normal-hitclap.wav
192,192,108501,1,0,0:0:0:60:normal-hitclap.wav
448,192,108501,1,0,0:0:0:0:
320,192,108572,1,0,0:0:0:60:normal-hitclap.wav
64,192,108572,1,0,0:0:0:0:
192,192,108644,1,0,0:0:0:60:normal-hitclap.wav
448,192,108644,1,0,0:0:0:0:
320,192,108715,1,0,0:0:0:50:normal-hitwhistle.wav
64,192,108715,1,0,0:0:0:0:
64,192,108929,5,0,0:0:0:40:drum-hitclap.wav
448,192,108929,1,0,0:0:0:0:
320,192,108929,1,0,0:0:0:0:
192,192,108983,1,0,0:0:0:40:drum-hitclap.wav
320,192,109037,1,0,0:0:0:40:drum-hitclap.wav
448,192,109037,1,0,0:0:0:0:
192,192,109090,1,0,0:0:0:40:drum-hitclap.wav
64,192,109144,1,0,0:0:0:0:
448,192,109144,1,0,0:0:0:50:normal-hitwhistle.wav
320,192,109144,1,0,0:0:0:0:
192,192,109197,1,0,0:0:0:0:
320,192,109251,1,0,0:0:0:0:
448,192,109304,1,0,0:0:0:0:
192,192,109358,1,0,0:0:0:40:drum-hitclap.wav
64,192,109358,1,0,0:0:0:0:
448,192,109412,1,0,0:0:0:0:
320,192,109412,1,0,0:0:0:40:drum-hitclap.wav
192,192,109465,5,0,0:0:0:40:drum-hitclap.wav
64,192,109465,1,0,0:0:0:0:
320,192,109519,1,0,0:0:0:40:drum-hitclap.wav
448,192,109519,1,0,0:0:0:0:
64,192,109572,1,0,0:0:0:50:normal-hitwhistle.wav
192,192,109572,1,0,0:0:0:0:
448,192,109626,1,0,0:0:0:0:
320,192,109679,1,0,0:0:0:0:
192,192,109733,1,0,0:0:0:0:
320,192,109787,1,0,0:0:0:40:drum-hitclap.wav
64,192,109787,1,0,0:0:0:0:
448,192,109787,1,0,0:0:0:0:
192,192,109840,1,0,0:0:0:40:drum-hitclap.wav
448,192,109894,1,0,0:0:0:40:drum-hitclap.wav
320,192,109894,1,0,0:0:0:0:
192,192,109947,1,0,0:0:0:0:
320,192,110001,1,0,0:0:0:40:drum-hitclap.wav
448,192,110001,1,0,0:0:0:50:normal-hitwhistle.wav
64,192,110001,1,0,0:0:0:0:
192,192,110054,1,0,0:0:0:0:
320,192,110108,1,0,0:0:0:0:
448,192,110162,1,0,0:0:0:0:
192,192,110215,1,0,0:0:0:40:drum-hitclap.wav
64,192,110215,1,0,0:0:0:0:
320,192,110269,1,0,0:0:0:40:drum-hitclap.wav
448,192,110269,1,0,0:0:0:0:
192,192,110322,1,0,0:0:0:40:drum-hitclap.wav
64,192,110322,1,0,0:0:0:0:
320,192,110376,1,0,0:0:0:40:drum-hitclap.wav
448,192,110376,1,0,0:0:0:0:
64,192,110429,1,0,0:0:0:0:
192,192,110429,1,0,0:0:0:50:normal-hitwhistle.wav
448,192,110483,1,0,0:0:0:0:
320,192,110537,1,0,0:0:0:0:
192,192,110590,1,0,0:0:0:0:
320,192,110644,5,0,0:0:0:40:drum-hitclap.wav
448,192,110644,1,0,0:0:0:0:
64,192,110697,1,0,0:0:0:40:drum-hitclap.wav
320,192,110751,1,0,0:0:0:40:drum-hitclap.wav
448,192,110751,1,0,0:0:0:0:
64,192,110804,1,0,0:0:0:40:drum-hitclap.wav
320,192,110858,1,0,0:0:0:40:drum-hitclap.wav
448,192,110858,1,0,0:0:0:0:
192,192,110912,1,0,0:0:0:40:drum-hitclap.wav
320,192,110965,1,0,0:0:0:40:drum-hitclap.wav
448,192,110965,1,0,0:0:0:0:
192,192,111019,1,0,0:0:0:40:drum-hitclap.wav
64,192,111072,1,0,0:0:0:40:drum-hitclap.wav
448,192,111072,1,0,0:0:0:0:
320,192,111126,1,0,0:0:0:40:drum-hitclap.wav
192,192,111179,1,0,0:0:0:40:drum-hitclap.wav
64,192,111179,1,0,0:0:0:0:
320,192,111233,1,0,0:0:0:40:drum-hitclap.wav
192,192,111287,1,0,0:0:0:40:drum-hitclap.wav
64,192,111287,1,0,0:0:0:0:
448,192,111340,1,0,0:0:0:40:drum-hitclap.wav
192,192,111394,1,0,0:0:0:40:drum-hitclap.wav
64,192,111394,1,0,0:0:0:0:
448,192,111447,1,0,0:0:0:40:drum-hitclap.wav
192,192,111501,5,0,0:0:0:40:drum-hitclap.wav
64,192,111501,1,0,0:0:0:0:
320,192,111554,1,0,0:0:0:40:drum-hitclap.wav
448,192,111554,1,0,0:0:0:0:
192,192,111608,1,0,0:0:0:40:drum-hitclap.wav
64,192,111608,1,0,0:0:0:0:
320,192,111662,1,0,0:0:0:40:drum-hitclap.wav
448,192,111662,1,0,0:0:0:0:
192,192,111715,1,0,0:0:0:40:drum-hitclap.wav
64,192,111715,1,0,0:0:0:0:
320,192,111769,1,0,0:0:0:40:drum-hitclap.wav
448,192,111769,1,0,0:0:0:0:
64,192,111822,1,0,0:0:0:40:drum-hitclap.wav
192,192,111822,1,0,0:0:0:0:
448,192,111876,1,0,0:0:0:40:drum-hitclap.wav
320,192,111876,1,0,0:0:0:0:
64,192,111929,1,0,0:0:0:50:normal-hitwhistle.wav
192,192,111929,1,0,0:0:0:0:
64,192,112144,1,0,0:0:0:0:
192,192,112215,1,0,0:0:0:0:
320,192,112287,1,0,0:0:0:0:
448,192,112358,1,0,0:0:0:0:
64,192,112358,1,0,0:0:0:0:
320,192,112679,1,0,0:0:0:0:
192,192,112679,1,0,0:0:0:0:
448,192,112894,1,0,0:0:0:0:
320,192,112947,1,0,0:0:0:0:
192,192,113001,1,0,0:0:0:0:
64,192,113001,1,0,0:0:0:0:
448,192,113429,1,0,0:0:0:0:
64,192,113537,1,0,0:0:0:0:
320,192,113644,1,0,0:0:0:0:
192,192,113644,1,0,0:0:0:0:
320,192,114072,1,0,0:0:0:60:drum-hitfinish.wav
448,192,114072,1,0,0:0:0:60:normal-hitclap.wav
64,192,114072,128,0,114929:0:0:0:60:normal-hitfinish.wav
192,192,114287,1,0,0:0:0:0:
448,192,114394,1,0,0:0:0:0:
192,192,114501,1,0,0:0:0:0:
320,192,114608,1,0,0:0:0:0:
192,192,114929,128,0,115787:0:0:0:0:
320,192,114929,1,0,0:0:0:0:
448,192,115037,1,0,0:0:0:0:
320,192,115144,1,0,0:0:0:0:
64,192,115251,1,0,0:0:0:0:
448,192,115358,1,0,0:0:0:0:
320,192,115465,1,0,0:0:0:0:
448,192,115572,1,0,0:0:0:0:
64,192,115679,1,0,0:0:0:0:
320,192,115787,128,0,116429:0:0:0:0:
448,192,115787,1,0,0:0:0:0:
192,192,115894,1,0,0:0:0:0:
64,192,116001,1,0,0:0:0:0:
448,192,116108,1,0,0:0:0:0:
64,192,116215,1,0,0:0:0:0:
448,192,116322,1,0,0:0:0:0:
192,192,116429,1,0,0:0:0:60:normal-hitclap.wav
64,192,116429,1,0,0:0:0:0:
320,192,116483,1,0,0:0:0:60:normal-hitclap.wav
448,192,116537,1,0,0:0:0:60:normal-hitclap.wav
64,192,116537,1,0,0:0:0:0:
192,192,116590,1,0,0:0:0:60:normal-hitclap.wav
320,192,116644,1,0,0:0:0:40:drum-hitclap.wav
448,192,116644,1,0,0:0:0:0:
192,192,116697,1,0,0:0:0:40:drum-hitclap.wav
64,192,116697,1,0,0:0:0:0:
448,192,116751,1,0,0:0:0:40:drum-hitclap.wav
320,192,116751,1,0,0:0:0:0:
192,192,116804,1,0,0:0:0:40:drum-hitclap.wav
64,192,116804,1,0,0:0:0:0:
320,192,116858,1,0,0:0:0:40:drum-hitclap.wav
448,192,116858,1,0,0:0:0:0:
64,192,116912,1,0,0:0:0:40:drum-hitclap.wav
192,192,116912,1,0,0:0:0:0:
320,192,116965,1,0,0:0:0:40:drum-hitclap.wav
448,192,116965,1,0,0:0:0:0:
192,192,117019,1,0,0:0:0:40:drum-hitclap.wav
64,192,117019,1,0,0:0:0:0:
320,192,117072,1,0,0:0:0:40:drum-hitclap.wav
448,192,117072,1,0,0:0:0:0:
64,192,117126,1,0,0:0:0:40:drum-hitclap.wav
192,192,117126,1,0,0:0:0:0:
320,192,117179,1,0,0:0:0:40:drum-hitclap.wav
448,192,117179,1,0,0:0:0:0:
192,192,117233,1,0,0:0:0:40:drum-hitclap.wav
64,192,117233,1,0,0:0:0:0:
448,192,117287,1,0,0:0:0:40:drum-hitclap.wav
320,192,117287,1,0,0:0:0:0:
192,192,117340,1,0,0:0:0:40:drum-hitclap.wav
64,192,117340,1,0,0:0:0:0:
448,192,117394,1,0,0:0:0:40:drum-hitclap.wav
320,192,117394,1,0,0:0:0:0:
64,192,117447,1,0,0:0:0:40:drum-hitclap.wav
192,192,117447,1,0,0:0:0:0:
448,192,117501,1,0,0:0:0:60:drum-hitfinish.wav
320,192,117501,1,0,0:0:0:60:normal-hitfinish.wav
