osu file format v14

[General]
AudioFilename: audio.mp3
AudioLeadIn: 0
PreviewTime: 18072
Countdown: 0
SampleSet: Soft
StackLeniency: 0.7
Mode: 3
LetterboxInBreaks: 0
SpecialStyle: 0
WidescreenStoryboard: 0

[Editor]
Bookmarks: 24929,46358
DistanceSpacing: 1.3
BeatDivisor: 4
GridSize: 4
TimelineZoom: 0.1

[Metadata]
Title:iLLness LiLin
TitleUnicode:iLLness LiLin
Artist:Kaneko Chiharu
ArtistUnicode:かねこちはる
Creator:Fresh Chicken
Version:BASIC
Source:SOUND VOLTEX IV HEAVENLY HAVEN
Tags:The 6th KAC Original Song Contest Winner Aonasai jakads Pirates Rasis Grace Hardcore Piano SDVX 4
BeatmapID:1243747
BeatmapSetID:587269

[Difficulty]
HPDrainRate:6
CircleSize:4
OverallDifficulty:7
ApproachRate:5
SliderMultiplier:1.4
SliderTickRate:1

[Events]
//Background and Video events
0,0,"170317_1_1.png",0,0
//Break Periods
2,52558,56301
//Storyboard Layer 0 (Background)
//Storyboard Layer 1 (Fail)
//Storyboard Layer 2 (Pass)
//Storyboard Layer 3 (Foreground)
//Storyboard Sound Samples
Sample,3554,0,"drum-hitclap.wav",40
Sample,3608,0,"drum-hitclap.wav",40
Sample,3662,0,"drum-hitclap.wav",40
Sample,3715,0,"drum-hitclap.wav",40
Sample,3769,0,"drum-hitclap.wav",40
Sample,3822,0,"drum-hitclap.wav",40
Sample,3876,0,"drum-hitclap.wav",40
Sample,4358,0,"normal-hitfinish.wav",60
Sample,4572,0,"normal-hitclap.wav",60
Sample,4787,0,"normal-hitclap.wav",60
Sample,5001,0,"normal-hitclap.wav",60
Sample,5429,0,"normal-hitclap.wav",60
Sample,5644,0,"normal-hitclap.wav",60
Sample,5858,0,"normal-hitclap.wav",60
Sample,6287,0,"normal-hitclap.wav",60
Sample,6501,0,"normal-hitclap.wav",60
Sample,6715,0,"normal-hitclap.wav",60
Sample,7144,0,"normal-hitclap.wav",60
Sample,7358,0,"normal-hitclap.wav",60
Sample,7572,0,"normal-hitclap.wav",60
Sample,8001,0,"normal-hitclap.wav",60
Sample,8215,0,"normal-hitclap.wav",60
Sample,8429,0,"normal-hitclap.wav",60
Sample,8858,0,"normal-hitclap.wav",60
Sample,9072,0,"normal-hitclap.wav",60
Sample,9287,0,"normal-hitclap.wav",60
Sample,9715,0,"normal-hitclap.wav",60
Sample,9929,0,"normal-hitclap.wav",60
Sample,10144,0,"normal-hitclap.wav",60
Sample,10412,0,"drum-hitclap.wav",40
Sample,10465,0,"drum-hitclap.wav",40
Sample,10519,0,"drum-hitclap.wav",40
Sample,10572,0,"drum-hitclap.wav",40
Sample,10733,0,"drum-hitclap.wav",40
Sample,10787,0,"drum-hitclap.wav",40
Sample,10840,0,"drum-hitclap.wav",40
Sample,10894,0,"drum-hitclap.wav",40
Sample,11054,0,"drum-hitclap.wav",40
Sample,11108,0,"drum-hitclap.wav",40
Sample,11162,0,"drum-hitclap.wav",40
Sample,11215,0,"normal-hitfinish.wav",60
Sample,11322,0,"normal-hitclap.wav",60
Sample,11429,0,"normal-hitclap.wav",60
Sample,11537,0,"normal-hitclap.wav",60
Sample,11751,0,"normal-hitclap.wav",60
Sample,11858,0,"normal-hitclap.wav",60
Sample,11965,0,"normal-hitclap.wav",60
Sample,12179,0,"normal-hitclap.wav",60
Sample,12287,0,"normal-hitclap.wav",60
Sample,12394,0,"normal-hitclap.wav",60
Sample,12608,0,"normal-hitclap.wav",60
Sample,12715,0,"normal-hitclap.wav",60
Sample,12822,0,"normal-hitclap.wav",60
Sample,13037,0,"normal-hitclap.wav",60
Sample,13144,0,"normal-hitclap.wav",60
Sample,13251,0,"normal-hitclap.wav",60
Sample,13465,0,"normal-hitclap.wav",60
Sample,13572,0,"normal-hitclap.wav",60
Sample,13679,0,"normal-hitclap.wav",60
Sample,13894,0,"normal-hitclap.wav",60
Sample,14001,0,"normal-hitclap.wav",60
Sample,14108,0,"normal-hitclap.wav",60
Sample,14322,0,"normal-hitclap.wav",60
Sample,14429,0,"normal-hitclap.wav",60
Sample,14537,0,"normal-hitclap.wav",60
Sample,14697,0,"normal-hitclap.wav",60
Sample,14751,0,"normal-hitclap.wav",60
Sample,14804,0,"normal-hitclap.wav",60
Sample,14858,0,"normal-hitclap.wav",60
Sample,14912,0,"normal-hitclap.wav",60
Sample,14965,0,"normal-hitclap.wav",60
Sample,15019,0,"normal-hitclap.wav",60
Sample,15126,0,"normal-hitclap.wav",60
Sample,15179,0,"normal-hitclap.wav",60
Sample,15233,0,"normal-hitclap.wav",60
Sample,15287,0,"normal-hitclap.wav",60
Sample,15340,0,"normal-hitclap.wav",60
Sample,15394,0,"normal-hitclap.wav",60
Sample,15447,0,"normal-hitclap.wav",60
Sample,15554,0,"normal-hitclap.wav",60
Sample,15608,0,"normal-hitclap.wav",60
Sample,15662,0,"normal-hitclap.wav",60
Sample,15715,0,"normal-hitclap.wav",60
Sample,15769,0,"normal-hitclap.wav",60
Sample,15822,0,"normal-hitclap.wav",60
Sample,15876,0,"normal-hitclap.wav",60
Sample,15983,0,"normal-hitclap.wav",60
Sample,16037,0,"normal-hitclap.wav",60
Sample,16090,0,"normal-hitclap.wav",60
Sample,16144,0,"normal-hitclap.wav",60
Sample,16197,0,"normal-hitclap.wav",60
Sample,16251,0,"normal-hitclap.wav",60
Sample,16304,0,"normal-hitclap.wav",60
Sample,17269,0,"drum-hitclap.wav",40
Sample,17322,0,"drum-hitclap.wav",40
Sample,17376,0,"drum-hitclap.wav",40
Sample,17429,0,"drum-hitclap.wav",40
Sample,17483,0,"drum-hitclap.wav",40
Sample,17537,0,"drum-hitclap.wav",40
Sample,17590,0,"drum-hitclap.wav",40
Sample,17644,0,"drum-hitclap.wav",40
Sample,17697,0,"drum-hitclap.wav",40
Sample,17751,0,"drum-hitclap.wav",40
Sample,17804,0,"drum-hitclap.wav",40
Sample,17858,0,"normal-hitwhistle.wav",50
Sample,18072,0,"drum-hitclap.wav",40
Sample,18072,0,"normal-hitfinish.wav",60
Sample,18287,0,"drum-hitclap.wav",40
Sample,18287,0,"normal-hitclap.wav",60
Sample,18501,0,"drum-hitclap.wav",40
Sample,18715,0,"normal-hitclap.wav",60
Sample,18715,0,"drum-hitclap.wav",40
Sample,18929,0,"drum-hitclap.wav",40
Sample,19144,0,"drum-hitclap.wav",40
Sample,19144,0,"normal-hitclap.wav",60
Sample,19358,0,"drum-hitclap.wav",40
Sample,19572,0,"normal-hitclap.wav",60
Sample,19572,0,"drum-hitclap.wav",40
Sample,19787,0,"normal-hitclap.wav",60
Sample,20001,0,"normal-hitclap.wav",60
Sample,20001,0,"drum-hitclap.wav",40
Sample,20215,0,"drum-hitclap.wav",40
Sample,20429,0,"normal-hitclap.wav",60
Sample,20429,0,"drum-hitclap.wav",40
Sample,20644,0,"normal-hitclap.wav",60
Sample,20858,0,"normal-hitclap.wav",60
Sample,20858,0,"drum-hitclap.wav",40
Sample,21072,0,"drum-hitclap.wav",40
Sample,21287,0,"drum-hitclap.wav",40
Sample,21287,0,"normal-hitclap.wav",60
Sample,21501,0,"drum-hitclap.wav",40
Sample,21715,0,"drum-hitclap.wav",40
Sample,21715,0,"normal-hitclap.wav",60
Sample,21929,0,"normal-hitclap.wav",60
Sample,22144,0,"drum-hitclap.wav",40
Sample,22144,0,"normal-hitclap.wav",60
Sample,22358,0,"drum-hitclap.wav",40
Sample,22572,0,"drum-hitclap.wav",40
Sample,22572,0,"normal-hitclap.wav",60
Sample,22787,0,"normal-hitclap.wav",60
Sample,23001,0,"normal-hitclap.wav",60
Sample,23001,0,"drum-hitclap.wav",40
Sample,23215,0,"normal-hitclap.wav",60
Sample,23429,0,"normal-hitclap.wav",60
Sample,23429,0,"drum-hitclap.wav",40
Sample,23644,0,"drum-hitclap.wav",40
Sample,23858,0,"normal-hitclap.wav",60
Sample,23858,0,"drum-hitclap.wav",40
Sample,24179,0,"normal-hitclap.wav",60
Sample,24340,0,"drum-hitclap.wav",40
Sample,24394,0,"drum-hitclap.wav",40
Sample,24447,0,"drum-hitclap.wav",40
Sample,24608,0,"normal-hitclap.wav",60
Sample,24769,0,"drum-hitclap.wav",40
Sample,24822,0,"drum-hitclap.wav",40
Sample,24876,0,"drum-hitclap.wav",40
Sample,24929,0,"drum-hitclap.wav",40
Sample,24929,0,"normal-hitclap.wav",60
Sample,25144,0,"drum-hitclap.wav",40
Sample,25358,0,"drum-hitclap.wav",40
Sample,25358,0,"normal-hitclap.wav",60
Sample,25572,0,"drum-hitclap.wav",40
Sample,25787,0,"drum-hitclap.wav",40
Sample,25787,0,"normal-hitclap.wav",60
Sample,26001,0,"drum-hitclap.wav",40
Sample,26215,0,"drum-hitclap.wav",40
Sample,26215,0,"normal-hitclap.wav",60
Sample,26429,0,"drum-hitclap.wav",40
Sample,26644,0,"drum-hitclap.wav",40
Sample,26644,0,"normal-hitclap.wav",60
Sample,26858,0,"drum-hitclap.wav",40
Sample,27072,0,"normal-hitclap.wav",60
Sample,27072,0,"drum-hitclap.wav",40
Sample,27287,0,"normal-hitwhistle.wav",50
Sample,27501,0,"drum-hitclap.wav",40
Sample,27715,0,"drum-hitclap.wav",40
Sample,27822,0,"drum-hitclap.wav",40
Sample,27822,0,"normal-hitclap.wav",60
Sample,27929,0,"drum-hitclap.wav",40
Sample,28037,0,"normal-hitclap.wav",60
Sample,28037,0,"drum-hitclap.wav",40
Sample,28144,0,"normal-hitclap.wav",60
Sample,28251,0,"normal-hitclap.wav",60
Sample,28251,0,"drum-hitclap.wav",40
Sample,28572,0,"drum-hitclap.wav",40
Sample,28572,0,"normal-hitwhistle.wav",50
Sample,28787,0,"drum-hitclap.wav",40
Sample,28787,0,"normal-hitclap.wav",60
Sample,29001,0,"normal-hitwhistle.wav",50
Sample,29215,0,"drum-hitclap.wav",40
Sample,29215,0,"normal-hitclap.wav",60
Sample,29429,0,"normal-hitwhistle.wav",50
Sample,29644,0,"drum-hitclap.wav",40
Sample,29644,0,"normal-hitclap.wav",60
Sample,29858,0,"normal-hitwhistle.wav",50
Sample,30179,0,"normal-hitclap.wav",60
Sample,30287,0,"drum-hitclap.wav",40
Sample,30340,0,"drum-hitclap.wav",40
Sample,30394,0,"drum-hitclap.wav",40
Sample,30447,0,"drum-hitclap.wav",40
Sample,30608,0,"normal-hitclap.wav",60
Sample,30715,0,"drum-hitclap.wav",40
Sample,30769,0,"drum-hitclap.wav",40
Sample,30822,0,"drum-hitclap.wav",40
Sample,30876,0,"drum-hitclap.wav",40
Sample,30983,0,"drum-hitclap.wav",40
Sample,31037,0,"drum-hitclap.wav",40
Sample,31090,0,"drum-hitclap.wav",40
Sample,31144,0,"normal-hitclap.wav",60
Sample,31197,0,"drum-hitclap.wav",40
Sample,31251,0,"drum-hitclap.wav",40
Sample,31304,0,"drum-hitclap.wav",40
Sample,31358,0,"normal-hitclap.wav",60
Sample,31412,0,"drum-hitclap.wav",40
Sample,31465,0,"drum-hitclap.wav",40
Sample,31519,0,"drum-hitclap.wav",40
Sample,31572,0,"normal-hitclap.wav",60
Sample,31626,0,"drum-hitclap.wav",40
Sample,31679,0,"drum-hitclap.wav",40
Sample,31733,0,"drum-hitclap.wav",40
Sample,31894,0,"normal-hitwhistle.wav",50
Sample,32001,0,"normal-hitwhistle.wav",50
Sample,32108,0,"normal-hitclap.wav",60
Sample,32322,0,"normal-hitwhistle.wav",50
Sample,32429,0,"normal-hitclap.wav",60
Sample,32537,0,"normal-hitwhistle.wav",50
Sample,32751,0,"normal-hitclap.wav",60
Sample,32804,0,"normal-hitclap.wav",60
Sample,32858,0,"normal-hitclap.wav",60
Sample,32965,0,"normal-hitclap.wav",60
Sample,33501,0,"drum-hitclap.wav",40
Sample,33501,0,"normal-hitfinish.wav",60
Sample,33715,0,"drum-hitclap.wav",40
Sample,33715,0,"normal-hitclap.wav",60
Sample,33929,0,"normal-hitclap.wav",60
Sample,34144,0,"drum-hitclap.wav",40
Sample,34144,0,"normal-hitclap.wav",60
Sample,34358,0,"drum-hitclap.wav",40
Sample,34572,0,"drum-hitclap.wav",40
Sample,34572,0,"normal-hitwhistle.wav",50
Sample,34787,0,"drum-hitclap.wav",40
Sample,35001,0,"normal-hitwhistle.wav",50
Sample,35215,0,"drum-hitclap.wav",40
Sample,35429,0,"normal-hitclap.wav",60
Sample,35644,0,"normal-hitclap.wav",60
Sample,35858,0,"drum-hitclap.wav",40
Sample,36072,0,"drum-hitclap.wav",40
Sample,36233,0,"normal-hitclap.wav",60
Sample,36233,0,"drum-hitclap.wav",40
Sample,36394,0,"normal-hitclap.wav",60
Sample,36394,0,"drum-hitclap.wav",40
Sample,36554,0,"drum-hitclap.wav",40
Sample,36608,0,"drum-hitclap.wav",40
Sample,36662,0,"drum-hitclap.wav",40
Sample,36769,0,"drum-hitclap.wav",40
Sample,36822,0,"drum-hitclap.wav",40
Sample,36876,0,"drum-hitclap.wav",40
Sample,37037,0,"normal-hitwhistle.wav",50
Sample,37144,0,"normal-hitwhistle.wav",50
Sample,37251,0,"normal-hitclap.wav",60
Sample,37465,0,"normal-hitwhistle.wav",50
Sample,37572,0,"normal-hitclap.wav",60
Sample,37679,0,"normal-hitwhistle.wav",50
Sample,37894,0,"normal-hitclap.wav",60
Sample,37947,0,"normal-hitclap.wav",60
Sample,38001,0,"normal-hitclap.wav",60
Sample,38108,0,"normal-hitclap.wav",60
Sample,38751,0,"normal-hitclap.wav",60
Sample,38858,0,"normal-hitclap.wav",60
Sample,38965,0,"normal-hitclap.wav",60
Sample,39179,0,"normal-hitclap.wav",60
Sample,39287,0,"normal-hitclap.wav",60
Sample,39394,0,"normal-hitclap.wav",60
Sample,39608,0,"normal-hitclap.wav",60
Sample,39769,0,"normal-hitclap.wav",60
Sample,39822,0,"normal-hitclap.wav",60
Sample,40037,0,"normal-hitclap.wav",60
Sample,40144,0,"normal-hitclap.wav",60
Sample,40251,0,"normal-hitclap.wav",60
Sample,40412,0,"normal-hitclap.wav",60
Sample,40465,0,"normal-hitclap.wav",60
Sample,40519,0,"normal-hitclap.wav",60
Sample,40626,0,"normal-hitclap.wav",60
Sample,40679,0,"normal-hitclap.wav",60
Sample,40733,0,"normal-hitclap.wav",60
Sample,40894,0,"normal-hitclap.wav",60
Sample,41001,0,"normal-hitclap.wav",60
Sample,41108,0,"normal-hitclap.wav",60
Sample,41287,0,"normal-hitclap.wav",60
Sample,41358,0,"normal-hitclap.wav",60
Sample,41429,0,"normal-hitclap.wav",60
Sample,41501,0,"normal-hitclap.wav",60
Sample,41572,0,"normal-hitclap.wav",60
Sample,41644,0,"normal-hitclap.wav",60
Sample,41715,0,"normal-hitclap.wav",60
Sample,41787,0,"normal-hitclap.wav",60
Sample,41858,0,"normal-hitclap.wav",60
Sample,41929,0,"normal-hitclap.wav",60
Sample,42001,0,"normal-hitclap.wav",60
Sample,42179,0,"normal-hitclap.wav",60
Sample,42287,0,"normal-hitclap.wav",60
Sample,42394,0,"normal-hitclap.wav",60
Sample,42608,0,"normal-hitclap.wav",60
Sample,42715,0,"normal-hitclap.wav",60
Sample,42822,0,"normal-hitclap.wav",60
Sample,42983,0,"normal-hitclap.wav",60
Sample,43037,0,"normal-hitclap.wav",60
Sample,43251,0,"normal-hitclap.wav",60
Sample,43894,0,"normal-hitclap.wav",60
Sample,44001,0,"normal-hitclap.wav",60
Sample,44054,0,"normal-hitclap.wav",60
Sample,44108,0,"normal-hitclap.wav",60
Sample,44162,0,"normal-hitclap.wav",60
Sample,44322,0,"drum-hitclap.wav",40
Sample,44376,0,"drum-hitclap.wav",40
Sample,44429,0,"drum-hitclap.wav",40
Sample,44537,0,"normal-hitclap.wav",60
Sample,44697,0,"drum-hitclap.wav",40
Sample,44751,0,"drum-hitclap.wav",40
Sample,44804,0,"drum-hitclap.wav",40
Sample,44858,0,"normal-hitclap.wav",60
Sample,44965,0,"drum-hitclap.wav",40
Sample,45019,0,"drum-hitclap.wav",40
Sample,45501,0,"drum-hitfinish.wav",60
Sample,45608,0,"normal-hitclap.wav",60
Sample,45715,0,"drum-hitclap.wav",40
Sample,45822,0,"normal-hitclap.wav",60
Sample,46037,0,"normal-hitclap.wav",60
Sample,46144,0,"drum-hitclap.wav",40
Sample,46251,0,"normal-hitclap.wav",60
Sample,46465,0,"normal-hitclap.wav",60
Sample,46572,0,"drum-hitclap.wav",40
Sample,46679,0,"normal-hitclap.wav",60
Sample,46894,0,"normal-hitclap.wav",60
Sample,47001,0,"drum-hitclap.wav",40
Sample,47108,0,"normal-hitclap.wav",60
Sample,47322,0,"normal-hitclap.wav",60
Sample,47429,0,"drum-hitclap.wav",40
Sample,47537,0,"normal-hitclap.wav",60
Sample,47751,0,"normal-hitclap.wav",60
Sample,47858,0,"drum-hitclap.wav",40
Sample,47965,0,"normal-hitclap.wav",60
Sample,48179,0,"normal-hitclap.wav",60
Sample,48287,0,"drum-hitclap.wav",40
Sample,48394,0,"normal-hitclap.wav",60
Sample,48608,0,"normal-hitclap.wav",60
Sample,48715,0,"drum-hitclap.wav",40
Sample,48822,0,"normal-hitclap.wav",60
Sample,48983,0,"drum-hitclap.wav",40
Sample,49037,0,"drum-hitclap.wav",40
Sample,49090,0,"drum-hitclap.wav",40
Sample,49197,0,"drum-hitclap.wav",40
Sample,49251,0,"drum-hitclap.wav",40
Sample,49304,0,"drum-hitclap.wav",40
Sample,49412,0,"drum-hitclap.wav",40
Sample,49465,0,"drum-hitclap.wav",40
Sample,49519,0,"drum-hitclap.wav",40
Sample,49626,0,"drum-hitclap.wav",40
Sample,49679,0,"drum-hitclap.wav",40
Sample,49733,0,"drum-hitclap.wav",40
Sample,49840,0,"drum-hitclap.wav",40
Sample,49894,0,"drum-hitclap.wav",40
Sample,49947,0,"drum-hitclap.wav",40
Sample,50054,0,"drum-hitclap.wav",40
Sample,50108,0,"drum-hitclap.wav",40
Sample,50162,0,"drum-hitclap.wav",40
Sample,50269,0,"drum-hitclap.wav",40
Sample,50322,0,"drum-hitclap.wav",40
Sample,50376,0,"drum-hitclap.wav",40
Sample,50483,0,"drum-hitclap.wav",40
Sample,50537,0,"drum-hitclap.wav",40
Sample,50590,0,"drum-hitclap.wav",40
Sample,50697,0,"drum-hitclap.wav",40
Sample,50751,0,"drum-hitclap.wav",40
Sample,50804,0,"drum-hitclap.wav",40
Sample,50912,0,"drum-hitclap.wav",40
Sample,50965,0,"drum-hitclap.wav",40
Sample,51019,0,"drum-hitclap.wav",40
Sample,51126,0,"drum-hitclap.wav",40
Sample,51179,0,"drum-hitclap.wav",40
Sample,51233,0,"drum-hitclap.wav",40
Sample,51340,0,"drum-hitclap.wav",40
Sample,51394,0,"drum-hitclap.wav",40
Sample,51447,0,"drum-hitclap.wav",40
Sample,57501,0,"drum-hitfinish.wav",60
Sample,58358,0,"normal-hitfinish.wav",60
Sample,59215,0,"drum-hitfinish.wav",60
Sample,74644,0,"normal-hitfinish.wav",60
Sample,74644,0,"normal-hitclap.wav",60
Sample,74751,0,"drum-hitclap.wav",40
Sample,74751,0,"normal-hitclap.wav",60
Sample,74858,0,"drum-hitclap.wav",40
Sample,74965,0,"drum-hitclap.wav",40
Sample,74965,0,"normal-hitclap.wav",60
Sample,75072,0,"drum-hitclap.wav",40
Sample,75179,0,"normal-hitclap.wav",60
Sample,75179,0,"drum-hitclap.wav",40
Sample,75287,0,"normal-hitclap.wav",60
Sample,75394,0,"normal-hitclap.wav",60
Sample,75394,0,"drum-hitclap.wav",40
Sample,75501,0,"normal-hitclap.wav",60
Sample,75608,0,"drum-hitclap.wav",40
Sample,75608,0,"normal-hitclap.wav",60
Sample,75715,0,"normal-hitclap.wav",60
Sample,75822,0,"normal-hitclap.wav",60
Sample,75822,0,"drum-hitclap.wav",40
Sample,75929,0,"drum-hitclap.wav",40
Sample,76037,0,"normal-hitclap.wav",60
Sample,76037,0,"drum-hitclap.wav",40
Sample,76144,0,"drum-hitclap.wav",40
Sample,76144,0,"normal-hitclap.wav",60
Sample,76358,0,"drum-hitclap.wav",40
Sample,76465,0,"drum-hitclap.wav",40
Sample,76465,0,"normal-hitclap.wav",60
Sample,76626,0,"drum-hitclap.wav",40
Sample,76679,0,"drum-hitclap.wav",40
Sample,76787,0,"normal-hitclap.wav",60
Sample,76894,0,"drum-hitclap.wav",40
Sample,76894,0,"normal-hitclap.wav",60
Sample,77054,0,"drum-hitclap.wav",40
Sample,77108,0,"drum-hitclap.wav",40
Sample,77269,0,"drum-hitclap.wav",40
Sample,77322,0,"drum-hitclap.wav",40
Sample,77376,0,"drum-hitclap.wav",40
Sample,77429,0,"drum-hitclap.wav",40
Sample,77483,0,"drum-hitclap.wav",40
Sample,77537,0,"drum-hitclap.wav",40
Sample,77590,0,"drum-hitclap.wav",40
Sample,77644,0,"drum-hitclap.wav",40
Sample,77697,0,"drum-hitclap.wav",40
Sample,77751,0,"drum-hitclap.wav",40
Sample,77804,0,"drum-hitclap.wav",40
Sample,77858,0,"drum-hitclap.wav",40
Sample,77912,0,"drum-hitclap.wav",40
Sample,77965,0,"drum-hitclap.wav",40
Sample,78019,0,"drum-hitclap.wav",40
Sample,78072,0,"drum-hitclap.wav",40
Sample,78179,0,"normal-hitclap.wav",60
Sample,78179,0,"drum-hitclap.wav",40
Sample,78287,0,"normal-hitclap.wav",60
Sample,78394,0,"drum-hitclap.wav",40
Sample,78394,0,"normal-hitclap.wav",60
Sample,78501,0,"normal-hitclap.wav",60
Sample,78608,0,"drum-hitclap.wav",40
Sample,78608,0,"normal-hitclap.wav",60
Sample,78715,0,"normal-hitclap.wav",60
Sample,78822,0,"drum-hitclap.wav",40
Sample,78822,0,"normal-hitclap.wav",60
Sample,78929,0,"drum-hitclap.wav",40
Sample,79037,0,"drum-hitclap.wav",40
Sample,79037,0,"normal-hitclap.wav",60
Sample,79144,0,"normal-hitclap.wav",60
Sample,79251,0,"drum-hitclap.wav",40
Sample,79251,0,"normal-hitclap.wav",60
Sample,79358,0,"normal-hitclap.wav",60
Sample,79465,0,"drum-hitclap.wav",40
Sample,79465,0,"normal-hitclap.wav",60
Sample,79572,0,"drum-hitclap.wav",40
Sample,79572,0,"normal-hitclap.wav",60
Sample,79787,0,"normal-hitclap.wav",60
Sample,79894,0,"normal-hitclap.wav",60
Sample,79894,0,"drum-hitclap.wav",40
Sample,80054,0,"drum-hitclap.wav",40
Sample,80108,0,"drum-hitclap.wav",40
Sample,80215,0,"drum-hitclap.wav",40
Sample,80322,0,"drum-hitclap.wav",40
Sample,80322,0,"normal-hitclap.wav",60
Sample,80483,0,"drum-hitclap.wav",40
Sample,80537,0,"drum-hitclap.wav",40
Sample,80697,0,"drum-hitclap.wav",40
Sample,80751,0,"drum-hitclap.wav",40
Sample,80804,0,"drum-hitclap.wav",40
Sample,80858,0,"drum-hitclap.wav",40
Sample,80912,0,"drum-hitclap.wav",40
Sample,80965,0,"drum-hitclap.wav",40
Sample,81019,0,"drum-hitclap.wav",40
Sample,81072,0,"normal-hitclap.wav",60
Sample,81501,0,"normal-hitclap.wav",60
Sample,81608,0,"normal-hitclap.wav",60
Sample,81608,0,"drum-hitclap.wav",40
Sample,81715,0,"normal-hitclap.wav",60
Sample,81822,0,"drum-hitclap.wav",40
Sample,81822,0,"normal-hitclap.wav",60
Sample,81929,0,"drum-hitclap.wav",40
Sample,82037,0,"drum-hitclap.wav",40
Sample,82037,0,"normal-hitclap.wav",60
Sample,82144,0,"drum-hitclap.wav",40
Sample,82251,0,"drum-hitclap.wav",40
Sample,82251,0,"normal-hitclap.wav",60
Sample,82358,0,"normal-hitclap.wav",60
Sample,82465,0,"normal-hitclap.wav",60
Sample,82465,0,"drum-hitclap.wav",40
Sample,82572,0,"drum-hitclap.wav",40
Sample,82679,0,"normal-hitclap.wav",60
Sample,82679,0,"drum-hitclap.wav",40
Sample,82787,0,"normal-hitclap.wav",60
Sample,82894,0,"drum-hitclap.wav",40
Sample,82894,0,"normal-hitclap.wav",60
Sample,83001,0,"drum-hitclap.wav",40
Sample,83108,0,"normal-hitclap.wav",60
Sample,83108,0,"drum-hitclap.wav",40
Sample,83215,0,"normal-hitclap.wav",60
Sample,83322,0,"normal-hitclap.wav",60
Sample,83322,0,"drum-hitclap.wav",40
Sample,83429,0,"normal-hitclap.wav",60
Sample,83537,0,"drum-hitclap.wav",40
Sample,83537,0,"normal-hitclap.wav",60
Sample,83644,0,"drum-hitclap.wav",40
Sample,83751,0,"drum-hitclap.wav",40
Sample,83751,0,"normal-hitclap.wav",60
Sample,83858,0,"normal-hitclap.wav",60
Sample,83965,0,"drum-hitclap.wav",40
Sample,83965,0,"normal-hitclap.wav",60
Sample,84072,0,"drum-hitclap.wav",40
Sample,84179,0,"drum-hitclap.wav",40
Sample,84179,0,"normal-hitclap.wav",60
Sample,84287,0,"drum-hitclap.wav",40
Sample,84394,0,"normal-hitclap.wav",60
Sample,84394,0,"drum-hitclap.wav",40
Sample,84983,0,"drum-hitclap.wav",40
Sample,85037,0,"drum-hitclap.wav",40
Sample,85090,0,"drum-hitclap.wav",40
Sample,85144,0,"drum-hitclap.wav",40
Sample,85197,0,"drum-hitclap.wav",40
Sample,85251,0,"drum-hitclap.wav",40
Sample,85304,0,"drum-hitclap.wav",40
Sample,85358,0,"drum-hitclap.wav",40
Sample,85412,0,"drum-hitclap.wav",40
Sample,85465,0,"drum-hitclap.wav",40
Sample,85519,0,"drum-hitclap.wav",40
Sample,85572,0,"drum-hitclap.wav",40
Sample,85626,0,"drum-hitclap.wav",40
Sample,85679,0,"drum-hitclap.wav",40
Sample,85733,0,"drum-hitclap.wav",40
Sample,85840,0,"drum-hitclap.wav",40
Sample,85894,0,"drum-hitclap.wav",40
Sample,85947,0,"drum-hitclap.wav",40
Sample,86001,0,"drum-hitclap.wav",40
Sample,86054,0,"drum-hitclap.wav",40
Sample,86108,0,"drum-hitclap.wav",40
Sample,86162,0,"drum-hitclap.wav",40
Sample,86215,0,"drum-hitclap.wav",40
Sample,86269,0,"drum-hitclap.wav",40
Sample,86322,0,"drum-hitclap.wav",40
Sample,86376,0,"drum-hitclap.wav",40
Sample,86429,0,"drum-hitclap.wav",40
Sample,86483,0,"drum-hitclap.wav",40
Sample,86537,0,"drum-hitclap.wav",40
Sample,86590,0,"drum-hitclap.wav",40
Sample,87983,0,"drum-hitclap.wav",40
Sample,88037,0,"drum-hitclap.wav",40
Sample,88090,0,"drum-hitclap.wav",40
Sample,88144,0,"drum-hitclap.wav",40
Sample,88197,0,"drum-hitclap.wav",40
Sample,88251,0,"drum-hitclap.wav",40
Sample,88304,0,"drum-hitclap.wav",40
Sample,88358,0,"normal-hitfinish.wav",60
Sample,88358,0,"normal-hitclap.wav",60
Sample,88572,0,"normal-hitwhistle.wav",50
Sample,88787,0,"normal-hitclap.wav",60
Sample,89215,0,"normal-hitclap.wav",60
Sample,90929,0,"normal-hitclap.wav",60
Sample,92001,0,"normal-hitwhistle.wav",50
Sample,92215,0,"normal-hitclap.wav",60
Sample,92644,0,"normal-hitclap.wav",60
Sample,93715,0,"normal-hitwhistle.wav",50
Sample,93929,0,"normal-hitclap.wav",60
Sample,94358,0,"normal-hitclap.wav",60
Sample,95269,0,"normal-hitfinish.wav",60
Sample,95322,0,"normal-hitclap.wav",60
Sample,95537,0,"normal-hitclap.wav",60
Sample,95751,0,"normal-hitclap.wav",60
Sample,95965,0,"normal-hitclap.wav",60
Sample,96126,0,"normal-hitclap.wav",60
Sample,96179,0,"normal-hitclap.wav",60
Sample,96233,0,"normal-hitclap.wav",60
Sample,96340,0,"normal-hitclap.wav",60
Sample,96394,0,"normal-hitclap.wav",60
Sample,96447,0,"normal-hitclap.wav",60
Sample,96554,0,"normal-hitclap.wav",60
Sample,96608,0,"normal-hitclap.wav",60
Sample,96662,0,"normal-hitclap.wav",60
Sample,96769,0,"normal-hitclap.wav",60
Sample,96822,0,"normal-hitclap.wav",60
Sample,96876,0,"normal-hitclap.wav",60
Sample,96929,0,"drum-hitclap.wav",40
Sample,97144,0,"normal-hitclap.wav",60
Sample,97358,0,"normal-hitclap.wav",60
Sample,97572,0,"normal-hitclap.wav",60
Sample,97787,0,"normal-hitclap.wav",60
Sample,98858,0,"normal-hitwhistle.wav",50
Sample,99072,0,"normal-hitclap.wav",60
Sample,99501,0,"normal-hitclap.wav",60
Sample,100144,0,"normal-hitwhistle.wav",50
Sample,100465,0,"normal-hitclap.wav",60
Sample,100626,0,"drum-hitclap.wav",40
Sample,100679,0,"drum-hitclap.wav",40
Sample,100733,0,"drum-hitclap.wav",40
Sample,100894,0,"normal-hitclap.wav",60
Sample,101054,0,"drum-hitclap.wav",40
Sample,101108,0,"drum-hitclap.wav",40
Sample,101162,0,"drum-hitclap.wav",40
Sample,101269,0,"drum-hitclap.wav",40
Sample,101322,0,"drum-hitclap.wav",40
Sample,101376,0,"drum-hitclap.wav",40
Sample,101429,0,"drum-hitclap.wav",40
Sample,101483,0,"drum-hitclap.wav",40
Sample,101537,0,"drum-hitclap.wav",40
Sample,101590,0,"drum-hitclap.wav",40
Sample,101644,0,"drum-hitclap.wav",40
Sample,101697,0,"drum-hitclap.wav",40
Sample,101751,0,"drum-hitclap.wav",40
Sample,101804,0,"drum-hitclap.wav",40
Sample,101858,0,"drum-hitclap.wav",40
Sample,101912,0,"drum-hitclap.wav",40
Sample,101965,0,"drum-hitclap.wav",40
Sample,102019,0,"drum-hitclap.wav",40
Sample,102072,0,"normal-hitfinish.wav",60
Sample,102072,0,"normal-hitclap.wav",60
Sample,102287,0,"normal-hitwhistle.wav",50
Sample,102554,0,"normal-hitclap.wav",60
Sample,102929,0,"normal-hitclap.wav",60
Sample,104644,0,"normal-hitclap.wav",60
Sample,105715,0,"normal-hitwhistle.wav",50
Sample,105929,0,"normal-hitclap.wav",60
Sample,106358,0,"normal-hitclap.wav",60
Sample,107429,0,"normal-hitwhistle.wav",50
Sample,107644,0,"normal-hitclap.wav",60
Sample,108144,0,"normal-hitclap.wav",60
Sample,108215,0,"normal-hitclap.wav",60
Sample,108358,0,"normal-hitclap.wav",60
Sample,108429,0,"normal-hitclap.wav",60
Sample,108572,0,"normal-hitclap.wav",60
Sample,108644,0,"normal-hitclap.wav",60
Sample,108983,0,"drum-hitclap.wav",40
Sample,109037,0,"drum-hitclap.wav",40
Sample,109090,0,"drum-hitclap.wav",40
Sample,109412,0,"drum-hitclap.wav",40
Sample,109465,0,"drum-hitclap.wav",40
Sample,109519,0,"drum-hitclap.wav",40
Sample,109840,0,"drum-hitclap.wav",40
Sample,109894,0,"drum-hitclap.wav",40
Sample,109947,0,"drum-hitclap.wav",40
Sample,110269,0,"drum-hitclap.wav",40
Sample,110322,0,"drum-hitclap.wav",40
Sample,110376,0,"drum-hitclap.wav",40
Sample,110697,0,"drum-hitclap.wav",40
Sample,110751,0,"drum-hitclap.wav",40
Sample,110804,0,"drum-hitclap.wav",40
Sample,110858,0,"drum-hitclap.wav",40
Sample,110912,0,"drum-hitclap.wav",40
Sample,110965,0,"drum-hitclap.wav",40
Sample,111019,0,"drum-hitclap.wav",40
Sample,111126,0,"drum-hitclap.wav",40
Sample,111179,0,"drum-hitclap.wav",40
Sample,111233,0,"drum-hitclap.wav",40
Sample,111287,0,"drum-hitclap.wav",40
Sample,111340,0,"drum-hitclap.wav",40
Sample,111394,0,"drum-hitclap.wav",40
Sample,111447,0,"drum-hitclap.wav",40
Sample,111554,0,"drum-hitclap.wav",40
Sample,111608,0,"drum-hitclap.wav",40
Sample,111662,0,"drum-hitclap.wav",40
Sample,111715,0,"drum-hitclap.wav",40
Sample,111769,0,"drum-hitclap.wav",40
Sample,111822,0,"drum-hitclap.wav",40
Sample,111876,0,"drum-hitclap.wav",40
Sample,111929,0,"normal-hitwhistle.wav",50
Sample,114072,0,"normal-hitfinish.wav",60
Sample,116483,0,"normal-hitclap.wav",60
Sample,116537,0,"normal-hitclap.wav",60
Sample,116590,0,"normal-hitclap.wav",60
Sample,116644,0,"drum-hitclap.wav",40
Sample,116697,0,"drum-hitclap.wav",40
Sample,116751,0,"drum-hitclap.wav",40
Sample,116804,0,"drum-hitclap.wav",40
Sample,116858,0,"drum-hitclap.wav",40
Sample,116912,0,"drum-hitclap.wav",40
Sample,116965,0,"drum-hitclap.wav",40
Sample,117019,0,"drum-hitclap.wav",40
Sample,117072,0,"drum-hitclap.wav",40
Sample,117126,0,"drum-hitclap.wav",40
Sample,117179,0,"drum-hitclap.wav",40
Sample,117233,0,"drum-hitclap.wav",40
Sample,117287,0,"drum-hitclap.wav",40
Sample,117340,0,"drum-hitclap.wav",40
Sample,117394,0,"drum-hitclap.wav",40
Sample,117447,0,"drum-hitclap.wav",40
Sample,117501,0,"drum-hitclap.wav",40

[TimingPoints]
930,214.285714285714,4,2,0,30,1,0

[HitObjects]
64,192,930,5,0,0:0:0:60:normal-hitclap.wav
448,192,930,128,0,3501:0:0:0:60:drum-hitfinish.wav
320,192,3501,128,0,3929:0:0:0:40:drum-hitclap.wav
192,192,3929,1,0,0:0:0:40:drum-hitclap.wav
448,192,4358,1,0,0:0:0:60:normal-hitclap.wav
64,192,5215,1,0,0:0:0:60:normal-hitclap.wav
320,192,6072,1,0,0:0:0:60:normal-hitclap.wav
192,192,6929,1,0,0:0:0:60:normal-hitclap.wav
448,192,7787,1,0,0:0:0:60:normal-hitclap.wav
320,192,8644,1,0,0:0:0:60:normal-hitclap.wav
192,192,9501,1,0,0:0:0:60:normal-hitclap.wav
64,192,10358,1,0,0:0:0:40:drum-hitclap.wav
192,192,10679,1,0,0:0:0:40:drum-hitclap.wav
320,192,11001,128,0,11215:0:0:0:40:drum-hitclap.wav
64,192,11215,1,0,0:0:0:40:drum-hitclap.wav
192,192,11644,1,0,0:0:0:60:normal-hitclap.wav
448,192,12072,1,0,0:0:0:60:normal-hitclap.wav
320,192,12501,1,0,0:0:0:60:normal-hitclap.wav
192,192,12929,1,0,0:0:0:60:normal-hitclap.wav
64,192,13358,1,0,0:0:0:60:normal-hitclap.wav
320,192,13787,1,0,0:0:0:60:normal-hitclap.wav
192,192,14215,1,0,0:0:0:60:normal-hitclap.wav
448,192,14644,128,0,15072:0:0:0:60:normal-hitclap.wav
64,192,15072,128,0,15501:0:0:0:60:normal-hitclap.wav
320,192,15501,128,0,15929:0:0:0:60:normal-hitclap.wav
192,192,15929,128,0,16358:0:0:0:60:normal-hitclap.wav
448,192,16358,1,0,0:0:0:0:
192,192,17215,128,0,17858:0:0:0:40:drum-hitclap.wav
320,192,17858,1,0,0:0:0:60:drum-hitfinish.wav
64,192,18072,1,0,0:0:0:60:normal-hitclap.wav
64,192,18501,1,0,0:0:0:60:normal-hitclap.wav
320,192,18929,1,0,0:0:0:60:normal-hitclap.wav
320,192,19358,1,0,0:0:0:60:normal-hitclap.wav
192,192,19787,1,0,0:0:0:40:drum-hitclap.wav
192,192,20215,1,0,0:0:0:60:normal-hitclap.wav
448,192,20644,1,0,0:0:0:40:drum-hitclap.wav
448,192,21072,1,0,0:0:0:60:normal-hitclap.wav
64,192,21501,1,0,0:0:0:60:normal-hitclap.wav
64,192,21929,1,0,0:0:0:40:drum-hitclap.wav
448,192,22358,1,0,0:0:0:60:normal-hitclap.wav
448,192,22787,1,0,0:0:0:40:drum-hitclap.wav
192,192,23215,1,0,0:0:0:40:drum-hitclap.wav
192,192,23644,1,0,0:0:0:60:normal-hitclap.wav
320,192,24072,1,0,0:0:0:40:drum-hitclap.wav
192,192,24287,1,0,0:0:0:40:drum-hitclap.wav
448,192,24501,1,0,0:0:0:60:normal-hitclap.wav
64,192,24715,1,0,0:0:0:40:drum-hitclap.wav
448,192,24929,1,0,0:0:0:60:normal-hitfinish.wav
320,192,25144,1,0,0:0:0:50:normal-hitwhistle.wav
192,192,25572,1,0,0:0:0:50:normal-hitwhistle.wav
448,192,26001,1,0,0:0:0:50:normal-hitwhistle.wav
64,192,26429,1,0,0:0:0:50:normal-hitwhistle.wav
320,192,26858,1,0,0:0:0:50:normal-hitwhistle.wav
192,192,27287,1,0,0:0:0:40:drum-hitclap.wav
448,192,27501,1,0,0:0:0:60:normal-hitclap.wav
320,192,27715,1,0,0:0:0:60:normal-hitclap.wav
192,192,27929,1,0,0:0:0:60:normal-hitclap.wav
64,192,28144,1,0,0:0:0:40:drum-hitclap.wav
448,192,28572,1,0,0:0:0:60:drum-hitfinish.wav
192,192,29001,1,0,0:0:0:40:drum-hitclap.wav
320,192,29429,1,0,0:0:0:40:drum-hitclap.wav
64,192,29858,1,0,0:0:0:40:drum-hitclap.wav
448,192,30072,1,0,0:0:0:40:drum-hitclap.wav
448,192,30501,1,0,0:0:0:60:normal-hitclap.wav
64,192,30929,128,0,31787:0:0:0:60:normal-hitclap.wav
448,192,31787,1,0,0:0:0:60:normal-hitclap.wav
320,192,32215,1,0,0:0:0:50:normal-hitwhistle.wav
192,192,32644,1,0,0:0:0:0:
64,192,33072,1,0,0:0:0:40:drum-hitclap.wav
448,192,33501,1,0,0:0:0:60:normal-hitclap.wav
64,192,33929,1,0,0:0:0:40:drum-hitclap.wav
320,192,34358,1,0,0:0:0:60:normal-hitclap.wav
192,192,34787,1,0,0:0:0:60:normal-hitclap.wav
320,192,35001,1,0,0:0:0:40:drum-hitclap.wav
448,192,35215,1,0,0:0:0:60:normal-hitclap.wav
64,192,35644,1,0,0:0:0:40:drum-hitclap.wav
192,192,36072,1,0,0:0:0:60:normal-hitclap.wav
448,192,36501,1,0,0:0:0:40:drum-hitclap.wav
320,192,36715,1,0,0:0:0:40:drum-hitclap.wav
64,192,36929,1,0,0:0:0:60:normal-hitclap.wav
192,192,37358,1,0,0:0:0:50:normal-hitwhistle.wav
320,192,37787,1,0,0:0:0:0:
448,192,38215,1,0,0:0:0:40:drum-hitclap.wav
64,192,38644,1,0,0:0:0:60:normal-hitclap.wav
64,192,39072,1,0,0:0:0:60:normal-hitclap.wav
320,192,39501,1,0,0:0:0:60:normal-hitclap.wav
64,192,39715,1,0,0:0:0:60:normal-hitclap.wav
320,192,39929,1,0,0:0:0:60:normal-hitclap.wav
192,192,40358,1,0,0:0:0:60:normal-hitclap.wav
448,192,40572,1,0,0:0:0:60:normal-hitclap.wav
64,192,40787,1,0,0:0:0:60:normal-hitclap.wav
320,192,41215,128,0,42072:0:0:0:60:normal-hitclap.wav
64,192,42072,1,0,0:0:0:60:normal-hitclap.wav
192,192,42501,1,0,0:0:0:60:normal-hitclap.wav
448,192,42929,1,0,0:0:0:60:normal-hitclap.wav
320,192,43144,1,0,0:0:0:60:normal-hitclap.wav
192,192,43358,128,0,43787:0:0:0:0:
448,192,43787,1,0,0:0:0:60:normal-hitclap.wav
64,192,44215,1,0,0:0:0:60:normal-hitclap.wav
320,192,44644,128,0,44858:0:0:0:40:drum-hitclap.wav
64,192,45072,1,0,0:0:0:0:
448,192,45501,1,0,0:0:0:40:drum-hitclap.wav
192,192,45929,1,0,0:0:0:40:drum-hitclap.wav
320,192,46358,1,0,0:0:0:40:drum-hitclap.wav
320,192,46787,1,0,0:0:0:40:drum-hitclap.wav
64,192,47215,1,0,0:0:0:40:drum-hitclap.wav
448,192,47644,1,0,0:0:0:40:drum-hitclap.wav
192,192,48072,1,0,0:0:0:40:drum-hitclap.wav
192,192,48501,1,0,0:0:0:40:drum-hitclap.wav
448,192,48929,1,0,0:0:0:40:drum-hitclap.wav
320,192,49144,1,0,0:0:0:40:drum-hitclap.wav
192,192,49358,1,0,0:0:0:40:drum-hitclap.wav
64,192,49572,1,0,0:0:0:40:drum-hitclap.wav
448,192,49787,1,0,0:0:0:40:drum-hitclap.wav
320,192,50001,1,0,0:0:0:40:drum-hitclap.wav
192,192,50215,1,0,0:0:0:40:drum-hitclap.wav
64,192,50429,1,0,0:0:0:40:drum-hitclap.wav
320,192,50644,1,0,0:0:0:40:drum-hitclap.wav
448,192,50858,1,0,0:0:0:40:drum-hitclap.wav
192,192,51072,1,0,0:0:0:40:drum-hitclap.wav
320,192,51287,1,0,0:0:0:40:drum-hitclap.wav
64,192,51501,1,0,0:0:0:0:
448,192,52358,1,0,0:0:0:0:
320,192,57501,5,0,0:0:0:60:normal-hitfinish.wav
448,192,57501,1,0,0:0:0:50:normal-hitwhistle.wav
192,192,58358,1,0,0:0:0:60:drum-hitfinish.wav
64,192,58358,1,0,0:0:0:50:normal-hitwhistle.wav
320,192,59215,1,0,0:0:0:60:normal-hitfinish.wav
448,192,59215,1,0,0:0:0:50:normal-hitwhistle.wav
192,192,60072,1,0,0:0:0:0:
64,192,60929,1,0,0:0:0:50:drum-hitclap.wav
448,192,60929,128,0,61787:0:0:0:60:normal-hitfinish.wav
320,192,61787,1,0,0:0:0:50:normal-hitwhistle.wav
64,192,61787,128,0,62644:0:0:0:0:
448,192,62644,128,0,63501:0:0:0:50:drum-hitclap.wav
320,192,62644,1,0,0:0:0:0:
192,192,63501,1,0,0:0:0:50:normal-hitwhistle.wav
64,192,63501,1,0,0:0:0:0:
64,192,64358,128,0,65215:0:0:0:50:drum-hitclap.wav
448,192,64358,1,0,0:0:0:0:
192,192,65215,1,0,0:0:0:50:normal-hitwhistle.wav
448,192,65215,128,0,66072:0:0:0:0:
64,192,66072,128,0,66929:0:0:0:50:drum-hitclap.wav
320,192,66072,1,0,0:0:0:0:
192,192,66929,1,0,0:0:0:50:normal-hitwhistle.wav
448,192,66929,1,0,0:0:0:0:
64,192,67787,1,0,0:0:0:50:drum-hitclap.wav
320,192,67787,128,0,68644:0:0:0:0:
192,192,68644,128,0,69501:0:0:0:50:normal-hitwhistle.wav
448,192,68644,1,0,0:0:0:0:
64,192,69501,1,0,0:0:0:50:drum-hitclap.wav
448,192,69501,128,0,70358:0:0:0:0:
64,192,70358,1,0,0:0:0:50:normal-hitwhistle.wav
192,192,70358,1,0,0:0:0:0:
448,192,71215,1,0,0:0:0:50:drum-hitclap.wav
192,192,71215,128,0,72072:0:0:0:0:
320,192,72072,128,0,72929:0:0:0:50:normal-hitwhistle.wav
64,192,72072,1,0,0:0:0:0:
448,192,72929,1,0,0:0:0:50:drum-hitclap.wav
64,192,72929,128,0,73787:0:0:0:0:
448,192,74644,1,0,0:0:0:40:drum-hitclap.wav
320,192,74858,1,0,0:0:0:60:normal-hitclap.wav
192,192,75072,1,0,0:0:0:60:normal-hitclap.wav
64,192,75287,1,0,0:0:0:40:drum-hitclap.wav
448,192,75501,1,0,0:0:0:40:drum-hitclap.wav
320,192,75715,1,0,0:0:0:40:drum-hitclap.wav
192,192,75929,128,0,76144:0:0:0:60:normal-hitclap.wav
64,192,76358,1,0,0:0:0:60:normal-hitclap.wav
320,192,76572,1,0,0:0:0:40:drum-hitclap.wav
192,192,76787,1,0,0:0:0:40:drum-hitclap.wav
448,192,77001,1,0,0:0:0:40:drum-hitclap.wav
320,192,77215,128,0,78072:0:0:0:40:drum-hitclap.wav
64,192,78072,1,0,0:0:0:60:normal-hitclap.wav
192,192,78287,1,0,0:0:0:40:drum-hitclap.wav
448,192,78501,1,0,0:0:0:40:drum-hitclap.wav
320,192,78715,1,0,0:0:0:40:drum-hitclap.wav
192,192,78929,1,0,0:0:0:60:normal-hitclap.wav
64,192,79144,1,0,0:0:0:40:drum-hitclap.wav
448,192,79358,128,0,79572:0:0:0:40:drum-hitclap.wav
192,192,79787,1,0,0:0:0:40:drum-hitclap.wav
448,192,80001,1,0,0:0:0:40:drum-hitclap.wav
64,192,80215,1,0,0:0:0:60:normal-hitclap.wav
320,192,80429,1,0,0:0:0:40:drum-hitclap.wav
64,192,80644,128,0,81072:0:0:0:40:drum-hitclap.wav
448,192,81501,1,0,0:0:0:40:drum-hitclap.wav
448,192,81715,1,0,0:0:0:40:drum-hitclap.wav
192,192,81929,1,0,0:0:0:60:normal-hitclap.wav
320,192,82144,1,0,0:0:0:60:normal-hitclap.wav
64,192,82358,1,0,0:0:0:40:drum-hitclap.wav
64,192,82572,1,0,0:0:0:60:normal-hitclap.wav
320,192,82787,1,0,0:0:0:40:drum-hitclap.wav
192,192,83001,1,0,0:0:0:60:normal-hitclap.wav
320,192,83215,1,0,0:0:0:40:drum-hitclap.wav
320,192,83429,1,0,0:0:0:40:drum-hitclap.wav
64,192,83644,1,0,0:0:0:60:normal-hitclap.wav
448,192,83858,1,0,0:0:0:40:drum-hitclap.wav
192,192,84072,1,0,0:0:0:60:normal-hitclap.wav
192,192,84287,1,0,0:0:0:60:normal-hitclap.wav
320,192,84929,128,0,86644:0:0:0:40:drum-hitclap.wav
192,192,85787,128,0,86644:0:0:0:40:drum-hitclap.wav
64,192,86644,1,0,0:0:0:60:normal-hitclap.wav
448,192,87929,128,0,88358:0:0:0:40:drum-hitclap.wav
64,192,88358,1,0,0:0:0:60:drum-hitfinish.wav
192,192,88679,1,0,0:0:0:0:
320,192,89001,1,0,0:0:0:50:normal-hitwhistle.wav
448,192,89429,1,0,0:0:0:50:normal-hitwhistle.wav
320,192,89644,1,0,0:0:0:60:normal-hitclap.wav
192,192,89858,1,0,0:0:0:50:normal-hitwhistle.wav
448,192,90072,1,0,0:0:0:60:normal-hitclap.wav
64,192,90287,1,0,0:0:0:50:normal-hitwhistle.wav
320,192,90501,1,0,0:0:0:60:normal-hitclap.wav
192,192,90715,1,0,0:0:0:50:normal-hitwhistle.wav
64,192,91144,1,0,0:0:0:50:normal-hitwhistle.wav
192,192,91358,1,0,0:0:0:60:normal-hitclap.wav
320,192,91572,1,0,0:0:0:50:normal-hitwhistle.wav
64,192,91787,1,0,0:0:0:60:normal-hitclap.wav
448,192,92108,1,0,0:0:0:0:
192,192,92429,1,0,0:0:0:50:normal-hitwhistle.wav
320,192,92858,1,0,0:0:0:50:normal-hitwhistle.wav
64,192,93072,1,0,0:0:0:60:normal-hitclap.wav
192,192,93287,1,0,0:0:0:50:normal-hitwhistle.wav
320,192,93501,1,0,0:0:0:60:normal-hitclap.wav
320,192,93822,1,0,0:0:0:0:
448,192,94144,1,0,0:0:0:50:normal-hitwhistle.wav
64,192,94572,1,0,0:0:0:50:normal-hitwhistle.wav
192,192,94787,1,0,0:0:0:60:normal-hitclap.wav
320,192,95001,1,0,0:0:0:50:normal-hitwhistle.wav
64,192,95215,1,0,0:0:0:60:normal-hitclap.wav
64,192,95429,1,0,0:0:0:50:normal-hitwhistle.wav
448,192,95644,1,0,0:0:0:60:normal-hitclap.wav
448,192,95858,1,0,0:0:0:50:normal-hitwhistle.wav
192,192,96072,1,0,0:0:0:60:normal-hitclap.wav
192,192,96287,1,0,0:0:0:60:normal-hitclap.wav
320,192,96501,1,0,0:0:0:60:normal-hitclap.wav
320,192,96715,1,0,0:0:0:60:normal-hitclap.wav
64,192,96929,1,0,0:0:0:60:normal-hitclap.wav
192,192,97144,1,0,0:0:0:50:normal-hitwhistle.wav
448,192,97358,1,0,0:0:0:40:drum-hitclap.wav
320,192,97572,1,0,0:0:0:50:normal-hitwhistle.wav
448,192,98001,1,0,0:0:0:50:normal-hitwhistle.wav
320,192,98215,1,0,0:0:0:60:normal-hitclap.wav
192,192,98429,1,0,0:0:0:50:normal-hitwhistle.wav
64,192,98644,1,0,0:0:0:60:normal-hitclap.wav
448,192,98965,1,0,0:0:0:0:
192,192,99287,1,0,0:0:0:50:normal-hitwhistle.wav
448,192,99715,1,0,0:0:0:50:normal-hitwhistle.wav
320,192,99929,1,0,0:0:0:60:normal-hitclap.wav
64,192,100358,1,0,0:0:0:60:normal-hitclap.wav
192,192,100572,1,0,0:0:0:40:drum-hitclap.wav
448,192,100787,1,0,0:0:0:60:normal-hitclap.wav
320,192,101001,1,0,0:0:0:40:drum-hitclap.wav
192,192,101215,128,0,102072:0:0:0:40:drum-hitclap.wav
448,192,102072,1,0,0:0:0:60:drum-hitfinish.wav
320,192,102394,1,0,0:0:0:0:
192,192,102715,1,0,0:0:0:50:normal-hitwhistle.wav
64,192,103144,1,0,0:0:0:50:normal-hitwhistle.wav
192,192,103358,1,0,0:0:0:60:normal-hitclap.wav
320,192,103572,1,0,0:0:0:50:normal-hitwhistle.wav
64,192,103787,1,0,0:0:0:60:normal-hitclap.wav
448,192,104001,1,0,0:0:0:50:normal-hitwhistle.wav
192,192,104215,1,0,0:0:0:60:normal-hitclap.wav
320,192,104429,1,0,0:0:0:50:normal-hitwhistle.wav
448,192,104858,1,0,0:0:0:50:normal-hitwhistle.wav
320,192,105072,1,0,0:0:0:60:normal-hitclap.wav
192,192,105287,1,0,0:0:0:50:normal-hitwhistle.wav
448,192,105501,1,0,0:0:0:60:normal-hitclap.wav
64,192,105822,1,0,0:0:0:0:
320,192,106144,1,0,0:0:0:50:normal-hitwhistle.wav
192,192,106572,1,0,0:0:0:50:normal-hitwhistle.wav
448,192,106787,1,0,0:0:0:60:normal-hitclap.wav
320,192,107001,1,0,0:0:0:50:normal-hitwhistle.wav
192,192,107215,1,0,0:0:0:60:normal-hitclap.wav
448,192,107537,1,0,0:0:0:0:
64,192,107858,1,0,0:0:0:50:normal-hitwhistle.wav
320,192,108072,1,0,0:0:0:60:normal-hitclap.wav
448,192,108287,1,0,0:0:0:50:normal-hitwhistle.wav
320,192,108501,1,0,0:0:0:60:normal-hitclap.wav
192,192,108715,1,0,0:0:0:50:normal-hitwhistle.wav
64,192,108929,128,0,109144:0:0:0:40:drum-hitclap.wav
320,192,109144,1,0,0:0:0:50:normal-hitwhistle.wav
192,192,109358,128,0,109572:0:0:0:40:drum-hitclap.wav
64,192,109572,1,0,0:0:0:50:normal-hitwhistle.wav
448,192,109787,128,0,110001:0:0:0:40:drum-hitclap.wav
192,192,110001,1,0,0:0:0:50:normal-hitwhistle.wav
320,192,110215,128,0,110429:0:0:0:40:drum-hitclap.wav
448,192,110429,1,0,0:0:0:50:normal-hitwhistle.wav
64,192,110644,128,0,111072:0:0:0:40:drum-hitclap.wav
192,192,111072,128,0,111501:0:0:0:40:drum-hitclap.wav
320,192,111501,128,0,111929:0:0:0:40:drum-hitclap.wav
64,192,111929,1,0,0:0:0:0:
192,192,112144,1,0,0:0:0:0:
320,192,112358,1,0,0:0:0:0:
192,192,112679,1,0,0:0:0:0:
64,192,113001,1,0,0:0:0:0:
448,192,114072,1,0,0:0:0:60:drum-hitfinish.wav
64,192,114072,1,0,0:0:0:60:normal-hitclap.wav
320,192,114929,1,0,0:0:0:0:
192,192,115787,1,0,0:0:0:0:
320,192,116429,128,0,117501:0:0:0:60:normal-hitclap.wav
192,192,117501,1,0,0:0:0:60:drum-hitfinish.wav
64,192,117501,1,0,0:0:0:60:normal-hitfinish.wav
