osu file format v14

[General]
AudioFilename: audio.mp3
AudioLeadIn: 0
PreviewTime: 18072
Countdown: 0
SampleSet: Soft
StackLeniency: 0.7
Mode: 3
LetterboxInBreaks: 0
SpecialStyle: 0
WidescreenStoryboard: 0

[Editor]
Bookmarks: 24929,46358
DistanceSpacing: 1.3
BeatDivisor: 4
GridSize: 4
TimelineZoom: 1.8

[Metadata]
Title:iLLness LiLin
TitleUnicode:iLLness LiLin
Artist:Kaneko Chiharu
ArtistUnicode:かねこちはる
Creator:Fresh Chicken
Version:ADVANCED
Source:SOUND VOLTEX IV HEAVENLY HAVEN
Tags:The 6th KAC Original Song Contest Winner Aonasai jakads Pirates Rasis Grace Hardcore Piano SDVX 4
BeatmapID:1244694
BeatmapSetID:587269

[Difficulty]
HPDrainRate:7.5
CircleSize:4
OverallDifficulty:7.5
ApproachRate:5
SliderMultiplier:1.4
SliderTickRate:1

[Events]
//Background and Video events
0,0,"170317_1_1.png",0,0
//Break Periods
//Storyboard Layer 0 (Background)
//Storyboard Layer 1 (Fail)
//Storyboard Layer 2 (Pass)
//Storyboard Layer 3 (Foreground)
//Storyboard Sound Samples
Sample,11322,0,"normal-hitclap.wav",60
Sample,11965,0,"normal-hitclap.wav",60
Sample,12608,0,"normal-hitclap.wav",60
Sample,13251,0,"normal-hitclap.wav",60
Sample,13894,0,"normal-hitclap.wav",60
Sample,14537,0,"normal-hitclap.wav",60
Sample,14804,0,"normal-hitclap.wav",60
Sample,15019,0,"normal-hitclap.wav",60
Sample,15233,0,"normal-hitclap.wav",60
Sample,15447,0,"normal-hitclap.wav",60
Sample,15662,0,"normal-hitclap.wav",60
Sample,15876,0,"normal-hitclap.wav",60
Sample,16090,0,"normal-hitclap.wav",60
Sample,16304,0,"normal-hitclap.wav",60
Sample,18072,0,"drum-hitclap.wav",40
Sample,19787,0,"normal-hitclap.wav",60
Sample,20001,0,"normal-hitclap.wav",60
Sample,20215,0,"drum-hitclap.wav",40
Sample,20429,0,"drum-hitclap.wav",40
Sample,20644,0,"normal-hitclap.wav",60
Sample,20858,0,"normal-hitclap.wav",60
Sample,21072,0,"drum-hitclap.wav",40
Sample,23215,0,"normal-hitclap.wav",60
Sample,23429,0,"normal-hitclap.wav",60
Sample,23644,0,"drum-hitclap.wav",40
Sample,23858,0,"drum-hitclap.wav",40
Sample,24929,0,"normal-hitclap.wav",60
Sample,26644,0,"normal-hitclap.wav",60
Sample,26858,0,"drum-hitclap.wav",40
Sample,27072,0,"normal-hitclap.wav",60
Sample,27287,0,"normal-hitwhistle.wav",50
Sample,27501,0,"drum-hitclap.wav",40
Sample,27715,0,"drum-hitclap.wav",40
Sample,27822,0,"normal-hitclap.wav",60
Sample,27929,0,"drum-hitclap.wav",40
Sample,28037,0,"normal-hitclap.wav",60
Sample,28144,0,"normal-hitclap.wav",60
Sample,28251,0,"drum-hitclap.wav",40
Sample,31090,0,"drum-hitclap.wav",40
Sample,31304,0,"drum-hitclap.wav",40
Sample,31519,0,"drum-hitclap.wav",40
Sample,31733,0,"drum-hitclap.wav",40
Sample,32804,0,"normal-hitclap.wav",60
Sample,33501,0,"normal-hitfinish.wav",60
Sample,35215,0,"drum-hitclap.wav",40
Sample,35429,0,"normal-hitclap.wav",60
Sample,35644,0,"normal-hitclap.wav",60
Sample,35858,0,"drum-hitclap.wav",40
Sample,37947,0,"normal-hitclap.wav",60
Sample,44162,0,"normal-hitclap.wav",60
Sample,44376,0,"drum-hitclap.wav",40
Sample,44697,0,"drum-hitclap.wav",40
Sample,44751,0,"drum-hitclap.wav",40
Sample,44804,0,"drum-hitclap.wav",40
Sample,45019,0,"drum-hitclap.wav",40
Sample,45608,0,"normal-hitclap.wav",60
Sample,46251,0,"normal-hitclap.wav",60
Sample,46894,0,"normal-hitclap.wav",60
Sample,47537,0,"normal-hitclap.wav",60
Sample,48179,0,"normal-hitclap.wav",60
Sample,49090,0,"drum-hitclap.wav",40
Sample,49304,0,"drum-hitclap.wav",40
Sample,49519,0,"drum-hitclap.wav",40
Sample,49733,0,"drum-hitclap.wav",40
Sample,49947,0,"drum-hitclap.wav",40
Sample,50162,0,"drum-hitclap.wav",40
Sample,50376,0,"drum-hitclap.wav",40
Sample,50590,0,"drum-hitclap.wav",40
Sample,50804,0,"drum-hitclap.wav",40
Sample,51019,0,"drum-hitclap.wav",40
Sample,51233,0,"drum-hitclap.wav",40
Sample,51447,0,"drum-hitclap.wav",40
Sample,57501,0,"drum-hitfinish.wav",60
Sample,58358,0,"normal-hitfinish.wav",60
Sample,59215,0,"drum-hitfinish.wav",60
Sample,74644,0,"normal-hitfinish.wav",60
Sample,74751,0,"drum-hitclap.wav",40
Sample,74965,0,"normal-hitclap.wav",60
Sample,75179,0,"normal-hitclap.wav",60
Sample,75394,0,"drum-hitclap.wav",40
Sample,75608,0,"drum-hitclap.wav",40
Sample,75822,0,"drum-hitclap.wav",40
Sample,76037,0,"normal-hitclap.wav",60
Sample,76144,0,"drum-hitclap.wav",40
Sample,76465,0,"normal-hitclap.wav",60
Sample,76894,0,"drum-hitclap.wav",40
Sample,77376,0,"drum-hitclap.wav",40
Sample,77590,0,"drum-hitclap.wav",40
Sample,77804,0,"drum-hitclap.wav",40
Sample,78019,0,"drum-hitclap.wav",40
Sample,78179,0,"normal-hitclap.wav",60
Sample,78394,0,"normal-hitclap.wav",60
Sample,78608,0,"drum-hitclap.wav",40
Sample,78822,0,"normal-hitclap.wav",60
Sample,79037,0,"drum-hitclap.wav",40
Sample,79251,0,"normal-hitclap.wav",60
Sample,79465,0,"drum-hitclap.wav",40
Sample,79572,0,"drum-hitclap.wav",40
Sample,79894,0,"drum-hitclap.wav",40
Sample,80322,0,"drum-hitclap.wav",40
Sample,80804,0,"drum-hitclap.wav",40
Sample,81019,0,"drum-hitclap.wav",40
Sample,81608,0,"drum-hitclap.wav",40
Sample,81822,0,"drum-hitclap.wav",40
Sample,82037,0,"normal-hitclap.wav",60
Sample,82251,0,"drum-hitclap.wav",40
Sample,82465,0,"drum-hitclap.wav",40
Sample,82679,0,"normal-hitclap.wav",60
Sample,82894,0,"normal-hitclap.wav",60
Sample,83108,0,"normal-hitclap.wav",60
Sample,83322,0,"drum-hitclap.wav",40
Sample,83537,0,"drum-hitclap.wav",40
Sample,83751,0,"normal-hitclap.wav",60
Sample,83965,0,"drum-hitclap.wav",40
Sample,84179,0,"normal-hitclap.wav",60
Sample,84394,0,"normal-hitclap.wav",60
Sample,88090,0,"drum-hitclap.wav",40
Sample,88304,0,"drum-hitclap.wav",40
Sample,88358,0,"normal-hitclap.wav",60
Sample,95269,0,"normal-hitfinish.wav",60
Sample,96233,0,"normal-hitclap.wav",60
Sample,96447,0,"normal-hitclap.wav",60
Sample,96662,0,"normal-hitclap.wav",60
Sample,96876,0,"normal-hitclap.wav",60
Sample,101376,0,"drum-hitclap.wav",40
Sample,101590,0,"drum-hitclap.wav",40
Sample,101804,0,"drum-hitclap.wav",40
Sample,102019,0,"drum-hitclap.wav",40
Sample,102072,0,"normal-hitfinish.wav",60
Sample,102554,0,"normal-hitclap.wav",60
Sample,110804,0,"drum-hitclap.wav",40
Sample,111019,0,"drum-hitclap.wav",40
Sample,111233,0,"drum-hitclap.wav",40
Sample,111447,0,"drum-hitclap.wav",40
Sample,111662,0,"drum-hitclap.wav",40
Sample,111876,0,"drum-hitclap.wav",40
Sample,116590,0,"normal-hitclap.wav",60
Sample,116804,0,"drum-hitclap.wav",40
Sample,117019,0,"drum-hitclap.wav",40
Sample,117233,0,"drum-hitclap.wav",40
Sample,117447,0,"drum-hitclap.wav",40
Sample,117501,0,"drum-hitclap.wav",40

[TimingPoints]
930,214.285714285714,4,2,0,30,1,0

[HitObjects]
448,192,930,5,0,0:0:0:60:normal-hitclap.wav
64,192,930,1,0,0:0:0:60:drum-hitfinish.wav
320,192,1144,1,0,0:0:0:0:
192,192,1215,1,0,0:0:0:0:
64,192,1287,1,0,0:0:0:0:
192,192,1358,1,0,0:0:0:0:
320,192,1429,1,0,0:0:0:0:
448,192,1501,1,0,0:0:0:0:
64,192,1572,1,0,0:0:0:0:
192,192,1644,1,0,0:0:0:0:
320,192,1715,1,0,0:0:0:0:
448,192,1787,1,0,0:0:0:0:
320,192,1858,1,0,0:0:0:0:
192,192,1929,1,0,0:0:0:0:
64,192,2001,1,0,0:0:0:0:
448,192,2072,1,0,0:0:0:0:
320,192,2144,1,0,0:0:0:0:
192,192,2215,1,0,0:0:0:0:
64,192,2287,1,0,0:0:0:0:
192,192,2358,1,0,0:0:0:0:
320,192,2429,1,0,0:0:0:0:
448,192,2501,1,0,0:0:0:0:
64,192,2572,1,0,0:0:0:0:
192,192,2644,1,0,0:0:0:0:
320,192,2697,1,0,0:0:0:0:
448,192,2751,1,0,0:0:0:0:
64,192,2858,1,0,0:0:0:0:
192,192,2912,1,0,0:0:0:0:
320,192,2965,1,0,0:0:0:0:
192,192,3072,1,0,0:0:0:0:
320,192,3126,1,0,0:0:0:0:
448,192,3179,1,0,0:0:0:0:
64,192,3287,1,0,0:0:0:0:
192,192,3340,1,0,0:0:0:0:
320,192,3394,1,0,0:0:0:0:
448,192,3501,1,0,0:0:0:40:drum-hitclap.wav
320,192,3554,1,0,0:0:0:40:drum-hitclap.wav
64,192,3608,1,0,0:0:0:40:drum-hitclap.wav
192,192,3662,1,0,0:0:0:40:drum-hitclap.wav
448,192,3715,1,0,0:0:0:40:drum-hitclap.wav
320,192,3769,1,0,0:0:0:40:drum-hitclap.wav
64,192,3822,1,0,0:0:0:40:drum-hitclap.wav
192,192,3876,1,0,0:0:0:40:drum-hitclap.wav
320,192,3929,1,0,0:0:0:40:drum-hitclap.wav
448,192,3929,1,0,0:0:0:0:
192,192,4358,1,0,0:0:0:60:normal-hitclap.wav
64,192,4358,1,0,0:0:0:60:normal-hitfinish.wav
448,192,4572,1,0,0:0:0:60:normal-hitclap.wav
320,192,4679,1,0,0:0:0:0:
192,192,4787,1,0,0:0:0:60:normal-hitclap.wav
64,192,4894,1,0,0:0:0:0:
448,192,5001,1,0,0:0:0:60:normal-hitclap.wav
64,192,5215,1,0,0:0:0:60:normal-hitclap.wav
192,192,5322,1,0,0:0:0:0:
320,192,5429,1,0,0:0:0:60:normal-hitclap.wav
448,192,5537,1,0,0:0:0:0:
64,192,5644,1,0,0:0:0:60:normal-hitclap.wav
448,192,5858,1,0,0:0:0:60:normal-hitclap.wav
320,192,5965,1,0,0:0:0:0:
192,192,6072,1,0,0:0:0:60:normal-hitclap.wav
64,192,6179,1,0,0:0:0:0:
448,192,6287,1,0,0:0:0:60:normal-hitclap.wav
64,192,6501,1,0,0:0:0:60:normal-hitclap.wav
192,192,6608,1,0,0:0:0:0:
320,192,6715,1,0,0:0:0:60:normal-hitclap.wav
448,192,6822,1,0,0:0:0:0:
64,192,6929,1,0,0:0:0:60:normal-hitclap.wav
448,192,7144,1,0,0:0:0:60:normal-hitclap.wav
320,192,7251,1,0,0:0:0:0:
192,192,7358,1,0,0:0:0:60:normal-hitclap.wav
448,192,7465,1,0,0:0:0:0:
64,192,7572,1,0,0:0:0:60:normal-hitclap.wav
192,192,7679,1,0,0:0:0:0:
320,192,7787,1,0,0:0:0:60:normal-hitclap.wav
64,192,7894,1,0,0:0:0:0:
448,192,8001,1,0,0:0:0:60:normal-hitclap.wav
192,192,8108,1,0,0:0:0:0:
320,192,8215,1,0,0:0:0:60:normal-hitclap.wav
192,192,8322,1,0,0:0:0:0:
64,192,8429,1,0,0:0:0:60:normal-hitclap.wav
320,192,8644,1,0,0:0:0:60:normal-hitclap.wav
448,192,8751,1,0,0:0:0:0:
192,192,8858,1,0,0:0:0:60:normal-hitclap.wav
320,192,8965,1,0,0:0:0:0:
64,192,9072,1,0,0:0:0:60:normal-hitclap.wav
192,192,9287,1,0,0:0:0:60:normal-hitclap.wav
64,192,9394,1,0,0:0:0:0:
320,192,9501,1,0,0:0:0:60:normal-hitclap.wav
192,192,9608,1,0,0:0:0:0:
448,192,9715,1,0,0:0:0:60:normal-hitclap.wav
64,192,9929,1,0,0:0:0:60:normal-hitclap.wav
192,192,10037,1,0,0:0:0:0:
320,192,10144,1,0,0:0:0:60:normal-hitclap.wav
192,192,10251,1,0,0:0:0:0:
448,192,10358,1,0,0:0:0:40:drum-hitclap.wav
320,192,10412,1,0,0:0:0:40:drum-hitclap.wav
192,192,10465,1,0,0:0:0:40:drum-hitclap.wav
64,192,10519,1,0,0:0:0:40:drum-hitclap.wav
448,192,10572,1,0,0:0:0:40:drum-hitclap.wav
64,192,10679,1,0,0:0:0:40:drum-hitclap.wav
192,192,10733,1,0,0:0:0:40:drum-hitclap.wav
320,192,10787,1,0,0:0:0:40:drum-hitclap.wav
448,192,10840,1,0,0:0:0:40:drum-hitclap.wav
64,192,10894,1,0,0:0:0:40:drum-hitclap.wav
448,192,11001,1,0,0:0:0:40:drum-hitclap.wav
320,192,11054,1,0,0:0:0:40:drum-hitclap.wav
192,192,11108,1,0,0:0:0:40:drum-hitclap.wav
64,192,11162,1,0,0:0:0:40:drum-hitclap.wav
320,192,11215,1,0,0:0:0:40:drum-hitclap.wav
448,192,11215,1,0,0:0:0:60:normal-hitfinish.wav
64,192,11429,1,0,0:0:0:60:normal-hitclap.wav
448,192,11429,1,0,0:0:0:0:
192,192,11537,1,0,0:0:0:60:normal-hitclap.wav
320,192,11644,1,0,0:0:0:60:normal-hitclap.wav
192,192,11751,1,0,0:0:0:60:normal-hitclap.wav
64,192,11858,1,0,0:0:0:60:normal-hitclap.wav
448,192,11858,1,0,0:0:0:0:
448,192,12072,1,0,0:0:0:60:normal-hitclap.wav
64,192,12072,1,0,0:0:0:0:
320,192,12179,1,0,0:0:0:60:normal-hitclap.wav
192,192,12287,1,0,0:0:0:60:normal-hitclap.wav
320,192,12394,1,0,0:0:0:60:normal-hitclap.wav
64,192,12501,1,0,0:0:0:60:normal-hitclap.wav
448,192,12501,1,0,0:0:0:0:
320,192,12715,1,0,0:0:0:60:normal-hitclap.wav
448,192,12715,1,0,0:0:0:0:
192,192,12822,1,0,0:0:0:60:normal-hitclap.wav
64,192,12929,1,0,0:0:0:60:normal-hitclap.wav
320,192,13037,1,0,0:0:0:60:normal-hitclap.wav
192,192,13144,1,0,0:0:0:60:normal-hitclap.wav
64,192,13144,1,0,0:0:0:0:
64,192,13358,1,0,0:0:0:60:normal-hitclap.wav
192,192,13358,1,0,0:0:0:0:
320,192,13465,1,0,0:0:0:60:normal-hitclap.wav
448,192,13572,1,0,0:0:0:60:normal-hitclap.wav
192,192,13679,1,0,0:0:0:60:normal-hitclap.wav
320,192,13787,1,0,0:0:0:60:normal-hitclap.wav
448,192,13787,1,0,0:0:0:0:
192,192,14001,1,0,0:0:0:60:normal-hitclap.wav
64,192,14001,1,0,0:0:0:0:
448,192,14108,1,0,0:0:0:60:normal-hitclap.wav
320,192,14215,1,0,0:0:0:60:normal-hitclap.wav
192,192,14322,1,0,0:0:0:60:normal-hitclap.wav
320,192,14429,1,0,0:0:0:60:normal-hitclap.wav
448,192,14429,1,0,0:0:0:0:
64,192,14644,1,0,0:0:0:60:normal-hitclap.wav
192,192,14697,1,0,0:0:0:60:normal-hitclap.wav
320,192,14751,1,0,0:0:0:60:normal-hitclap.wav
192,192,14858,1,0,0:0:0:60:normal-hitclap.wav
320,192,14912,1,0,0:0:0:60:normal-hitclap.wav
448,192,14965,1,0,0:0:0:60:normal-hitclap.wav
64,192,15072,1,0,0:0:0:60:normal-hitclap.wav
192,192,15126,1,0,0:0:0:60:normal-hitclap.wav
320,192,15179,1,0,0:0:0:60:normal-hitclap.wav
448,192,15287,1,0,0:0:0:60:normal-hitclap.wav
320,192,15340,1,0,0:0:0:60:normal-hitclap.wav
192,192,15394,1,0,0:0:0:60:normal-hitclap.wav
448,192,15501,1,0,0:0:0:60:normal-hitclap.wav
320,192,15554,1,0,0:0:0:60:normal-hitclap.wav
192,192,15608,1,0,0:0:0:60:normal-hitclap.wav
320,192,15715,1,0,0:0:0:60:normal-hitclap.wav
192,192,15769,1,0,0:0:0:60:normal-hitclap.wav
64,192,15822,1,0,0:0:0:60:normal-hitclap.wav
448,192,15929,1,0,0:0:0:60:normal-hitclap.wav
320,192,15983,1,0,0:0:0:60:normal-hitclap.wav
192,192,16037,1,0,0:0:0:60:normal-hitclap.wav
64,192,16144,1,0,0:0:0:60:normal-hitclap.wav
192,192,16197,1,0,0:0:0:60:normal-hitclap.wav
320,192,16251,1,0,0:0:0:60:normal-hitclap.wav
448,192,16358,1,0,0:0:0:0:
320,192,16429,1,0,0:0:0:0:
192,192,16501,1,0,0:0:0:0:
64,192,16572,1,0,0:0:0:0:
448,192,16644,1,0,0:0:0:0:
320,192,16715,1,0,0:0:0:0:
192,192,16787,1,0,0:0:0:0:
64,192,16858,1,0,0:0:0:0:
448,192,16929,1,0,0:0:0:0:
320,192,17001,1,0,0:0:0:0:
192,192,17072,1,0,0:0:0:0:
64,192,17144,1,0,0:0:0:0:
448,192,17215,1,0,0:0:0:40:drum-hitclap.wav
320,192,17269,1,0,0:0:0:40:drum-hitclap.wav
64,192,17322,1,0,0:0:0:40:drum-hitclap.wav
192,192,17376,1,0,0:0:0:40:drum-hitclap.wav
448,192,17429,1,0,0:0:0:40:drum-hitclap.wav
320,192,17483,1,0,0:0:0:40:drum-hitclap.wav
64,192,17537,1,0,0:0:0:40:drum-hitclap.wav
192,192,17590,1,0,0:0:0:40:drum-hitclap.wav
448,192,17644,1,0,0:0:0:40:drum-hitclap.wav
320,192,17697,1,0,0:0:0:40:drum-hitclap.wav
64,192,17751,1,0,0:0:0:40:drum-hitclap.wav
192,192,17804,1,0,0:0:0:40:drum-hitclap.wav
320,192,17858,1,0,0:0:0:60:drum-hitfinish.wav
448,192,17858,1,0,0:0:0:50:normal-hitwhistle.wav
192,192,18072,1,0,0:0:0:60:normal-hitclap.wav
64,192,18072,1,0,0:0:0:60:normal-hitfinish.wav
192,192,18287,1,0,0:0:0:60:normal-hitclap.wav
64,192,18287,1,0,0:0:0:40:drum-hitclap.wav
320,192,18501,1,0,0:0:0:60:normal-hitclap.wav
448,192,18501,1,0,0:0:0:40:drum-hitclap.wav
448,192,18715,1,0,0:0:0:60:normal-hitclap.wav
192,192,18715,1,0,0:0:0:40:drum-hitclap.wav
320,192,18929,1,0,0:0:0:60:normal-hitclap.wav
192,192,18929,1,0,0:0:0:40:drum-hitclap.wav
320,192,19144,1,0,0:0:0:60:normal-hitclap.wav
192,192,19144,1,0,0:0:0:40:drum-hitclap.wav
448,192,19358,1,0,0:0:0:60:normal-hitclap.wav
64,192,19358,1,0,0:0:0:40:drum-hitclap.wav
448,192,19572,1,0,0:0:0:60:normal-hitclap.wav
64,192,19572,1,0,0:0:0:40:drum-hitclap.wav
192,192,19787,1,0,0:0:0:40:drum-hitclap.wav
320,192,19894,1,0,0:0:0:0:
192,192,20001,1,0,0:0:0:40:drum-hitclap.wav
320,192,20108,1,0,0:0:0:0:
448,192,20215,1,0,0:0:0:60:normal-hitclap.wav
64,192,20322,1,0,0:0:0:0:
448,192,20429,1,0,0:0:0:60:normal-hitclap.wav
64,192,20537,1,0,0:0:0:0:
320,192,20644,1,0,0:0:0:40:drum-hitclap.wav
192,192,20751,1,0,0:0:0:0:
320,192,20858,1,0,0:0:0:40:drum-hitclap.wav
192,192,20965,1,0,0:0:0:0:
448,192,21072,1,0,0:0:0:60:normal-hitclap.wav
192,192,21179,1,0,0:0:0:0:
64,192,21287,1,0,0:0:0:40:drum-hitclap.wav
448,192,21287,128,0,21501:0:0:0:60:normal-hitclap.wav
192,192,21501,1,0,0:0:0:60:normal-hitclap.wav
64,192,21501,1,0,0:0:0:40:drum-hitclap.wav
192,192,21715,1,0,0:0:0:60:normal-hitclap.wav
64,192,21715,1,0,0:0:0:40:drum-hitclap.wav
448,192,21929,1,0,0:0:0:40:drum-hitclap.wav
320,192,21929,128,0,22144:0:0:0:60:normal-hitclap.wav
192,192,22144,1,0,0:0:0:40:drum-hitclap.wav
64,192,22144,1,0,0:0:0:60:normal-hitclap.wav
192,192,22358,1,0,0:0:0:60:normal-hitclap.wav
448,192,22358,1,0,0:0:0:40:drum-hitclap.wav
448,192,22572,1,0,0:0:0:60:normal-hitclap.wav
192,192,22572,1,0,0:0:0:40:drum-hitclap.wav
320,192,22787,1,0,0:0:0:40:drum-hitclap.wav
64,192,22787,1,0,0:0:0:60:normal-hitclap.wav
192,192,23001,1,0,0:0:0:60:normal-hitclap.wav
448,192,23001,1,0,0:0:0:40:drum-hitclap.wav
320,192,23215,1,0,0:0:0:40:drum-hitclap.wav
64,192,23322,1,0,0:0:0:0:
320,192,23429,1,0,0:0:0:40:drum-hitclap.wav
64,192,23537,1,0,0:0:0:0:
192,192,23644,1,0,0:0:0:60:normal-hitclap.wav
320,192,23751,1,0,0:0:0:0:
448,192,23858,1,0,0:0:0:60:normal-hitclap.wav
320,192,23965,1,0,0:0:0:0:
64,192,24072,1,0,0:0:0:40:drum-hitclap.wav
192,192,24179,1,0,0:0:0:60:normal-hitclap.wav
448,192,24287,1,0,0:0:0:40:drum-hitclap.wav
320,192,24340,1,0,0:0:0:40:drum-hitclap.wav
192,192,24394,1,0,0:0:0:40:drum-hitclap.wav
64,192,24447,1,0,0:0:0:40:drum-hitclap.wav
448,192,24501,1,0,0:0:0:60:normal-hitclap.wav
320,192,24608,1,0,0:0:0:60:normal-hitclap.wav
64,192,24715,1,0,0:0:0:40:drum-hitclap.wav
192,192,24769,1,0,0:0:0:40:drum-hitclap.wav
320,192,24822,1,0,0:0:0:40:drum-hitclap.wav
448,192,24876,1,0,0:0:0:40:drum-hitclap.wav
64,192,24929,1,0,0:0:0:60:normal-hitfinish.wav
192,192,24929,1,0,0:0:0:40:drum-hitclap.wav
448,192,25144,1,0,0:0:0:50:normal-hitwhistle.wav
64,192,25144,1,0,0:0:0:40:drum-hitclap.wav
320,192,25358,1,0,0:0:0:60:normal-hitclap.wav
192,192,25358,1,0,0:0:0:40:drum-hitclap.wav
448,192,25572,1,0,0:0:0:50:normal-hitwhistle.wav
192,192,25572,1,0,0:0:0:40:drum-hitclap.wav
320,192,25787,1,0,0:0:0:40:drum-hitclap.wav
64,192,25787,1,0,0:0:0:60:normal-hitclap.wav
192,192,26001,1,0,0:0:0:50:normal-hitwhistle.wav
448,192,26001,1,0,0:0:0:40:drum-hitclap.wav
448,192,26215,1,0,0:0:0:60:normal-hitclap.wav
64,192,26215,1,0,0:0:0:40:drum-hitclap.wav
320,192,26429,1,0,0:0:0:50:normal-hitwhistle.wav
64,192,26429,1,0,0:0:0:40:drum-hitclap.wav
320,192,26644,1,0,0:0:0:40:drum-hitclap.wav
64,192,26751,1,0,0:0:0:0:
192,192,26858,1,0,0:0:0:50:normal-hitwhistle.wav
448,192,26965,1,0,0:0:0:0:
64,192,27072,1,0,0:0:0:40:drum-hitclap.wav
320,192,27179,1,0,0:0:0:0:
192,192,27287,1,0,0:0:0:40:drum-hitclap.wav
448,192,27394,1,0,0:0:0:0:
64,192,27501,128,0,27715:0:0:0:60:normal-hitclap.wav
320,192,27715,1,0,0:0:0:60:normal-hitclap.wav
192,192,27822,1,0,0:0:0:40:drum-hitclap.wav
448,192,27929,1,0,0:0:0:60:normal-hitclap.wav
320,192,28037,1,0,0:0:0:40:drum-hitclap.wav
192,192,28144,1,0,0:0:0:40:drum-hitclap.wav
64,192,28251,1,0,0:0:0:60:normal-hitclap.wav
448,192,28572,1,0,0:0:0:60:drum-hitfinish.wav
320,192,28572,1,0,0:0:0:40:drum-hitclap.wav
64,192,28572,1,0,0:0:0:50:normal-hitwhistle.wav
192,192,28787,1,0,0:0:0:40:drum-hitclap.wav
320,192,28787,1,0,0:0:0:60:normal-hitclap.wav
64,192,29001,1,0,0:0:0:40:drum-hitclap.wav
448,192,29001,1,0,0:0:0:50:normal-hitwhistle.wav
320,192,29215,1,0,0:0:0:60:normal-hitclap.wav
64,192,29215,1,0,0:0:0:40:drum-hitclap.wav
192,192,29429,1,0,0:0:0:40:drum-hitclap.wav
448,192,29429,1,0,0:0:0:50:normal-hitwhistle.wav
192,192,29644,1,0,0:0:0:40:drum-hitclap.wav
64,192,29644,1,0,0:0:0:60:normal-hitclap.wav
448,192,29858,1,0,0:0:0:40:drum-hitclap.wav
64,192,29858,1,0,0:0:0:50:normal-hitwhistle.wav
192,192,30072,1,0,0:0:0:40:drum-hitclap.wav
320,192,30179,1,0,0:0:0:60:normal-hitclap.wav
64,192,30287,1,0,0:0:0:40:drum-hitclap.wav
192,192,30340,1,0,0:0:0:40:drum-hitclap.wav
320,192,30394,1,0,0:0:0:40:drum-hitclap.wav
448,192,30447,1,0,0:0:0:40:drum-hitclap.wav
64,192,30501,1,0,0:0:0:60:normal-hitclap.wav
192,192,30608,1,0,0:0:0:60:normal-hitclap.wav
448,192,30715,1,0,0:0:0:40:drum-hitclap.wav
320,192,30769,1,0,0:0:0:40:drum-hitclap.wav
64,192,30822,1,0,0:0:0:40:drum-hitclap.wav
192,192,30876,1,0,0:0:0:40:drum-hitclap.wav
448,192,30929,1,0,0:0:0:60:normal-hitclap.wav
320,192,30983,1,0,0:0:0:40:drum-hitclap.wav
192,192,31037,1,0,0:0:0:40:drum-hitclap.wav
448,192,31144,1,0,0:0:0:60:normal-hitclap.wav
320,192,31197,1,0,0:0:0:40:drum-hitclap.wav
192,192,31251,1,0,0:0:0:40:drum-hitclap.wav
64,192,31358,1,0,0:0:0:60:normal-hitclap.wav
192,192,31412,1,0,0:0:0:40:drum-hitclap.wav
320,192,31465,1,0,0:0:0:40:drum-hitclap.wav
64,192,31572,1,0,0:0:0:60:normal-hitclap.wav
192,192,31626,1,0,0:0:0:40:drum-hitclap.wav
320,192,31679,1,0,0:0:0:40:drum-hitclap.wav
448,192,31787,1,0,0:0:0:60:normal-hitclap.wav
320,192,31894,1,0,0:0:0:50:normal-hitwhistle.wav
192,192,32001,1,0,0:0:0:50:normal-hitwhistle.wav
320,192,32108,1,0,0:0:0:60:normal-hitclap.wav
192,192,32215,1,0,0:0:0:50:normal-hitwhistle.wav
64,192,32322,1,0,0:0:0:50:normal-hitwhistle.wav
448,192,32429,1,0,0:0:0:60:normal-hitclap.wav
320,192,32537,1,0,0:0:0:50:normal-hitwhistle.wav
64,192,32644,1,0,0:0:0:0:
192,192,32751,1,0,0:0:0:60:normal-hitclap.wav
320,192,32858,1,0,0:0:0:60:normal-hitclap.wav
448,192,32965,1,0,0:0:0:60:normal-hitclap.wav
192,192,33072,1,0,0:0:0:40:drum-hitclap.wav
320,192,33179,1,0,0:0:0:0:
192,192,33287,1,0,0:0:0:0:
64,192,33394,1,0,0:0:0:0:
320,192,33501,1,0,0:0:0:60:normal-hitclap.wav
448,192,33501,1,0,0:0:0:40:drum-hitclap.wav
448,192,33715,1,0,0:0:0:40:drum-hitclap.wav
320,192,33715,1,0,0:0:0:60:normal-hitclap.wav
192,192,33929,1,0,0:0:0:40:drum-hitclap.wav
64,192,33929,1,0,0:0:0:60:normal-hitclap.wav
192,192,34144,1,0,0:0:0:60:normal-hitclap.wav
64,192,34144,1,0,0:0:0:40:drum-hitclap.wav
320,192,34358,1,0,0:0:0:60:normal-hitclap.wav
64,192,34358,1,0,0:0:0:40:drum-hitclap.wav
192,192,34572,1,0,0:0:0:40:drum-hitclap.wav
448,192,34572,1,0,0:0:0:50:normal-hitwhistle.wav
320,192,34787,1,0,0:0:0:60:normal-hitclap.wav
192,192,34787,1,0,0:0:0:40:drum-hitclap.wav
448,192,35001,1,0,0:0:0:40:drum-hitclap.wav
64,192,35001,1,0,0:0:0:50:normal-hitwhistle.wav
192,192,35215,1,0,0:0:0:60:normal-hitclap.wav
320,192,35322,1,0,0:0:0:0:
192,192,35429,1,0,0:0:0:40:drum-hitclap.wav
320,192,35537,1,0,0:0:0:0:
64,192,35644,1,0,0:0:0:40:drum-hitclap.wav
448,192,35751,1,0,0:0:0:0:
64,192,35858,1,0,0:0:0:60:normal-hitclap.wav
448,192,35965,1,0,0:0:0:0:
192,192,36072,1,0,0:0:0:60:normal-hitclap.wav
64,192,36072,1,0,0:0:0:40:drum-hitclap.wav
320,192,36233,1,0,0:0:0:40:drum-hitclap.wav
448,192,36233,1,0,0:0:0:60:normal-hitclap.wav
192,192,36394,1,0,0:0:0:40:drum-hitclap.wav
64,192,36394,1,0,0:0:0:60:normal-hitclap.wav
448,192,36501,1,0,0:0:0:40:drum-hitclap.wav
320,192,36554,1,0,0:0:0:40:drum-hitclap.wav
64,192,36608,1,0,0:0:0:40:drum-hitclap.wav
192,192,36662,1,0,0:0:0:40:drum-hitclap.wav
448,192,36715,1,0,0:0:0:40:drum-hitclap.wav
320,192,36769,1,0,0:0:0:40:drum-hitclap.wav
64,192,36822,1,0,0:0:0:40:drum-hitclap.wav
192,192,36876,1,0,0:0:0:40:drum-hitclap.wav
448,192,36929,1,0,0:0:0:60:normal-hitclap.wav
320,192,37037,1,0,0:0:0:50:normal-hitwhistle.wav
192,192,37144,1,0,0:0:0:50:normal-hitwhistle.wav
448,192,37251,1,0,0:0:0:60:normal-hitclap.wav
320,192,37358,1,0,0:0:0:50:normal-hitwhistle.wav
192,192,37465,1,0,0:0:0:50:normal-hitwhistle.wav
448,192,37572,1,0,0:0:0:60:normal-hitclap.wav
320,192,37679,1,0,0:0:0:50:normal-hitwhistle.wav
192,192,37787,1,0,0:0:0:0:
320,192,37894,1,0,0:0:0:60:normal-hitclap.wav
448,192,38001,1,0,0:0:0:60:normal-hitclap.wav
64,192,38108,1,0,0:0:0:60:normal-hitclap.wav
448,192,38215,1,0,0:0:0:40:drum-hitclap.wav
320,192,38287,1,0,0:0:0:0:
192,192,38358,1,0,0:0:0:0:
64,192,38429,1,0,0:0:0:0:
192,192,38501,1,0,0:0:0:0:
320,192,38572,1,0,0:0:0:0:
448,192,38644,1,0,0:0:0:60:normal-hitclap.wav
64,192,38644,1,0,0:0:0:0:
192,192,38751,1,0,0:0:0:60:normal-hitclap.wav
320,192,38858,1,0,0:0:0:60:normal-hitclap.wav
448,192,38858,1,0,0:0:0:0:
192,192,38965,1,0,0:0:0:60:normal-hitclap.wav
64,192,39072,1,0,0:0:0:60:normal-hitclap.wav
320,192,39072,1,0,0:0:0:0:
448,192,39179,1,0,0:0:0:60:normal-hitclap.wav
192,192,39287,1,0,0:0:0:60:normal-hitclap.wav
64,192,39287,1,0,0:0:0:0:
320,192,39394,1,0,0:0:0:60:normal-hitclap.wav
448,192,39501,1,0,0:0:0:60:normal-hitclap.wav
192,192,39501,1,0,0:0:0:0:
64,192,39608,1,0,0:0:0:60:normal-hitclap.wav
448,192,39715,1,0,0:0:0:60:normal-hitclap.wav
320,192,39769,1,0,0:0:0:60:normal-hitclap.wav
192,192,39822,1,0,0:0:0:60:normal-hitclap.wav
64,192,39876,1,0,0:0:0:0:
320,192,39929,1,0,0:0:0:60:normal-hitclap.wav
448,192,39929,1,0,0:0:0:0:
192,192,40037,1,0,0:0:0:60:normal-hitclap.wav
448,192,40144,1,0,0:0:0:60:normal-hitclap.wav
64,192,40144,1,0,0:0:0:0:
320,192,40251,1,0,0:0:0:60:normal-hitclap.wav
64,192,40358,1,0,0:0:0:60:normal-hitclap.wav
192,192,40412,1,0,0:0:0:60:normal-hitclap.wav
320,192,40465,1,0,0:0:0:60:normal-hitclap.wav
448,192,40519,1,0,0:0:0:60:normal-hitclap.wav
64,192,40572,1,0,0:0:0:60:normal-hitclap.wav
192,192,40626,1,0,0:0:0:60:normal-hitclap.wav
320,192,40679,1,0,0:0:0:60:normal-hitclap.wav
448,192,40733,1,0,0:0:0:60:normal-hitclap.wav
64,192,40787,1,0,0:0:0:60:normal-hitclap.wav
192,192,40787,1,0,0:0:0:0:
448,192,40894,1,0,0:0:0:60:normal-hitclap.wav
320,192,41001,1,0,0:0:0:60:normal-hitclap.wav
64,192,41001,1,0,0:0:0:0:
192,192,41108,1,0,0:0:0:60:normal-hitclap.wav
448,192,41215,1,0,0:0:0:60:normal-hitclap.wav
320,192,41287,1,0,0:0:0:60:normal-hitclap.wav
192,192,41358,1,0,0:0:0:60:normal-hitclap.wav
64,192,41429,1,0,0:0:0:60:normal-hitclap.wav
192,192,41501,1,0,0:0:0:60:normal-hitclap.wav
320,192,41572,1,0,0:0:0:60:normal-hitclap.wav
448,192,41644,1,0,0:0:0:60:normal-hitclap.wav
192,192,41715,1,0,0:0:0:60:normal-hitclap.wav
448,192,41787,1,0,0:0:0:60:normal-hitclap.wav
64,192,41858,1,0,0:0:0:60:normal-hitclap.wav
320,192,41929,1,0,0:0:0:60:normal-hitclap.wav
64,192,42001,1,0,0:0:0:60:normal-hitclap.wav
448,192,42072,1,0,0:0:0:60:normal-hitclap.wav
320,192,42072,1,0,0:0:0:0:
192,192,42179,1,0,0:0:0:60:normal-hitclap.wav
320,192,42287,1,0,0:0:0:60:normal-hitclap.wav
448,192,42287,1,0,0:0:0:0:
64,192,42394,1,0,0:0:0:60:normal-hitclap.wav
192,192,42501,1,0,0:0:0:60:normal-hitclap.wav
320,192,42501,1,0,0:0:0:0:
448,192,42608,1,0,0:0:0:60:normal-hitclap.wav
320,192,42715,1,0,0:0:0:60:normal-hitclap.wav
64,192,42715,1,0,0:0:0:0:
192,192,42822,1,0,0:0:0:60:normal-hitclap.wav
448,192,42929,1,0,0:0:0:60:normal-hitclap.wav
320,192,42983,1,0,0:0:0:60:normal-hitclap.wav
192,192,43037,1,0,0:0:0:60:normal-hitclap.wav
64,192,43090,1,0,0:0:0:0:
320,192,43144,1,0,0:0:0:60:normal-hitclap.wav
448,192,43144,1,0,0:0:0:0:
192,192,43251,1,0,0:0:0:60:normal-hitclap.wav
320,192,43358,128,0,43572:0:0:0:0:
192,192,43572,128,0,43787:0:0:0:0:
448,192,43787,1,0,0:0:0:60:normal-hitclap.wav
320,192,43787,1,0,0:0:0:0:
192,192,43894,1,0,0:0:0:60:normal-hitclap.wav
64,192,44001,1,0,0:0:0:60:normal-hitclap.wav
448,192,44054,1,0,0:0:0:60:normal-hitclap.wav
320,192,44108,1,0,0:0:0:60:normal-hitclap.wav
192,192,44215,1,0,0:0:0:60:normal-hitclap.wav
64,192,44215,1,0,0:0:0:0:
320,192,44322,128,0,44429:0:0:0:40:drum-hitclap.wav
192,192,44429,1,0,0:0:0:40:drum-hitclap.wav
64,192,44429,1,0,0:0:0:0:
448,192,44537,1,0,0:0:0:60:normal-hitclap.wav
192,192,44644,128,0,44858:0:0:0:40:drum-hitclap.wav
448,192,44858,1,0,0:0:0:60:normal-hitclap.wav
64,192,44965,128,0,45072:0:0:0:40:drum-hitclap.wav
448,192,45072,1,0,0:0:0:0:
320,192,45179,1,0,0:0:0:0:
192,192,45287,1,0,0:0:0:0:
64,192,45394,1,0,0:0:0:0:
320,192,45501,1,0,0:0:0:40:drum-hitclap.wav
448,192,45501,1,0,0:0:0:60:drum-hitfinish.wav
192,192,45715,1,0,0:0:0:40:drum-hitclap.wav
320,192,45822,1,0,0:0:0:60:normal-hitclap.wav
448,192,45929,1,0,0:0:0:40:drum-hitclap.wav
64,192,45929,1,0,0:0:0:0:
192,192,46037,1,0,0:0:0:60:normal-hitclap.wav
320,192,46144,1,0,0:0:0:40:drum-hitclap.wav
64,192,46358,1,0,0:0:0:40:drum-hitclap.wav
192,192,46465,1,0,0:0:0:60:normal-hitclap.wav
320,192,46572,1,0,0:0:0:40:drum-hitclap.wav
448,192,46572,1,0,0:0:0:0:
192,192,46679,1,0,0:0:0:60:normal-hitclap.wav
64,192,46787,1,0,0:0:0:40:drum-hitclap.wav
448,192,47001,1,0,0:0:0:40:drum-hitclap.wav
320,192,47108,1,0,0:0:0:60:normal-hitclap.wav
192,192,47215,1,0,0:0:0:40:drum-hitclap.wav
64,192,47215,1,0,0:0:0:0:
320,192,47322,1,0,0:0:0:60:normal-hitclap.wav
448,192,47429,1,0,0:0:0:40:drum-hitclap.wav
320,192,47644,1,0,0:0:0:40:drum-hitclap.wav
192,192,47751,1,0,0:0:0:60:normal-hitclap.wav
64,192,47858,1,0,0:0:0:40:drum-hitclap.wav
448,192,47858,1,0,0:0:0:0:
320,192,47965,1,0,0:0:0:60:normal-hitclap.wav
192,192,48072,1,0,0:0:0:40:drum-hitclap.wav
320,192,48287,1,0,0:0:0:40:drum-hitclap.wav
192,192,48394,1,0,0:0:0:60:normal-hitclap.wav
64,192,48501,1,0,0:0:0:40:drum-hitclap.wav
448,192,48501,1,0,0:0:0:0:
192,192,48608,1,0,0:0:0:60:normal-hitclap.wav
320,192,48715,1,0,0:0:0:40:drum-hitclap.wav
192,192,48822,1,0,0:0:0:60:normal-hitclap.wav
448,192,48929,1,0,0:0:0:40:drum-hitclap.wav
320,192,48983,1,0,0:0:0:40:drum-hitclap.wav
192,192,49037,1,0,0:0:0:40:drum-hitclap.wav
448,192,49144,1,0,0:0:0:40:drum-hitclap.wav
320,192,49197,1,0,0:0:0:40:drum-hitclap.wav
64,192,49251,1,0,0:0:0:40:drum-hitclap.wav
448,192,49358,1,0,0:0:0:40:drum-hitclap.wav
320,192,49412,1,0,0:0:0:40:drum-hitclap.wav
192,192,49465,1,0,0:0:0:40:drum-hitclap.wav
448,192,49572,1,0,0:0:0:40:drum-hitclap.wav
320,192,49626,1,0,0:0:0:40:drum-hitclap.wav
64,192,49679,1,0,0:0:0:40:drum-hitclap.wav
192,192,49787,1,0,0:0:0:40:drum-hitclap.wav
320,192,49840,1,0,0:0:0:40:drum-hitclap.wav
448,192,49894,1,0,0:0:0:40:drum-hitclap.wav
64,192,50001,1,0,0:0:0:40:drum-hitclap.wav
192,192,50054,1,0,0:0:0:40:drum-hitclap.wav
320,192,50108,1,0,0:0:0:40:drum-hitclap.wav
64,192,50215,1,0,0:0:0:40:drum-hitclap.wav
192,192,50269,1,0,0:0:0:40:drum-hitclap.wav
448,192,50322,1,0,0:0:0:40:drum-hitclap.wav
64,192,50429,1,0,0:0:0:40:drum-hitclap.wav
192,192,50483,1,0,0:0:0:40:drum-hitclap.wav
320,192,50537,1,0,0:0:0:40:drum-hitclap.wav
64,192,50644,1,0,0:0:0:40:drum-hitclap.wav
192,192,50697,1,0,0:0:0:40:drum-hitclap.wav
448,192,50751,1,0,0:0:0:40:drum-hitclap.wav
320,192,50858,1,0,0:0:0:40:drum-hitclap.wav
192,192,50912,1,0,0:0:0:40:drum-hitclap.wav
64,192,50965,1,0,0:0:0:40:drum-hitclap.wav
448,192,51072,1,0,0:0:0:40:drum-hitclap.wav
320,192,51126,1,0,0:0:0:40:drum-hitclap.wav
64,192,51179,1,0,0:0:0:40:drum-hitclap.wav
192,192,51287,1,0,0:0:0:40:drum-hitclap.wav
320,192,51340,1,0,0:0:0:40:drum-hitclap.wav
448,192,51394,1,0,0:0:0:40:drum-hitclap.wav
64,192,51501,1,0,0:0:0:0:
192,192,51608,1,0,0:0:0:0:
320,192,51715,1,0,0:0:0:0:
448,192,51822,1,0,0:0:0:0:
64,192,51929,1,0,0:0:0:0:
448,192,52037,1,0,0:0:0:0:
320,192,52144,1,0,0:0:0:0:
192,192,52251,1,0,0:0:0:0:
64,192,52358,1,0,0:0:0:0:
192,192,52572,1,0,0:0:0:0:
320,192,52787,1,0,0:0:0:0:
448,192,53001,1,0,0:0:0:0:
192,192,53215,1,0,0:0:0:0:
320,192,53322,1,0,0:0:0:0:
64,192,53429,1,0,0:0:0:0:
448,192,53644,1,0,0:0:0:0:
320,192,53751,1,0,0:0:0:0:
192,192,53858,1,0,0:0:0:0:
64,192,53965,1,0,0:0:0:0:
448,192,54072,1,0,0:0:0:0:
192,192,54287,1,0,0:0:0:0:
320,192,54501,1,0,0:0:0:0:
64,192,54822,1,0,0:0:0:0:
320,192,54929,1,0,0:0:0:0:
192,192,55037,1,0,0:0:0:0:
448,192,55144,1,0,0:0:0:0:
64,192,55251,1,0,0:0:0:0:
448,192,55358,1,0,0:0:0:0:
320,192,55465,1,0,0:0:0:0:
192,192,55572,1,0,0:0:0:0:
64,192,55679,1,0,0:0:0:0:
448,192,55787,1,0,0:0:0:0:
320,192,55894,1,0,0:0:0:0:
192,192,56001,1,0,0:0:0:0:
64,192,56108,1,0,0:0:0:0:
192,192,56215,1,0,0:0:0:0:
320,192,56322,1,0,0:0:0:0:
448,192,56429,1,0,0:0:0:0:
320,192,56537,1,0,0:0:0:0:
64,192,56644,1,0,0:0:0:0:
192,192,56751,1,0,0:0:0:0:
320,192,56858,1,0,0:0:0:0:
448,192,56965,1,0,0:0:0:0:
320,192,57072,1,0,0:0:0:0:
192,192,57179,1,0,0:0:0:0:
64,192,57287,1,0,0:0:0:0:
192,192,57394,1,0,0:0:0:0:
320,192,57501,1,0,0:0:0:60:normal-hitfinish.wav
448,192,57501,1,0,0:0:0:50:normal-hitwhistle.wav
320,192,57715,1,0,0:0:0:0:
192,192,57929,1,0,0:0:0:0:
64,192,58144,1,0,0:0:0:0:
64,192,58358,1,0,0:0:0:60:drum-hitfinish.wav
192,192,58358,1,0,0:0:0:50:normal-hitwhistle.wav
320,192,58572,1,0,0:0:0:0:
192,192,58644,1,0,0:0:0:0:
64,192,58715,1,0,0:0:0:0:
320,192,58787,1,0,0:0:0:0:
448,192,59001,1,0,0:0:0:0:
192,192,59215,1,0,0:0:0:60:normal-hitfinish.wav
320,192,59215,1,0,0:0:0:50:normal-hitwhistle.wav
320,192,59429,1,0,0:0:0:0:
192,192,59644,1,0,0:0:0:0:
64,192,59858,1,0,0:0:0:0:
448,192,60072,1,0,0:0:0:0:
64,192,60287,1,0,0:0:0:0:
192,192,60358,1,0,0:0:0:0:
320,192,60429,1,0,0:0:0:0:
448,192,60501,1,0,0:0:0:0:
64,192,60715,1,0,0:0:0:0:
320,192,60929,1,0,0:0:0:50:drum-hitclap.wav
448,192,60929,1,0,0:0:0:60:normal-hitfinish.wav
192,192,61001,1,0,0:0:0:0:
64,192,61072,1,0,0:0:0:0:
448,192,61144,1,0,0:0:0:0:
320,192,61215,1,0,0:0:0:0:
192,192,61287,1,0,0:0:0:0:
64,192,61358,1,0,0:0:0:0:
448,192,61429,1,0,0:0:0:0:
320,192,61501,1,0,0:0:0:0:
192,192,61572,1,0,0:0:0:0:
64,192,61644,1,0,0:0:0:0:
448,192,61715,1,0,0:0:0:0:
192,192,61787,1,0,0:0:0:50:normal-hitwhistle.wav
64,192,61787,1,0,0:0:0:0:
320,192,61858,1,0,0:0:0:0:
448,192,61929,1,0,0:0:0:0:
64,192,62001,1,0,0:0:0:0:
192,192,62072,1,0,0:0:0:0:
320,192,62144,1,0,0:0:0:0:
448,192,62215,1,0,0:0:0:0:
64,192,62287,1,0,0:0:0:0:
192,192,62358,1,0,0:0:0:0:
320,192,62429,1,0,0:0:0:0:
448,192,62501,1,0,0:0:0:0:
64,192,62572,1,0,0:0:0:0:
192,192,62644,128,0,63501:0:0:0:50:drum-hitclap.wav
320,192,62644,1,0,0:0:0:0:
448,192,63501,1,0,0:0:0:50:normal-hitwhistle.wav
320,192,63501,1,0,0:0:0:0:
192,192,63572,1,0,0:0:0:0:
64,192,63644,1,0,0:0:0:0:
192,192,63715,1,0,0:0:0:0:
320,192,63787,1,0,0:0:0:0:
448,192,63858,1,0,0:0:0:0:
192,192,63929,1,0,0:0:0:0:
64,192,64001,1,0,0:0:0:0:
448,192,64072,1,0,0:0:0:0:
320,192,64144,1,0,0:0:0:0:
192,192,64215,1,0,0:0:0:0:
64,192,64287,1,0,0:0:0:0:
320,192,64358,1,0,0:0:0:50:drum-hitclap.wav
448,192,64358,1,0,0:0:0:0:
64,192,64429,1,0,0:0:0:0:
192,192,64501,1,0,0:0:0:0:
320,192,64572,1,0,0:0:0:0:
448,192,64644,1,0,0:0:0:0:
64,192,64715,1,0,0:0:0:0:
192,192,64787,1,0,0:0:0:0:
320,192,64858,1,0,0:0:0:0:
448,192,64929,1,0,0:0:0:0:
192,192,65001,1,0,0:0:0:0:
320,192,65072,1,0,0:0:0:0:
448,192,65144,1,0,0:0:0:0:
192,192,65215,1,0,0:0:0:50:normal-hitwhistle.wav
64,192,65215,1,0,0:0:0:0:
448,192,65287,1,0,0:0:0:0:
320,192,65358,1,0,0:0:0:0:
192,192,65429,1,0,0:0:0:0:
64,192,65501,1,0,0:0:0:0:
448,192,65572,1,0,0:0:0:0:
320,192,65644,1,0,0:0:0:0:
64,192,65715,1,0,0:0:0:0:
192,192,65787,1,0,0:0:0:0:
448,192,65858,1,0,0:0:0:0:
320,192,65929,1,0,0:0:0:0:
192,192,66001,1,0,0:0:0:0:
448,192,66072,1,0,0:0:0:50:drum-hitclap.wav
64,192,66072,128,0,66929:0:0:0:0:
320,192,66929,1,0,0:0:0:50:normal-hitwhistle.wav
448,192,66929,1,0,0:0:0:0:
192,192,67001,1,0,0:0:0:0:
64,192,67072,1,0,0:0:0:0:
448,192,67144,1,0,0:0:0:0:
320,192,67215,1,0,0:0:0:0:
192,192,67287,1,0,0:0:0:0:
448,192,67358,1,0,0:0:0:0:
64,192,67429,1,0,0:0:0:0:
192,192,67501,1,0,0:0:0:0:
320,192,67572,1,0,0:0:0:0:
448,192,67644,1,0,0:0:0:0:
64,192,67715,1,0,0:0:0:0:
448,192,67787,1,0,0:0:0:50:drum-hitclap.wav
320,192,67787,1,0,0:0:0:0:
192,192,67858,1,0,0:0:0:0:
64,192,67929,1,0,0:0:0:0:
448,192,68001,1,0,0:0:0:0:
320,192,68072,1,0,0:0:0:0:
192,192,68144,1,0,0:0:0:0:
64,192,68215,1,0,0:0:0:0:
448,192,68287,1,0,0:0:0:0:
320,192,68358,1,0,0:0:0:0:
192,192,68429,1,0,0:0:0:0:
64,192,68501,1,0,0:0:0:0:
448,192,68572,1,0,0:0:0:0:
192,192,68644,1,0,0:0:0:50:normal-hitwhistle.wav
64,192,68644,1,0,0:0:0:0:
320,192,68715,1,0,0:0:0:0:
448,192,68787,1,0,0:0:0:0:
64,192,68858,1,0,0:0:0:0:
192,192,68929,1,0,0:0:0:0:
320,192,69001,1,0,0:0:0:0:
448,192,69072,1,0,0:0:0:0:
64,192,69144,1,0,0:0:0:0:
192,192,69215,1,0,0:0:0:0:
320,192,69287,1,0,0:0:0:0:
448,192,69358,1,0,0:0:0:0:
64,192,69429,1,0,0:0:0:0:
192,192,69501,128,0,70358:0:0:0:50:drum-hitclap.wav
320,192,69501,1,0,0:0:0:0:
320,192,70358,1,0,0:0:0:50:normal-hitwhistle.wav
448,192,70358,1,0,0:0:0:0:
192,192,70429,1,0,0:0:0:0:
64,192,70501,1,0,0:0:0:0:
192,192,70572,1,0,0:0:0:0:
320,192,70644,1,0,0:0:0:0:
448,192,70715,1,0,0:0:0:0:
192,192,70787,1,0,0:0:0:0:
64,192,70858,1,0,0:0:0:0:
448,192,70929,1,0,0:0:0:0:
320,192,71001,1,0,0:0:0:0:
192,192,71072,1,0,0:0:0:0:
64,192,71144,1,0,0:0:0:0:
320,192,71215,1,0,0:0:0:50:drum-hitclap.wav
448,192,71215,1,0,0:0:0:0:
64,192,71287,1,0,0:0:0:0:
192,192,71358,1,0,0:0:0:0:
320,192,71429,1,0,0:0:0:0:
448,192,71501,1,0,0:0:0:0:
64,192,71572,1,0,0:0:0:0:
192,192,71644,1,0,0:0:0:0:
320,192,71715,1,0,0:0:0:0:
448,192,71787,1,0,0:0:0:0:
192,192,71858,1,0,0:0:0:0:
320,192,71929,1,0,0:0:0:0:
448,192,72001,1,0,0:0:0:0:
192,192,72072,1,0,0:0:0:50:normal-hitwhistle.wav
64,192,72072,1,0,0:0:0:0:
448,192,72144,1,0,0:0:0:0:
320,192,72215,1,0,0:0:0:0:
192,192,72287,1,0,0:0:0:0:
64,192,72358,1,0,0:0:0:0:
448,192,72429,1,0,0:0:0:0:
320,192,72501,1,0,0:0:0:0:
64,192,72572,1,0,0:0:0:0:
192,192,72644,1,0,0:0:0:0:
448,192,72715,1,0,0:0:0:0:
320,192,72787,1,0,0:0:0:0:
192,192,72858,1,0,0:0:0:0:
448,192,72929,1,0,0:0:0:50:drum-hitclap.wav
64,192,72929,1,0,0:0:0:0:
320,192,73001,1,0,0:0:0:0:
192,192,73072,1,0,0:0:0:0:
64,192,73144,1,0,0:0:0:0:
192,192,73215,1,0,0:0:0:0:
320,192,73287,1,0,0:0:0:0:
64,192,73358,1,0,0:0:0:0:
192,192,73429,1,0,0:0:0:0:
320,192,73501,1,0,0:0:0:0:
448,192,73572,1,0,0:0:0:0:
320,192,73644,1,0,0:0:0:0:
192,192,73715,1,0,0:0:0:0:
192,192,74644,1,0,0:0:0:40:drum-hitclap.wav
64,192,74644,1,0,0:0:0:60:normal-hitclap.wav
320,192,74751,1,0,0:0:0:60:normal-hitclap.wav
448,192,74858,1,0,0:0:0:60:normal-hitclap.wav
64,192,74858,1,0,0:0:0:40:drum-hitclap.wav
192,192,74965,1,0,0:0:0:40:drum-hitclap.wav
320,192,75072,1,0,0:0:0:60:normal-hitclap.wav
448,192,75072,1,0,0:0:0:40:drum-hitclap.wav
64,192,75179,1,0,0:0:0:40:drum-hitclap.wav
192,192,75287,1,0,0:0:0:40:drum-hitclap.wav
320,192,75287,1,0,0:0:0:60:normal-hitclap.wav
448,192,75394,1,0,0:0:0:60:normal-hitclap.wav
192,192,75501,1,0,0:0:0:40:drum-hitclap.wav
64,192,75501,1,0,0:0:0:60:normal-hitclap.wav
320,192,75608,1,0,0:0:0:60:normal-hitclap.wav
448,192,75715,1,0,0:0:0:40:drum-hitclap.wav
64,192,75715,1,0,0:0:0:60:normal-hitclap.wav
192,192,75822,1,0,0:0:0:60:normal-hitclap.wav
320,192,75929,1,0,0:0:0:60:normal-hitclap.wav
448,192,75929,1,0,0:0:0:40:drum-hitclap.wav
320,192,76037,1,0,0:0:0:40:drum-hitclap.wav
192,192,76144,1,0,0:0:0:60:normal-hitclap.wav
64,192,76144,1,0,0:0:0:0:
320,192,76358,1,0,0:0:0:60:normal-hitclap.wav
448,192,76358,1,0,0:0:0:40:drum-hitclap.wav
64,192,76465,1,0,0:0:0:40:drum-hitclap.wav
448,192,76572,1,0,0:0:0:40:drum-hitclap.wav
320,192,76626,1,0,0:0:0:40:drum-hitclap.wav
192,192,76679,1,0,0:0:0:40:drum-hitclap.wav
64,192,76787,1,0,0:0:0:40:drum-hitclap.wav
448,192,76787,1,0,0:0:0:60:normal-hitclap.wav
320,192,76894,1,0,0:0:0:60:normal-hitclap.wav
64,192,77001,1,0,0:0:0:40:drum-hitclap.wav
192,192,77054,1,0,0:0:0:40:drum-hitclap.wav
320,192,77108,1,0,0:0:0:40:drum-hitclap.wav
64,192,77215,1,0,0:0:0:40:drum-hitclap.wav
192,192,77269,1,0,0:0:0:40:drum-hitclap.wav
320,192,77322,1,0,0:0:0:40:drum-hitclap.wav
448,192,77429,1,0,0:0:0:40:drum-hitclap.wav
320,192,77483,1,0,0:0:0:40:drum-hitclap.wav
192,192,77537,1,0,0:0:0:40:drum-hitclap.wav
64,192,77644,1,0,0:0:0:40:drum-hitclap.wav
192,192,77697,1,0,0:0:0:40:drum-hitclap.wav
320,192,77751,1,0,0:0:0:40:drum-hitclap.wav
448,192,77858,1,0,0:0:0:40:drum-hitclap.wav
320,192,77912,1,0,0:0:0:40:drum-hitclap.wav
192,192,77965,1,0,0:0:0:40:drum-hitclap.wav
64,192,78072,1,0,0:0:0:60:normal-hitclap.wav
448,192,78072,1,0,0:0:0:40:drum-hitclap.wav
320,192,78179,1,0,0:0:0:40:drum-hitclap.wav
192,192,78287,1,0,0:0:0:40:drum-hitclap.wav
64,192,78287,1,0,0:0:0:60:normal-hitclap.wav
320,192,78394,1,0,0:0:0:40:drum-hitclap.wav
448,192,78501,1,0,0:0:0:40:drum-hitclap.wav
64,192,78501,1,0,0:0:0:60:normal-hitclap.wav
192,192,78608,1,0,0:0:0:60:normal-hitclap.wav
320,192,78715,1,0,0:0:0:40:drum-hitclap.wav
448,192,78715,1,0,0:0:0:60:normal-hitclap.wav
192,192,78822,1,0,0:0:0:40:drum-hitclap.wav
320,192,78929,1,0,0:0:0:60:normal-hitclap.wav
64,192,78929,1,0,0:0:0:40:drum-hitclap.wav
448,192,79037,1,0,0:0:0:60:normal-hitclap.wav
320,192,79144,1,0,0:0:0:40:drum-hitclap.wav
192,192,79144,1,0,0:0:0:60:normal-hitclap.wav
64,192,79251,1,0,0:0:0:40:drum-hitclap.wav
192,192,79358,1,0,0:0:0:40:drum-hitclap.wav
320,192,79358,1,0,0:0:0:60:normal-hitclap.wav
192,192,79465,1,0,0:0:0:60:normal-hitclap.wav
448,192,79572,1,0,0:0:0:60:normal-hitclap.wav
320,192,79572,1,0,0:0:0:0:
320,192,79787,1,0,0:0:0:40:drum-hitclap.wav
64,192,79787,1,0,0:0:0:60:normal-hitclap.wav
192,192,79894,1,0,0:0:0:60:normal-hitclap.wav
448,192,80001,1,0,0:0:0:40:drum-hitclap.wav
320,192,80054,1,0,0:0:0:40:drum-hitclap.wav
192,192,80108,1,0,0:0:0:40:drum-hitclap.wav
448,192,80215,1,0,0:0:0:60:normal-hitclap.wav
64,192,80215,1,0,0:0:0:40:drum-hitclap.wav
320,192,80322,1,0,0:0:0:60:normal-hitclap.wav
64,192,80429,1,0,0:0:0:40:drum-hitclap.wav
192,192,80483,1,0,0:0:0:40:drum-hitclap.wav
320,192,80537,1,0,0:0:0:40:drum-hitclap.wav
64,192,80644,1,0,0:0:0:40:drum-hitclap.wav
448,192,80697,1,0,0:0:0:40:drum-hitclap.wav
320,192,80751,1,0,0:0:0:40:drum-hitclap.wav
448,192,80858,1,0,0:0:0:40:drum-hitclap.wav
64,192,80912,1,0,0:0:0:40:drum-hitclap.wav
192,192,80965,1,0,0:0:0:40:drum-hitclap.wav
320,192,81072,128,0,81501:0:0:0:60:normal-hitclap.wav
448,192,81501,1,0,0:0:0:40:drum-hitclap.wav
64,192,81501,1,0,0:0:0:60:normal-hitclap.wav
192,192,81608,1,0,0:0:0:60:normal-hitclap.wav
64,192,81715,1,0,0:0:0:40:drum-hitclap.wav
448,192,81715,1,0,0:0:0:60:normal-hitclap.wav
320,192,81822,1,0,0:0:0:60:normal-hitclap.wav
448,192,81929,1,0,0:0:0:60:normal-hitclap.wav
64,192,81929,1,0,0:0:0:40:drum-hitclap.wav
192,192,82037,1,0,0:0:0:40:drum-hitclap.wav
64,192,82144,1,0,0:0:0:60:normal-hitclap.wav
320,192,82144,1,0,0:0:0:40:drum-hitclap.wav
192,192,82251,1,0,0:0:0:60:normal-hitclap.wav
320,192,82358,1,0,0:0:0:40:drum-hitclap.wav
448,192,82358,1,0,0:0:0:60:normal-hitclap.wav
192,192,82465,1,0,0:0:0:60:normal-hitclap.wav
320,192,82572,1,0,0:0:0:60:normal-hitclap.wav
64,192,82572,1,0,0:0:0:40:drum-hitclap.wav
448,192,82679,1,0,0:0:0:40:drum-hitclap.wav
192,192,82787,1,0,0:0:0:40:drum-hitclap.wav
64,192,82787,1,0,0:0:0:60:normal-hitclap.wav
320,192,82894,1,0,0:0:0:40:drum-hitclap.wav
192,192,83001,1,0,0:0:0:60:normal-hitclap.wav
448,192,83001,1,0,0:0:0:40:drum-hitclap.wav
320,192,83108,1,0,0:0:0:40:drum-hitclap.wav
64,192,83215,1,0,0:0:0:40:drum-hitclap.wav
448,192,83215,1,0,0:0:0:60:normal-hitclap.wav
320,192,83322,1,0,0:0:0:60:normal-hitclap.wav
64,192,83429,1,0,0:0:0:40:drum-hitclap.wav
448,192,83429,1,0,0:0:0:60:normal-hitclap.wav
192,192,83537,1,0,0:0:0:60:normal-hitclap.wav
448,192,83644,1,0,0:0:0:60:normal-hitclap.wav
64,192,83644,1,0,0:0:0:40:drum-hitclap.wav
320,192,83751,1,0,0:0:0:40:drum-hitclap.wav
448,192,83858,1,0,0:0:0:40:drum-hitclap.wav
192,192,83858,1,0,0:0:0:60:normal-hitclap.wav
320,192,83965,1,0,0:0:0:60:normal-hitclap.wav
192,192,84072,1,0,0:0:0:60:normal-hitclap.wav
64,192,84072,1,0,0:0:0:40:drum-hitclap.wav
320,192,84179,1,0,0:0:0:40:drum-hitclap.wav
192,192,84287,1,0,0:0:0:60:normal-hitclap.wav
448,192,84287,1,0,0:0:0:40:drum-hitclap.wav
64,192,84394,1,0,0:0:0:40:drum-hitclap.wav
64,192,84929,1,0,0:0:0:40:drum-hitclap.wav
192,192,84983,1,0,0:0:0:40:drum-hitclap.wav
320,192,85037,1,0,0:0:0:40:drum-hitclap.wav
448,192,85090,1,0,0:0:0:40:drum-hitclap.wav
64,192,85144,1,0,0:0:0:40:drum-hitclap.wav
192,192,85197,1,0,0:0:0:40:drum-hitclap.wav
320,192,85251,1,0,0:0:0:40:drum-hitclap.wav
448,192,85304,1,0,0:0:0:40:drum-hitclap.wav
64,192,85358,1,0,0:0:0:40:drum-hitclap.wav
192,192,85412,1,0,0:0:0:40:drum-hitclap.wav
320,192,85465,1,0,0:0:0:40:drum-hitclap.wav
448,192,85519,1,0,0:0:0:40:drum-hitclap.wav
64,192,85572,1,0,0:0:0:40:drum-hitclap.wav
192,192,85626,1,0,0:0:0:40:drum-hitclap.wav
320,192,85679,1,0,0:0:0:40:drum-hitclap.wav
448,192,85733,1,0,0:0:0:40:drum-hitclap.wav
64,192,85787,1,0,0:0:0:40:drum-hitclap.wav
192,192,85840,1,0,0:0:0:40:drum-hitclap.wav
448,192,85894,1,0,0:0:0:40:drum-hitclap.wav
320,192,85947,1,0,0:0:0:40:drum-hitclap.wav
64,192,86001,1,0,0:0:0:40:drum-hitclap.wav
192,192,86054,1,0,0:0:0:40:drum-hitclap.wav
448,192,86108,1,0,0:0:0:40:drum-hitclap.wav
320,192,86162,1,0,0:0:0:40:drum-hitclap.wav
64,192,86215,1,0,0:0:0:40:drum-hitclap.wav
192,192,86269,1,0,0:0:0:40:drum-hitclap.wav
448,192,86322,1,0,0:0:0:40:drum-hitclap.wav
320,192,86376,1,0,0:0:0:40:drum-hitclap.wav
64,192,86429,1,0,0:0:0:40:drum-hitclap.wav
192,192,86483,1,0,0:0:0:40:drum-hitclap.wav
448,192,86537,1,0,0:0:0:40:drum-hitclap.wav
320,192,86590,1,0,0:0:0:40:drum-hitclap.wav
192,192,86644,1,0,0:0:0:60:normal-hitclap.wav
64,192,86644,1,0,0:0:0:0:
448,192,87929,1,0,0:0:0:40:drum-hitclap.wav
320,192,87983,1,0,0:0:0:40:drum-hitclap.wav
192,192,88037,1,0,0:0:0:40:drum-hitclap.wav
448,192,88144,1,0,0:0:0:40:drum-hitclap.wav
320,192,88197,1,0,0:0:0:40:drum-hitclap.wav
192,192,88251,1,0,0:0:0:40:drum-hitclap.wav
64,192,88358,1,0,0:0:0:60:drum-hitfinish.wav
448,192,88358,128,0,88679:0:0:0:60:normal-hitfinish.wav
64,192,88572,1,0,0:0:0:50:normal-hitwhistle.wav
320,192,88679,128,0,89001:0:0:0:0:
64,192,88787,1,0,0:0:0:60:normal-hitclap.wav
192,192,89001,128,0,89429:0:0:0:50:normal-hitwhistle.wav
64,192,89001,1,0,0:0:0:0:
448,192,89215,1,0,0:0:0:60:normal-hitclap.wav
64,192,89429,128,0,89644:0:0:0:50:normal-hitwhistle.wav
448,192,89429,1,0,0:0:0:0:
192,192,89644,128,0,89858:0:0:0:60:normal-hitclap.wav
448,192,89644,1,0,0:0:0:0:
320,192,89858,128,0,90072:0:0:0:50:normal-hitwhistle.wav
448,192,89858,1,0,0:0:0:0:
192,192,90072,1,0,0:0:0:60:normal-hitclap.wav
64,192,90072,1,0,0:0:0:0:
64,192,90287,1,0,0:0:0:50:normal-hitwhistle.wav
320,192,90287,1,0,0:0:0:0:
448,192,90501,1,0,0:0:0:60:normal-hitclap.wav
192,192,90501,1,0,0:0:0:0:
320,192,90715,1,0,0:0:0:50:normal-hitwhistle.wav
64,192,90715,1,0,0:0:0:0:
192,192,90929,1,0,0:0:0:60:normal-hitclap.wav
320,192,90929,1,0,0:0:0:0:
448,192,91144,1,0,0:0:0:50:normal-hitwhistle.wav
64,192,91144,1,0,0:0:0:0:
320,192,91358,1,0,0:0:0:60:normal-hitclap.wav
192,192,91358,1,0,0:0:0:0:
448,192,91572,1,0,0:0:0:50:normal-hitwhistle.wav
64,192,91572,1,0,0:0:0:0:
320,192,91644,1,0,0:0:0:0:
192,192,91715,1,0,0:0:0:0:
448,192,91787,128,0,92108:0:0:0:60:normal-hitclap.wav
64,192,91787,1,0,0:0:0:0:
64,192,92001,1,0,0:0:0:50:normal-hitwhistle.wav
320,192,92108,128,0,92429:0:0:0:0:
64,192,92215,1,0,0:0:0:60:normal-hitclap.wav
192,192,92429,128,0,92751:0:0:0:50:normal-hitwhistle.wav
64,192,92429,1,0,0:0:0:0:
320,192,92644,1,0,0:0:0:60:normal-hitclap.wav
448,192,92751,1,0,0:0:0:0:
320,192,92804,1,0,0:0:0:0:
64,192,92858,128,0,93072:0:0:0:50:normal-hitwhistle.wav
192,192,92858,1,0,0:0:0:0:
320,192,93072,1,0,0:0:0:60:normal-hitclap.wav
448,192,93072,1,0,0:0:0:0:
192,192,93287,1,0,0:0:0:50:normal-hitwhistle.wav
64,192,93287,1,0,0:0:0:0:
192,192,93501,128,0,93822:0:0:0:60:normal-hitclap.wav
448,192,93501,1,0,0:0:0:0:
448,192,93715,1,0,0:0:0:50:normal-hitwhistle.wav
320,192,93822,128,0,94144:0:0:0:0:
64,192,93929,1,0,0:0:0:60:normal-hitclap.wav
448,192,94144,128,0,94572:0:0:0:50:normal-hitwhistle.wav
64,192,94144,1,0,0:0:0:0:
192,192,94358,1,0,0:0:0:60:normal-hitclap.wav
320,192,94572,1,0,0:0:0:50:normal-hitwhistle.wav
64,192,94572,1,0,0:0:0:0:
192,192,94644,1,0,0:0:0:0:
320,192,94715,1,0,0:0:0:0:
448,192,94787,1,0,0:0:0:60:normal-hitclap.wav
64,192,94858,1,0,0:0:0:0:
192,192,94929,1,0,0:0:0:0:
320,192,95001,1,0,0:0:0:50:normal-hitwhistle.wav
448,192,95001,1,0,0:0:0:0:
448,192,95215,1,0,0:0:0:60:normal-hitclap.wav
64,192,95215,1,0,0:0:0:0:
320,192,95322,1,0,0:0:0:60:normal-hitclap.wav
448,192,95429,1,0,0:0:0:50:normal-hitwhistle.wav
64,192,95429,1,0,0:0:0:0:
192,192,95537,1,0,0:0:0:60:normal-hitclap.wav
64,192,95644,1,0,0:0:0:60:normal-hitclap.wav
448,192,95644,1,0,0:0:0:0:
320,192,95751,1,0,0:0:0:60:normal-hitclap.wav
448,192,95858,1,0,0:0:0:50:normal-hitwhistle.wav
64,192,95858,1,0,0:0:0:0:
192,192,95965,1,0,0:0:0:60:normal-hitclap.wav
448,192,96072,1,0,0:0:0:60:normal-hitclap.wav
320,192,96126,1,0,0:0:0:60:normal-hitclap.wav
192,192,96179,1,0,0:0:0:60:normal-hitclap.wav
320,192,96287,1,0,0:0:0:60:normal-hitclap.wav
192,192,96340,1,0,0:0:0:60:normal-hitclap.wav
64,192,96394,1,0,0:0:0:60:normal-hitclap.wav
448,192,96501,1,0,0:0:0:60:normal-hitclap.wav
320,192,96554,1,0,0:0:0:60:normal-hitclap.wav
192,192,96608,1,0,0:0:0:60:normal-hitclap.wav
320,192,96715,1,0,0:0:0:60:normal-hitclap.wav
192,192,96769,1,0,0:0:0:60:normal-hitclap.wav
64,192,96822,1,0,0:0:0:60:normal-hitclap.wav
320,192,96929,1,0,0:0:0:60:normal-hitclap.wav
448,192,96929,1,0,0:0:0:40:drum-hitclap.wav
192,192,97144,1,0,0:0:0:50:normal-hitwhistle.wav
64,192,97144,1,0,0:0:0:60:normal-hitclap.wav
320,192,97358,1,0,0:0:0:40:drum-hitclap.wav
192,192,97358,1,0,0:0:0:60:normal-hitclap.wav
320,192,97572,1,0,0:0:0:50:normal-hitwhistle.wav
448,192,97572,1,0,0:0:0:60:normal-hitclap.wav
192,192,97787,1,0,0:0:0:60:normal-hitclap.wav
64,192,97787,1,0,0:0:0:0:
64,192,98001,1,0,0:0:0:50:normal-hitwhistle.wav
448,192,98001,1,0,0:0:0:0:
320,192,98072,1,0,0:0:0:0:
192,192,98144,1,0,0:0:0:0:
64,192,98215,1,0,0:0:0:60:normal-hitclap.wav
448,192,98287,1,0,0:0:0:0:
192,192,98358,1,0,0:0:0:0:
320,192,98429,1,0,0:0:0:50:normal-hitwhistle.wav
448,192,98501,1,0,0:0:0:0:
64,192,98572,1,0,0:0:0:0:
192,192,98644,128,0,98965:0:0:0:60:normal-hitclap.wav
320,192,98644,1,0,0:0:0:0:
448,192,98858,1,0,0:0:0:50:normal-hitwhistle.wav
320,192,98965,128,0,99179:0:0:0:0:
64,192,99072,1,0,0:0:0:60:normal-hitclap.wav
192,192,99179,1,0,0:0:0:0:
64,192,99233,1,0,0:0:0:0:
448,192,99287,128,0,99715:0:0:0:50:normal-hitwhistle.wav
320,192,99287,1,0,0:0:0:0:
192,192,99501,1,0,0:0:0:60:normal-hitclap.wav
320,192,99715,1,0,0:0:0:50:normal-hitwhistle.wav
64,192,99715,1,0,0:0:0:0:
192,192,99822,1,0,0:0:0:0:
320,192,99929,1,0,0:0:0:60:normal-hitclap.wav
448,192,99929,1,0,0:0:0:0:
192,192,100144,1,0,0:0:0:50:normal-hitwhistle.wav
64,192,100144,1,0,0:0:0:0:
320,192,100358,1,0,0:0:0:60:normal-hitclap.wav
448,192,100358,1,0,0:0:0:0:
192,192,100465,1,0,0:0:0:60:normal-hitclap.wav
448,192,100572,1,0,0:0:0:40:drum-hitclap.wav
320,192,100626,1,0,0:0:0:40:drum-hitclap.wav
192,192,100679,1,0,0:0:0:40:drum-hitclap.wav
64,192,100733,1,0,0:0:0:40:drum-hitclap.wav
320,192,100787,1,0,0:0:0:60:normal-hitclap.wav
448,192,100787,1,0,0:0:0:0:
192,192,100894,1,0,0:0:0:60:normal-hitclap.wav
64,192,101001,1,0,0:0:0:40:drum-hitclap.wav
192,192,101054,1,0,0:0:0:40:drum-hitclap.wav
320,192,101108,1,0,0:0:0:40:drum-hitclap.wav
448,192,101162,1,0,0:0:0:40:drum-hitclap.wav
64,192,101215,1,0,0:0:0:40:drum-hitclap.wav
192,192,101269,1,0,0:0:0:40:drum-hitclap.wav
320,192,101322,1,0,0:0:0:40:drum-hitclap.wav
448,192,101429,1,0,0:0:0:40:drum-hitclap.wav
320,192,101483,1,0,0:0:0:40:drum-hitclap.wav
192,192,101537,1,0,0:0:0:40:drum-hitclap.wav
64,192,101644,1,0,0:0:0:40:drum-hitclap.wav
192,192,101697,1,0,0:0:0:40:drum-hitclap.wav
320,192,101751,1,0,0:0:0:40:drum-hitclap.wav
448,192,101858,1,0,0:0:0:40:drum-hitclap.wav
320,192,101912,1,0,0:0:0:40:drum-hitclap.wav
192,192,101965,1,0,0:0:0:40:drum-hitclap.wav
64,192,102072,128,0,102394:0:0:0:60:drum-hitfinish.wav
448,192,102072,1,0,0:0:0:60:normal-hitclap.wav
448,192,102287,1,0,0:0:0:50:normal-hitwhistle.wav
192,192,102394,128,0,102715:0:0:0:0:
448,192,102501,1,0,0:0:0:0:
448,192,102715,1,0,0:0:0:50:normal-hitwhistle.wav
320,192,102715,128,0,103144:0:0:0:0:
64,192,102929,1,0,0:0:0:60:normal-hitclap.wav
448,192,103144,128,0,103358:0:0:0:50:normal-hitwhistle.wav
64,192,103144,1,0,0:0:0:0:
64,192,103358,1,0,0:0:0:60:normal-hitclap.wav
320,192,103358,128,0,103572:0:0:0:0:
64,192,103572,1,0,0:0:0:50:normal-hitwhistle.wav
192,192,103572,128,0,103787:0:0:0:0:
320,192,103787,1,0,0:0:0:60:normal-hitclap.wav
448,192,103787,1,0,0:0:0:0:
192,192,104001,1,0,0:0:0:50:normal-hitwhistle.wav
448,192,104001,1,0,0:0:0:0:
64,192,104215,1,0,0:0:0:60:normal-hitclap.wav
320,192,104215,1,0,0:0:0:0:
192,192,104429,1,0,0:0:0:50:normal-hitwhistle.wav
448,192,104429,1,0,0:0:0:0:
192,192,104644,1,0,0:0:0:60:normal-hitclap.wav
320,192,104644,1,0,0:0:0:0:
64,192,104858,1,0,0:0:0:50:normal-hitwhistle.wav
448,192,104858,1,0,0:0:0:0:
192,192,105072,1,0,0:0:0:60:normal-hitclap.wav
320,192,105072,1,0,0:0:0:0:
64,192,105287,1,0,0:0:0:50:normal-hitwhistle.wav
448,192,105287,1,0,0:0:0:0:
192,192,105358,1,0,0:0:0:0:
320,192,105429,1,0,0:0:0:0:
64,192,105501,128,0,105822:0:0:0:60:normal-hitclap.wav
448,192,105501,1,0,0:0:0:0:
448,192,105715,1,0,0:0:0:50:normal-hitwhistle.wav
192,192,105822,128,0,106144:0:0:0:0:
448,192,105929,1,0,0:0:0:60:normal-hitclap.wav
448,192,106144,1,0,0:0:0:50:normal-hitwhistle.wav
320,192,106144,128,0,106465:0:0:0:0:
192,192,106358,1,0,0:0:0:60:normal-hitclap.wav
64,192,106465,1,0,0:0:0:0:
192,192,106519,1,0,0:0:0:0:
448,192,106572,128,0,106787:0:0:0:50:normal-hitwhistle.wav
320,192,106572,1,0,0:0:0:0:
192,192,106787,1,0,0:0:0:60:normal-hitclap.wav
64,192,106787,1,0,0:0:0:0:
448,192,107001,1,0,0:0:0:50:normal-hitwhistle.wav
320,192,107001,1,0,0:0:0:0:
64,192,107215,1,0,0:0:0:60:normal-hitclap.wav
320,192,107215,128,0,107537:0:0:0:0:
64,192,107429,1,0,0:0:0:50:normal-hitwhistle.wav
192,192,107537,128,0,107858:0:0:0:0:
448,192,107644,1,0,0:0:0:60:normal-hitclap.wav
64,192,107858,128,0,108072:0:0:0:50:normal-hitwhistle.wav
448,192,107858,1,0,0:0:0:0:
320,192,108072,1,0,0:0:0:60:normal-hitclap.wav
192,192,108144,1,0,0:0:0:60:normal-hitclap.wav
448,192,108215,1,0,0:0:0:60:normal-hitclap.wav
320,192,108287,1,0,0:0:0:50:normal-hitwhistle.wav
192,192,108358,1,0,0:0:0:60:normal-hitclap.wav
64,192,108429,1,0,0:0:0:60:normal-hitclap.wav
320,192,108501,1,0,0:0:0:60:normal-hitclap.wav
192,192,108572,1,0,0:0:0:60:normal-hitclap.wav
448,192,108644,1,0,0:0:0:60:normal-hitclap.wav
320,192,108715,1,0,0:0:0:50:normal-hitwhistle.wav
64,192,108929,1,0,0:0:0:40:drum-hitclap.wav
192,192,108983,1,0,0:0:0:40:drum-hitclap.wav
320,192,109037,1,0,0:0:0:40:drum-hitclap.wav
64,192,109090,1,0,0:0:0:40:drum-hitclap.wav
192,192,109144,1,0,0:0:0:50:normal-hitwhistle.wav
448,192,109358,1,0,0:0:0:40:drum-hitclap.wav
320,192,109412,1,0,0:0:0:40:drum-hitclap.wav
192,192,109465,1,0,0:0:0:40:drum-hitclap.wav
448,192,109519,1,0,0:0:0:40:drum-hitclap.wav
320,192,109572,1,0,0:0:0:50:normal-hitwhistle.wav
64,192,109787,1,0,0:0:0:40:drum-hitclap.wav
320,192,109840,1,0,0:0:0:40:drum-hitclap.wav
192,192,109894,1,0,0:0:0:40:drum-hitclap.wav
64,192,109947,1,0,0:0:0:40:drum-hitclap.wav
320,192,110001,1,0,0:0:0:50:normal-hitwhistle.wav
448,192,110215,1,0,0:0:0:40:drum-hitclap.wav
192,192,110269,1,0,0:0:0:40:drum-hitclap.wav
320,192,110322,1,0,0:0:0:40:drum-hitclap.wav
448,192,110376,1,0,0:0:0:40:drum-hitclap.wav
192,192,110429,1,0,0:0:0:50:normal-hitwhistle.wav
64,192,110644,1,0,0:0:0:40:drum-hitclap.wav
192,192,110697,1,0,0:0:0:40:drum-hitclap.wav
320,192,110751,1,0,0:0:0:40:drum-hitclap.wav
64,192,110858,1,0,0:0:0:40:drum-hitclap.wav
192,192,110912,1,0,0:0:0:40:drum-hitclap.wav
320,192,110965,1,0,0:0:0:40:drum-hitclap.wav
448,192,111072,1,0,0:0:0:40:drum-hitclap.wav
320,192,111126,1,0,0:0:0:40:drum-hitclap.wav
192,192,111179,1,0,0:0:0:40:drum-hitclap.wav
448,192,111287,1,0,0:0:0:40:drum-hitclap.wav
320,192,111340,1,0,0:0:0:40:drum-hitclap.wav
192,192,111394,1,0,0:0:0:40:drum-hitclap.wav
64,192,111501,1,0,0:0:0:40:drum-hitclap.wav
192,192,111554,1,0,0:0:0:40:drum-hitclap.wav
448,192,111608,1,0,0:0:0:40:drum-hitclap.wav
320,192,111715,1,0,0:0:0:40:drum-hitclap.wav
192,192,111769,1,0,0:0:0:40:drum-hitclap.wav
448,192,111822,1,0,0:0:0:40:drum-hitclap.wav
64,192,111929,1,0,0:0:0:50:normal-hitwhistle.wav
448,192,112144,1,0,0:0:0:0:
320,192,112215,1,0,0:0:0:0:
192,192,112287,1,0,0:0:0:0:
64,192,112358,1,0,0:0:0:0:
320,192,112679,1,0,0:0:0:0:
64,192,112894,1,0,0:0:0:0:
192,192,112947,1,0,0:0:0:0:
320,192,113001,1,0,0:0:0:0:
64,192,113429,1,0,0:0:0:0:
448,192,113537,1,0,0:0:0:0:
192,192,113644,1,0,0:0:0:0:
320,192,114072,1,0,0:0:0:60:drum-hitfinish.wav
448,192,114072,1,0,0:0:0:60:normal-hitclap.wav
64,192,114072,1,0,0:0:0:60:normal-hitfinish.wav
192,192,114929,1,0,0:0:0:0:
64,192,114929,1,0,0:0:0:0:
320,192,115787,1,0,0:0:0:0:
448,192,115787,1,0,0:0:0:0:
448,192,116429,1,0,0:0:0:60:normal-hitclap.wav
320,192,116483,1,0,0:0:0:60:normal-hitclap.wav
192,192,116537,1,0,0:0:0:60:normal-hitclap.wav
64,192,116590,1,0,0:0:0:0:
448,192,116644,1,0,0:0:0:40:drum-hitclap.wav
320,192,116697,1,0,0:0:0:40:drum-hitclap.wav
192,192,116751,1,0,0:0:0:40:drum-hitclap.wav
64,192,116804,1,0,0:0:0:0:
320,192,116858,1,0,0:0:0:40:drum-hitclap.wav
448,192,116912,1,0,0:0:0:40:drum-hitclap.wav
64,192,116965,1,0,0:0:0:40:drum-hitclap.wav
192,192,117019,1,0,0:0:0:0:
448,192,117072,1,0,0:0:0:40:drum-hitclap.wav
320,192,117126,1,0,0:0:0:40:drum-hitclap.wav
64,192,117179,1,0,0:0:0:40:drum-hitclap.wav
192,192,117233,1,0,0:0:0:0:
448,192,117287,1,0,0:0:0:40:drum-hitclap.wav
320,192,117340,1,0,0:0:0:40:drum-hitclap.wav
192,192,117394,1,0,0:0:0:40:drum-hitclap.wav
64,192,117447,1,0,0:0:0:0:
448,192,117501,1,0,0:0:0:60:drum-hitfinish.wav
320,192,117501,1,0,0:0:0:60:normal-hitfinish.wav
