osu file format v14

[General]
AudioFilename: WelcomeTo.mp3
AudioLeadIn: 0
PreviewTime: 17198
Countdown: 0
SampleSet: Soft
StackLeniency: 0.7
Mode: 3
LetterboxInBreaks: 0
SpecialStyle: 0
WidescreenStoryboard: 0

[Editor]
Bookmarks: 15484
DistanceSpacing: 1.3
BeatDivisor: 4
GridSize: 4
TimelineZoom: 2.299999

[Metadata]
Title:iLLness LiLin
TitleUnicode:iLLness LiLin
Artist:Kaneko Chiharu
ArtistUnicode:かねこちはる
Creator:ByeForNow
Version:EXHAUST
Source:SOUND VOLTEX IV HEAVENLY HAVEN
Tags:Arzenvald the 6th kac original song contest winner aonasai near noah pirates welcome to heaven sdvx 4
BeatmapID:1256614
BeatmapSetID:593396

[Difficulty]
HPDrainRate:7.5
CircleSize:4
OverallDifficulty:7.5
ApproachRate:5
SliderMultiplier:1.4
SliderTickRate:1

[Events]
//Background and Video events
0,0,"TheBeatmapFile.jpg",0,0
//Break Periods
//Storyboard Layer 0 (Background)
//Storyboard Layer 1 (Fail)
//Storyboard Layer 2 (Pass)
//Storyboard Layer 3 (Foreground)
//Storyboard Sound Samples
Sample,52341,0,"S_Cheer.mp3",60

[TimingPoints]
913.035971223022,214.285714285714,4,2,1,30,1,0
88341,-100,4,2,1,30,0,1
111913,-100,4,2,1,30,0,0

[HitObjects]
192,192,913,128,0,1341:0:0:0:35:D_DrumF.wav
64,192,913,1,0,0:0:0:35:D_DrumF.wav
320,192,1341,128,0,1555:0:0:0:20:A_silent.wav
448,192,1341,1,0,0:0:0:20:A_silent.wav
64,192,1555,1,0,0:0:0:40:A_silent.wav
192,192,1627,1,0,0:0:0:40:A_silent.wav
320,192,1698,1,0,0:0:0:40:A_silent.wav
448,192,1770,1,0,0:0:0:40:A_silent.wav
64,192,1841,1,0,0:0:0:40:A_silent.wav
192,192,1913,1,0,0:0:0:40:A_silent.wav
320,192,1984,1,0,0:0:0:40:A_silent.wav
448,192,2055,1,0,0:0:0:40:A_silent.wav
64,192,2127,1,0,0:0:0:40:A_silent.wav
192,192,2198,1,0,0:0:0:40:A_silent.wav
448,192,2270,1,0,0:0:0:40:A_silent.wav
320,192,2341,1,0,0:0:0:40:A_silent.wav
64,192,2413,1,0,0:0:0:40:A_silent.wav
192,192,2484,1,0,0:0:0:40:A_silent.wav
320,192,2555,1,0,0:0:0:40:A_silent.wav
448,192,2627,1,0,0:0:0:40:A_silent.wav
320,192,2680,1,0,0:0:0:40:A_silent.wav
192,192,2734,1,0,0:0:0:40:A_silent.wav
64,192,2788,1,0,0:0:0:40:A_silent.wav
448,192,2841,1,0,0:0:0:40:A_silent.wav
320,192,2895,1,0,0:0:0:40:A_silent.wav
192,192,2948,1,0,0:0:0:40:A_silent.wav
64,192,3002,1,0,0:0:0:40:A_silent.wav
448,192,3055,1,0,0:0:0:40:A_silent.wav
320,192,3109,1,0,0:0:0:40:A_silent.wav
64,192,3163,1,0,0:0:0:40:A_silent.wav
192,192,3216,1,0,0:0:0:40:A_silent.wav
448,192,3270,1,0,0:0:0:40:A_silent.wav
320,192,3323,1,0,0:0:0:40:A_silent.wav
192,192,3377,1,0,0:0:0:40:A_silent.wav
64,192,3430,1,0,0:0:0:40:A_silent.wav
448,192,3484,1,0,0:0:0:0:
192,192,3484,128,0,3698:0:0:0:0:
320,192,3698,128,0,3913:0:0:0:0:
64,192,3913,128,0,4341:0:0:0:0:
448,192,3913,1,0,0:0:0:0:
320,192,4341,1,0,0:0:0:70:D_DrumF.wav
448,192,4341,1,0,0:0:0:40:B_Clap.wav
192,192,4555,1,0,0:0:0:40:B_Clap.wav
320,192,4663,1,0,0:0:0:20:B_Soft.wav
64,192,4770,1,0,0:0:0:40:B_Clap.wav
448,192,4877,1,0,0:0:0:20:B_Soft.wav
192,192,4984,128,0,5198:0:0:0:40:B_Clap.wav
448,192,5198,1,0,0:0:0:20:B_Clap.wav
64,192,5198,1,0,0:0:0:20:B_Clap.wav
320,192,5305,1,0,0:0:0:20:B_Soft.wav
64,192,5413,1,0,0:0:0:40:B_Clap.wav
448,192,5520,1,0,0:0:0:20:B_Soft.wav
192,192,5627,128,0,5841:0:0:0:40:B_Clap.wav
64,192,5841,1,0,0:0:0:20:B_Clap.wav
448,192,5841,1,0,0:0:0:20:B_Clap.wav
320,192,5948,1,0,0:0:0:20:B_Soft.wav
448,192,6055,1,0,0:0:0:40:B_Clap.wav
192,192,6163,1,0,0:0:0:20:B_Soft.wav
320,192,6270,128,0,6484:0:0:0:40:B_Clap.wav
64,192,6484,1,0,0:0:0:20:B_Clap.wav
448,192,6484,1,0,0:0:0:20:B_Clap.wav
192,192,6591,1,0,0:0:0:20:B_Soft.wav
320,192,6698,1,0,0:0:0:40:B_Clap.wav
192,192,6805,1,0,0:0:0:20:B_Soft.wav
320,192,6913,128,0,7127:0:0:0:40:B_Clap.wav
192,192,7127,1,0,0:0:0:20:B_Clap.wav
448,192,7127,1,0,0:0:0:20:B_Clap.wav
64,192,7234,1,0,0:0:0:20:B_Soft.wav
448,192,7341,1,0,0:0:0:40:B_Clap.wav
192,192,7448,1,0,0:0:0:20:B_Soft.wav
320,192,7555,1,0,0:0:0:40:B_Clap.wav
64,192,7663,1,0,0:0:0:20:B_Soft.wav
448,192,7770,1,0,0:0:0:20:B_Clap.wav
192,192,7770,1,0,0:0:0:20:B_Clap.wav
320,192,7877,1,0,0:0:0:20:B_Soft.wav
64,192,7984,1,0,0:0:0:20:B_Clap.wav
192,192,7984,1,0,0:0:0:20:B_Clap.wav
320,192,8091,1,0,0:0:0:20:B_Soft.wav
64,192,8198,1,0,0:0:0:40:B_Clap.wav
448,192,8305,1,0,0:0:0:20:B_Soft.wav
192,192,8413,128,0,8627:0:0:0:40:B_Clap.wav
320,192,8627,1,0,0:0:0:20:B_Clap.wav
448,192,8627,1,0,0:0:0:20:B_Clap.wav
64,192,8734,1,0,0:0:0:20:B_Soft.wav
320,192,8841,1,0,0:0:0:40:B_Clap.wav
192,192,8948,1,0,0:0:0:20:B_Soft.wav
448,192,9055,128,0,9270:0:0:0:40:B_Clap.wav
64,192,9270,1,0,0:0:0:20:B_Clap.wav
320,192,9270,1,0,0:0:0:20:B_Clap.wav
192,192,9377,1,0,0:0:0:20:B_Soft.wav
448,192,9484,1,0,0:0:0:40:B_Clap.wav
64,192,9591,1,0,0:0:0:20:B_Soft.wav
320,192,9698,128,0,9913:0:0:0:40:B_Clap.wav
192,192,9913,1,0,0:0:0:20:B_Clap.wav
64,192,9913,1,0,0:0:0:20:B_Clap.wav
448,192,10020,1,0,0:0:0:20:B_Soft.wav
64,192,10127,1,0,0:0:0:40:B_Clap.wav
320,192,10234,1,0,0:0:0:20:B_Soft.wav
448,192,10341,128,0,10555:0:0:0:20:B_Clap.wav
192,192,10341,1,0,0:0:0:20:B_Clap.wav
64,192,10663,128,0,10877:0:0:0:0:
320,192,10663,1,0,0:0:0:0:
320,192,10984,128,0,11198:0:0:0:20:B_Clap.wav
192,192,10984,1,0,0:0:0:20:B_Clap.wav
192,192,11198,1,0,0:0:0:70:D_DrumF.wav
64,192,11198,1,0,0:0:0:45:B_Clap.wav
448,192,11305,1,0,0:0:0:0:
192,192,11413,1,0,0:0:0:23:B_Clap.wav
320,192,11413,1,0,0:0:0:23:B_Clap.wav
192,192,11520,1,0,0:0:0:0:
320,192,11627,1,0,0:0:0:45:B_Clap.wav
64,192,11734,1,0,0:0:0:0:
448,192,11841,128,0,12055:0:0:0:45:B_Clap.wav
320,192,12055,1,0,0:0:0:23:B_Clap.wav
64,192,12055,1,0,0:0:0:23:B_Clap.wav
64,192,12163,1,0,0:0:0:0:
448,192,12270,1,0,0:0:0:45:B_Clap.wav
192,192,12377,1,0,0:0:0:0:
320,192,12484,128,0,12698:0:0:0:45:B_Clap.wav
448,192,12698,1,0,0:0:0:23:B_Clap.wav
192,192,12698,1,0,0:0:0:23:B_Clap.wav
448,192,12805,1,0,0:0:0:0:
64,192,12913,1,0,0:0:0:45:B_Clap.wav
320,192,13020,1,0,0:0:0:0:
192,192,13127,128,0,13341:0:0:0:45:B_Clap.wav
64,192,13341,1,0,0:0:0:23:B_Clap.wav
448,192,13341,1,0,0:0:0:23:B_Clap.wav
64,192,13448,1,0,0:0:0:0:
320,192,13555,1,0,0:0:0:45:B_Clap.wav
192,192,13663,1,0,0:0:0:0:
320,192,13770,128,0,13984:0:0:0:45:B_Clap.wav
192,192,13984,1,0,0:0:0:23:B_Clap.wav
64,192,13984,1,0,0:0:0:23:B_Clap.wav
192,192,14091,1,0,0:0:0:0:
448,192,14198,1,0,0:0:0:45:B_Clap.wav
64,192,14305,1,0,0:0:0:0:
320,192,14413,1,0,0:0:0:45:B_Clap.wav
192,192,14520,1,0,0:0:0:0:
320,192,14627,1,0,0:0:0:23:B_Clap.wav
448,192,14627,1,0,0:0:0:23:B_Clap.wav
192,192,14734,1,0,0:0:0:0:
64,192,14841,1,0,0:0:0:23:B_Clap.wav
320,192,14841,1,0,0:0:0:23:B_Clap.wav
64,192,14948,1,0,0:0:0:0:
448,192,15055,1,0,0:0:0:45:B_Clap.wav
192,192,15163,1,0,0:0:0:0:
64,192,15270,128,0,15484:0:0:0:45:B_Clap.wav
192,192,15484,1,0,0:0:0:23:B_Clap.wav
448,192,15484,1,0,0:0:0:23:B_Clap.wav
448,192,15591,1,0,0:0:0:0:
64,192,15698,1,0,0:0:0:45:B_Clap.wav
320,192,15805,1,0,0:0:0:0:
192,192,15913,128,0,16127:0:0:0:45:B_Clap.wav
64,192,16127,1,0,0:0:0:23:B_Clap.wav
448,192,16127,1,0,0:0:0:23:B_Clap.wav
320,192,16234,1,0,0:0:0:0:
64,192,16341,1,0,0:0:0:8:A_Silent.mp3
320,192,16413,1,0,0:0:0:8:A_Silent.mp3
192,192,16484,1,0,0:0:0:8:A_Silent.mp3
448,192,16555,1,0,0:0:0:8:A_Silent.mp3
64,192,16627,1,0,0:0:0:8:A_Silent.mp3
448,192,16698,1,0,0:0:0:8:A_Silent.mp3
192,192,16770,1,0,0:0:0:8:A_Silent.mp3
320,192,16841,1,0,0:0:0:8:A_Silent.mp3
448,192,16913,1,0,0:0:0:8:A_Silent.mp3
320,192,16984,1,0,0:0:0:8:A_Silent.mp3
192,192,17055,1,0,0:0:0:8:A_Silent.mp3
64,192,17127,1,0,0:0:0:8:A_Silent.mp3
320,192,17198,128,0,17627:0:0:0:0:
448,192,17198,128,0,17627:0:0:0:0:
64,192,17627,128,0,17841:0:0:0:0:
192,192,17627,128,0,17841:0:0:0:0:
320,192,17841,128,0,18055:0:0:0:70:C_Finish.wav
448,192,18055,1,0,0:0:0:70:E_Clap.wav
64,192,18055,128,0,18270:0:0:0:60:D_DrumF.wav
320,192,18270,128,0,18484:0:0:0:35:E_Clap.wav
192,192,18270,1,0,0:0:0:35:E_Clap.wav
64,192,18484,1,0,0:0:0:35:E_Clap.wav
448,192,18484,128,0,18698:0:0:0:35:E_Clap.wav
320,192,18698,1,0,0:0:0:35:E_Clap.wav
192,192,18698,128,0,18913:0:0:0:35:E_Clap.wav
64,192,18913,128,0,19020:0:0:0:35:E_Clap.wav
448,192,18913,128,0,19020:0:0:0:35:E_Clap.wav
192,192,19127,128,0,19234:0:0:0:35:E_Clap.wav
320,192,19127,128,0,19234:0:0:0:35:E_Clap.wav
192,192,19341,128,0,19448:0:0:0:35:E_Clap.wav
448,192,19341,128,0,19448:0:0:0:35:E_Clap.wav
320,192,19555,128,0,19663:0:0:0:70:E_Clap.wav
64,192,19555,128,0,19663:0:0:0:50:F_Clap.wav
192,192,19770,1,0,0:0:0:35:E_Clap.wav
448,192,19770,1,0,0:0:0:35:E_Clap.wav
192,192,19984,1,0,0:0:0:35:E_Clap.wav
448,192,19984,1,0,0:0:0:35:E_Clap.wav
64,192,20198,1,0,0:0:0:35:E_Clap.wav
320,192,20198,1,0,0:0:0:35:E_Clap.wav
320,192,20413,1,0,0:0:0:35:E_Clap.wav
64,192,20413,1,0,0:0:0:35:E_Clap.wav
192,192,20627,1,0,0:0:0:35:E_Clap.wav
448,192,20627,1,0,0:0:0:35:E_Clap.wav
320,192,20734,1,0,0:0:0:0:
448,192,20841,1,0,0:0:0:35:E_Clap.wav
64,192,20841,1,0,0:0:0:35:E_Clap.wav
192,192,20948,1,0,0:0:0:0:
448,192,21055,1,0,0:0:0:35:E_Clap.wav
64,192,21055,1,0,0:0:0:35:E_Clap.wav
320,192,21163,1,0,0:0:0:0:
192,192,21270,1,0,0:0:0:70:E_Clap.wav
448,192,21270,128,0,21484:0:0:0:50:F_Clap.wav
320,192,21484,128,0,21698:0:0:0:35:E_Clap.wav
64,192,21484,1,0,0:0:0:35:E_Clap.wav
64,192,21698,128,0,21913:0:0:0:23:E_Clap.wav
192,192,21698,1,0,0:0:0:23:E_Clap.wav
448,192,21698,1,0,0:0:0:23:E_Clap.wav
448,192,21913,128,0,22127:0:0:0:35:E_Clap.wav
192,192,21913,1,0,0:0:0:35:E_Clap.wav
192,192,22127,128,0,22341:0:0:0:35:E_Clap.wav
320,192,22127,1,0,0:0:0:35:E_Clap.wav
448,192,22341,128,0,22555:0:0:0:35:E_Clap.wav
64,192,22341,1,0,0:0:0:35:E_Clap.wav
64,192,22555,128,0,22770:0:0:0:35:E_Clap.wav
320,192,22555,1,0,0:0:0:35:E_Clap.wav
192,192,22770,128,0,22877:0:0:0:35:E_Clap.wav
448,192,22770,128,0,22877:0:0:0:35:E_Clap.wav
320,192,22984,128,0,23091:0:0:0:70:E_Clap.wav
64,192,22984,128,0,23091:0:0:0:50:F_Clap.wav
192,192,23198,1,0,0:0:0:35:E_Clap.wav
448,192,23198,1,0,0:0:0:35:E_Clap.wav
192,192,23413,1,0,0:0:0:35:E_Clap.wav
448,192,23413,1,0,0:0:0:35:E_Clap.wav
320,192,23627,1,0,0:0:0:35:E_Clap.wav
64,192,23627,1,0,0:0:0:35:E_Clap.wav
64,192,23841,1,0,0:0:0:35:E_Clap.wav
320,192,23841,1,0,0:0:0:35:E_Clap.wav
192,192,24055,1,0,0:0:0:35:E_Clap.wav
448,192,24055,1,0,0:0:0:35:E_Clap.wav
320,192,24163,1,0,0:0:0:70:E_Clap.wav
64,192,24270,1,0,0:0:0:50:F_Clap.wav
448,192,24377,1,0,0:0:0:0:
64,192,24484,1,0,0:0:0:35:E_Clap.wav
320,192,24484,1,0,0:0:0:35:E_Clap.wav
192,192,24591,1,0,0:0:0:70:E_Clap.wav
448,192,24698,1,0,0:0:0:50:F_Clap.wav
64,192,24805,1,0,0:0:0:0:
320,192,24913,128,0,25127:0:0:0:35:E_Clap.wav
192,192,24913,1,0,0:0:0:35:E_Clap.wav
64,192,25127,128,0,25341:0:0:0:70:E_Clap2.wav
448,192,25127,1,0,0:0:0:50:F_Clap.wav
448,192,25341,128,0,25555:0:0:0:35:E_Clap.wav
192,192,25341,1,0,0:0:0:35:E_Clap.wav
192,192,25555,128,0,25770:0:0:0:70:E_Clap2.wav
320,192,25555,1,0,0:0:0:50:F_Clap.wav
64,192,25770,128,0,25877:0:0:0:35:E_Clap.wav
448,192,25770,128,0,25877:0:0:0:35:E_Clap.wav
192,192,25984,128,0,26091:0:0:0:70:E_Clap2.wav
320,192,25984,128,0,26091:0:0:0:50:F_Clap.wav
64,192,26198,128,0,26305:0:0:0:35:E_Clap.wav
320,192,26198,128,0,26305:0:0:0:35:E_Clap.wav
192,192,26413,128,0,26520:0:0:0:70:E_Clap2.wav
448,192,26413,128,0,26520:0:0:0:50:F_Clap.wav
64,192,26627,1,0,0:0:0:35:E_Clap.wav
320,192,26627,1,0,0:0:0:35:E_Clap.wav
320,192,26841,1,0,0:0:0:70:E_Clap2.wav
64,192,26841,1,0,0:0:0:50:F_Clap.wav
192,192,27055,1,0,0:0:0:35:E_Clap.wav
448,192,27055,1,0,0:0:0:35:E_Clap.wav
192,192,27270,1,0,0:0:0:70:E_Clap2.wav
448,192,27270,1,0,0:0:0:50:F_Clap.wav
64,192,27484,128,0,27591:0:0:0:70:E_Clap.wav
320,192,27484,128,0,27591:0:0:0:50:F_Clap.wav
192,192,27698,1,0,0:0:0:70:E_Clap.wav
448,192,27698,1,0,0:0:0:30:E_Kick.wav
320,192,27805,1,0,0:0:0:30:E_Kick.wav
64,192,27913,1,0,0:0:0:15:E_Kick.wav
448,192,27913,1,0,0:0:0:15:E_Kick.wav
192,192,28020,1,0,0:0:0:30:E_Kick.wav
64,192,28127,1,0,0:0:0:15:E_Kick.wav
448,192,28127,1,0,0:0:0:15:E_Kick.wav
320,192,28234,1,0,0:0:0:30:E_Kick.wav
64,192,28341,128,0,28555:0:0:0:0:
448,192,28555,1,0,0:0:0:70:E_Clap2.wav
192,192,28555,128,0,28770:0:0:0:70:D_DrumF.wav
320,192,28770,128,0,28984:0:0:0:70:E_Clap2.wav
64,192,28770,1,0,0:0:0:70:E_Clap.wav
64,192,28984,128,0,29198:0:0:0:70:E_Clap2.wav
448,192,28984,1,0,0:0:0:70:E_Clap.wav
192,192,29198,128,0,29305:0:0:0:35:E_Clap.wav
448,192,29198,128,0,29305:0:0:0:35:E_Clap.wav
320,192,29413,128,0,29520:0:0:0:35:E_Clap.wav
64,192,29413,128,0,29520:0:0:0:35:E_Clap.wav
192,192,29627,128,0,29734:0:0:0:35:E_Clap.wav
320,192,29627,128,0,29734:0:0:0:35:E_Clap.wav
64,192,29841,128,0,29948:0:0:0:70:E_Clap.wav
448,192,29841,128,0,29948:0:0:0:50:F_Clap.wav
192,192,30055,1,0,0:0:0:35:E_Clap.wav
448,192,30055,1,0,0:0:0:35:E_Clap.wav
320,192,30163,1,0,0:0:0:70:E_Clap.wav
64,192,30270,1,0,0:0:0:50:F_Clap.wav
192,192,30323,1,0,0:0:0:0:
448,192,30377,1,0,0:0:0:0:
320,192,30484,1,0,0:0:0:35:E_Clap.wav
64,192,30484,1,0,0:0:0:35:E_Clap.wav
192,192,30591,1,0,0:0:0:70:E_Clap.wav
448,192,30698,1,0,0:0:0:50:F_Clap.wav
320,192,30752,1,0,0:0:0:0:
64,192,30805,1,0,0:0:0:0:
448,192,30913,1,0,0:0:0:70:E_Clap.wav
192,192,31020,1,0,0:0:0:25:F_Clap.wav
64,192,31020,1,0,0:0:0:25:F_Clap.wav
320,192,31127,1,0,0:0:0:70:E_Clap.wav
448,192,31127,1,0,0:0:0:50:F_Clap.wav
192,192,31234,1,0,0:0:0:0:
320,192,31341,1,0,0:0:0:35:E_Clap.wav
448,192,31341,1,0,0:0:0:35:E_Clap.wav
64,192,31448,1,0,0:0:0:0:
320,192,31555,1,0,0:0:0:50:F_Clap.wav
192,192,31663,1,0,0:0:0:0:
64,192,31770,1,0,0:0:0:35:D_DrumF.wav
448,192,31770,1,0,0:0:0:35:D_DrumF.wav
192,192,31877,1,0,0:0:0:0:
320,192,31984,1,0,0:0:0:0:
64,192,32091,1,0,0:0:0:0:
192,192,32198,1,0,0:0:0:0:
320,192,32305,1,0,0:0:0:0:
192,192,32413,1,0,0:0:0:0:
320,192,32520,1,0,0:0:0:0:
448,192,32520,1,0,0:0:0:0:
64,192,32627,1,0,0:0:0:0:
448,192,32734,1,0,0:0:0:50:D_DrumL.wav
320,192,32788,1,0,0:0:0:50:D_DrumL.wav
192,192,32841,1,0,0:0:0:50:D_DrumL.wav
192,192,32948,1,0,0:0:0:50:D_DrumL.wav
320,192,33055,1,0,0:0:0:70:C_Finish.wav
448,192,33055,1,0,0:0:0:50:D_DrumH.wav
64,192,33163,1,0,0:0:0:0:
320,192,33270,1,0,0:0:0:0:
192,192,33377,1,0,0:0:0:0:
448,192,33484,128,0,33698:0:0:0:35:E_Clap.wav
64,192,33484,1,0,0:0:0:35:E_Clap.wav
192,192,33698,128,0,33913:0:0:0:70:E_Clap2.wav
320,192,33698,1,0,0:0:0:50:F_Clap.wav
448,192,33913,128,0,34127:0:0:0:35:E_Clap.wav
64,192,33913,1,0,0:0:0:35:E_Clap.wav
64,192,34127,128,0,34341:0:0:0:70:E_Clap2.wav
320,192,34127,1,0,0:0:0:50:F_Clap.wav
192,192,34341,128,0,34448:0:0:0:35:E_Clap.wav
448,192,34341,128,0,34448:0:0:0:35:E_Clap.wav
192,192,34555,128,0,34663:0:0:0:70:E_Clap2.wav
320,192,34555,128,0,34663:0:0:0:50:F_Clap.wav
64,192,34770,128,0,34877:0:0:0:35:E_Clap.wav
320,192,34770,128,0,34877:0:0:0:35:E_Clap.wav
64,192,34984,128,0,35091:0:0:0:70:E_Clap2.wav
448,192,34984,128,0,35091:0:0:0:50:F_Clap.wav
192,192,35198,128,0,35305:0:0:0:35:E_Clap.wav
320,192,35198,128,0,35305:0:0:0:35:E_Clap.wav
320,192,35413,128,0,35520:0:0:0:70:E_Clap2.wav
192,192,35413,128,0,35520:0:0:0:50:F_Clap.wav
448,192,35627,128,0,35734:0:0:0:35:E_Clap.wav
64,192,35627,128,0,35734:0:0:0:35:E_Clap.wav
64,192,35841,128,0,35948:0:0:0:70:E_Clap2.wav
448,192,35841,128,0,35948:0:0:0:50:F_Clap.wav
192,192,36055,1,0,0:0:0:35:E_Clap2.wav
64,192,36055,1,0,0:0:0:35:E_Clap2.wav
192,192,36216,1,0,0:0:0:35:E_Clap2.wav
320,192,36216,1,0,0:0:0:35:E_Clap2.wav
320,192,36377,1,0,0:0:0:35:E_Clap.wav
448,192,36377,1,0,0:0:0:35:E_Clap.wav
64,192,36484,128,0,36698:0:0:0:15:E_Kick.wav
192,192,36484,1,0,0:0:0:15:E_Kick.wav
448,192,36698,128,0,36913:0:0:0:15:E_Kick.wav
320,192,36698,1,0,0:0:0:15:E_Kick.wav
64,192,36913,1,0,0:0:0:35:D_DrumF.wav
192,192,36913,1,0,0:0:0:35:D_DrumF.wav
320,192,37020,1,0,0:0:0:0:
448,192,37127,1,0,0:0:0:0:
64,192,37234,1,0,0:0:0:0:
192,192,37341,1,0,0:0:0:0:
448,192,37448,1,0,0:0:0:0:
64,192,37555,1,0,0:0:0:0:
320,192,37663,1,0,0:0:0:0:
448,192,37663,1,0,0:0:0:0:
192,192,37770,1,0,0:0:0:0:
448,192,37877,1,0,0:0:0:50:D_DrumL.wav
320,192,37930,1,0,0:0:0:50:D_DrumL.wav
64,192,37984,1,0,0:0:0:50:D_DrumL.wav
64,192,38091,1,0,0:0:0:50:D_DrumL.wav
448,192,38198,1,0,0:0:0:70:C_Finish.wav
192,192,38198,1,0,0:0:0:50:D_DrumH.wav
320,192,38270,1,0,0:0:0:8:A_Silent.mp3
64,192,38341,1,0,0:0:0:8:A_Silent.mp3
448,192,38413,1,0,0:0:0:8:A_Silent.mp3
320,192,38484,1,0,0:0:0:8:A_Silent.mp3
64,192,38555,1,0,0:0:0:8:A_Silent.mp3
192,192,38627,1,0,0:0:0:70:D_DrumF.wav
448,192,38627,1,0,0:0:0:35:E_Kick.wav
320,192,38734,1,0,0:0:0:40:E_Clap.wav
64,192,38841,1,0,0:0:0:18:E_Kick.wav
448,192,38841,1,0,0:0:0:18:E_Kick.wav
192,192,38948,1,0,0:0:0:40:E_Clap.wav
448,192,39055,1,0,0:0:0:18:E_Kick.wav
64,192,39055,1,0,0:0:0:18:E_Kick.wav
320,192,39163,1,0,0:0:0:40:E_Clap.wav
448,192,39270,1,0,0:0:0:18:E_Kick.wav
64,192,39270,1,0,0:0:0:18:E_Kick.wav
192,192,39377,1,0,0:0:0:40:E_Clap.wav
320,192,39484,1,0,0:0:0:18:E_Kick.wav
448,192,39484,1,0,0:0:0:18:E_Kick.wav
192,192,39591,1,0,0:0:0:40:E_Clap.wav
64,192,39698,1,0,0:0:0:0:
320,192,39698,128,0,39913:0:0:0:0:
192,192,39913,128,0,40020:0:0:0:18:E_Kick.wav
448,192,39913,128,0,40020:0:0:0:18:E_Kick.wav
320,192,40127,128,0,40234:0:0:0:18:E_Kick.wav
64,192,40127,128,0,40234:0:0:0:18:E_Kick.wav
192,192,40341,128,0,40555:0:0:0:0:
448,192,40341,1,0,0:0:0:0:
320,192,40555,128,0,40770:0:0:0:0:
64,192,40555,1,0,0:0:0:0:
192,192,40770,1,0,0:0:0:18:E_Kick.wav
64,192,40770,1,0,0:0:0:18:E_Kick.wav
320,192,40877,1,0,0:0:0:40:E_Clap.wav
192,192,40984,1,0,0:0:0:18:E_Kick.wav
64,192,40984,1,0,0:0:0:18:E_Kick.wav
320,192,41091,1,0,0:0:0:40:E_Clap.wav
448,192,41198,128,0,41627:0:0:0:23:E_Kick2.wav
64,192,41198,128,0,41627:0:0:0:23:E_Kick2.wav
192,192,41627,128,0,42055:0:0:0:23:E_Kick2.wav
320,192,41627,128,0,42055:0:0:0:23:E_Kick2.wav
64,192,42055,1,0,0:0:0:18:E_Kick.wav
448,192,42055,1,0,0:0:0:18:E_Kick.wav
320,192,42163,1,0,0:0:0:40:E_Clap.wav
192,192,42270,1,0,0:0:0:18:E_Kick.wav
448,192,42270,1,0,0:0:0:18:E_Kick.wav
320,192,42377,1,0,0:0:0:40:E_Clap.wav
64,192,42484,1,0,0:0:0:18:E_Kick.wav
448,192,42484,1,0,0:0:0:18:E_Kick.wav
192,192,42591,1,0,0:0:0:40:E_Clap.wav
64,192,42698,1,0,0:0:0:18:E_Kick.wav
320,192,42698,1,0,0:0:0:18:E_Kick.wav
192,192,42805,1,0,0:0:0:40:E_Clap.wav
320,192,42913,128,0,43127:0:0:0:0:
64,192,42913,1,0,0:0:0:0:
448,192,43127,1,0,0:0:0:18:E_Kick.wav
192,192,43127,128,0,43341:0:0:0:18:E_Kick.wav
448,192,43341,128,0,43770:0:0:0:0:
64,192,43341,1,0,0:0:0:0:
320,192,43555,128,0,43770:0:0:0:35:E_Kick.wav
192,192,43770,1,0,0:0:0:18:E_Kick.wav
64,192,43770,1,0,0:0:0:18:E_Kick.wav
320,192,43877,1,0,0:0:0:35:E_Kick.wav
448,192,43984,1,0,0:0:0:0:
192,192,43984,128,0,44198:0:0:0:0:
320,192,44198,1,0,0:0:0:18:E_Kick.wav
448,192,44198,1,0,0:0:0:18:E_Kick.wav
64,192,44305,128,0,44413:0:0:0:0:
320,192,44413,1,0,0:0:0:35:E_Kick.wav
192,192,44520,1,0,0:0:0:35:E_Kick.wav
320,192,44627,128,0,44841:0:0:0:0:
448,192,44627,1,0,0:0:0:0:
64,192,44841,1,0,0:0:0:35:E_Kick.wav
320,192,44948,128,0,45055:0:0:0:0:
64,192,45055,128,0,45163:0:0:0:0:
448,192,45163,128,0,45270:0:0:0:0:
192,192,45270,128,0,45377:0:0:0:0:
320,192,45377,128,0,45484:0:0:0:0:
64,192,45484,1,0,0:0:0:70:D_DrumF.wav
448,192,45484,1,0,0:0:0:45:B_Clap.wav
192,192,45591,1,0,0:0:0:0:
320,192,45698,1,0,0:0:0:23:B_Clap.wav
448,192,45698,1,0,0:0:0:23:B_Clap.wav
320,192,45805,1,0,0:0:0:0:
192,192,45913,1,0,0:0:0:45:B_Clap.wav
448,192,46020,1,0,0:0:0:0:
64,192,46127,128,0,46341:0:0:0:45:B_Clap.wav
192,192,46341,1,0,0:0:0:23:B_Clap.wav
448,192,46341,1,0,0:0:0:23:B_Clap.wav
192,192,46448,1,0,0:0:0:0:
320,192,46555,1,0,0:0:0:45:B_Clap.wav
64,192,46663,1,0,0:0:0:0:
448,192,46770,128,0,46984:0:0:0:45:B_Clap.wav
192,192,46984,1,0,0:0:0:23:B_Clap.wav
64,192,46984,1,0,0:0:0:23:B_Clap.wav
192,192,47091,1,0,0:0:0:0:
320,192,47198,1,0,0:0:0:45:B_Clap.wav
64,192,47305,1,0,0:0:0:0:
448,192,47413,128,0,47627:0:0:0:45:B_Clap.wav
320,192,47627,1,0,0:0:0:23:B_Clap.wav
64,192,47627,1,0,0:0:0:23:B_Clap.wav
320,192,47734,1,0,0:0:0:0:
192,192,47841,1,0,0:0:0:45:B_Clap.wav
448,192,47948,1,0,0:0:0:0:
64,192,48055,128,0,48270:0:0:0:45:B_Clap.wav
448,192,48270,1,0,0:0:0:23:B_Clap.wav
192,192,48270,1,0,0:0:0:23:B_Clap.wav
192,192,48377,1,0,0:0:0:0:
320,192,48484,1,0,0:0:0:45:B_Clap.wav
64,192,48591,1,0,0:0:0:0:
448,192,48698,1,0,0:0:0:45:B_Clap.wav
192,192,48805,1,0,0:0:0:0:
320,192,48913,1,0,0:0:0:23:B_Clap.wav
448,192,48913,1,0,0:0:0:23:B_Clap.wav
192,192,49020,1,0,0:0:0:0:
64,192,49127,1,0,0:0:0:23:B_Clap.wav
320,192,49127,1,0,0:0:0:23:B_Clap.wav
320,192,49234,1,0,0:0:0:0:
192,192,49341,1,0,0:0:0:23:B_Clap.wav
448,192,49341,1,0,0:0:0:23:B_Clap.wav
64,192,49448,1,0,0:0:0:0:
320,192,49555,128,0,49770:0:0:0:45:B_Clap.wav
192,192,49770,1,0,0:0:0:23:B_Clap.wav
64,192,49770,1,0,0:0:0:23:B_Clap.wav
192,192,49877,1,0,0:0:0:0:
320,192,49984,1,0,0:0:0:23:B_Clap.wav
448,192,49984,1,0,0:0:0:23:B_Clap.wav
64,192,50091,1,0,0:0:0:0:
320,192,50198,128,0,50413:0:0:0:45:B_Clap.wav
192,192,50413,1,0,0:0:0:23:B_Clap.wav
448,192,50413,1,0,0:0:0:23:B_Clap.wav
192,192,50520,1,0,0:0:0:0:
320,192,50627,1,0,0:0:0:23:B_Clap.wav
64,192,50627,1,0,0:0:0:23:B_Clap.wav
192,192,50734,1,0,0:0:0:0:
448,192,50841,128,0,51055:0:0:0:45:B_Clap.wav
320,192,51055,1,0,0:0:0:23:B_Clap.wav
192,192,51055,1,0,0:0:0:23:B_Clap.wav
320,192,51163,1,0,0:0:0:0:
64,192,51270,1,0,0:0:0:23:B_Clap.wav
448,192,51270,1,0,0:0:0:23:B_Clap.wav
192,192,51377,1,0,0:0:0:0:
320,192,51484,128,0,51591:0:0:0:20:A_silent.wav
448,192,51484,1,0,0:0:0:20:A_silent.wav
64,192,51591,128,0,51698:0:0:0:40:A_silent.wav
448,192,51698,128,0,51805:0:0:0:40:A_silent.wav
320,192,51805,128,0,51913:0:0:0:40:A_silent.wav
64,192,51913,128,0,52020:0:0:0:40:A_silent.wav
192,192,52020,128,0,52127:0:0:0:40:A_silent.wav
320,192,52127,128,0,52234:0:0:0:40:A_silent.wav
64,192,52234,128,0,52341:0:0:0:40:A_silent.wav
448,192,52341,128,0,54055:0:0:0:20:A_silent.wav
192,192,52341,128,0,52555:0:0:0:20:A_silent.wav
320,192,52555,128,0,52770:0:0:0:40:A_silent.wav
64,192,52770,128,0,52984:0:0:0:40:A_silent.wav
192,192,52984,128,0,53198:0:0:0:40:A_silent.wav
320,192,53198,1,0,0:0:0:40:A_silent.wav
64,192,53305,1,0,0:0:0:40:A_silent.wav
320,192,53413,1,0,0:0:0:40:A_silent.wav
192,192,53520,1,0,0:0:0:40:A_silent.wav
320,192,53734,1,0,0:0:0:40:A_silent.wav
64,192,53841,1,0,0:0:0:40:A_silent.wav
320,192,53948,1,0,0:0:0:40:A_silent.wav
64,192,54055,128,0,55770:0:0:0:20:A_silent.wav
192,192,54055,128,0,54270:0:0:0:20:A_silent.wav
448,192,54270,128,0,54484:0:0:0:40:A_silent.wav
320,192,54484,128,0,54698:0:0:0:40:A_silent.wav
192,192,54805,1,0,0:0:0:40:A_silent.wav
448,192,54913,1,0,0:0:0:40:A_silent.wav
192,192,55020,1,0,0:0:0:40:A_silent.wav
320,192,55127,1,0,0:0:0:40:A_silent.wav
448,192,55234,1,0,0:0:0:40:A_silent.wav
192,192,55341,1,0,0:0:0:40:A_silent.wav
320,192,55448,1,0,0:0:0:40:A_silent.wav
192,192,55555,1,0,0:0:0:40:A_silent.wav
448,192,55663,1,0,0:0:0:40:A_silent.wav
192,192,55770,128,0,55877:0:0:0:40:A_silent.wav
320,192,55877,1,0,0:0:0:40:A_silent.wav
448,192,55984,1,0,0:0:0:40:A_silent.wav
192,192,56091,1,0,0:0:0:40:A_silent.wav
320,192,56198,1,0,0:0:0:40:A_silent.wav
64,192,56305,1,0,0:0:0:40:A_silent.wav
320,192,56413,1,0,0:0:0:40:A_silent.wav
448,192,56520,1,0,0:0:0:40:A_silent.wav
192,192,56627,128,0,56734:0:0:0:40:A_silent.wav
64,192,56734,1,0,0:0:0:40:A_silent.wav
320,192,56841,1,0,0:0:0:40:A_silent.wav
192,192,56948,1,0,0:0:0:40:A_silent.wav
320,192,57055,1,0,0:0:0:40:A_silent.wav
64,192,57163,1,0,0:0:0:40:A_silent.wav
448,192,57270,1,0,0:0:0:40:A_silent.wav
192,192,57377,1,0,0:0:0:40:A_silent.wav
320,192,57484,128,0,57591:0:0:0:70:D_DrumF.wav
448,192,57484,128,0,57591:0:0:0:40:A_silent.wav
192,192,57698,128,0,57805:0:0:0:20:A_silent.wav
320,192,57698,128,0,57805:0:0:0:20:A_silent.wav
64,192,57913,128,0,58020:0:0:0:20:A_silent.wav
192,192,57913,128,0,58020:0:0:0:20:A_silent.wav
64,192,58127,128,0,58234:0:0:0:20:A_silent.wav
320,192,58127,128,0,58234:0:0:0:20:A_silent.wav
192,192,58341,128,0,58448:0:0:0:70:D_DrumF.wav
448,192,58341,128,0,58448:0:0:0:40:A_silent.wav
64,192,58555,128,0,58770:0:0:0:20:A_silent.wav
448,192,58555,128,0,58770:0:0:0:20:A_silent.wav
192,192,58770,128,0,58877:0:0:0:20:A_silent.wav
320,192,58770,128,0,58877:0:0:0:20:A_silent.wav
64,192,58984,128,0,59091:0:0:0:20:A_silent.wav
448,192,58984,128,0,59091:0:0:0:20:A_silent.wav
320,192,59198,128,0,59305:0:0:0:70:D_DrumF.wav
448,192,59198,128,0,59305:0:0:0:40:A_silent.wav
320,192,59413,128,0,59520:0:0:0:20:A_silent.wav
192,192,59413,128,0,59520:0:0:0:20:A_silent.wav
64,192,59627,128,0,59734:0:0:0:20:A_silent.wav
192,192,59627,128,0,59734:0:0:0:20:A_silent.wav
320,192,59841,128,0,59948:0:0:0:20:A_silent.wav
448,192,59841,128,0,59948:0:0:0:20:A_silent.wav
64,192,60055,128,0,60163:0:0:0:20:A_silent.wav
448,192,60055,128,0,60163:0:0:0:20:A_silent.wav
320,192,60270,1,0,0:0:0:40:A_silent.wav
192,192,60341,1,0,0:0:0:40:A_silent.wav
64,192,60413,1,0,0:0:0:40:A_silent.wav
320,192,60484,1,0,0:0:0:20:A_silent.wav
448,192,60484,1,0,0:0:0:20:A_silent.wav
192,192,60698,1,0,0:0:0:20:A_silent.wav
64,192,60698,1,0,0:0:0:20:A_silent.wav
448,192,60913,1,0,0:0:0:70:D_DrumF.wav
320,192,60984,1,0,0:0:0:40:A_silent.wav
192,192,61055,1,0,0:0:0:40:A_silent.wav
64,192,61127,1,0,0:0:0:40:A_silent.wav
448,192,61198,1,0,0:0:0:40:A_silent.wav
320,192,61270,1,0,0:0:0:40:A_silent.wav
192,192,61341,1,0,0:0:0:40:A_silent.wav
64,192,61413,1,0,0:0:0:40:A_silent.wav
448,192,61484,1,0,0:0:0:40:A_silent.wav
192,192,61555,1,0,0:0:0:40:A_silent.wav
64,192,61627,1,0,0:0:0:40:A_silent.wav
448,192,61698,1,0,0:0:0:40:A_silent.wav
192,192,61770,1,0,0:0:0:60:E_Clap2.wav
320,192,61841,1,0,0:0:0:40:A_silent.wav
448,192,61913,1,0,0:0:0:40:A_silent.wav
64,192,61984,1,0,0:0:0:40:A_silent.wav
192,192,62055,1,0,0:0:0:40:A_silent.wav
320,192,62127,1,0,0:0:0:40:A_silent.wav
448,192,62198,1,0,0:0:0:40:A_silent.wav
64,192,62270,1,0,0:0:0:40:A_silent.wav
320,192,62341,1,0,0:0:0:40:A_silent.wav
448,192,62413,1,0,0:0:0:40:A_silent.wav
192,192,62484,1,0,0:0:0:40:A_silent.wav
320,192,62555,1,0,0:0:0:40:A_silent.wav
448,192,62627,128,0,63484:0:0:0:0:
64,192,62841,1,0,0:0:0:0:
192,192,63055,1,0,0:0:0:0:
192,192,63198,1,0,0:0:0:0:
192,192,63341,1,0,0:0:0:0:
64,192,63484,1,0,0:0:0:60:E_Clap2.wav
192,192,63555,1,0,0:0:0:40:A_silent.wav
320,192,63627,1,0,0:0:0:40:A_silent.wav
448,192,63698,1,0,0:0:0:40:A_silent.wav
64,192,63770,1,0,0:0:0:40:A_silent.wav
192,192,63841,1,0,0:0:0:40:A_silent.wav
448,192,63913,1,0,0:0:0:40:A_silent.wav
64,192,63984,1,0,0:0:0:40:A_silent.wav
320,192,64055,1,0,0:0:0:40:A_silent.wav
448,192,64127,1,0,0:0:0:40:A_silent.wav
192,192,64198,1,0,0:0:0:40:A_silent.wav
320,192,64270,1,0,0:0:0:40:A_silent.wav
448,192,64341,1,0,0:0:0:40:A_silent.wav
320,192,64413,1,0,0:0:0:40:A_silent.wav
192,192,64484,1,0,0:0:0:40:A_silent.wav
64,192,64555,1,0,0:0:0:40:A_silent.wav
448,192,64627,1,0,0:0:0:40:A_silent.wav
192,192,64698,1,0,0:0:0:40:A_silent.wav
64,192,64770,1,0,0:0:0:40:A_silent.wav
448,192,64841,1,0,0:0:0:40:A_silent.wav
320,192,64913,1,0,0:0:0:40:A_silent.wav
64,192,64984,1,0,0:0:0:40:A_silent.wav
448,192,65055,1,0,0:0:0:40:A_silent.wav
192,192,65127,1,0,0:0:0:40:A_silent.wav
64,192,65198,1,0,0:0:0:60:E_Clap2.wav
192,192,65270,1,0,0:0:0:40:A_silent.wav
320,192,65341,1,0,0:0:0:40:A_silent.wav
448,192,65413,1,0,0:0:0:40:A_silent.wav
64,192,65484,1,0,0:0:0:40:A_silent.wav
320,192,65555,1,0,0:0:0:40:A_silent.wav
448,192,65627,1,0,0:0:0:40:A_silent.wav
64,192,65698,1,0,0:0:0:40:A_silent.wav
192,192,65770,1,0,0:0:0:40:A_silent.wav
448,192,65841,1,0,0:0:0:40:A_silent.wav
64,192,65913,1,0,0:0:0:40:A_silent.wav
320,192,65984,1,0,0:0:0:40:A_silent.wav
448,192,66055,128,0,66913:0:0:0:0:
192,192,66198,1,0,0:0:0:0:
320,192,66413,1,0,0:0:0:0:
192,192,66555,1,0,0:0:0:0:
64,192,66913,1,0,0:0:0:60:E_Clap2.wav
320,192,66984,1,0,0:0:0:40:A_silent.wav
448,192,67055,1,0,0:0:0:40:A_silent.wav
64,192,67127,1,0,0:0:0:40:A_silent.wav
192,192,67198,1,0,0:0:0:40:A_silent.wav
448,192,67270,1,0,0:0:0:40:A_silent.wav
64,192,67341,1,0,0:0:0:40:A_silent.wav
192,192,67413,1,0,0:0:0:40:A_silent.wav
448,192,67484,1,0,0:0:0:40:A_silent.wav
64,192,67555,1,0,0:0:0:40:A_silent.wav
192,192,67627,1,0,0:0:0:40:A_silent.wav
320,192,67698,1,0,0:0:0:40:A_silent.wav
448,192,67770,1,0,0:0:0:40:A_silent.wav
320,192,67841,1,0,0:0:0:40:A_silent.wav
64,192,67913,1,0,0:0:0:40:A_silent.wav
448,192,67984,1,0,0:0:0:40:A_silent.wav
192,192,68055,1,0,0:0:0:40:A_silent.wav
64,192,68127,1,0,0:0:0:40:A_silent.wav
448,192,68198,1,0,0:0:0:40:A_silent.wav
320,192,68270,1,0,0:0:0:40:A_silent.wav
192,192,68341,1,0,0:0:0:40:A_silent.wav
64,192,68413,1,0,0:0:0:40:A_silent.wav
448,192,68484,1,0,0:0:0:40:A_silent.wav
320,192,68555,1,0,0:0:0:40:A_silent.wav
64,192,68627,1,0,0:0:0:60:E_Clap2.wav
192,192,68698,1,0,0:0:0:40:A_silent.wav
448,192,68770,1,0,0:0:0:40:A_silent.wav
64,192,68841,1,0,0:0:0:40:A_silent.wav
192,192,68913,1,0,0:0:0:40:A_silent.wav
320,192,68984,1,0,0:0:0:40:A_silent.wav
448,192,69055,1,0,0:0:0:40:A_silent.wav
320,192,69127,1,0,0:0:0:40:A_silent.wav
192,192,69198,1,0,0:0:0:40:A_silent.wav
64,192,69270,1,0,0:0:0:40:A_silent.wav
192,192,69341,1,0,0:0:0:40:A_silent.wav
320,192,69413,1,0,0:0:0:40:A_silent.wav
448,192,69484,128,0,70341:0:0:0:0:
64,192,69698,1,0,0:0:0:0:
192,192,69913,1,0,0:0:0:0:
192,192,70055,1,0,0:0:0:0:
192,192,70198,1,0,0:0:0:0:
64,192,70341,1,0,0:0:0:60:E_Clap2.wav
320,192,70413,1,0,0:0:0:40:A_silent.wav
448,192,70484,1,0,0:0:0:40:A_silent.wav
64,192,70555,1,0,0:0:0:40:A_silent.wav
192,192,70627,1,0,0:0:0:40:A_silent.wav
448,192,70698,1,0,0:0:0:40:A_silent.wav
64,192,70770,1,0,0:0:0:40:A_silent.wav
192,192,70841,1,0,0:0:0:40:A_silent.wav
448,192,70913,1,0,0:0:0:40:A_silent.wav
320,192,70984,1,0,0:0:0:40:A_silent.wav
192,192,71055,1,0,0:0:0:40:A_silent.wav
320,192,71127,1,0,0:0:0:40:A_silent.wav
448,192,71198,1,0,0:0:0:40:A_silent.wav
320,192,71270,1,0,0:0:0:40:A_silent.wav
192,192,71341,1,0,0:0:0:40:A_silent.wav
64,192,71413,1,0,0:0:0:40:A_silent.wav
192,192,71484,1,0,0:0:0:40:A_silent.wav
320,192,71555,1,0,0:0:0:40:A_silent.wav
448,192,71627,1,0,0:0:0:40:A_silent.wav
320,192,71698,1,0,0:0:0:40:A_silent.wav
192,192,71770,1,0,0:0:0:40:A_silent.wav
64,192,71841,1,0,0:0:0:40:A_silent.wav
448,192,71913,1,0,0:0:0:40:A_silent.wav
192,192,71984,1,0,0:0:0:40:A_silent.wav
64,192,72055,1,0,0:0:0:60:E_Clap2.wav
320,192,72127,1,0,0:0:0:40:A_silent.wav
192,192,72198,1,0,0:0:0:40:A_silent.wav
64,192,72270,1,0,0:0:0:40:A_silent.wav
448,192,72341,1,0,0:0:0:40:A_silent.wav
320,192,72413,1,0,0:0:0:40:A_silent.wav
192,192,72484,1,0,0:0:0:40:A_silent.wav
64,192,72555,1,0,0:0:0:40:A_silent.wav
448,192,72627,1,0,0:0:0:40:A_silent.wav
192,192,72698,1,0,0:0:0:40:A_silent.wav
320,192,72770,1,0,0:0:0:40:A_silent.wav
192,192,72841,1,0,0:0:0:40:A_silent.wav
64,192,72913,1,0,0:0:0:40:A_silent.wav
448,192,72984,1,0,0:0:0:40:A_silent.wav
320,192,73055,1,0,0:0:0:40:A_silent.wav
192,192,73127,1,0,0:0:0:40:A_silent.wav
320,192,73198,1,0,0:0:0:40:A_silent.wav
448,192,73270,1,0,0:0:0:40:A_silent.wav
64,192,73341,1,0,0:0:0:40:A_silent.wav
192,192,73413,1,0,0:0:0:40:A_silent.wav
320,192,73484,1,0,0:0:0:40:A_silent.wav
192,192,73555,1,0,0:0:0:40:A_silent.wav
320,192,73627,1,0,0:0:0:40:A_silent.wav
448,192,73698,1,0,0:0:0:40:A_silent.wav
448,192,74627,1,0,0:0:0:40:C_Finish_Long.wav
64,192,74627,1,0,0:0:0:35:E_Kick.wav
320,192,74734,1,0,0:0:0:35:E_Kick.wav
192,192,74841,1,0,0:0:0:0:
64,192,74841,1,0,0:0:0:0:
448,192,74948,1,0,0:0:0:35:E_Kick.wav
64,192,75055,1,0,0:0:0:35:E_Kick.wav
320,192,75163,1,0,0:0:0:0:
192,192,75270,1,0,0:0:0:0:
64,192,75270,1,0,0:0:0:0:
320,192,75377,1,0,0:0:0:0:
448,192,75484,1,0,0:0:0:0:
192,192,75484,1,0,0:0:0:0:
320,192,75591,1,0,0:0:0:0:
192,192,75698,1,0,0:0:0:0:
64,192,75698,1,0,0:0:0:0:
448,192,75805,1,0,0:0:0:0:
192,192,75913,1,0,0:0:0:35:E_Clap2.wav
64,192,75913,1,0,0:0:0:35:E_Clap2.wav
192,192,76020,1,0,0:0:0:70:E_Clap2.wav
192,192,76127,1,0,0:0:0:70:E_Clap2.wav
320,192,76234,1,0,0:0:0:35:E_Kick.wav
448,192,76341,1,0,0:0:0:18:E_Kick.wav
64,192,76341,1,0,0:0:0:18:E_Kick.wav
192,192,76448,1,0,0:0:0:35:E_Kick.wav
64,192,76555,1,0,0:0:0:18:E_Kick.wav
448,192,76555,128,0,76663:0:0:0:18:E_Kick.wav
320,192,76663,1,0,0:0:0:35:E_Kick.wav
192,192,76770,1,0,0:0:0:0:
320,192,76877,1,0,0:0:0:0:
64,192,76984,128,0,77091:0:0:0:18:E_Kick.wav
448,192,76984,1,0,0:0:0:18:E_Kick.wav
192,192,77091,1,0,0:0:0:35:E_Kick.wav
448,192,77198,128,0,77627:0:0:0:35:E_Kick.wav
64,192,77413,128,0,77627:0:0:0:35:E_Kick.wav
192,192,77627,128,0,78055:0:0:0:35:E_Kick.wav
320,192,77841,128,0,78055:0:0:0:35:E_Kick.wav
448,192,78055,1,0,0:0:0:18:E_Kick.wav
64,192,78055,1,0,0:0:0:18:E_Kick.wav
192,192,78163,1,0,0:0:0:35:E_Kick.wav
320,192,78270,1,0,0:0:0:0:
448,192,78270,1,0,0:0:0:0:
64,192,78377,1,0,0:0:0:35:E_Kick.wav
448,192,78484,1,0,0:0:0:35:E_Kick.wav
192,192,78591,1,0,0:0:0:0:
320,192,78698,1,0,0:0:0:0:
448,192,78698,1,0,0:0:0:0:
192,192,78805,1,0,0:0:0:0:
64,192,78913,1,0,0:0:0:0:
320,192,78913,1,0,0:0:0:0:
192,192,79020,1,0,0:0:0:0:
320,192,79127,1,0,0:0:0:0:
448,192,79127,1,0,0:0:0:0:
64,192,79234,1,0,0:0:0:0:
320,192,79341,1,0,0:0:0:35:E_Clap2.wav
448,192,79341,1,0,0:0:0:35:E_Clap2.wav
320,192,79448,1,0,0:0:0:70:E_Clap2.wav
320,192,79555,1,0,0:0:0:70:E_Clap2.wav
192,192,79663,1,0,0:0:0:35:E_Kick.wav
64,192,79770,1,0,0:0:0:18:E_Kick.wav
448,192,79770,1,0,0:0:0:18:E_Kick.wav
320,192,79877,1,0,0:0:0:35:E_Kick.wav
64,192,79984,128,0,80091:0:0:0:18:E_Kick.wav
448,192,79984,1,0,0:0:0:18:E_Kick.wav
192,192,80091,1,0,0:0:0:35:E_Kick.wav
320,192,80198,1,0,0:0:0:35:E_Kick.wav
192,192,80305,1,0,0:0:0:35:E_Kick.wav
64,192,80413,1,0,0:0:0:18:E_Kick.wav
448,192,80413,128,0,80520:0:0:0:18:E_Kick.wav
320,192,80520,1,0,0:0:0:35:E_Kick.wav
64,192,80627,128,0,81055:0:0:0:35:E_Kick.wav
320,192,80841,128,0,81055:0:0:0:35:E_Kick.wav
448,192,81055,128,0,81484:0:0:0:18:E_Kick.wav
192,192,81055,1,0,0:0:0:18:E_Kick.wav
192,192,81484,1,0,0:0:0:70:D_DrumF.wav
64,192,81484,1,0,0:0:0:35:E_Kick.wav
320,192,81591,1,0,0:0:0:0:
448,192,81698,1,0,0:0:0:18:E_Kick.wav
64,192,81698,1,0,0:0:0:18:E_Kick.wav
192,192,81805,1,0,0:0:0:35:E_Kick.wav
64,192,81913,1,0,0:0:0:35:E_Clap2.wav
320,192,81913,1,0,0:0:0:35:E_Clap2.wav
320,192,82020,1,0,0:0:0:70:E_Clap2.wav
320,192,82127,1,0,0:0:0:70:E_Clap2.wav
192,192,82234,1,0,0:0:0:35:E_Kick.wav
320,192,82341,1,0,0:0:0:18:E_Kick.wav
448,192,82341,1,0,0:0:0:18:E_Kick.wav
192,192,82448,1,0,0:0:0:35:E_Kick.wav
64,192,82555,1,0,0:0:0:18:E_Kick.wav
448,192,82555,1,0,0:0:0:18:E_Kick.wav
320,192,82663,1,0,0:0:0:35:E_Kick.wav
192,192,82770,1,0,0:0:0:35:E_Clap2.wav
448,192,82770,1,0,0:0:0:35:E_Clap2.wav
192,192,82877,1,0,0:0:0:70:E_Clap2.wav
192,192,82984,1,0,0:0:0:70:E_Clap2.wav
448,192,83091,1,0,0:0:0:35:E_Kick.wav
64,192,83198,1,0,0:0:0:18:E_Kick.wav
192,192,83198,1,0,0:0:0:18:E_Kick.wav
320,192,83305,1,0,0:0:0:35:E_Kick.wav
448,192,83413,1,0,0:0:0:18:E_Kick.wav
192,192,83413,1,0,0:0:0:18:E_Kick.wav
64,192,83520,1,0,0:0:0:35:E_Kick.wav
320,192,83627,1,0,0:0:0:35:E_Clap2.wav
192,192,83627,1,0,0:0:0:35:E_Clap2.wav
320,192,83734,1,0,0:0:0:70:E_Clap2.wav
320,192,83841,1,0,0:0:0:70:E_Clap2.wav
64,192,83948,1,0,0:0:0:35:E_Kick.wav
320,192,84055,1,0,0:0:0:18:E_Kick.wav
448,192,84055,1,0,0:0:0:18:E_Kick.wav
192,192,84163,1,0,0:0:0:35:E_Kick.wav
64,192,84270,1,0,0:0:0:18:E_Kick.wav
320,192,84270,1,0,0:0:0:18:E_Kick.wav
448,192,84377,1,0,0:0:0:35:E_Kick.wav
320,192,84484,1,0,0:0:0:20:C_Finish_Long.wav
192,192,84484,128,0,84805:0:0:0:20:C_Finish_Long.wav
320,192,84913,1,0,0:0:0:18:E_Kick.wav
448,192,84913,1,0,0:0:0:18:E_Kick.wav
64,192,85020,1,0,0:0:0:35:E_Kick.wav
64,192,85127,1,0,0:0:0:18:E_Kick.wav
192,192,85127,1,0,0:0:0:18:E_Kick.wav
448,192,85234,1,0,0:0:0:35:E_Kick.wav
320,192,85341,1,0,0:0:0:18:E_Kick.wav
448,192,85341,1,0,0:0:0:18:E_Kick.wav
64,192,85448,1,0,0:0:0:35:E_Kick.wav
192,192,85555,1,0,0:0:0:18:E_Kick.wav
64,192,85555,1,0,0:0:0:18:E_Kick.wav
448,192,85663,1,0,0:0:0:35:E_Kick.wav
320,192,85770,1,0,0:0:0:18:E_Kick.wav
448,192,85770,1,0,0:0:0:18:E_Kick.wav
64,192,85877,1,0,0:0:0:35:E_Kick.wav
192,192,85984,1,0,0:0:0:18:E_Kick.wav
64,192,85984,1,0,0:0:0:18:E_Kick.wav
448,192,86091,1,0,0:0:0:35:E_Kick.wav
320,192,86198,1,0,0:0:0:18:E_Kick.wav
448,192,86198,1,0,0:0:0:18:E_Kick.wav
64,192,86305,1,0,0:0:0:35:E_Kick.wav
192,192,86413,1,0,0:0:0:18:E_Kick.wav
64,192,86413,1,0,0:0:0:18:E_Kick.wav
448,192,86520,1,0,0:0:0:35:E_Kick.wav
320,192,86627,1,0,0:0:0:18:E_Kick.wav
448,192,86627,1,0,0:0:0:18:E_Kick.wav
192,192,86841,1,0,0:0:0:30:E_Kick.wav
448,192,87055,1,0,0:0:0:30:F_Clap.wav
64,192,87270,1,0,0:0:0:30:E_Kick.wav
448,192,87377,1,0,0:0:0:30:E_Kick.wav
192,192,87484,1,0,0:0:0:30:E_Kick.wav
320,192,87591,1,0,0:0:0:30:E_Kick.wav
64,192,87698,1,0,0:0:0:30:E_Kick.wav
448,192,87913,1,0,0:0:0:0:
320,192,87913,128,0,88127:0:0:0:0:
192,192,88127,128,0,88341:0:0:0:0:
64,192,88341,128,0,88663:0:0:0:35:D_DrumF.wav
448,192,88341,1,0,0:0:0:35:D_DrumF.wav
320,192,88448,1,0,0:0:0:0:
192,192,88555,1,0,0:0:0:35:F_Clap.wav
448,192,88663,128,0,88984:0:0:0:0:
320,192,88663,1,0,0:0:0:0:
192,192,88770,1,0,0:0:0:0:
64,192,88877,1,0,0:0:0:0:
192,192,88984,128,0,89413:0:0:0:18:F_Clap.wav
320,192,88984,1,0,0:0:0:18:F_Clap.wav
64,192,89091,1,0,0:0:0:0:
320,192,89198,1,0,0:0:0:0:
448,192,89305,1,0,0:0:0:0:
64,192,89413,128,0,89627:0:0:0:18:F_Clap.wav
320,192,89413,1,0,0:0:0:18:F_Clap.wav
448,192,89520,1,0,0:0:0:0:
320,192,89627,128,0,89841:0:0:0:0:
192,192,89627,1,0,0:0:0:0:
64,192,89734,1,0,0:0:0:0:
448,192,89841,128,0,90055:0:0:0:18:F_Clap.wav
192,192,89841,1,0,0:0:0:18:F_Clap.wav
64,192,89948,1,0,0:0:0:0:
192,192,90055,128,0,90270:0:0:0:0:
320,192,90055,1,0,0:0:0:0:
64,192,90163,1,0,0:0:0:0:
448,192,90270,128,0,90484:0:0:0:18:F_Clap.wav
320,192,90270,1,0,0:0:0:18:F_Clap.wav
64,192,90377,1,0,0:0:0:0:
320,192,90484,128,0,90698:0:0:0:0:
192,192,90484,1,0,0:0:0:0:
448,192,90591,1,0,0:0:0:0:
64,192,90698,128,0,91127:0:0:0:18:F_Clap.wav
192,192,90698,1,0,0:0:0:18:F_Clap.wav
320,192,90805,1,0,0:0:0:0:
192,192,90913,1,0,0:0:0:0:
448,192,91020,1,0,0:0:0:0:
320,192,91127,1,0,0:0:0:35:F_Clap.wav
192,192,91198,1,0,0:0:0:0:
64,192,91270,1,0,0:0:0:0:
448,192,91341,1,0,0:0:0:0:
192,192,91413,1,0,0:0:0:0:
64,192,91484,1,0,0:0:0:0:
448,192,91555,1,0,0:0:0:35:F_Clap.wav
320,192,91627,1,0,0:0:0:0:
64,192,91698,1,0,0:0:0:0:
448,192,91770,128,0,92198:0:0:0:0:
192,192,91770,1,0,0:0:0:0:
320,192,91877,1,0,0:0:0:0:
64,192,91984,1,0,0:0:0:35:F_Clap.wav
320,192,92091,1,0,0:0:0:0:
192,192,92198,1,0,0:0:0:0:
64,192,92305,1,0,0:0:0:0:
192,192,92413,128,0,92734:0:0:0:18:F_Clap.wav
448,192,92413,1,0,0:0:0:18:F_Clap.wav
320,192,92520,1,0,0:0:0:0:
448,192,92627,1,0,0:0:0:0:
64,192,92734,1,0,0:0:0:0:
320,192,92788,1,0,0:0:0:0:
448,192,92841,1,0,0:0:0:35:F_Clap.wav
192,192,92948,1,0,0:0:0:0:
320,192,93055,1,0,0:0:0:0:
64,192,93163,1,0,0:0:0:0:
448,192,93270,1,0,0:0:0:35:F_Clap.wav
192,192,93377,1,0,0:0:0:0:
320,192,93430,1,0,0:0:0:0:
448,192,93484,128,0,93913:0:0:0:0:
64,192,93591,1,0,0:0:0:0:
320,192,93698,1,0,0:0:0:35:F_Clap.wav
192,192,93805,1,0,0:0:0:0:
320,192,93913,1,0,0:0:0:0:
64,192,94020,1,0,0:0:0:0:
192,192,94127,128,0,94555:0:0:0:18:F_Clap.wav
448,192,94127,1,0,0:0:0:18:F_Clap.wav
64,192,94234,1,0,0:0:0:0:
320,192,94341,1,0,0:0:0:0:
64,192,94448,1,0,0:0:0:0:
448,192,94555,1,0,0:0:0:35:F_Clap.wav
320,192,94627,1,0,0:0:0:0:
192,192,94698,1,0,0:0:0:0:
64,192,94770,1,0,0:0:0:0:
192,192,94841,1,0,0:0:0:0:
320,192,94913,1,0,0:0:0:0:
448,192,94984,1,0,0:0:0:18:F_Clap.wav
64,192,94984,1,0,0:0:0:18:F_Clap.wav
192,192,95198,1,0,0:0:0:70:D_DrumF.wav
448,192,95198,1,0,0:0:0:30:E_Kick.wav
320,192,95305,1,0,0:0:0:30:E_Kick.wav
64,192,95413,1,0,0:0:0:15:E_Kick.wav
448,192,95413,1,0,0:0:0:15:E_Kick.wav
192,192,95520,1,0,0:0:0:30:E_Kick.wav
320,192,95627,1,0,0:0:0:15:E_Kick.wav
448,192,95627,1,0,0:0:0:15:E_Kick.wav
192,192,95734,1,0,0:0:0:30:E_Kick.wav
64,192,95841,1,0,0:0:0:15:E_Kick.wav
320,192,95841,1,0,0:0:0:15:E_Kick.wav
192,192,95948,1,0,0:0:0:30:E_Kick.wav
448,192,96055,1,0,0:0:0:18:E_Kick.wav
64,192,96055,1,0,0:0:0:18:E_Kick.wav
320,192,96163,1,0,0:0:0:35:E_Kick.wav
64,192,96270,1,0,0:0:0:35:E_Kick.wav
320,192,96377,1,0,0:0:0:35:E_Kick.wav
192,192,96484,1,0,0:0:0:35:E_Kick.wav
448,192,96591,1,0,0:0:0:35:E_Kick.wav
192,192,96698,1,0,0:0:0:35:E_Kick.wav
448,192,96805,1,0,0:0:0:35:E_Kick.wav
64,192,96913,1,0,0:0:0:40:C_Finish_Long.wav
320,192,96913,128,0,97127:0:0:0:35:E_Kick.wav
448,192,97020,1,0,0:0:0:0:
192,192,97127,128,0,97341:0:0:0:18:F_Clap.wav
64,192,97127,1,0,0:0:0:18:F_Clap.wav
320,192,97234,1,0,0:0:0:0:
448,192,97341,128,0,97555:0:0:0:0:
64,192,97341,1,0,0:0:0:0:
320,192,97448,1,0,0:0:0:0:
64,192,97555,128,0,97984:0:0:0:18:F_Clap.wav
192,192,97555,1,0,0:0:0:18:F_Clap.wav
320,192,97663,1,0,0:0:0:0:
448,192,97770,1,0,0:0:0:0:
192,192,97877,1,0,0:0:0:0:
448,192,97984,1,0,0:0:0:35:F_Clap.wav
320,192,98055,1,0,0:0:0:0:
64,192,98127,1,0,0:0:0:0:
448,192,98198,1,0,0:0:0:0:
192,192,98270,1,0,0:0:0:0:
64,192,98341,1,0,0:0:0:0:
448,192,98413,1,0,0:0:0:35:F_Clap.wav
320,192,98484,1,0,0:0:0:0:
64,192,98555,1,0,0:0:0:0:
448,192,98627,128,0,99055:0:0:0:0:
192,192,98627,1,0,0:0:0:0:
320,192,98734,1,0,0:0:0:0:
192,192,98841,1,0,0:0:0:35:F_Clap.wav
64,192,98948,1,0,0:0:0:0:
320,192,99055,1,0,0:0:0:0:
192,192,99163,1,0,0:0:0:0:
320,192,99216,1,0,0:0:0:0:
448,192,99270,128,0,99698:0:0:0:35:F_Clap.wav
192,192,99377,1,0,0:0:0:0:
64,192,99484,1,0,0:0:0:0:
320,192,99591,1,0,0:0:0:0:
192,192,99698,1,0,0:0:0:35:F_Clap.wav
64,192,99805,1,0,0:0:0:0:
320,192,99913,1,0,0:0:0:0:
192,192,100020,1,0,0:0:0:0:
448,192,100127,1,0,0:0:0:35:F_Clap.wav
320,192,100234,1,0,0:0:0:0:
64,192,100341,1,0,0:0:0:18:E_Kick.wav
192,192,100341,1,0,0:0:0:18:E_Kick.wav
320,192,100448,1,0,0:0:0:35:E_Kick.wav
64,192,100555,128,0,100770:0:0:0:30:E_Kick2.wav
320,192,100770,1,0,0:0:0:18:E_Kick.wav
448,192,100770,1,0,0:0:0:18:E_Kick.wav
192,192,100877,1,0,0:0:0:35:E_Kick.wav
448,192,100984,128,0,101198:0:0:0:30:E_Kick2.wav
64,192,101198,128,0,101305:0:0:0:35:E_Kick.wav
320,192,101305,128,0,101413:0:0:0:35:E_Kick.wav
64,192,101413,128,0,101520:0:0:0:35:E_Kick.wav
448,192,101520,128,0,101627:0:0:0:35:E_Kick.wav
192,192,101627,128,0,101734:0:0:0:35:E_Kick.wav
448,192,101734,128,0,101841:0:0:0:35:E_Kick.wav
192,192,101841,128,0,101948:0:0:0:35:E_Kick.wav
320,192,101948,128,0,102055:0:0:0:35:E_Kick.wav
64,192,102055,128,0,102377:0:0:0:70:D_DrumF.wav
448,192,102055,1,0,0:0:0:35:E_Kick.wav
192,192,102163,1,0,0:0:0:0:
320,192,102270,1,0,0:0:0:35:F_Clap.wav
448,192,102377,128,0,102698:0:0:0:0:
192,192,102377,1,0,0:0:0:0:
320,192,102484,1,0,0:0:0:0:
64,192,102591,1,0,0:0:0:0:
320,192,102698,128,0,103127:0:0:0:18:F_Clap.wav
192,192,102698,1,0,0:0:0:18:F_Clap.wav
64,192,102805,1,0,0:0:0:0:
448,192,102913,1,0,0:0:0:0:
192,192,103020,1,0,0:0:0:0:
448,192,103127,1,0,0:0:0:18:F_Clap.wav
64,192,103127,128,0,103341:0:0:0:18:F_Clap.wav
192,192,103234,1,0,0:0:0:0:
320,192,103341,128,0,103555:0:0:0:0:
448,192,103341,1,0,0:0:0:0:
192,192,103448,1,0,0:0:0:0:
448,192,103555,128,0,103770:0:0:0:18:F_Clap.wav
64,192,103555,1,0,0:0:0:18:F_Clap.wav
320,192,103663,1,0,0:0:0:0:
192,192,103770,128,0,103984:0:0:0:0:
64,192,103770,1,0,0:0:0:0:
320,192,103877,1,0,0:0:0:0:
448,192,103984,128,0,104198:0:0:0:18:F_Clap.wav
64,192,103984,1,0,0:0:0:18:F_Clap.wav
320,192,104091,1,0,0:0:0:0:
64,192,104198,128,0,104413:0:0:0:0:
192,192,104198,1,0,0:0:0:0:
448,192,104305,1,0,0:0:0:0:
320,192,104413,128,0,104841:0:0:0:18:F_Clap.wav
192,192,104413,1,0,0:0:0:18:F_Clap.wav
448,192,104520,1,0,0:0:0:0:
64,192,104627,1,0,0:0:0:0:
448,192,104734,1,0,0:0:0:0:
64,192,104841,1,0,0:0:0:35:F_Clap.wav
448,192,104913,1,0,0:0:0:0:
320,192,104984,1,0,0:0:0:0:
192,192,105055,1,0,0:0:0:0:
64,192,105127,1,0,0:0:0:0:
448,192,105198,1,0,0:0:0:0:
320,192,105270,1,0,0:0:0:35:F_Clap.wav
192,192,105341,1,0,0:0:0:0:
64,192,105413,1,0,0:0:0:0:
448,192,105484,128,0,105913:0:0:0:0:
320,192,105484,1,0,0:0:0:0:
192,192,105591,1,0,0:0:0:0:
320,192,105698,1,0,0:0:0:35:F_Clap.wav
64,192,105805,1,0,0:0:0:0:
192,192,105913,1,0,0:0:0:0:
320,192,106020,1,0,0:0:0:0:
192,192,106127,128,0,106555:0:0:0:18:F_Clap.wav
64,192,106127,1,0,0:0:0:18:F_Clap.wav
448,192,106234,1,0,0:0:0:0:
320,192,106341,1,0,0:0:0:0:
64,192,106448,1,0,0:0:0:0:
320,192,106502,1,0,0:0:0:0:
448,192,106555,1,0,0:0:0:35:F_Clap.wav
320,192,106663,1,0,0:0:0:0:
192,192,106770,1,0,0:0:0:0:
448,192,106877,1,0,0:0:0:0:
64,192,106984,1,0,0:0:0:35:F_Clap.wav
192,192,107091,1,0,0:0:0:0:
320,192,107145,1,0,0:0:0:0:
448,192,107198,128,0,107627:0:0:0:0:
192,192,107305,1,0,0:0:0:0:
320,192,107413,1,0,0:0:0:35:F_Clap.wav
64,192,107520,1,0,0:0:0:0:
192,192,107627,1,0,0:0:0:0:
320,192,107734,1,0,0:0:0:0:
192,192,107841,128,0,108055:0:0:0:18:F_Clap.wav
448,192,107841,1,0,0:0:0:18:F_Clap.wav
64,192,107948,1,0,0:0:0:0:
448,192,108055,1,0,0:0:0:40:B_Clap.wav
64,192,108127,1,0,0:0:0:40:B_Clap.wav
320,192,108198,1,0,0:0:0:40:B_Clap.wav
192,192,108270,1,0,0:0:0:40:B_Clap.wav
448,192,108341,1,0,0:0:0:40:B_Clap.wav
320,192,108413,1,0,0:0:0:40:B_Clap.wav
64,192,108484,1,0,0:0:0:40:B_Clap.wav
192,192,108555,1,0,0:0:0:40:B_Clap.wav
448,192,108627,1,0,0:0:0:40:B_Clap.wav
320,192,108698,128,0,108913:0:0:0:40:B_Clap.wav
64,192,108913,128,0,109127:0:0:0:25:E_Kick.wav
448,192,108913,1,0,0:0:0:25:E_Kick.wav
192,192,109020,1,0,0:0:0:50:E_Kick.wav
320,192,109127,1,0,0:0:0:70:E_Clap2.wav
192,192,109234,1,0,0:0:0:0:
320,192,109341,128,0,109555:0:0:0:25:E_Kick.wav
448,192,109341,1,0,0:0:0:25:E_Kick.wav
64,192,109448,1,0,0:0:0:50:E_Kick.wav
192,192,109555,1,0,0:0:0:70:E_Clap2.wav
448,192,109663,1,0,0:0:0:0:
192,192,109770,128,0,109984:0:0:0:25:E_Kick.wav
64,192,109770,1,0,0:0:0:25:E_Kick.wav
448,192,109877,1,0,0:0:0:50:E_Kick.wav
320,192,109984,1,0,0:0:0:70:E_Clap2.wav
64,192,110091,1,0,0:0:0:0:
448,192,110198,128,0,110413:0:0:0:25:E_Kick.wav
320,192,110198,1,0,0:0:0:25:E_Kick.wav
192,192,110305,1,0,0:0:0:50:E_Kick.wav
320,192,110413,1,0,0:0:0:70:E_Clap2.wav
64,192,110520,1,0,0:0:0:0:
448,192,110627,1,0,0:0:0:50:E_Kick.wav
320,192,110680,1,0,0:0:0:50:E_Kick.wav
192,192,110734,1,0,0:0:0:50:E_Kick.wav
64,192,110788,1,0,0:0:0:50:E_Kick.wav
448,192,110841,1,0,0:0:0:50:E_Kick.wav
320,192,110895,1,0,0:0:0:50:E_Kick.wav
192,192,110948,1,0,0:0:0:50:E_Kick.wav
64,192,111002,1,0,0:0:0:50:E_Kick.wav
448,192,111055,1,0,0:0:0:50:E_Kick.wav
320,192,111109,1,0,0:0:0:50:E_Kick.wav
192,192,111163,1,0,0:0:0:50:E_Kick.wav
64,192,111216,1,0,0:0:0:50:E_Kick.wav
448,192,111270,1,0,0:0:0:50:E_Kick.wav
320,192,111323,1,0,0:0:0:50:E_Kick.wav
64,192,111377,1,0,0:0:0:50:E_Kick.wav
192,192,111430,1,0,0:0:0:50:E_Kick.wav
448,192,111484,1,0,0:0:0:50:E_Kick.wav
320,192,111538,1,0,0:0:0:50:E_Kick.wav
64,192,111591,1,0,0:0:0:50:E_Kick.wav
192,192,111645,1,0,0:0:0:50:E_Kick.wav
448,192,111698,1,0,0:0:0:50:E_Kick.wav
320,192,111752,1,0,0:0:0:50:E_Kick.wav
64,192,111805,1,0,0:0:0:50:E_Kick.wav
192,192,111859,1,0,0:0:0:50:E_Kick.wav
448,192,111913,1,0,0:0:0:70:E_Clap2.wav
320,192,111913,1,0,0:0:0:50:E_Kick.wav
64,192,112127,1,0,0:0:0:40:A_silent.wav
192,192,112198,1,0,0:0:0:40:A_silent.wav
320,192,112270,1,0,0:0:0:40:A_silent.wav
448,192,112341,1,0,0:0:0:40:A_silent.wav
192,192,112663,1,0,0:0:0:40:A_silent.wav
64,192,112877,1,0,0:0:0:40:A_silent.wav
320,192,112930,1,0,0:0:0:40:A_silent.wav
448,192,112984,1,0,0:0:0:40:A_silent.wav
448,192,113413,1,0,0:0:0:20:A_silent.wav
192,192,113413,1,0,0:0:0:20:A_silent.wav
320,192,113520,1,0,0:0:0:40:A_silent.wav
64,192,113627,1,0,0:0:0:40:A_silent.wav
320,192,114055,1,0,0:0:0:35:C_Finish_Long.wav
448,192,114055,1,0,0:0:0:20:B_Soft.wav
192,192,114163,1,0,0:0:0:20:B_Soft.wav
64,192,114270,1,0,0:0:0:10:B_Soft.wav
448,192,114270,1,0,0:0:0:10:B_Soft.wav
320,192,114377,1,0,0:0:0:20:B_Soft.wav
192,192,114484,1,0,0:0:0:20:B_Soft.wav
448,192,114591,1,0,0:0:0:20:B_Soft.wav
64,192,114698,128,0,114913:0:0:0:20:B_Soft.wav
320,192,114913,1,0,0:0:0:10:B_Soft.wav
448,192,114913,1,0,0:0:0:10:B_Soft.wav
192,192,115020,1,0,0:0:0:20:B_Soft.wav
448,192,115127,1,0,0:0:0:20:B_Soft.wav
64,192,115234,1,0,0:0:0:20:B_Soft.wav
320,192,115341,128,0,115555:0:0:0:20:B_Soft.wav
192,192,115555,1,0,0:0:0:10:B_Soft.wav
448,192,115555,1,0,0:0:0:10:B_Soft.wav
64,192,115663,1,0,0:0:0:20:B_Soft.wav
320,192,115770,1,0,0:0:0:10:B_Soft.wav
448,192,115770,1,0,0:0:0:10:B_Soft.wav
192,192,115877,1,0,0:0:0:20:B_Soft.wav
320,192,115984,128,0,116198:0:0:0:20:B_Soft.wav
64,192,116198,1,0,0:0:0:10:B_Soft.wav
448,192,116198,1,0,0:0:0:10:B_Soft.wav
192,192,116305,1,0,0:0:0:20:B_Soft.wav
448,192,116413,1,0,0:0:0:35:E_Kick.wav
320,192,116466,1,0,0:0:0:35:E_Kick.wav
64,192,116520,1,0,0:0:0:35:E_Kick.wav
192,192,116573,1,0,0:0:0:35:E_Kick.wav
448,192,116627,1,0,0:0:0:35:E_Kick.wav
320,192,116680,1,0,0:0:0:35:E_Kick.wav
64,192,116734,1,0,0:0:0:35:E_Kick.wav
192,192,116788,1,0,0:0:0:35:E_Kick.wav
448,192,116841,1,0,0:0:0:35:E_Kick.wav
320,192,116895,1,0,0:0:0:35:E_Kick.wav
192,192,116948,1,0,0:0:0:35:E_Kick.wav
64,192,117002,1,0,0:0:0:35:E_Kick.wav
448,192,117055,1,0,0:0:0:35:E_Kick.wav
320,192,117109,1,0,0:0:0:35:E_Kick.wav
192,192,117163,1,0,0:0:0:35:E_Kick.wav
64,192,117216,1,0,0:0:0:35:E_Kick.wav
448,192,117270,1,0,0:0:0:35:E_Kick.wav
320,192,117323,1,0,0:0:0:35:E_Kick.wav
192,192,117377,1,0,0:0:0:35:E_Kick.wav
64,192,117430,1,0,0:0:0:35:E_Kick.wav
448,192,117484,1,0,0:0:0:65:D_DrumF.wav
320,192,117484,128,0,118127:0:0:0:35:E_Kick.wav
