osu file format v14

[General]
AudioFilename: audio.mp3
AudioLeadIn: 0
PreviewTime: 88355
Countdown: 0
SampleSet: Normal
StackLeniency: 0.7
Mode: 3
LetterboxInBreaks: 0
SpecialStyle: 0
WidescreenStoryboard: 1

[Editor]
Bookmarks: 502,2644,16358,17215,18072,24983,31787,45501,51501,60929,73787,74644,86644,88358,117501
DistanceSpacing: 1
BeatDivisor: 3
GridSize: 4
TimelineZoom: 4.000001

[Metadata]
Title:iLLness LiLin
TitleUnicode:iLLness LiLin
Artist:Kaneko Chiharu
ArtistUnicode:かねこちはる
Creator:Blasticide
Version:EXHAUST
Source:Sound Voltex 4th
Tags:The 6th KAC Original Song Contest Winner Aonasai Pirates Rasis Grace Hardcore Piano SDVX 4 Julie
BeatmapID:1377812
BeatmapSetID:636028

[Difficulty]
HPDrainRate:7
CircleSize:7
OverallDifficulty:7
ApproachRate:5
SliderMultiplier:1.4
SliderTickRate:1

[Events]
//Background and Video events
0,0,"170317_1_1.png",0,0
//Break Periods
//Storyboard Layer 0 (Background)
//Storyboard Layer 1 (Fail)
//Storyboard Layer 2 (Pass)
//Storyboard Layer 3 (Foreground)
//Storyboard Sound Samples

[TimingPoints]
915,214.285714285714,4,1,0,20,1,0
88343,-100,4,1,0,20,0,1
111914,-100,4,1,0,20,0,0

[HitObjects]
36,192,915,5,0,0:0:0:0:
109,192,915,1,0,0:0:0:0:
475,192,915,1,0,0:0:0:0:
402,192,986,1,0,0:0:0:0:
329,192,1057,1,0,0:0:0:0:
402,192,1129,1,0,0:0:0:0:
475,192,1200,1,0,0:0:0:0:
36,192,1272,1,0,0:0:0:0:
109,192,1343,1,0,0:0:0:0:
182,192,1414,1,0,0:0:0:0:
109,192,1486,1,0,0:0:0:0:
36,192,1557,1,0,0:0:0:0:
475,192,1629,1,0,0:0:0:0:
402,192,1700,1,0,0:0:0:0:
329,192,1772,1,0,0:0:0:0:
36,192,1772,1,0,0:0:0:0:
109,192,1843,1,0,0:0:0:0:
182,192,1914,1,0,0:0:0:0:
256,192,1986,1,0,0:0:0:0:
329,192,2057,1,0,0:0:0:0:
402,192,2129,1,0,0:0:0:0:
475,192,2200,1,0,0:0:0:0:
402,192,2272,1,0,0:0:0:0:
329,192,2343,1,0,0:0:0:0:
256,192,2414,1,0,0:0:0:0:
182,192,2486,1,0,0:0:0:0:
109,192,2557,1,0,0:0:0:0:
36,192,2629,1,0,0:0:0:0:
475,192,2629,1,0,0:0:0:0:
402,192,2682,1,0,0:0:0:0:
329,192,2736,1,0,0:0:0:0:
256,192,2789,1,0,0:0:0:0:
402,192,2843,1,0,0:0:0:0:
329,192,2897,1,0,0:0:0:0:
256,192,2950,1,0,0:0:0:0:
182,192,3004,1,0,0:0:0:0:
329,192,3057,1,0,0:0:0:0:
256,192,3111,1,0,0:0:0:0:
182,192,3164,1,0,0:0:0:0:
109,192,3218,1,0,0:0:0:0:
256,192,3272,1,0,0:0:0:0:
182,192,3325,1,0,0:0:0:0:
109,192,3379,1,0,0:0:0:0:
36,192,3432,1,0,0:0:0:0:
329,192,3486,1,0,0:0:0:0:
182,192,3539,1,0,0:0:0:0:
329,192,3593,1,0,0:0:0:0:
182,192,3647,1,0,0:0:0:0:
329,192,3700,1,0,0:0:0:0:
182,192,3754,1,0,0:0:0:0:
329,192,3807,1,0,0:0:0:0:
182,192,3861,1,0,0:0:0:0:
329,192,3914,1,0,0:0:0:0:
475,192,3914,1,0,0:0:0:0:
475,192,4343,1,0,0:0:0:0:
36,192,4343,1,0,0:0:0:0:
109,192,4450,1,0,0:0:0:0:
182,192,4557,128,0,4664:0:0:0:0:
329,192,4557,1,0,0:0:0:0:
36,192,4664,128,0,4772:0:0:0:0:
109,192,4772,128,0,4879:0:0:0:0:
402,192,4772,1,0,0:0:0:0:
182,192,4879,128,0,4986:0:0:0:0:
475,192,4986,1,0,0:0:0:0:
182,192,5200,128,0,5307:0:0:0:0:
402,192,5200,1,0,0:0:0:0:
36,192,5307,128,0,5414:0:0:0:0:
109,192,5414,128,0,5522:0:0:0:0:
329,192,5414,1,0,0:0:0:0:
182,192,5522,128,0,5629:0:0:0:0:
475,192,5629,1,0,0:0:0:0:
182,192,5843,128,0,5950:0:0:0:0:
329,192,5843,1,0,0:0:0:0:
36,192,5950,128,0,6057:0:0:0:0:
109,192,6057,128,0,6164:0:0:0:0:
402,192,6057,1,0,0:0:0:0:
182,192,6164,128,0,6272:0:0:0:0:
475,192,6272,1,0,0:0:0:0:
36,192,6272,128,0,6379:0:0:0:0:
182,192,6486,128,0,6593:0:0:0:0:
329,192,6486,1,0,0:0:0:0:
36,192,6593,128,0,6700:0:0:0:0:
109,192,6700,128,0,6807:0:0:0:0:
402,192,6700,1,0,0:0:0:0:
182,192,6807,128,0,6914:0:0:0:0:
475,192,6914,1,0,0:0:0:0:
182,192,7022,128,0,7129:0:0:0:0:
36,192,7129,128,0,7236:0:0:0:0:
329,192,7129,1,0,0:0:0:0:
182,192,7236,128,0,7343:0:0:0:0:
329,192,7343,128,0,7450:0:0:0:0:
36,192,7343,1,0,0:0:0:0:
475,192,7450,128,0,7557:0:0:0:0:
109,192,7557,1,0,0:0:0:0:
329,192,7664,128,0,7772:0:0:0:0:
475,192,7772,128,0,7879:0:0:0:0:
182,192,7772,1,0,0:0:0:0:
402,192,7879,128,0,7986:0:0:0:0:
329,192,7986,128,0,8093:0:0:0:0:
36,192,7986,1,0,0:0:0:0:
475,192,8093,128,0,8200:0:0:0:0:
402,192,8200,128,0,8307:0:0:0:0:
182,192,8200,1,0,0:0:0:0:
329,192,8307,128,0,8414:0:0:0:0:
109,192,8414,1,0,0:0:0:0:
329,192,8629,128,0,8736:0:0:0:0:
36,192,8629,1,0,0:0:0:0:
475,192,8736,128,0,8843:0:0:0:0:
402,192,8843,128,0,8950:0:0:0:0:
182,192,8843,1,0,0:0:0:0:
329,192,8950,128,0,9057:0:0:0:0:
36,192,9057,1,0,0:0:0:0:
329,192,9272,128,0,9379:0:0:0:0:
109,192,9272,1,0,0:0:0:0:
475,192,9379,128,0,9486:0:0:0:0:
402,192,9486,128,0,9593:0:0:0:0:
182,192,9486,1,0,0:0:0:0:
329,192,9593,128,0,9700:0:0:0:0:
109,192,9700,1,0,0:0:0:0:
329,192,9914,128,0,10022:0:0:0:0:
36,192,9914,1,0,0:0:0:0:
475,192,10022,128,0,10129:0:0:0:0:
402,192,10129,128,0,10236:0:0:0:0:
109,192,10129,1,0,0:0:0:0:
329,192,10236,128,0,10343:0:0:0:0:
182,192,10343,1,0,0:0:0:0:
109,192,10397,1,0,0:0:0:0:
329,192,10450,1,0,0:0:0:0:
402,192,10504,1,0,0:0:0:0:
109,192,10664,1,0,0:0:0:0:
182,192,10718,1,0,0:0:0:0:
402,192,10772,1,0,0:0:0:0:
329,192,10825,1,0,0:0:0:0:
109,192,10879,1,0,0:0:0:0:
329,192,10986,1,0,0:0:0:0:
402,192,11039,1,0,0:0:0:0:
182,192,11093,1,0,0:0:0:0:
109,192,11147,1,0,0:0:0:0:
36,192,11200,1,0,0:0:0:0:
402,192,11200,1,0,0:0:0:0:
329,192,11307,1,0,0:0:0:0:
256,192,11414,128,0,11522:0:0:0:0:
36,192,11414,128,0,11522:0:0:0:0:
109,192,11522,128,0,11629:0:0:0:0:
329,192,11522,128,0,11629:0:0:0:0:
182,192,11629,128,0,11736:0:0:0:0:
402,192,11629,128,0,11736:0:0:0:0:
256,192,11736,128,0,11843:0:0:0:0:
475,192,11736,128,0,11843:0:0:0:0:
36,192,11843,1,0,0:0:0:0:
109,192,11843,1,0,0:0:0:0:
182,192,11950,1,0,0:0:0:0:
256,192,12057,128,0,12164:0:0:0:0:
475,192,12057,128,0,12164:0:0:0:0:
402,192,12164,128,0,12272:0:0:0:0:
182,192,12164,128,0,12272:0:0:0:0:
329,192,12272,128,0,12379:0:0:0:0:
109,192,12272,128,0,12379:0:0:0:0:
256,192,12379,128,0,12486:0:0:0:0:
36,192,12379,128,0,12486:0:0:0:0:
402,192,12486,1,0,0:0:0:0:
475,192,12486,1,0,0:0:0:0:
256,192,12593,1,0,0:0:0:0:
109,192,12700,128,0,12807:0:0:0:0:
36,192,12700,128,0,12807:0:0:0:0:
402,192,12807,128,0,12914:0:0:0:0:
475,192,12807,128,0,12914:0:0:0:0:
109,192,12914,128,0,13022:0:0:0:0:
182,192,12914,128,0,13022:0:0:0:0:
329,192,13022,128,0,13129:0:0:0:0:
402,192,13022,128,0,13129:0:0:0:0:
36,192,13129,1,0,0:0:0:0:
109,192,13129,1,0,0:0:0:0:
256,192,13236,1,0,0:0:0:0:
402,192,13343,128,0,13450:0:0:0:0:
475,192,13343,128,0,13450:0:0:0:0:
36,192,13450,128,0,13557:0:0:0:0:
109,192,13450,128,0,13557:0:0:0:0:
329,192,13557,128,0,13664:0:0:0:0:
402,192,13557,128,0,13664:0:0:0:0:
109,192,13664,128,0,13772:0:0:0:0:
182,192,13664,128,0,13772:0:0:0:0:
402,192,13772,1,0,0:0:0:0:
475,192,13772,1,0,0:0:0:0:
329,192,13879,1,0,0:0:0:0:
256,192,13986,128,0,14093:0:0:0:0:
182,192,14093,128,0,14200:0:0:0:0:
329,192,14093,128,0,14200:0:0:0:0:
109,192,14200,128,0,14307:0:0:0:0:
402,192,14200,128,0,14307:0:0:0:0:
36,192,14307,128,0,14414:0:0:0:0:
475,192,14307,128,0,14414:0:0:0:0:
182,192,14414,128,0,14522:0:0:0:0:
329,192,14414,128,0,14522:0:0:0:0:
402,192,14522,128,0,14629:0:0:0:0:
109,192,14522,128,0,14629:0:0:0:0:
329,192,14629,128,0,14736:0:0:0:0:
182,192,14629,128,0,14736:0:0:0:0:
402,192,14736,128,0,14843:0:0:0:0:
109,192,14736,128,0,14843:0:0:0:0:
256,192,14843,128,0,14950:0:0:0:0:
329,192,14950,128,0,15057:0:0:0:0:
182,192,14950,128,0,15057:0:0:0:0:
109,192,15057,128,0,15164:0:0:0:0:
402,192,15057,128,0,15164:0:0:0:0:
36,192,15164,128,0,15272:0:0:0:0:
475,192,15164,128,0,15272:0:0:0:0:
182,192,15272,1,0,0:0:0:0:
329,192,15272,1,0,0:0:0:0:
109,192,15379,1,0,0:0:0:0:
36,192,15486,128,0,15593:0:0:0:0:
475,192,15486,128,0,15593:0:0:0:0:
402,192,15593,128,0,15700:0:0:0:0:
109,192,15593,128,0,15700:0:0:0:0:
182,192,15700,128,0,15807:0:0:0:0:
329,192,15700,128,0,15807:0:0:0:0:
256,192,15807,128,0,15914:0:0:0:0:
36,192,15914,1,0,0:0:0:0:
475,192,15914,1,0,0:0:0:0:
402,192,16022,1,0,0:0:0:0:
36,192,16129,128,0,16236:0:0:0:0:
329,192,16129,128,0,16236:0:0:0:0:
256,192,16236,128,0,16343:0:0:0:0:
109,192,16236,128,0,16343:0:0:0:0:
182,192,16343,1,0,0:0:0:0:
329,192,16414,1,0,0:0:0:0:
475,192,16486,1,0,0:0:0:0:
109,192,16557,1,0,0:0:0:0:
256,192,16629,1,0,0:0:0:0:
402,192,16700,1,0,0:0:0:0:
36,192,16772,1,0,0:0:0:0:
182,192,16843,1,0,0:0:0:0:
329,192,16914,1,0,0:0:0:0:
475,192,16986,1,0,0:0:0:0:
402,192,17057,1,0,0:0:0:0:
329,192,17129,1,0,0:0:0:0:
36,192,17200,1,0,0:0:0:0:
256,192,17200,1,0,0:0:0:0:
109,192,17254,1,0,0:0:0:0:
182,192,17307,1,0,0:0:0:0:
475,192,17361,1,0,0:0:0:0:
402,192,17414,1,0,0:0:0:0:
329,192,17468,1,0,0:0:0:0:
256,192,17522,1,0,0:0:0:0:
182,192,17575,1,0,0:0:0:0:
109,192,17629,1,0,0:0:0:0:
36,192,17682,1,0,0:0:0:0:
329,192,17736,1,0,0:0:0:0:
402,192,17789,1,0,0:0:0:0:
475,192,17843,1,0,0:0:0:0:
36,192,17843,1,0,0:0:0:0:
475,192,18057,5,0,0:0:0:0:
36,192,18057,1,0,0:0:0:0:
182,192,18057,1,0,0:0:0:0:
256,192,18164,1,0,0:0:0:0:
329,192,18272,128,0,18379:0:0:0:0:
402,192,18272,128,0,18379:0:0:0:0:
182,192,18379,128,0,18486:0:0:0:0:
109,192,18379,128,0,18486:0:0:0:0:
36,192,18486,1,0,0:0:0:0:
475,192,18486,1,0,0:0:0:0:
329,192,18593,1,0,0:0:0:0:
182,192,18700,1,0,0:0:0:0:
36,192,18700,1,0,0:0:0:0:
256,192,18807,1,0,0:0:0:0:
329,192,18914,1,0,0:0:0:0:
475,192,18914,1,0,0:0:0:0:
109,192,19022,1,0,0:0:0:0:
256,192,19129,1,0,0:0:0:0:
402,192,19129,1,0,0:0:0:0:
36,192,19236,1,0,0:0:0:0:
182,192,19343,1,0,0:0:0:0:
329,192,19343,1,0,0:0:0:0:
475,192,19450,1,0,0:0:0:0:
109,192,19557,1,0,0:0:0:0:
182,192,19557,1,0,0:0:0:0:
329,192,19664,1,0,0:0:0:0:
402,192,19664,1,0,0:0:0:0:
182,192,19772,1,0,0:0:0:0:
36,192,19772,1,0,0:0:0:0:
109,192,19879,128,0,19986:0:0:0:0:
329,192,19986,1,0,0:0:0:0:
475,192,19986,1,0,0:0:0:0:
402,192,20093,128,0,20200:0:0:0:0:
182,192,20200,1,0,0:0:0:0:
36,192,20200,1,0,0:0:0:0:
109,192,20307,128,0,20414:0:0:0:0:
329,192,20414,1,0,0:0:0:0:
475,192,20414,1,0,0:0:0:0:
402,192,20522,128,0,20629:0:0:0:0:
182,192,20629,1,0,0:0:0:0:
36,192,20629,1,0,0:0:0:0:
256,192,20736,128,0,20843:0:0:0:0:
329,192,20843,1,0,0:0:0:0:
475,192,20843,1,0,0:0:0:0:
109,192,20843,128,0,20950:0:0:0:0:
256,192,20950,128,0,21057:0:0:0:0:
109,192,21057,128,0,21164:0:0:0:0:
256,192,21164,128,0,21272:0:0:0:0:
329,192,21272,128,0,21486:0:0:0:0:
475,192,21272,128,0,21486:0:0:0:0:
36,192,21486,1,0,0:0:0:0:
182,192,21486,1,0,0:0:0:0:
109,192,21486,1,0,0:0:0:0:
256,192,21593,1,0,0:0:0:0:
329,192,21700,128,0,21807:0:0:0:0:
475,192,21700,128,0,21807:0:0:0:0:
182,192,21807,128,0,21914:0:0:0:0:
36,192,21807,128,0,21914:0:0:0:0:
329,192,21914,128,0,22129:0:0:0:0:
475,192,21914,128,0,22129:0:0:0:0:
182,192,22129,128,0,22343:0:0:0:0:
36,192,22129,128,0,22343:0:0:0:0:
475,192,22343,1,0,0:0:0:0:
329,192,22343,1,0,0:0:0:0:
256,192,22450,1,0,0:0:0:0:
182,192,22557,1,0,0:0:0:0:
402,192,22557,1,0,0:0:0:0:
329,192,22664,1,0,0:0:0:0:
256,192,22772,1,0,0:0:0:0:
109,192,22772,1,0,0:0:0:0:
475,192,22879,1,0,0:0:0:0:
402,192,22986,128,0,23200:0:0:0:0:
182,192,22986,128,0,23200:0:0:0:0:
36,192,23200,1,0,0:0:0:0:
329,192,23200,1,0,0:0:0:0:
256,192,23307,128,0,23414:0:0:0:0:
109,192,23414,1,0,0:0:0:0:
402,192,23414,1,0,0:0:0:0:
329,192,23522,128,0,23629:0:0:0:0:
182,192,23629,1,0,0:0:0:0:
475,192,23629,1,0,0:0:0:0:
256,192,23736,128,0,23843:0:0:0:0:
109,192,23843,1,0,0:0:0:0:
402,192,23843,1,0,0:0:0:0:
182,192,23950,128,0,24057:0:0:0:0:
329,192,24057,1,0,0:0:0:0:
402,192,24164,1,0,0:0:0:0:
475,192,24272,1,0,0:0:0:0:
402,192,24325,1,0,0:0:0:0:
329,192,24379,1,0,0:0:0:0:
256,192,24432,1,0,0:0:0:0:
182,192,24486,1,0,0:0:0:0:
329,192,24593,1,0,0:0:0:0:
475,192,24700,1,0,0:0:0:0:
402,192,24754,1,0,0:0:0:0:
329,192,24807,1,0,0:0:0:0:
256,192,24861,1,0,0:0:0:0:
182,192,24914,128,0,25022:0:0:0:0:
109,192,24914,128,0,25022:0:0:0:0:
329,192,25022,128,0,25129:0:0:0:0:
402,192,25022,128,0,25129:0:0:0:0:
182,192,25129,1,0,0:0:0:0:
109,192,25129,1,0,0:0:0:0:
36,192,25129,1,0,0:0:0:0:
256,192,25236,1,0,0:0:0:0:
329,192,25343,128,0,25450:0:0:0:0:
475,192,25343,128,0,25450:0:0:0:0:
182,192,25450,128,0,25557:0:0:0:0:
36,192,25450,128,0,25557:0:0:0:0:
329,192,25557,1,0,0:0:0:0:
475,192,25557,1,0,0:0:0:0:
402,192,25557,1,0,0:0:0:0:
256,192,25664,1,0,0:0:0:0:
182,192,25772,1,0,0:0:0:0:
36,192,25772,1,0,0:0:0:0:
329,192,25879,1,0,0:0:0:0:
256,192,25986,1,0,0:0:0:0:
109,192,25986,1,0,0:0:0:0:
475,192,25986,1,0,0:0:0:0:
402,192,26093,1,0,0:0:0:0:
329,192,26200,1,0,0:0:0:0:
182,192,26200,1,0,0:0:0:0:
475,192,26307,1,0,0:0:0:0:
402,192,26414,1,0,0:0:0:0:
256,192,26414,1,0,0:0:0:0:
109,192,26414,1,0,0:0:0:0:
36,192,26522,1,0,0:0:0:0:
182,192,26522,1,0,0:0:0:0:
329,192,26629,1,0,0:0:0:0:
475,192,26629,1,0,0:0:0:0:
256,192,26736,128,0,26843:0:0:0:0:
36,192,26843,1,0,0:0:0:0:
109,192,26843,1,0,0:0:0:0:
402,192,26843,1,0,0:0:0:0:
256,192,26950,128,0,27057:0:0:0:0:
329,192,27057,1,0,0:0:0:0:
475,192,27057,1,0,0:0:0:0:
256,192,27164,128,0,27272:0:0:0:0:
36,192,27272,1,0,0:0:0:0:
109,192,27272,1,0,0:0:0:0:
402,192,27272,1,0,0:0:0:0:
402,192,27379,128,0,27486:0:0:0:0:
329,192,27486,128,0,27700:0:0:0:0:
182,192,27486,128,0,27700:0:0:0:0:
36,192,27700,128,0,27807:0:0:0:0:
109,192,27700,128,0,27807:0:0:0:0:
256,192,27807,128,0,27914:0:0:0:0:
329,192,27807,128,0,27914:0:0:0:0:
109,192,27914,128,0,28022:0:0:0:0:
182,192,27914,128,0,28022:0:0:0:0:
329,192,28022,128,0,28129:0:0:0:0:
402,192,28022,128,0,28129:0:0:0:0:
182,192,28129,128,0,28236:0:0:0:0:
256,192,28129,128,0,28236:0:0:0:0:
402,192,28236,128,0,28343:0:0:0:0:
475,192,28236,128,0,28343:0:0:0:0:
36,192,28557,1,0,0:0:0:0:
109,192,28557,1,0,0:0:0:0:
329,192,28664,1,0,0:0:0:0:
256,192,28772,128,0,28879:0:0:0:0:
36,192,28772,128,0,28879:0:0:0:0:
109,192,28879,128,0,28986:0:0:0:0:
329,192,28879,128,0,28986:0:0:0:0:
182,192,28986,128,0,29093:0:0:0:0:
402,192,28986,128,0,29093:0:0:0:0:
256,192,29093,128,0,29200:0:0:0:0:
475,192,29093,128,0,29200:0:0:0:0:
36,192,29200,1,0,0:0:0:0:
109,192,29200,1,0,0:0:0:0:
182,192,29307,1,0,0:0:0:0:
256,192,29414,1,0,0:0:0:0:
475,192,29414,1,0,0:0:0:0:
182,192,29522,1,0,0:0:0:0:
109,192,29629,1,0,0:0:0:0:
36,192,29629,1,0,0:0:0:0:
475,192,29629,128,0,29843:0:0:0:0:
402,192,29629,128,0,29843:0:0:0:0:
329,192,29843,128,0,30057:0:0:0:0:
256,192,29843,128,0,30057:0:0:0:0:
475,192,30057,1,0,0:0:0:0:
402,192,30057,1,0,0:0:0:0:
36,192,30164,1,0,0:0:0:0:
109,192,30164,1,0,0:0:0:0:
329,192,30272,1,0,0:0:0:0:
256,192,30325,1,0,0:0:0:0:
182,192,30379,1,0,0:0:0:0:
109,192,30432,1,0,0:0:0:0:
36,192,30486,1,0,0:0:0:0:
402,192,30486,1,0,0:0:0:0:
475,192,30486,1,0,0:0:0:0:
109,192,30593,1,0,0:0:0:0:
36,192,30593,1,0,0:0:0:0:
329,192,30700,1,0,0:0:0:0:
256,192,30754,1,0,0:0:0:0:
182,192,30807,1,0,0:0:0:0:
109,192,30861,1,0,0:0:0:0:
402,192,30914,1,0,0:0:0:0:
329,192,30968,1,0,0:0:0:0:
256,192,31022,1,0,0:0:0:0:
182,192,31075,1,0,0:0:0:0:
475,192,31129,1,0,0:0:0:0:
402,192,31182,1,0,0:0:0:0:
329,192,31236,1,0,0:0:0:0:
36,192,31236,1,0,0:0:0:0:
109,192,31289,1,0,0:0:0:0:
182,192,31343,1,0,0:0:0:0:
475,192,31343,1,0,0:0:0:0:
402,192,31397,1,0,0:0:0:0:
329,192,31450,1,0,0:0:0:0:
36,192,31450,1,0,0:0:0:0:
109,192,31504,1,0,0:0:0:0:
182,192,31557,1,0,0:0:0:0:
475,192,31557,1,0,0:0:0:0:
402,192,31611,1,0,0:0:0:0:
329,192,31664,1,0,0:0:0:0:
36,192,31664,1,0,0:0:0:0:
109,192,31718,1,0,0:0:0:0:
182,192,31772,1,0,0:0:0:0:
329,192,31879,1,0,0:0:0:0:
36,192,31879,1,0,0:0:0:0:
256,192,31986,1,0,0:0:0:0:
109,192,31986,1,0,0:0:0:0:
182,192,32093,1,0,0:0:0:0:
329,192,32200,1,0,0:0:0:0:
475,192,32200,1,0,0:0:0:0:
182,192,32307,1,0,0:0:0:0:
36,192,32307,1,0,0:0:0:0:
256,192,32414,1,0,0:0:0:0:
329,192,32522,1,0,0:0:0:0:
475,192,32522,1,0,0:0:0:0:
182,192,32629,1,0,0:0:0:0:
329,192,32736,1,0,0:0:0:0:
256,192,32843,1,0,0:0:0:0:
182,192,32950,1,0,0:0:0:0:
109,192,33057,1,0,0:0:0:0:
36,192,33164,1,0,0:0:0:0:
109,192,33272,1,0,0:0:0:0:
182,192,33379,1,0,0:0:0:0:
256,192,33486,1,0,0:0:0:0:
475,192,33486,1,0,0:0:0:0:
36,192,33486,1,0,0:0:0:0:
109,192,33593,1,0,0:0:0:0:
182,192,33700,1,0,0:0:0:0:
402,192,33700,128,0,33914:0:0:0:0:
109,192,33807,1,0,0:0:0:0:
36,192,33914,1,0,0:0:0:0:
256,192,33914,1,0,0:0:0:0:
329,192,33914,1,0,0:0:0:0:
475,192,34022,1,0,0:0:0:0:
182,192,34129,1,0,0:0:0:0:
109,192,34129,1,0,0:0:0:0:
402,192,34236,1,0,0:0:0:0:
109,192,34343,128,0,34450:0:0:0:0:
36,192,34343,128,0,34450:0:0:0:0:
256,192,34450,1,0,0:0:0:0:
475,192,34557,128,0,34664:0:0:0:0:
402,192,34557,128,0,34664:0:0:0:0:
256,192,34664,1,0,0:0:0:0:
36,192,34772,1,0,0:0:0:0:
109,192,34772,1,0,0:0:0:0:
182,192,34879,1,0,0:0:0:0:
256,192,34986,128,0,35200:0:0:0:0:
329,192,34986,128,0,35200:0:0:0:0:
402,192,34986,128,0,35200:0:0:0:0:
36,192,35200,1,0,0:0:0:0:
109,192,35200,1,0,0:0:0:0:
182,192,35307,128,0,35414:0:0:0:0:
402,192,35414,1,0,0:0:0:0:
475,192,35414,1,0,0:0:0:0:
329,192,35522,128,0,35629:0:0:0:0:
36,192,35629,1,0,0:0:0:0:
109,192,35629,1,0,0:0:0:0:
182,192,35736,128,0,35843:0:0:0:0:
475,192,35843,1,0,0:0:0:0:
402,192,35843,1,0,0:0:0:0:
329,192,35950,128,0,36057:0:0:0:0:
109,192,36057,1,0,0:0:0:0:
402,192,36218,1,0,0:0:0:0:
109,192,36379,1,0,0:0:0:0:
402,192,36486,1,0,0:0:0:0:
329,192,36539,1,0,0:0:0:0:
256,192,36593,1,0,0:0:0:0:
182,192,36647,1,0,0:0:0:0:
109,192,36700,1,0,0:0:0:0:
182,192,36754,1,0,0:0:0:0:
256,192,36807,1,0,0:0:0:0:
329,192,36861,1,0,0:0:0:0:
402,192,36914,1,0,0:0:0:0:
182,192,37022,1,0,0:0:0:0:
256,192,37129,1,0,0:0:0:0:
329,192,37236,1,0,0:0:0:0:
109,192,37343,1,0,0:0:0:0:
182,192,37450,1,0,0:0:0:0:
256,192,37557,1,0,0:0:0:0:
36,192,37664,1,0,0:0:0:0:
109,192,37772,1,0,0:0:0:0:
182,192,37879,1,0,0:0:0:0:
109,192,37986,1,0,0:0:0:0:
36,192,38093,1,0,0:0:0:0:
475,192,38200,1,0,0:0:0:0:
402,192,38272,1,0,0:0:0:0:
329,192,38343,1,0,0:0:0:0:
256,192,38414,1,0,0:0:0:0:
329,192,38486,1,0,0:0:0:0:
402,192,38557,1,0,0:0:0:0:
475,192,38629,1,0,0:0:0:0:
36,192,38629,1,0,0:0:0:0:
182,192,38629,1,0,0:0:0:0:
109,192,38736,1,0,0:0:0:0:
256,192,38736,1,0,0:0:0:0:
182,192,38843,1,0,0:0:0:0:
329,192,38843,1,0,0:0:0:0:
256,192,38950,1,0,0:0:0:0:
402,192,38950,1,0,0:0:0:0:
329,192,39057,1,0,0:0:0:0:
475,192,39057,1,0,0:0:0:0:
36,192,39164,1,0,0:0:0:0:
182,192,39164,1,0,0:0:0:0:
109,192,39272,1,0,0:0:0:0:
256,192,39272,1,0,0:0:0:0:
182,192,39379,1,0,0:0:0:0:
329,192,39379,1,0,0:0:0:0:
256,192,39486,1,0,0:0:0:0:
402,192,39486,1,0,0:0:0:0:
329,192,39593,1,0,0:0:0:0:
475,192,39593,1,0,0:0:0:0:
256,192,39700,1,0,0:0:0:0:
182,192,39754,1,0,0:0:0:0:
109,192,39807,1,0,0:0:0:0:
36,192,39861,1,0,0:0:0:0:
329,192,39914,1,0,0:0:0:0:
475,192,39914,1,0,0:0:0:0:
402,192,40022,1,0,0:0:0:0:
256,192,40022,1,0,0:0:0:0:
329,192,40129,1,0,0:0:0:0:
182,192,40129,1,0,0:0:0:0:
256,192,40236,1,0,0:0:0:0:
109,192,40236,1,0,0:0:0:0:
475,192,40343,1,0,0:0:0:0:
402,192,40397,1,0,0:0:0:0:
329,192,40450,1,0,0:0:0:0:
256,192,40504,1,0,0:0:0:0:
36,192,40557,1,0,0:0:0:0:
109,192,40611,1,0,0:0:0:0:
182,192,40664,1,0,0:0:0:0:
256,192,40718,1,0,0:0:0:0:
329,192,40772,1,0,0:0:0:0:
475,192,40772,1,0,0:0:0:0:
402,192,40879,1,0,0:0:0:0:
256,192,40879,1,0,0:0:0:0:
329,192,40986,1,0,0:0:0:0:
182,192,40986,1,0,0:0:0:0:
256,192,41093,1,0,0:0:0:0:
109,192,41093,1,0,0:0:0:0:
182,192,41200,1,0,0:0:0:0:
36,192,41200,1,0,0:0:0:0:
475,192,41200,1,0,0:0:0:0:
402,192,41272,1,0,0:0:0:0:
329,192,41343,1,0,0:0:0:0:
402,192,41414,1,0,0:0:0:0:
329,192,41486,1,0,0:0:0:0:
256,192,41557,1,0,0:0:0:0:
329,192,41629,1,0,0:0:0:0:
256,192,41700,1,0,0:0:0:0:
182,192,41772,1,0,0:0:0:0:
256,192,41843,1,0,0:0:0:0:
182,192,41914,1,0,0:0:0:0:
109,192,41986,1,0,0:0:0:0:
36,192,42057,1,0,0:0:0:0:
475,192,42057,1,0,0:0:0:0:
402,192,42164,1,0,0:0:0:0:
109,192,42164,1,0,0:0:0:0:
182,192,42272,1,0,0:0:0:0:
329,192,42272,1,0,0:0:0:0:
256,192,42379,1,0,0:0:0:0:
329,192,42486,1,0,0:0:0:0:
182,192,42486,1,0,0:0:0:0:
109,192,42593,1,0,0:0:0:0:
402,192,42593,1,0,0:0:0:0:
36,192,42700,1,0,0:0:0:0:
475,192,42700,1,0,0:0:0:0:
402,192,42807,1,0,0:0:0:0:
109,192,42807,1,0,0:0:0:0:
329,192,42914,1,0,0:0:0:0:
182,192,42968,1,0,0:0:0:0:
402,192,43022,1,0,0:0:0:0:
109,192,43075,1,0,0:0:0:0:
475,192,43129,1,0,0:0:0:0:
36,192,43129,1,0,0:0:0:0:
402,192,43236,1,0,0:0:0:0:
109,192,43236,1,0,0:0:0:0:
182,192,43343,128,0,43557:0:0:0:0:
329,192,43343,128,0,43557:0:0:0:0:
256,192,43664,128,0,43772:0:0:0:0:
329,192,43772,1,0,0:0:0:0:
182,192,43772,1,0,0:0:0:0:
402,192,43879,1,0,0:0:0:0:
109,192,43879,1,0,0:0:0:0:
36,192,43986,1,0,0:0:0:0:
475,192,44039,1,0,0:0:0:0:
109,192,44093,1,0,0:0:0:0:
402,192,44093,1,0,0:0:0:0:
329,192,44200,1,0,0:0:0:0:
182,192,44200,1,0,0:0:0:0:
402,192,44307,1,0,0:0:0:0:
109,192,44361,1,0,0:0:0:0:
475,192,44414,1,0,0:0:0:0:
36,192,44414,1,0,0:0:0:0:
402,192,44522,1,0,0:0:0:0:
109,192,44522,1,0,0:0:0:0:
329,192,44629,1,0,0:0:0:0:
182,192,44656,1,0,0:0:0:0:
402,192,44682,1,0,0:0:0:0:
109,192,44709,1,0,0:0:0:0:
475,192,44736,1,0,0:0:0:0:
36,192,44763,1,0,0:0:0:0:
402,192,44789,1,0,0:0:0:0:
109,192,44816,1,0,0:0:0:0:
329,192,44843,1,0,0:0:0:0:
182,192,44950,1,0,0:0:0:0:
329,192,44977,1,0,0:0:0:0:
109,192,45004,1,0,0:0:0:0:
402,192,45031,1,0,0:0:0:0:
36,192,45057,128,0,45486:0:0:0:0:
475,192,45486,1,0,0:0:0:0:
256,192,45486,1,0,0:0:0:0:
182,192,45593,1,0,0:0:0:0:
109,192,45700,128,0,45807:0:0:0:0:
402,192,45700,128,0,45807:0:0:0:0:
329,192,45807,128,0,45914:0:0:0:0:
182,192,45807,128,0,45914:0:0:0:0:
475,192,45914,128,0,46022:0:0:0:0:
36,192,45914,128,0,46022:0:0:0:0:
109,192,46022,128,0,46129:0:0:0:0:
402,192,46022,128,0,46129:0:0:0:0:
329,192,46129,1,0,0:0:0:0:
182,192,46129,1,0,0:0:0:0:
109,192,46236,1,0,0:0:0:0:
36,192,46343,128,0,46450:0:0:0:0:
256,192,46343,128,0,46450:0:0:0:0:
109,192,46450,128,0,46557:0:0:0:0:
329,192,46450,128,0,46557:0:0:0:0:
182,192,46557,128,0,46664:0:0:0:0:
402,192,46557,128,0,46664:0:0:0:0:
256,192,46664,128,0,46772:0:0:0:0:
475,192,46664,128,0,46772:0:0:0:0:
36,192,46772,1,0,0:0:0:0:
182,192,46772,1,0,0:0:0:0:
256,192,46879,1,0,0:0:0:0:
329,192,46986,128,0,47093:0:0:0:0:
475,192,46986,128,0,47093:0:0:0:0:
402,192,47093,128,0,47200:0:0:0:0:
256,192,47093,128,0,47200:0:0:0:0:
329,192,47200,128,0,47307:0:0:0:0:
182,192,47200,128,0,47307:0:0:0:0:
256,192,47307,128,0,47414:0:0:0:0:
109,192,47307,128,0,47414:0:0:0:0:
36,192,47414,1,0,0:0:0:0:
475,192,47414,1,0,0:0:0:0:
402,192,47522,1,0,0:0:0:0:
182,192,47629,128,0,47736:0:0:0:0:
329,192,47629,128,0,47736:0:0:0:0:
109,192,47736,128,0,47843:0:0:0:0:
402,192,47736,128,0,47843:0:0:0:0:
329,192,47843,128,0,47950:0:0:0:0:
182,192,47843,128,0,47950:0:0:0:0:
475,192,47950,128,0,48057:0:0:0:0:
36,192,47950,128,0,48057:0:0:0:0:
182,192,48057,1,0,0:0:0:0:
329,192,48057,1,0,0:0:0:0:
109,192,48164,1,0,0:0:0:0:
36,192,48272,128,0,48379:0:0:0:0:
256,192,48272,128,0,48379:0:0:0:0:
109,192,48379,128,0,48486:0:0:0:0:
329,192,48379,128,0,48486:0:0:0:0:
182,192,48486,128,0,48593:0:0:0:0:
402,192,48486,128,0,48593:0:0:0:0:
329,192,48593,128,0,48700:0:0:0:0:
109,192,48593,128,0,48700:0:0:0:0:
36,192,48700,128,0,48807:0:0:0:0:
256,192,48700,128,0,48807:0:0:0:0:
182,192,48807,128,0,48914:0:0:0:0:
329,192,48807,128,0,48914:0:0:0:0:
256,192,48914,128,0,51486:0:0:0:0:
109,192,48914,1,0,0:0:0:0:
402,192,48914,1,0,0:0:0:0:
36,192,49022,1,0,0:0:0:0:
109,192,49129,128,0,49236:0:0:0:0:
402,192,49129,128,0,49236:0:0:0:0:
182,192,49236,128,0,49343:0:0:0:0:
329,192,49236,128,0,49343:0:0:0:0:
36,192,49343,128,0,49450:0:0:0:0:
475,192,49343,128,0,49450:0:0:0:0:
402,192,49450,128,0,49557:0:0:0:0:
109,192,49450,128,0,49557:0:0:0:0:
182,192,49557,1,0,0:0:0:0:
329,192,49557,1,0,0:0:0:0:
402,192,49664,1,0,0:0:0:0:
475,192,49772,128,0,49879:0:0:0:0:
36,192,49772,128,0,49879:0:0:0:0:
109,192,49879,128,0,49986:0:0:0:0:
182,192,49879,128,0,49986:0:0:0:0:
329,192,49986,128,0,50093:0:0:0:0:
402,192,49986,128,0,50093:0:0:0:0:
36,192,50093,128,0,50200:0:0:0:0:
182,192,50093,128,0,50200:0:0:0:0:
329,192,50200,1,0,0:0:0:0:
475,192,50200,1,0,0:0:0:0:
109,192,50307,1,0,0:0:0:0:
36,192,50414,128,0,50522:0:0:0:0:
182,192,50414,128,0,50522:0:0:0:0:
109,192,50522,128,0,50629:0:0:0:0:
402,192,50522,128,0,50629:0:0:0:0:
329,192,50629,128,0,50736:0:0:0:0:
475,192,50629,128,0,50736:0:0:0:0:
182,192,50736,128,0,50843:0:0:0:0:
36,192,50736,128,0,50843:0:0:0:0:
109,192,50843,1,0,0:0:0:0:
402,192,50843,1,0,0:0:0:0:
475,192,50950,1,0,0:0:0:0:
182,192,51057,128,0,51164:0:0:0:0:
36,192,51057,128,0,51164:0:0:0:0:
329,192,51164,128,0,51272:0:0:0:0:
475,192,51164,128,0,51272:0:0:0:0:
402,192,51272,128,0,51379:0:0:0:0:
109,192,51272,128,0,51379:0:0:0:0:
36,192,51379,128,0,51486:0:0:0:0:
475,192,51379,128,0,51486:0:0:0:0:
182,192,51486,1,0,0:0:0:0:
329,192,51486,1,0,0:0:0:0:
109,192,51593,1,0,0:0:0:0:
36,192,51700,1,0,0:0:0:0:
109,192,51807,1,0,0:0:0:0:
182,192,51914,1,0,0:0:0:0:
329,192,52022,1,0,0:0:0:0:
182,192,52129,1,0,0:0:0:0:
36,192,52236,1,0,0:0:0:0:
182,192,52343,1,0,0:0:0:0:
475,192,52343,1,0,0:0:0:0:
256,192,52450,1,0,0:0:0:0:
329,192,52557,1,0,0:0:0:0:
256,192,52664,1,0,0:0:0:0:
182,192,52772,1,0,0:0:0:0:
329,192,52986,1,0,0:0:0:0:
182,192,53200,1,0,0:0:0:0:
329,192,53307,1,0,0:0:0:0:
256,192,53414,1,0,0:0:0:0:
402,192,53522,1,0,0:0:0:0:
329,192,53629,1,0,0:0:0:0:
475,192,53736,1,0,0:0:0:0:
402,192,53843,1,0,0:0:0:0:
329,192,53950,1,0,0:0:0:0:
256,192,54057,1,0,0:0:0:0:
36,192,54057,1,0,0:0:0:0:
182,192,54272,1,0,0:0:0:0:
329,192,54486,1,0,0:0:0:0:
256,192,54807,1,0,0:0:0:0:
329,192,54914,1,0,0:0:0:0:
182,192,55022,1,0,0:0:0:0:
256,192,55129,1,0,0:0:0:0:
329,192,55236,1,0,0:0:0:0:
182,192,55343,1,0,0:0:0:0:
329,192,55450,1,0,0:0:0:0:
182,192,55557,1,0,0:0:0:0:
36,192,55664,1,0,0:0:0:0:
182,192,55772,1,0,0:0:0:0:
256,192,55879,1,0,0:0:0:0:
329,192,55986,1,0,0:0:0:0:
182,192,56093,1,0,0:0:0:0:
36,192,56200,1,0,0:0:0:0:
256,192,56307,1,0,0:0:0:0:
109,192,56414,1,0,0:0:0:0:
182,192,56522,1,0,0:0:0:0:
256,192,56629,1,0,0:0:0:0:
329,192,56736,1,0,0:0:0:0:
182,192,56843,1,0,0:0:0:0:
36,192,56950,1,0,0:0:0:0:
256,192,57057,1,0,0:0:0:0:
182,192,57164,1,0,0:0:0:0:
402,192,57272,1,0,0:0:0:0:
109,192,57379,1,0,0:0:0:0:
182,192,57486,1,0,0:0:0:0:
36,192,57486,1,0,0:0:0:0:
475,192,57486,1,0,0:0:0:0:
109,192,57700,1,0,0:0:0:0:
402,192,57700,1,0,0:0:0:0:
329,192,57914,1,0,0:0:0:0:
36,192,57914,1,0,0:0:0:0:
475,192,58129,1,0,0:0:0:0:
182,192,58129,1,0,0:0:0:0:
109,192,58343,1,0,0:0:0:0:
256,192,58343,1,0,0:0:0:0:
402,192,58343,1,0,0:0:0:0:
182,192,58557,1,0,0:0:0:0:
329,192,58557,1,0,0:0:0:0:
109,192,58629,1,0,0:0:0:0:
402,192,58629,1,0,0:0:0:0:
182,192,58700,1,0,0:0:0:0:
329,192,58700,1,0,0:0:0:0:
109,192,58772,1,0,0:0:0:0:
402,192,58772,1,0,0:0:0:0:
329,192,58986,1,0,0:0:0:0:
36,192,58986,1,0,0:0:0:0:
36,192,59200,1,0,0:0:0:0:
475,192,59200,1,0,0:0:0:0:
256,192,59200,1,0,0:0:0:0:
402,192,59414,1,0,0:0:0:0:
109,192,59414,1,0,0:0:0:0:
182,192,59629,1,0,0:0:0:0:
475,192,59629,1,0,0:0:0:0:
36,192,59843,1,0,0:0:0:0:
329,192,59843,1,0,0:0:0:0:
402,192,60057,1,0,0:0:0:0:
109,192,60057,1,0,0:0:0:0:
256,192,60272,1,0,0:0:0:0:
36,192,60343,1,0,0:0:0:0:
256,192,60414,1,0,0:0:0:0:
36,192,60486,1,0,0:0:0:0:
109,192,60700,1,0,0:0:0:0:
475,192,60914,1,0,0:0:0:0:
182,192,60914,1,0,0:0:0:0:
402,192,60986,1,0,0:0:0:0:
329,192,61057,1,0,0:0:0:0:
256,192,61129,1,0,0:0:0:0:
182,192,61200,1,0,0:0:0:0:
109,192,61272,1,0,0:0:0:0:
402,192,61343,1,0,0:0:0:0:
329,192,61414,1,0,0:0:0:0:
256,192,61486,1,0,0:0:0:0:
182,192,61557,1,0,0:0:0:0:
109,192,61629,1,0,0:0:0:0:
36,192,61700,1,0,0:0:0:0:
109,192,61772,1,0,0:0:0:0:
475,192,61772,1,0,0:0:0:0:
329,192,61772,1,0,0:0:0:0:
182,192,61843,1,0,0:0:0:0:
256,192,61914,1,0,0:0:0:0:
329,192,61986,1,0,0:0:0:0:
402,192,62057,1,0,0:0:0:0:
109,192,62129,1,0,0:0:0:0:
182,192,62200,1,0,0:0:0:0:
256,192,62272,1,0,0:0:0:0:
329,192,62343,1,0,0:0:0:0:
402,192,62414,1,0,0:0:0:0:
475,192,62486,1,0,0:0:0:0:
402,192,62557,1,0,0:0:0:0:
182,192,62629,1,0,0:0:0:0:
36,192,62629,1,0,0:0:0:0:
329,192,62629,1,0,0:0:0:0:
109,192,62843,128,0,63486:0:0:0:0:
36,192,63486,1,0,0:0:0:0:
475,192,63486,1,0,0:0:0:0:
329,192,63486,1,0,0:0:0:0:
109,192,63557,1,0,0:0:0:0:
182,192,63629,1,0,0:0:0:0:
256,192,63700,1,0,0:0:0:0:
109,192,63772,1,0,0:0:0:0:
182,192,63843,1,0,0:0:0:0:
256,192,63914,1,0,0:0:0:0:
329,192,63986,1,0,0:0:0:0:
182,192,64057,1,0,0:0:0:0:
256,192,64129,1,0,0:0:0:0:
329,192,64200,1,0,0:0:0:0:
402,192,64272,1,0,0:0:0:0:
475,192,64343,1,0,0:0:0:0:
109,192,64343,1,0,0:0:0:0:
402,192,64414,1,0,0:0:0:0:
329,192,64486,1,0,0:0:0:0:
256,192,64557,1,0,0:0:0:0:
182,192,64629,1,0,0:0:0:0:
109,192,64700,1,0,0:0:0:0:
402,192,64772,1,0,0:0:0:0:
329,192,64843,1,0,0:0:0:0:
256,192,64914,1,0,0:0:0:0:
182,192,64986,1,0,0:0:0:0:
109,192,65057,1,0,0:0:0:0:
36,192,65129,1,0,0:0:0:0:
109,192,65200,1,0,0:0:0:0:
329,192,65200,1,0,0:0:0:0:
475,192,65200,1,0,0:0:0:0:
182,192,65272,1,0,0:0:0:0:
256,192,65343,1,0,0:0:0:0:
329,192,65414,1,0,0:0:0:0:
402,192,65486,1,0,0:0:0:0:
475,192,65557,1,0,0:0:0:0:
402,192,65629,1,0,0:0:0:0:
329,192,65700,1,0,0:0:0:0:
256,192,65772,1,0,0:0:0:0:
182,192,65843,1,0,0:0:0:0:
109,192,65914,1,0,0:0:0:0:
36,192,65986,1,0,0:0:0:0:
109,192,66057,1,0,0:0:0:0:
402,192,66057,1,0,0:0:0:0:
109,192,66200,128,0,66486:0:0:0:0:
402,192,66557,128,0,66843:0:0:0:0:
329,192,66914,1,0,0:0:0:0:
475,192,66914,1,0,0:0:0:0:
36,192,66914,1,0,0:0:0:0:
256,192,66986,1,0,0:0:0:0:
182,192,67057,1,0,0:0:0:0:
109,192,67129,1,0,0:0:0:0:
182,192,67200,1,0,0:0:0:0:
256,192,67272,1,0,0:0:0:0:
329,192,67343,1,0,0:0:0:0:
109,192,67414,1,0,0:0:0:0:
182,192,67486,1,0,0:0:0:0:
256,192,67557,1,0,0:0:0:0:
329,192,67629,1,0,0:0:0:0:
402,192,67700,1,0,0:0:0:0:
36,192,67772,1,0,0:0:0:0:
475,192,67772,1,0,0:0:0:0:
109,192,67843,1,0,0:0:0:0:
182,192,67914,1,0,0:0:0:0:
256,192,67986,1,0,0:0:0:0:
182,192,68057,1,0,0:0:0:0:
109,192,68129,1,0,0:0:0:0:
36,192,68200,1,0,0:0:0:0:
475,192,68272,1,0,0:0:0:0:
402,192,68343,1,0,0:0:0:0:
329,192,68414,1,0,0:0:0:0:
256,192,68486,1,0,0:0:0:0:
182,192,68557,1,0,0:0:0:0:
109,192,68629,1,0,0:0:0:0:
36,192,68629,1,0,0:0:0:0:
475,192,68629,1,0,0:0:0:0:
182,192,68700,1,0,0:0:0:0:
256,192,68772,1,0,0:0:0:0:
329,192,68843,1,0,0:0:0:0:
402,192,68914,1,0,0:0:0:0:
109,192,68986,1,0,0:0:0:0:
182,192,69057,1,0,0:0:0:0:
256,192,69129,1,0,0:0:0:0:
329,192,69200,1,0,0:0:0:0:
402,192,69272,1,0,0:0:0:0:
182,192,69343,1,0,0:0:0:0:
256,192,69414,1,0,0:0:0:0:
329,192,69486,1,0,0:0:0:0:
475,192,69486,1,0,0:0:0:0:
182,192,69629,128,0,69843:0:0:0:0:
329,192,69914,128,0,69986:0:0:0:0:
182,192,70057,128,0,70129:0:0:0:0:
329,192,70200,128,0,70272:0:0:0:0:
182,192,70343,1,0,0:0:0:0:
402,192,70343,1,0,0:0:0:0:
36,192,70343,1,0,0:0:0:0:
256,192,70414,1,0,0:0:0:0:
329,192,70486,1,0,0:0:0:0:
109,192,70557,1,0,0:0:0:0:
182,192,70629,1,0,0:0:0:0:
256,192,70700,1,0,0:0:0:0:
36,192,70772,1,0,0:0:0:0:
109,192,70843,1,0,0:0:0:0:
182,192,70914,1,0,0:0:0:0:
256,192,70986,1,0,0:0:0:0:
329,192,71057,1,0,0:0:0:0:
402,192,71129,1,0,0:0:0:0:
475,192,71200,1,0,0:0:0:0:
36,192,71200,1,0,0:0:0:0:
402,192,71272,1,0,0:0:0:0:
329,192,71343,1,0,0:0:0:0:
256,192,71414,1,0,0:0:0:0:
182,192,71486,1,0,0:0:0:0:
256,192,71557,1,0,0:0:0:0:
329,192,71629,1,0,0:0:0:0:
256,192,71700,1,0,0:0:0:0:
182,192,71772,1,0,0:0:0:0:
109,192,71843,1,0,0:0:0:0:
402,192,71914,1,0,0:0:0:0:
329,192,71986,1,0,0:0:0:0:
256,192,72057,1,0,0:0:0:0:
36,192,72057,1,0,0:0:0:0:
475,192,72057,1,0,0:0:0:0:
329,192,72129,1,0,0:0:0:0:
402,192,72200,1,0,0:0:0:0:
475,192,72272,1,0,0:0:0:0:
36,192,72343,1,0,0:0:0:0:
109,192,72414,1,0,0:0:0:0:
182,192,72486,1,0,0:0:0:0:
109,192,72557,1,0,0:0:0:0:
36,192,72629,1,0,0:0:0:0:
402,192,72700,1,0,0:0:0:0:
329,192,72772,1,0,0:0:0:0:
256,192,72843,1,0,0:0:0:0:
182,192,72914,1,0,0:0:0:0:
36,192,72914,1,0,0:0:0:0:
256,192,72986,1,0,0:0:0:0:
329,192,73057,1,0,0:0:0:0:
402,192,73129,1,0,0:0:0:0:
109,192,73200,1,0,0:0:0:0:
182,192,73272,1,0,0:0:0:0:
256,192,73343,1,0,0:0:0:0:
329,192,73414,1,0,0:0:0:0:
36,192,73486,1,0,0:0:0:0:
109,192,73557,1,0,0:0:0:0:
182,192,73629,1,0,0:0:0:0:
256,192,73700,1,0,0:0:0:0:
36,192,73772,1,0,0:0:0:0:
36,192,74629,128,0,74736:0:0:0:0:
109,192,74629,128,0,74736:0:0:0:0:
329,192,74629,1,0,0:0:0:0:
256,192,74736,1,0,0:0:0:0:
402,192,74843,128,0,74950:0:0:0:0:
475,192,74843,128,0,74950:0:0:0:0:
256,192,74950,1,0,0:0:0:0:
109,192,75057,128,0,75164:0:0:0:0:
36,192,75057,128,0,75164:0:0:0:0:
402,192,75164,128,0,75272:0:0:0:0:
475,192,75164,128,0,75272:0:0:0:0:
109,192,75272,128,0,75379:0:0:0:0:
182,192,75272,128,0,75379:0:0:0:0:
329,192,75379,128,0,75486:0:0:0:0:
402,192,75379,128,0,75486:0:0:0:0:
36,192,75486,1,0,0:0:0:0:
182,192,75486,1,0,0:0:0:0:
256,192,75593,1,0,0:0:0:0:
329,192,75700,1,0,0:0:0:0:
475,192,75700,1,0,0:0:0:0:
182,192,75807,1,0,0:0:0:0:
36,192,75807,1,0,0:0:0:0:
329,192,75914,1,0,0:0:0:0:
475,192,75914,1,0,0:0:0:0:
329,192,76022,1,0,0:0:0:0:
475,192,76022,1,0,0:0:0:0:
475,192,76129,1,0,0:0:0:0:
329,192,76129,1,0,0:0:0:0:
256,192,76236,1,0,0:0:0:0:
182,192,76343,1,0,0:0:0:0:
109,192,76343,1,0,0:0:0:0:
36,192,76343,1,0,0:0:0:0:
256,192,76450,1,0,0:0:0:0:
329,192,76557,1,0,0:0:0:0:
36,192,76557,128,0,76664:0:0:0:0:
109,192,76557,128,0,76664:0:0:0:0:
256,192,76611,1,0,0:0:0:0:
182,192,76664,1,0,0:0:0:0:
402,192,76772,128,0,76879:0:0:0:0:
475,192,76772,128,0,76879:0:0:0:0:
256,192,76879,1,0,0:0:0:0:
109,192,76986,128,0,77093:0:0:0:0:
36,192,76986,128,0,77093:0:0:0:0:
256,192,77093,1,0,0:0:0:0:
475,192,77200,1,0,0:0:0:0:
402,192,77254,1,0,0:0:0:0:
329,192,77307,1,0,0:0:0:0:
256,192,77361,1,0,0:0:0:0:
36,192,77414,1,0,0:0:0:0:
109,192,77468,1,0,0:0:0:0:
182,192,77522,1,0,0:0:0:0:
109,192,77575,1,0,0:0:0:0:
36,192,77629,1,0,0:0:0:0:
475,192,77629,1,0,0:0:0:0:
402,192,77682,1,0,0:0:0:0:
329,192,77736,1,0,0:0:0:0:
256,192,77789,1,0,0:0:0:0:
182,192,77843,1,0,0:0:0:0:
109,192,77897,1,0,0:0:0:0:
36,192,77950,1,0,0:0:0:0:
109,192,78004,1,0,0:0:0:0:
182,192,78057,1,0,0:0:0:0:
475,192,78057,1,0,0:0:0:0:
402,192,78057,1,0,0:0:0:0:
329,192,78164,1,0,0:0:0:0:
256,192,78272,128,0,78379:0:0:0:0:
109,192,78272,128,0,78379:0:0:0:0:
402,192,78379,1,0,0:0:0:0:
182,192,78486,128,0,78593:0:0:0:0:
36,192,78486,128,0,78593:0:0:0:0:
329,192,78593,128,0,78700:0:0:0:0:
475,192,78593,128,0,78700:0:0:0:0:
109,192,78700,128,0,78807:0:0:0:0:
182,192,78700,128,0,78807:0:0:0:0:
329,192,78807,128,0,78914:0:0:0:0:
402,192,78807,128,0,78914:0:0:0:0:
36,192,78914,1,0,0:0:0:0:
109,192,78914,1,0,0:0:0:0:
182,192,79022,1,0,0:0:0:0:
256,192,79129,1,0,0:0:0:0:
475,192,79129,1,0,0:0:0:0:
329,192,79236,1,0,0:0:0:0:
36,192,79343,1,0,0:0:0:0:
109,192,79343,1,0,0:0:0:0:
109,192,79450,1,0,0:0:0:0:
36,192,79450,1,0,0:0:0:0:
36,192,79557,1,0,0:0:0:0:
109,192,79557,1,0,0:0:0:0:
329,192,79664,1,0,0:0:0:0:
256,192,79772,1,0,0:0:0:0:
182,192,79772,1,0,0:0:0:0:
109,192,79772,1,0,0:0:0:0:
329,192,79879,1,0,0:0:0:0:
402,192,79986,1,0,0:0:0:0:
329,192,80039,1,0,0:0:0:0:
109,192,80093,1,0,0:0:0:0:
182,192,80147,1,0,0:0:0:0:
329,192,80200,128,0,80307:0:0:0:0:
402,192,80200,128,0,80307:0:0:0:0:
256,192,80307,1,0,0:0:0:0:
182,192,80414,128,0,80522:0:0:0:0:
109,192,80414,128,0,80522:0:0:0:0:
329,192,80414,1,0,0:0:0:0:
402,192,80468,1,0,0:0:0:0:
475,192,80522,1,0,0:0:0:0:
109,192,80629,1,0,0:0:0:0:
182,192,80682,1,0,0:0:0:0:
256,192,80736,1,0,0:0:0:0:
329,192,80789,1,0,0:0:0:0:
182,192,80843,1,0,0:0:0:0:
256,192,80897,1,0,0:0:0:0:
329,192,80950,1,0,0:0:0:0:
402,192,81004,1,0,0:0:0:0:
256,192,81057,128,0,81486:0:0:0:0:
36,192,81486,1,0,0:0:0:0:
475,192,81486,1,0,0:0:0:0:
402,192,81486,1,0,0:0:0:0:
329,192,81593,1,0,0:0:0:0:
109,192,81593,1,0,0:0:0:0:
182,192,81700,1,0,0:0:0:0:
256,192,81700,1,0,0:0:0:0:
402,192,81807,1,0,0:0:0:0:
36,192,81807,1,0,0:0:0:0:
109,192,81914,1,0,0:0:0:0:
329,192,81914,1,0,0:0:0:0:
182,192,82022,1,0,0:0:0:0:
256,192,82022,1,0,0:0:0:0:
402,192,82129,1,0,0:0:0:0:
36,192,82129,1,0,0:0:0:0:
109,192,82236,1,0,0:0:0:0:
329,192,82236,1,0,0:0:0:0:
182,192,82343,1,0,0:0:0:0:
256,192,82343,1,0,0:0:0:0:
475,192,82343,1,0,0:0:0:0:
329,192,82450,1,0,0:0:0:0:
109,192,82450,1,0,0:0:0:0:
36,192,82557,1,0,0:0:0:0:
402,192,82557,1,0,0:0:0:0:
182,192,82664,1,0,0:0:0:0:
256,192,82664,1,0,0:0:0:0:
109,192,82772,1,0,0:0:0:0:
329,192,82772,1,0,0:0:0:0:
36,192,82879,1,0,0:0:0:0:
402,192,82879,1,0,0:0:0:0:
182,192,82986,1,0,0:0:0:0:
256,192,82986,1,0,0:0:0:0:
109,192,83093,1,0,0:0:0:0:
329,192,83093,1,0,0:0:0:0:
36,192,83200,1,0,0:0:0:0:
402,192,83200,1,0,0:0:0:0:
475,192,83200,1,0,0:0:0:0:
329,192,83307,1,0,0:0:0:0:
109,192,83307,1,0,0:0:0:0:
182,192,83414,1,0,0:0:0:0:
256,192,83414,1,0,0:0:0:0:
402,192,83522,1,0,0:0:0:0:
36,192,83522,1,0,0:0:0:0:
109,192,83629,1,0,0:0:0:0:
329,192,83629,1,0,0:0:0:0:
182,192,83736,1,0,0:0:0:0:
256,192,83736,1,0,0:0:0:0:
402,192,83843,1,0,0:0:0:0:
36,192,83843,1,0,0:0:0:0:
109,192,83950,1,0,0:0:0:0:
329,192,83950,1,0,0:0:0:0:
182,192,84057,1,0,0:0:0:0:
256,192,84057,1,0,0:0:0:0:
475,192,84057,1,0,0:0:0:0:
329,192,84164,1,0,0:0:0:0:
109,192,84164,1,0,0:0:0:0:
36,192,84272,1,0,0:0:0:0:
402,192,84272,1,0,0:0:0:0:
256,192,84379,1,0,0:0:0:0:
182,192,84379,1,0,0:0:0:0:
109,192,84486,128,0,84807:0:0:0:0:
109,192,84914,1,0,0:0:0:0:
182,192,84968,1,0,0:0:0:0:
402,192,85022,1,0,0:0:0:0:
329,192,85075,1,0,0:0:0:0:
182,192,85129,1,0,0:0:0:0:
109,192,85182,1,0,0:0:0:0:
329,192,85236,1,0,0:0:0:0:
402,192,85289,1,0,0:0:0:0:
182,192,85343,1,0,0:0:0:0:
109,192,85397,1,0,0:0:0:0:
402,192,85450,1,0,0:0:0:0:
329,192,85504,1,0,0:0:0:0:
109,192,85557,1,0,0:0:0:0:
182,192,85611,1,0,0:0:0:0:
329,192,85664,1,0,0:0:0:0:
402,192,85718,1,0,0:0:0:0:
182,192,85772,1,0,0:0:0:0:
109,192,85825,1,0,0:0:0:0:
402,192,85879,1,0,0:0:0:0:
329,192,85932,1,0,0:0:0:0:
109,192,85986,1,0,0:0:0:0:
182,192,86039,1,0,0:0:0:0:
402,192,86093,1,0,0:0:0:0:
329,192,86147,1,0,0:0:0:0:
109,192,86200,1,0,0:0:0:0:
182,192,86254,1,0,0:0:0:0:
402,192,86307,1,0,0:0:0:0:
329,192,86361,1,0,0:0:0:0:
182,192,86414,1,0,0:0:0:0:
109,192,86468,1,0,0:0:0:0:
329,192,86522,1,0,0:0:0:0:
402,192,86575,1,0,0:0:0:0:
256,192,86629,1,0,0:0:0:0:
182,192,87914,1,0,0:0:0:0:
256,192,87968,1,0,0:0:0:0:
329,192,88022,1,0,0:0:0:0:
182,192,88075,1,0,0:0:0:0:
256,192,88129,1,0,0:0:0:0:
329,192,88182,1,0,0:0:0:0:
182,192,88236,1,0,0:0:0:0:
256,192,88289,1,0,0:0:0:0:
329,192,88343,1,0,0:0:0:0:
475,192,88343,128,0,88450:0:0:0:0:
256,192,88450,1,0,0:0:0:0:
182,192,88557,1,0,0:0:0:0:
36,192,88557,1,0,0:0:0:0:
475,192,88557,1,0,0:0:0:0:
402,192,88664,128,0,88772:0:0:0:0:
256,192,88772,1,0,0:0:0:0:
109,192,88772,1,0,0:0:0:0:
475,192,88879,1,0,0:0:0:0:
182,192,88986,1,0,0:0:0:0:
329,192,88986,128,0,89093:0:0:0:0:
36,192,88986,1,0,0:0:0:0:
475,192,89093,1,0,0:0:0:0:
402,192,89200,1,0,0:0:0:0:
256,192,89200,1,0,0:0:0:0:
182,192,89307,1,0,0:0:0:0:
329,192,89414,1,0,0:0:0:0:
475,192,89414,1,0,0:0:0:0:
109,192,89414,128,0,89522:0:0:0:0:
256,192,89522,1,0,0:0:0:0:
182,192,89629,1,0,0:0:0:0:
402,192,89629,1,0,0:0:0:0:
475,192,89629,1,0,0:0:0:0:
36,192,89629,128,0,89736:0:0:0:0:
329,192,89736,1,0,0:0:0:0:
256,192,89843,1,0,0:0:0:0:
109,192,89843,1,0,0:0:0:0:
475,192,89843,128,0,89950:0:0:0:0:
329,192,89950,1,0,0:0:0:0:
402,192,90057,128,0,90164:0:0:0:0:
182,192,90057,1,0,0:0:0:0:
36,192,90057,1,0,0:0:0:0:
256,192,90164,1,0,0:0:0:0:
475,192,90272,1,0,0:0:0:0:
36,192,90272,1,0,0:0:0:0:
329,192,90272,128,0,90379:0:0:0:0:
109,192,90379,1,0,0:0:0:0:
329,192,90486,1,0,0:0:0:0:
182,192,90486,128,0,90593:0:0:0:0:
402,192,90593,1,0,0:0:0:0:
475,192,90700,1,0,0:0:0:0:
256,192,90700,1,0,0:0:0:0:
109,192,90700,128,0,90807:0:0:0:0:
329,192,90807,1,0,0:0:0:0:
402,192,90914,1,0,0:0:0:0:
475,192,90914,1,0,0:0:0:0:
182,192,91022,1,0,0:0:0:0:
256,192,91129,1,0,0:0:0:0:
475,192,91129,1,0,0:0:0:0:
36,192,91129,128,0,91236:0:0:0:0:
329,192,91236,1,0,0:0:0:0:
402,192,91343,1,0,0:0:0:0:
109,192,91343,128,0,91450:0:0:0:0:
256,192,91450,1,0,0:0:0:0:
475,192,91557,1,0,0:0:0:0:
36,192,91557,1,0,0:0:0:0:
329,192,91557,128,0,91772:0:0:0:0:
256,192,91629,128,0,91772:0:0:0:0:
182,192,91700,128,0,91772:0:0:0:0:
109,192,91772,1,0,0:0:0:0:
36,192,91772,128,0,91879:0:0:0:0:
475,192,91879,1,0,0:0:0:0:
402,192,91986,1,0,0:0:0:0:
36,192,91986,1,0,0:0:0:0:
256,192,91986,1,0,0:0:0:0:
182,192,92093,128,0,92200:0:0:0:0:
109,192,92200,1,0,0:0:0:0:
329,192,92200,1,0,0:0:0:0:
256,192,92307,1,0,0:0:0:0:
182,192,92414,1,0,0:0:0:0:
475,192,92414,1,0,0:0:0:0:
36,192,92414,128,0,92522:0:0:0:0:
402,192,92522,1,0,0:0:0:0:
329,192,92629,1,0,0:0:0:0:
182,192,92629,1,0,0:0:0:0:
109,192,92736,1,0,0:0:0:0:
256,192,92789,1,0,0:0:0:0:
402,192,92843,1,0,0:0:0:0:
475,192,92843,1,0,0:0:0:0:
36,192,92843,1,0,0:0:0:0:
329,192,92950,1,0,0:0:0:0:
109,192,93057,1,0,0:0:0:0:
256,192,93057,128,0,93164:0:0:0:0:
402,192,93164,1,0,0:0:0:0:
475,192,93272,1,0,0:0:0:0:
36,192,93272,1,0,0:0:0:0:
329,192,93272,1,0,0:0:0:0:
109,192,93343,1,0,0:0:0:0:
182,192,93414,1,0,0:0:0:0:
475,192,93486,1,0,0:0:0:0:
256,192,93486,128,0,93593:0:0:0:0:
109,192,93593,1,0,0:0:0:0:
182,192,93700,1,0,0:0:0:0:
329,192,93700,1,0,0:0:0:0:
475,192,93700,1,0,0:0:0:0:
36,192,93807,128,0,93914:0:0:0:0:
109,192,93914,1,0,0:0:0:0:
402,192,93914,1,0,0:0:0:0:
182,192,94022,1,0,0:0:0:0:
256,192,94129,1,0,0:0:0:0:
36,192,94129,1,0,0:0:0:0:
475,192,94129,128,0,94236:0:0:0:0:
109,192,94236,1,0,0:0:0:0:
182,192,94343,1,0,0:0:0:0:
329,192,94343,1,0,0:0:0:0:
402,192,94450,1,0,0:0:0:0:
475,192,94557,1,0,0:0:0:0:
36,192,94557,1,0,0:0:0:0:
182,192,94557,1,0,0:0:0:0:
256,192,94629,1,0,0:0:0:0:
329,192,94700,1,0,0:0:0:0:
402,192,94772,1,0,0:0:0:0:
109,192,94772,1,0,0:0:0:0:
329,192,94843,1,0,0:0:0:0:
256,192,94914,1,0,0:0:0:0:
182,192,94986,1,0,0:0:0:0:
36,192,94986,1,0,0:0:0:0:
475,192,94986,1,0,0:0:0:0:
402,192,95093,1,0,0:0:0:0:
329,192,95200,1,0,0:0:0:0:
109,192,95200,1,0,0:0:0:0:
182,192,95307,1,0,0:0:0:0:
256,192,95307,1,0,0:0:0:0:
109,192,95414,1,0,0:0:0:0:
329,192,95414,1,0,0:0:0:0:
402,192,95522,1,0,0:0:0:0:
475,192,95522,1,0,0:0:0:0:
36,192,95629,1,0,0:0:0:0:
109,192,95629,1,0,0:0:0:0:
182,192,95736,1,0,0:0:0:0:
329,192,95736,1,0,0:0:0:0:
402,192,95843,1,0,0:0:0:0:
475,192,95843,1,0,0:0:0:0:
36,192,95950,1,0,0:0:0:0:
182,192,95950,1,0,0:0:0:0:
329,192,96057,1,0,0:0:0:0:
256,192,96111,1,0,0:0:0:0:
182,192,96164,1,0,0:0:0:0:
109,192,96218,1,0,0:0:0:0:
182,192,96272,1,0,0:0:0:0:
256,192,96325,1,0,0:0:0:0:
329,192,96379,1,0,0:0:0:0:
402,192,96432,1,0,0:0:0:0:
36,192,96486,1,0,0:0:0:0:
109,192,96513,1,0,0:0:0:0:
182,192,96539,1,0,0:0:0:0:
256,192,96566,1,0,0:0:0:0:
329,192,96593,1,0,0:0:0:0:
402,192,96620,1,0,0:0:0:0:
475,192,96647,1,0,0:0:0:0:
36,192,96673,1,0,0:0:0:0:
109,192,96700,1,0,0:0:0:0:
182,192,96727,1,0,0:0:0:0:
256,192,96754,1,0,0:0:0:0:
329,192,96781,1,0,0:0:0:0:
402,192,96807,1,0,0:0:0:0:
475,192,96834,1,0,0:0:0:0:
36,192,96861,1,0,0:0:0:0:
109,192,96888,1,0,0:0:0:0:
182,192,96914,128,0,97022:0:0:0:0:
329,192,97022,1,0,0:0:0:0:
182,192,97129,1,0,0:0:0:0:
475,192,97129,1,0,0:0:0:0:
36,192,97129,128,0,97236:0:0:0:0:
402,192,97236,1,0,0:0:0:0:
329,192,97343,1,0,0:0:0:0:
182,192,97343,128,0,97450:0:0:0:0:
256,192,97450,1,0,0:0:0:0:
182,192,97557,1,0,0:0:0:0:
475,192,97557,1,0,0:0:0:0:
36,192,97557,128,0,97664:0:0:0:0:
402,192,97664,1,0,0:0:0:0:
329,192,97772,1,0,0:0:0:0:
182,192,97772,1,0,0:0:0:0:
109,192,97879,1,0,0:0:0:0:
256,192,97986,1,0,0:0:0:0:
475,192,97986,1,0,0:0:0:0:
36,192,97986,1,0,0:0:0:0:
329,192,98057,1,0,0:0:0:0:
402,192,98129,1,0,0:0:0:0:
182,192,98200,1,0,0:0:0:0:
475,192,98200,1,0,0:0:0:0:
256,192,98272,1,0,0:0:0:0:
329,192,98343,1,0,0:0:0:0:
402,192,98414,1,0,0:0:0:0:
109,192,98414,1,0,0:0:0:0:
182,192,98486,1,0,0:0:0:0:
256,192,98557,1,0,0:0:0:0:
475,192,98629,1,0,0:0:0:0:
329,192,98629,128,0,98736:0:0:0:0:
182,192,98736,1,0,0:0:0:0:
256,192,98843,1,0,0:0:0:0:
402,192,98843,1,0,0:0:0:0:
36,192,98843,1,0,0:0:0:0:
109,192,98950,128,0,99057:0:0:0:0:
182,192,99057,1,0,0:0:0:0:
329,192,99057,1,0,0:0:0:0:
402,192,99164,1,0,0:0:0:0:
475,192,99272,1,0,0:0:0:0:
36,192,99272,1,0,0:0:0:0:
256,192,99272,128,0,99379:0:0:0:0:
109,192,99379,1,0,0:0:0:0:
182,192,99486,1,0,0:0:0:0:
329,192,99486,1,0,0:0:0:0:
36,192,99593,1,0,0:0:0:0:
109,192,99700,1,0,0:0:0:0:
402,192,99700,1,0,0:0:0:0:
256,192,99700,128,0,99807:0:0:0:0:
475,192,99807,128,0,99914:0:0:0:0:
36,192,99914,1,0,0:0:0:0:
182,192,99914,128,0,100022:0:0:0:0:
256,192,100022,1,0,0:0:0:0:
329,192,100129,1,0,0:0:0:0:
475,192,100129,1,0,0:0:0:0:
109,192,100129,1,0,0:0:0:0:
182,192,100236,1,0,0:0:0:0:
256,192,100343,1,0,0:0:0:0:
402,192,100343,1,0,0:0:0:0:
36,192,100450,1,0,0:0:0:0:
182,192,100450,1,0,0:0:0:0:
329,192,100557,1,0,0:0:0:0:
475,192,100557,1,0,0:0:0:0:
36,192,100611,1,0,0:0:0:0:
109,192,100664,1,0,0:0:0:0:
182,192,100718,1,0,0:0:0:0:
256,192,100772,1,0,0:0:0:0:
402,192,100772,1,0,0:0:0:0:
36,192,100879,1,0,0:0:0:0:
182,192,100879,1,0,0:0:0:0:
329,192,100986,1,0,0:0:0:0:
475,192,100986,1,0,0:0:0:0:
36,192,101039,1,0,0:0:0:0:
109,192,101093,1,0,0:0:0:0:
182,192,101147,1,0,0:0:0:0:
256,192,101200,1,0,0:0:0:0:
109,192,101254,1,0,0:0:0:0:
182,192,101307,1,0,0:0:0:0:
256,192,101361,1,0,0:0:0:0:
329,192,101414,1,0,0:0:0:0:
182,192,101468,1,0,0:0:0:0:
256,192,101522,1,0,0:0:0:0:
329,192,101575,1,0,0:0:0:0:
402,192,101629,1,0,0:0:0:0:
256,192,101682,1,0,0:0:0:0:
329,192,101736,1,0,0:0:0:0:
402,192,101789,1,0,0:0:0:0:
475,192,101843,1,0,0:0:0:0:
402,192,101897,1,0,0:0:0:0:
329,192,101950,1,0,0:0:0:0:
256,192,102004,1,0,0:0:0:0:
182,192,102057,1,0,0:0:0:0:
36,192,102057,128,0,102164:0:0:0:0:
402,192,102164,1,0,0:0:0:0:
329,192,102272,1,0,0:0:0:0:
475,192,102272,1,0,0:0:0:0:
109,192,102272,1,0,0:0:0:0:
256,192,102379,128,0,102486:0:0:0:0:
182,192,102486,1,0,0:0:0:0:
36,192,102486,1,0,0:0:0:0:
402,192,102593,1,0,0:0:0:0:
329,192,102700,1,0,0:0:0:0:
109,192,102700,1,0,0:0:0:0:
475,192,102700,128,0,102807:0:0:0:0:
36,192,102807,1,0,0:0:0:0:
256,192,102914,1,0,0:0:0:0:
402,192,102914,1,0,0:0:0:0:
182,192,103022,1,0,0:0:0:0:
109,192,103129,1,0,0:0:0:0:
475,192,103129,1,0,0:0:0:0:
329,192,103129,128,0,103236:0:0:0:0:
256,192,103236,1,0,0:0:0:0:
36,192,103343,1,0,0:0:0:0:
182,192,103343,128,0,103450:0:0:0:0:
402,192,103450,1,0,0:0:0:0:
475,192,103557,1,0,0:0:0:0:
109,192,103557,1,0,0:0:0:0:
329,192,103557,128,0,103664:0:0:0:0:
256,192,103664,1,0,0:0:0:0:
36,192,103772,1,0,0:0:0:0:
182,192,103772,128,0,103879:0:0:0:0:
329,192,103879,1,0,0:0:0:0:
402,192,103986,1,0,0:0:0:0:
36,192,103986,1,0,0:0:0:0:
109,192,103986,128,0,104093:0:0:0:0:
182,192,104093,1,0,0:0:0:0:
475,192,104200,1,0,0:0:0:0:
256,192,104200,128,0,104307:0:0:0:0:
109,192,104307,1,0,0:0:0:0:
36,192,104414,1,0,0:0:0:0:
402,192,104414,1,0,0:0:0:0:
182,192,104414,128,0,104522:0:0:0:0:
256,192,104522,1,0,0:0:0:0:
329,192,104629,1,0,0:0:0:0:
475,192,104629,1,0,0:0:0:0:
182,192,104736,1,0,0:0:0:0:
256,192,104843,1,0,0:0:0:0:
402,192,104843,1,0,0:0:0:0:
36,192,104843,128,0,104950:0:0:0:0:
109,192,104950,1,0,0:0:0:0:
182,192,105057,1,0,0:0:0:0:
329,192,105057,128,0,105164:0:0:0:0:
402,192,105164,1,0,0:0:0:0:
36,192,105272,1,0,0:0:0:0:
109,192,105272,1,0,0:0:0:0:
475,192,105272,128,0,105486:0:0:0:0:
402,192,105343,128,0,105486:0:0:0:0:
329,192,105414,128,0,105486:0:0:0:0:
256,192,105486,1,0,0:0:0:0:
36,192,105486,128,0,105593:0:0:0:0:
402,192,105593,1,0,0:0:0:0:
329,192,105700,1,0,0:0:0:0:
109,192,105700,1,0,0:0:0:0:
475,192,105700,1,0,0:0:0:0:
256,192,105807,128,0,105914:0:0:0:0:
402,192,105914,1,0,0:0:0:0:
36,192,105914,1,0,0:0:0:0:
182,192,106022,1,0,0:0:0:0:
109,192,106129,1,0,0:0:0:0:
36,192,106129,1,0,0:0:0:0:
329,192,106129,128,0,106236:0:0:0:0:
256,192,106236,1,0,0:0:0:0:
182,192,106343,1,0,0:0:0:0:
475,192,106343,1,0,0:0:0:0:
402,192,106450,1,0,0:0:0:0:
329,192,106504,1,0,0:0:0:0:
182,192,106557,1,0,0:0:0:0:
256,192,106557,1,0,0:0:0:0:
36,192,106557,128,0,106664:0:0:0:0:
475,192,106664,1,0,0:0:0:0:
256,192,106772,1,0,0:0:0:0:
402,192,106772,128,0,106879:0:0:0:0:
182,192,106879,1,0,0:0:0:0:
475,192,106986,1,0,0:0:0:0:
329,192,106986,1,0,0:0:0:0:
36,192,106986,1,0,0:0:0:0:
256,192,107039,1,0,0:0:0:0:
182,192,107093,1,0,0:0:0:0:
109,192,107147,1,0,0:0:0:0:
36,192,107200,1,0,0:0:0:0:
329,192,107200,1,0,0:0:0:0:
475,192,107307,1,0,0:0:0:0:
109,192,107414,1,0,0:0:0:0:
256,192,107414,1,0,0:0:0:0:
402,192,107414,1,0,0:0:0:0:
36,192,107522,128,0,107629:0:0:0:0:
182,192,107629,1,0,0:0:0:0:
329,192,107629,1,0,0:0:0:0:
109,192,107736,1,0,0:0:0:0:
36,192,107843,1,0,0:0:0:0:
256,192,107843,1,0,0:0:0:0:
475,192,107843,128,0,107950:0:0:0:0:
402,192,107950,1,0,0:0:0:0:
329,192,108057,1,0,0:0:0:0:
182,192,108057,1,0,0:0:0:0:
109,192,108129,1,0,0:0:0:0:
402,192,108129,1,0,0:0:0:0:
36,192,108200,1,0,0:0:0:0:
475,192,108200,1,0,0:0:0:0:
329,192,108272,1,0,0:0:0:0:
182,192,108272,1,0,0:0:0:0:
109,192,108343,1,0,0:0:0:0:
402,192,108343,1,0,0:0:0:0:
36,192,108414,1,0,0:0:0:0:
475,192,108414,1,0,0:0:0:0:
402,192,108486,1,0,0:0:0:0:
109,192,108486,1,0,0:0:0:0:
182,192,108557,1,0,0:0:0:0:
329,192,108557,1,0,0:0:0:0:
256,192,108629,1,0,0:0:0:0:
36,192,108700,1,0,0:0:0:0:
475,192,108700,1,0,0:0:0:0:
109,192,108914,1,0,0:0:0:0:
402,192,108914,1,0,0:0:0:0:
329,192,108968,1,0,0:0:0:0:
256,192,109022,1,0,0:0:0:0:
182,192,109075,1,0,0:0:0:0:
109,192,109129,1,0,0:0:0:0:
402,192,109129,1,0,0:0:0:0:
36,192,109343,1,0,0:0:0:0:
475,192,109343,1,0,0:0:0:0:
109,192,109397,1,0,0:0:0:0:
256,192,109450,1,0,0:0:0:0:
402,192,109504,1,0,0:0:0:0:
475,192,109557,1,0,0:0:0:0:
36,192,109557,1,0,0:0:0:0:
402,192,109772,1,0,0:0:0:0:
109,192,109772,1,0,0:0:0:0:
182,192,109825,1,0,0:0:0:0:
256,192,109879,1,0,0:0:0:0:
329,192,109932,1,0,0:0:0:0:
402,192,109986,1,0,0:0:0:0:
109,192,109986,1,0,0:0:0:0:
475,192,110200,1,0,0:0:0:0:
36,192,110200,1,0,0:0:0:0:
402,192,110254,1,0,0:0:0:0:
256,192,110307,1,0,0:0:0:0:
109,192,110361,1,0,0:0:0:0:
36,192,110414,1,0,0:0:0:0:
475,192,110414,1,0,0:0:0:0:
182,192,110629,1,0,0:0:0:0:
109,192,110629,128,0,110736:0:0:0:0:
256,192,110682,1,0,0:0:0:0:
329,192,110736,1,0,0:0:0:0:
402,192,110789,1,0,0:0:0:0:
329,192,110843,1,0,0:0:0:0:
36,192,110843,128,0,110950:0:0:0:0:
256,192,110897,1,0,0:0:0:0:
182,192,110950,1,0,0:0:0:0:
109,192,111004,1,0,0:0:0:0:
402,192,111057,1,0,0:0:0:0:
475,192,111057,128,0,111164:0:0:0:0:
329,192,111111,1,0,0:0:0:0:
256,192,111164,1,0,0:0:0:0:
182,192,111218,1,0,0:0:0:0:
109,192,111272,1,0,0:0:0:0:
402,192,111272,128,0,111379:0:0:0:0:
36,192,111325,1,0,0:0:0:0:
109,192,111379,1,0,0:0:0:0:
182,192,111432,1,0,0:0:0:0:
256,192,111486,1,0,0:0:0:0:
329,192,111539,1,0,0:0:0:0:
402,192,111593,1,0,0:0:0:0:
109,192,111647,1,0,0:0:0:0:
182,192,111700,1,0,0:0:0:0:
36,192,111700,1,0,0:0:0:0:
256,192,111754,1,0,0:0:0:0:
109,192,111772,1,0,0:0:0:0:
329,192,111807,1,0,0:0:0:0:
182,192,111843,1,0,0:0:0:0:
402,192,111861,1,0,0:0:0:0:
475,192,111914,1,0,0:0:0:0:
256,192,111914,1,0,0:0:0:0:
182,192,112129,1,0,0:0:0:0:
329,192,112200,1,0,0:0:0:0:
182,192,112272,1,0,0:0:0:0:
36,192,112343,1,0,0:0:0:0:
475,192,112343,1,0,0:0:0:0:
402,192,112664,1,0,0:0:0:0:
329,192,112879,1,0,0:0:0:0:
402,192,112932,1,0,0:0:0:0:
475,192,112986,1,0,0:0:0:0:
475,192,113414,1,0,0:0:0:0:
402,192,113522,1,0,0:0:0:0:
329,192,113629,1,0,0:0:0:0:
329,192,114057,1,0,0:0:0:0:
475,192,114057,1,0,0:0:0:0:
36,192,114057,1,0,0:0:0:0:
182,192,114272,128,0,114379:0:0:0:0:
256,192,114379,128,0,114486:0:0:0:0:
329,192,114486,128,0,114593:0:0:0:0:
402,192,114593,128,0,114700:0:0:0:0:
182,192,114700,1,0,0:0:0:0:
329,192,114807,1,0,0:0:0:0:
109,192,114914,128,0,115022:0:0:0:0:
182,192,115022,128,0,115129:0:0:0:0:
256,192,115129,128,0,115236:0:0:0:0:
329,192,115236,128,0,115343:0:0:0:0:
109,192,115343,1,0,0:0:0:0:
256,192,115450,1,0,0:0:0:0:
36,192,115557,128,0,115664:0:0:0:0:
109,192,115664,128,0,115772:0:0:0:0:
182,192,115772,128,0,115879:0:0:0:0:
256,192,115879,128,0,115986:0:0:0:0:
475,192,115986,1,0,0:0:0:0:
329,192,116093,1,0,0:0:0:0:
109,192,116200,128,0,116307:0:0:0:0:
182,192,116307,128,0,116414:0:0:0:0:
36,192,116414,1,0,0:0:0:0:
475,192,116414,1,0,0:0:0:0:
402,192,116468,1,0,0:0:0:0:
182,192,116522,1,0,0:0:0:0:
256,192,116575,1,0,0:0:0:0:
475,192,116629,1,0,0:0:0:0:
402,192,116682,1,0,0:0:0:0:
182,192,116736,1,0,0:0:0:0:
256,192,116789,1,0,0:0:0:0:
475,192,116843,1,0,0:0:0:0:
402,192,116897,1,0,0:0:0:0:
182,192,116950,1,0,0:0:0:0:
256,192,117004,1,0,0:0:0:0:
475,192,117057,1,0,0:0:0:0:
402,192,117111,1,0,0:0:0:0:
182,192,117164,1,0,0:0:0:0:
256,192,117218,1,0,0:0:0:0:
475,192,117272,1,0,0:0:0:0:
402,192,117325,1,0,0:0:0:0:
182,192,117379,1,0,0:0:0:0:
256,192,117432,1,0,0:0:0:0:
402,192,117486,128,0,118129:0:0:0:0:
475,192,117486,128,0,118129:0:0:0:0:
