osu file format v14

[General]
AudioFilename: audio.mp3
AudioLeadIn: 0
PreviewTime: 29471
Countdown: 0
SampleSet: Soft
StackLeniency: 0.7
Mode: 3
LetterboxInBreaks: 0
SpecialStyle: 0
WidescreenStoryboard: 0

[Editor]
DistanceSpacing: 0.8
BeatDivisor: 1
GridSize: 32
TimelineZoom: 2.799999

[Metadata]
Title:Zettai Reido
TitleUnicode:絶対零度
Artist:Kaneko Chiharu
ArtistUnicode:かねこちはる
Creator:SpectorDG
Version:BASIC
Source:SOUND VOLTEX III GRAVITY WARS
Tags:KONAMI BEMANI SDVX 3 MUSECA 1+1/2 Critical_Star C.Star [_Juvia_] [ Juvia ] Juvuulee Oyuka Ouka _FrEsH_ChICkEn_ Fresh Chicken
BeatmapID:1109184
BeatmapSetID:514461

[Difficulty]
HPDrainRate:7
CircleSize:4
OverallDifficulty:7
ApproachRate:5
SliderMultiplier:1.4
SliderTickRate:1

[Events]
//Background and Video events
0,0,"BG.jpg",0,0
//Break Periods
//Storyboard Layer 0 (Background)
//Storyboard Layer 1 (Fail)
//Storyboard Layer 2 (Pass)
//Storyboard Layer 3 (Foreground)
//Storyboard Sound Samples

[TimingPoints]
1912,287.081339712919,4,2,1,60,1,0
47845,-100,4,2,1,60,0,1
52438,-100,4,2,1,60,0,0
65069,-100,4,2,1,60,0,1
69663,-100,4,2,1,60,0,0
74256,-100,4,2,1,60,0,1
82294,-100,4,2,1,60,0,0
83443,-100,4,2,1,60,0,1
88036,-100,4,2,1,60,0,0
104112,-100,4,2,1,60,0,1
108132,-100,4,2,1,60,0,0
108706,-100,4,2,1,60,0,1
113299,-100,4,2,1,60,0,0

[HitObjects]
64,192,1624,128,0,1911:0:0:0:0:
192,192,1911,5,12,0:0:0:0:
448,192,1911,1,2,0:0:0:0:
320,192,2199,1,0,0:0:0:0:
64,192,2629,1,0,0:0:0:0:
448,192,3060,1,0,0:0:0:0:
192,192,3490,1,0,0:0:0:0:
448,192,3921,1,0,0:0:0:0:
64,192,4065,1,0,0:0:0:0:
320,192,4495,1,0,0:0:0:0:
64,192,4926,1,0,0:0:0:0:
192,192,5356,1,0,0:0:0:0:
448,192,5787,1,0,0:0:0:0:
64,192,6218,1,0,0:0:0:0:
192,192,6361,1,0,0:0:0:0:
448,192,6505,1,4,0:0:0:0:
64,192,6792,1,0,0:0:0:0:
320,192,7223,1,0,0:0:0:0:
192,192,7653,1,0,0:0:0:0:
448,192,8084,1,0,0:0:0:0:
64,192,8514,1,0,0:0:0:0:
320,192,8658,1,0,0:0:0:0:
192,192,9089,1,0,0:0:0:0:
448,192,9519,1,0,0:0:0:0:
64,192,9950,1,0,0:0:0:0:
320,192,10380,1,0,0:0:0:0:
64,192,10811,1,0,0:0:0:0:
448,192,10955,1,0,0:0:0:0:
192,192,11098,1,4,0:0:0:0:
64,192,11098,1,2,0:0:0:0:
320,192,11385,1,2,0:0:0:0:
64,192,11672,1,2,0:0:0:0:
448,192,11959,1,2,0:0:0:0:
192,192,12246,1,2,0:0:0:0:
320,192,12534,1,2,0:0:0:0:
64,192,12821,1,2,0:0:0:0:
320,192,13108,1,2,0:0:0:0:
448,192,13395,1,2,0:0:0:0:
192,192,13682,1,2,0:0:0:0:
448,192,13969,1,2,0:0:0:0:
64,192,14256,1,2,0:0:0:0:
320,192,14543,1,2,0:0:0:0:
64,192,14830,1,2,0:0:0:0:
448,192,15117,1,2,0:0:0:0:
192,192,15404,1,2,0:0:0:0:
448,192,15691,128,2,17988:0:0:0:0:
64,192,17988,128,2,20285:0:0:0:0:
448,192,19136,128,0,20285:0:0:0:0:
192,192,20285,1,14,0:0:0:0:
320,192,20428,1,0,0:0:0:0:
64,192,20572,1,8,0:0:0:0:
448,192,20715,1,0,0:0:0:0:
64,192,21146,128,8,21433:0:0:0:0:
320,192,21433,1,2,0:0:0:0:
192,192,21577,1,0,0:0:0:0:
448,192,21720,1,8,0:0:0:0:
64,192,21864,1,0,0:0:0:0:
448,192,22294,128,8,22581:0:0:0:0:
192,192,22581,1,2,0:0:0:0:
448,192,23156,1,2,0:0:0:0:
192,192,23299,1,0,0:0:0:0:
320,192,23443,1,8,0:0:0:0:
64,192,23586,1,0,0:0:0:0:
192,192,23730,128,2,24304:0:0:0:0:
448,192,24304,1,2,0:0:0:0:
64,192,24447,1,0,0:0:0:0:
192,192,24878,1,2,0:0:0:0:
448,192,24878,1,4,0:0:0:0:
320,192,25165,1,8,0:0:0:0:
64,192,25452,1,2,0:0:0:0:
448,192,25667,1,0,0:0:0:0:
192,192,25883,1,0,0:0:0:0:
448,192,26026,1,2,0:0:0:0:
64,192,26170,1,0,0:0:0:0:
320,192,26313,1,8,0:0:0:0:
64,192,26457,1,0,0:0:0:0:
192,192,26600,1,2,0:0:0:0:
320,192,26888,128,8,27175:0:0:0:0:
64,192,27175,128,2,27749:0:0:0:0:
448,192,27749,128,2,28610:0:0:0:0:
320,192,28323,128,0,28610:0:0:0:0:
64,192,28610,1,0,0:0:0:0:
320,192,28897,1,0,0:0:0:0:
192,192,29112,1,0,0:0:0:0:
320,192,29328,1,0,0:0:0:0:
64,192,29471,1,10,0:0:0:0:
448,192,29471,1,4,0:0:0:0:
192,192,29758,1,0,0:0:0:0:
320,192,30045,128,8,30620:0:0:0:0:
64,192,30620,1,2,0:0:0:0:
192,192,30835,1,0,0:0:0:0:
320,192,31050,1,0,0:0:0:0:
64,192,31194,1,8,0:0:0:0:
448,192,31337,1,0,0:0:0:0:
192,192,31481,1,0,0:0:0:0:
320,192,31768,128,2,32342:0:0:0:0:
448,192,32342,128,8,32916:0:0:0:0:
64,192,32629,128,0,32916:0:0:0:0:
192,192,32916,128,2,33203:0:0:0:0:
448,192,33203,1,0,0:0:0:0:
64,192,33490,1,8,0:0:0:0:
448,192,33682,1,0,0:0:0:0:
64,192,33921,1,0,0:0:0:0:
192,192,34065,1,2,0:0:0:0:
448,192,34065,1,4,0:0:0:0:
320,192,34352,1,2,0:0:0:0:
64,192,34639,1,2,0:0:0:0:
448,192,34926,128,2,35213:0:0:0:0:
192,192,35213,1,2,0:0:0:0:
448,192,35500,1,2,0:0:0:0:
320,192,35787,1,2,0:0:0:0:
64,192,35787,1,0,0:0:0:0:
192,192,36074,1,2,0:0:0:0:
448,192,36361,128,2,36648:0:0:0:0:
192,192,36648,128,2,36935:0:0:0:0:
448,192,36935,128,2,37223:0:0:0:0:
64,192,37223,128,2,37510:0:0:0:0:
448,192,37510,1,2,0:0:0:0:
320,192,37510,128,0,38658:0:0:0:0:
64,192,38658,1,6,0:0:0:0:
192,192,38658,1,8,0:0:0:0:
448,192,38945,1,2,0:0:0:0:
192,192,39089,1,0,0:0:0:0:
448,192,39376,1,0,0:0:0:0:
320,192,39519,1,2,0:0:0:0:
64,192,39663,1,0,0:0:0:0:
448,192,39806,1,2,0:0:0:0:
64,192,40022,1,0,0:0:0:0:
320,192,40237,1,0,0:0:0:0:
64,192,40811,1,0,0:0:0:0:
192,192,40955,1,2,0:0:0:0:
320,192,41242,1,2,0:0:0:0:
448,192,41529,1,2,0:0:0:0:
64,192,41744,1,0,0:0:0:0:
320,192,41959,1,0,0:0:0:0:
64,192,42103,1,2,0:0:0:0:
448,192,42318,1,0,0:0:0:0:
192,192,42534,1,0,0:0:0:0:
320,192,42677,1,2,0:0:0:0:
64,192,42964,1,2,0:0:0:0:
320,192,43251,1,8,0:0:0:0:
192,192,43538,1,8,0:0:0:0:
448,192,43682,1,0,0:0:0:0:
64,192,43969,1,0,0:0:0:0:
192,192,44112,1,8,0:0:0:0:
320,192,44256,1,0,0:0:0:0:
64,192,44400,1,8,0:0:0:0:
192,192,44615,1,0,0:0:0:0:
448,192,44830,1,0,0:0:0:0:
320,192,45404,1,0,0:0:0:0:
192,192,45548,1,8,0:0:0:0:
448,192,45835,1,8,0:0:0:0:
64,192,46122,1,8,0:0:0:0:
320,192,46337,1,0,0:0:0:0:
448,192,46553,1,0,0:0:0:0:
64,192,46696,1,8,0:0:0:0:
320,192,46983,1,8,0:0:0:0:
64,192,47127,1,0,0:0:0:0:
448,192,47270,128,0,47845:0:0:0:0:
320,192,47845,1,12,0:0:0:0:
64,192,47845,1,2,0:0:0:0:
192,192,48132,1,8,0:0:0:0:
448,192,48275,1,0,0:0:0:0:
64,192,48562,1,0,0:0:0:0:
320,192,48706,1,8,0:0:0:0:
192,192,48849,1,0,0:0:0:0:
448,192,48993,1,2,0:0:0:0:
320,192,49208,1,0,0:0:0:0:
64,192,49423,128,0,49854:0:0:0:0:
320,192,49854,1,8,0:0:0:0:
192,192,49998,1,0,0:0:0:0:
448,192,50141,128,2,50428:0:0:0:0:
64,192,50428,128,8,50715:0:0:0:0:
448,192,50715,1,2,0:0:0:0:
192,192,50931,1,0,0:0:0:0:
448,192,51146,1,0,0:0:0:0:
320,192,51289,128,2,51505:0:0:0:0:
64,192,51505,1,0,0:0:0:0:
192,192,51720,1,0,0:0:0:0:
448,192,51864,128,2,52438:0:0:0:0:
64,192,52151,128,8,52438:0:0:0:0:
192,192,52438,1,14,0:0:0:0:
320,192,52725,1,2,0:0:0:0:
64,192,52868,1,14,0:0:0:0:
448,192,53299,1,8,0:0:0:0:
192,192,53443,1,2,0:0:0:0:
448,192,53586,1,14,0:0:0:0:
64,192,53801,1,14,0:0:0:0:
320,192,54017,1,14,0:0:0:0:
64,192,54447,1,10,0:0:0:0:
320,192,54591,1,2,0:0:0:0:
448,192,54734,1,14,0:0:0:0:
192,192,55022,1,14,0:0:0:0:
320,192,55309,1,14,0:0:0:0:
64,192,55524,1,14,0:0:0:0:
448,192,55739,1,14,0:0:0:0:
64,192,55883,128,12,60476:0:0:0:0:
192,192,55883,1,2,0:0:0:0:
320,192,60476,128,2,60763:0:0:0:0:
64,192,60907,1,2,0:0:0:0:
448,192,60907,128,12,63921:0:0:0:0:
64,192,63921,128,0,65069:0:0:0:0:
192,192,64495,128,0,65069:0:0:0:0:
448,192,65069,1,2,0:0:0:0:
320,192,65069,1,12,0:0:0:0:
64,192,65356,1,2,0:0:0:0:
320,192,65787,1,0,0:0:0:0:
192,192,66218,1,2,0:0:0:0:
448,192,66648,1,0,0:0:0:0:
64,192,67079,1,2,0:0:0:0:
320,192,67223,1,0,0:0:0:0:
192,192,67653,1,2,0:0:0:0:
448,192,68084,1,0,0:0:0:0:
64,192,68514,1,2,0:0:0:0:
320,192,68945,1,0,0:0:0:0:
64,192,69376,1,2,0:0:0:0:
448,192,69519,1,0,0:0:0:0:
192,192,69663,128,2,71959:0:0:0:0:
448,192,71959,128,2,73108:0:0:0:0:
64,192,72534,128,0,73108:0:0:0:0:
320,192,73108,1,0,0:0:0:0:
192,192,73323,1,0,0:0:0:0:
448,192,73538,1,0,0:0:0:0:
64,192,73682,1,0,0:0:0:0:
192,192,73825,1,0,0:0:0:0:
448,192,73969,128,0,74256:0:0:0:0:
64,192,74256,1,12,0:0:0:0:
320,192,74256,1,2,0:0:0:0:
192,192,74687,1,0,0:0:0:0:
448,192,75045,1,0,0:0:0:0:
64,192,75261,1,0,0:0:0:0:
320,192,75404,1,2,0:0:0:0:
192,192,75835,1,0,0:0:0:0:
448,192,76194,1,0,0:0:0:0:
64,192,76409,1,0,0:0:0:0:
320,192,76553,1,2,0:0:0:0:
448,192,76840,1,8,0:0:0:0:
64,192,77127,1,2,0:0:0:0:
192,192,77342,1,0,0:0:0:0:
448,192,77557,1,0,0:0:0:0:
64,192,77701,1,2,0:0:0:0:
320,192,77988,1,8,0:0:0:0:
192,192,78275,1,2,0:0:0:0:
448,192,78490,1,0,0:0:0:0:
64,192,78706,1,0,0:0:0:0:
320,192,78849,1,2,0:0:0:0:
192,192,79280,1,0,0:0:0:0:
448,192,79639,1,0,0:0:0:0:
64,192,79854,1,0,0:0:0:0:
320,192,79998,1,2,0:0:0:0:
448,192,80428,1,0,0:0:0:0:
192,192,80572,1,2,0:0:0:0:
64,192,80787,1,0,0:0:0:0:
320,192,81002,1,0,0:0:0:0:
448,192,81146,128,2,82294:0:0:0:0:
192,192,82294,1,14,0:0:0:0:
320,192,82510,1,14,0:0:0:0:
64,192,82725,1,14,0:0:0:0:
448,192,82940,1,14,0:0:0:0:
192,192,83156,1,14,0:0:0:0:
448,192,83299,1,14,0:0:0:0:
320,192,83443,1,10,0:0:0:0:
64,192,83443,1,4,0:0:0:0:
192,192,83873,1,0,0:0:0:0:
192,192,84017,1,2,0:0:0:0:
448,192,84232,1,0,0:0:0:0:
64,192,84447,1,0,0:0:0:0:
320,192,84591,1,2,0:0:0:0:
448,192,85022,1,0,0:0:0:0:
448,192,85165,1,2,0:0:0:0:
64,192,85380,1,0,0:0:0:0:
448,192,85596,1,0,0:0:0:0:
192,192,85739,128,2,85883:0:0:0:0:
320,192,86026,128,2,86170:0:0:0:0:
64,192,86313,128,2,86457:0:0:0:0:
448,192,86529,1,0,0:0:0:0:
320,192,86744,1,0,0:0:0:0:
192,192,86888,128,2,87031:0:0:0:0:
448,192,87175,128,2,87318:0:0:0:0:
64,192,87462,128,2,87605:0:0:0:0:
448,192,87677,1,0,0:0:0:0:
192,192,87892,1,0,0:0:0:0:
448,192,88036,128,2,89184:0:0:0:0:
64,192,89184,128,2,90333:0:0:0:0:
448,192,90333,128,2,91481:0:0:0:0:
64,192,91481,128,0,91768:0:0:0:0:
320,192,91768,128,0,92055:0:0:0:0:
64,192,92055,128,0,92342:0:0:0:0:
448,192,92342,128,0,92629:0:0:0:0:
192,192,92629,1,0,0:0:0:0:
320,192,92773,1,0,0:0:0:0:
64,192,92916,1,14,0:0:0:0:
448,192,93060,1,0,0:0:0:0:
192,192,93490,128,8,93778:0:0:0:0:
448,192,93778,1,2,0:0:0:0:
64,192,93921,1,0,0:0:0:0:
320,192,94065,1,8,0:0:0:0:
192,192,94208,1,0,0:0:0:0:
448,192,94639,128,8,94926:0:0:0:0:
64,192,94926,1,2,0:0:0:0:
192,192,95500,1,2,0:0:0:0:
448,192,95644,1,0,0:0:0:0:
64,192,95787,1,8,0:0:0:0:
448,192,95931,1,0,0:0:0:0:
192,192,96074,128,2,96648:0:0:0:0:
448,192,96648,1,2,0:0:0:0:
64,192,96792,1,0,0:0:0:0:
448,192,97223,1,2,0:0:0:0:
192,192,97223,1,0,0:0:0:0:
320,192,97510,1,8,0:0:0:0:
64,192,97797,1,2,0:0:0:0:
448,192,98012,1,0,0:0:0:0:
192,192,98227,1,0,0:0:0:0:
448,192,98371,1,2,0:0:0:0:
64,192,98514,1,0,0:0:0:0:
320,192,98658,1,8,0:0:0:0:
64,192,98801,1,0,0:0:0:0:
192,192,98945,1,2,0:0:0:0:
448,192,98945,128,0,99519:0:0:0:0:
64,192,99519,1,14,0:0:0:0:
64,192,99806,1,2,0:0:0:0:
192,192,100093,1,2,0:0:0:0:
192,192,100380,1,2,0:0:0:0:
448,192,100667,1,14,0:0:0:0:
448,192,100955,1,2,0:0:0:0:
320,192,101242,1,2,0:0:0:0:
320,192,101529,1,2,0:0:0:0:
64,192,101816,128,14,102390:0:0:0:0:
448,192,102390,128,14,102964:0:0:0:0:
192,192,102964,128,0,103538:0:0:0:0:
448,192,103538,1,0,0:0:0:0:
64,192,103682,1,0,0:0:0:0:
320,192,103825,1,0,0:0:0:0:
192,192,103969,1,0,0:0:0:0:
448,192,104112,1,8,0:0:0:0:
64,192,104112,1,6,0:0:0:0:
192,192,104400,1,8,0:0:0:0:
448,192,104687,1,2,0:0:0:0:
64,192,104974,1,8,0:0:0:0:
320,192,105261,1,2,0:0:0:0:
64,192,105548,1,8,0:0:0:0:
448,192,105835,1,2,0:0:0:0:
192,192,106122,1,8,0:0:0:0:
448,192,106409,1,2,0:0:0:0:
64,192,106696,1,8,0:0:0:0:
320,192,106983,1,2,0:0:0:0:
64,192,107270,1,8,0:0:0:0:
448,192,107557,128,2,108132:0:0:0:0:
64,192,108132,128,2,108706:0:0:0:0:
192,192,108419,128,0,108706:0:0:0:0:
448,192,108706,1,8,0:0:0:0:
320,192,108706,1,6,0:0:0:0:
192,192,108993,1,8,0:0:0:0:
448,192,109280,1,2,0:0:0:0:
64,192,109567,1,8,0:0:0:0:
320,192,109854,1,2,0:0:0:0:
192,192,110141,1,8,0:0:0:0:
448,192,110428,1,2,0:0:0:0:
64,192,110715,1,8,0:0:0:0:
320,192,111002,1,2,0:0:0:0:
64,192,111289,1,8,0:0:0:0:
448,192,111577,1,2,0:0:0:0:
192,192,111864,1,8,0:0:0:0:
64,192,112151,128,2,112725:0:0:0:0:
448,192,112725,128,2,113299:0:0:0:0:
320,192,113012,128,0,113299:0:0:0:0:
64,192,113299,128,2,113586:0:0:0:0:
448,192,113658,1,14,0:0:0:0:
192,192,113801,128,2,114160:0:0:0:0:
448,192,114232,1,14,0:0:0:0:
64,192,114376,128,2,114734:0:0:0:0:
448,192,114806,1,14,0:0:0:0:
192,192,114950,128,2,115309:0:0:0:0:
448,192,115309,1,14,0:0:0:0:
320,192,115524,128,14,117892:0:0:0:0:
64,192,117892,1,4,0:0:0:0:
