osu file format v14

[General]
AudioFilename: audio.mp3
AudioLeadIn: 0
PreviewTime: 29471
Countdown: 0
SampleSet: Soft
StackLeniency: 0.7
Mode: 3
LetterboxInBreaks: 0
SpecialStyle: 0
WidescreenStoryboard: 0

[Editor]
DistanceSpacing: 0.8
BeatDivisor: 4
GridSize: 32
TimelineZoom: 2.2

[Metadata]
Title:Zettai Reido
TitleUnicode:絶対零度
Artist:Kaneko Chiharu
ArtistUnicode:かねこちはる
Creator:SpectorDG
Version:GRAVITY
Source:SOUND VOLTEX III GRAVITY WARS
Tags:KONAMI BEMANI SDVX 3 MUSECA 1+1/2 Critical_Star C.Star [_Juvia_] [ Juvia ] Juvuulee Oyuka Ouka _FrEsH_ChICkEn_ Fresh Chicken
BeatmapID:1092805
BeatmapSetID:514461

[Difficulty]
HPDrainRate:8.5
CircleSize:4
OverallDifficulty:8
ApproachRate:5
SliderMultiplier:1.4
SliderTickRate:1

[Events]
//Background and Video events
0,0,"BG.jpg",0,0
//Break Periods
//Storyboard Layer 0 (Background)
//Storyboard Layer 1 (Fail)
//Storyboard Layer 2 (Pass)
//Storyboard Layer 3 (Foreground)
//Storyboard Sound Samples

[TimingPoints]
1912,287.081339712919,4,2,1,60,1,0
47845,-100,4,2,1,60,0,1
52438,-100,4,2,1,60,0,0
65069,-100,4,2,1,60,0,1
69663,-100,4,2,1,60,0,0
74256,-100,4,2,1,60,0,1
82294,-100,4,2,1,60,0,0
83443,-100,4,2,1,60,0,1
88036,-100,4,2,1,60,0,0
104112,-100,4,2,1,60,0,1
108132,-100,4,2,1,60,0,0
108706,-100,4,2,1,60,0,1
113299,-100,4,2,1,60,0,0

[HitObjects]
64,192,763,128,0,1624:0:0:0:0:
448,192,1624,5,0,0:0:0:0:
192,192,1696,1,0,0:0:0:0:
448,192,1768,1,0,0:0:0:0:
192,192,1840,1,0,0:0:0:0:
64,192,1911,1,8,0:0:0:0:
320,192,1911,1,2,0:0:0:0:
448,192,1911,128,4,4208:0:0:0:0:
192,192,2055,1,0,0:0:0:0:
64,192,2199,1,0,0:0:0:0:
320,192,2342,1,0,0:0:0:0:
64,192,2486,1,0,0:0:0:0:
192,192,2629,1,0,0:0:0:0:
320,192,2773,1,0,0:0:0:0:
192,192,2916,1,0,0:0:0:0:
64,192,3060,1,0,0:0:0:0:
320,192,3203,1,0,0:0:0:0:
64,192,3347,1,0,0:0:0:0:
320,192,3490,1,0,0:0:0:0:
192,192,3634,1,0,0:0:0:0:
320,192,3778,1,0,0:0:0:0:
64,192,3921,1,0,0:0:0:0:
192,192,4065,1,0,0:0:0:0:
64,192,4208,128,0,6505:0:0:0:0:
320,192,4208,1,0,0:0:0:0:
192,192,4352,1,0,0:0:0:0:
448,192,4495,1,0,0:0:0:0:
320,192,4639,1,0,0:0:0:0:
192,192,4782,1,0,0:0:0:0:
448,192,4926,1,0,0:0:0:0:
192,192,5069,1,0,0:0:0:0:
448,192,5213,1,0,0:0:0:0:
192,192,5356,1,0,0:0:0:0:
320,192,5500,1,0,0:0:0:0:
448,192,5644,1,0,0:0:0:0:
192,192,5787,1,0,0:0:0:0:
448,192,5931,1,0,0:0:0:0:
192,192,6074,1,0,0:0:0:0:
448,192,6218,1,0,0:0:0:0:
320,192,6361,1,0,0:0:0:0:
192,192,6505,1,4,0:0:0:0:
448,192,6505,128,0,8801:0:0:0:0:
320,192,6648,1,0,0:0:0:0:
64,192,6792,1,0,0:0:0:0:
192,192,6935,1,0,0:0:0:0:
320,192,7079,1,0,0:0:0:0:
64,192,7223,1,0,0:0:0:0:
192,192,7366,1,0,0:0:0:0:
64,192,7510,1,0,0:0:0:0:
320,192,7653,1,0,0:0:0:0:
192,192,7797,1,0,0:0:0:0:
64,192,7940,1,0,0:0:0:0:
320,192,8084,1,0,0:0:0:0:
64,192,8227,1,0,0:0:0:0:
320,192,8371,1,0,0:0:0:0:
64,192,8514,1,0,0:0:0:0:
192,192,8658,1,0,0:0:0:0:
64,192,8801,128,0,11098:0:0:0:0:
320,192,8801,1,0,0:0:0:0:
192,192,8945,1,0,0:0:0:0:
448,192,9089,1,0,0:0:0:0:
320,192,9232,1,0,0:0:0:0:
192,192,9376,1,0,0:0:0:0:
448,192,9519,1,0,0:0:0:0:
192,192,9663,1,0,0:0:0:0:
320,192,9806,1,0,0:0:0:0:
448,192,9950,1,0,0:0:0:0:
192,192,10093,1,0,0:0:0:0:
448,192,10237,1,0,0:0:0:0:
320,192,10380,1,0,0:0:0:0:
192,192,10524,1,0,0:0:0:0:
448,192,10667,1,0,0:0:0:0:
192,192,10811,1,0,0:0:0:0:
320,192,10955,1,0,0:0:0:0:
448,192,11098,1,4,0:0:0:0:
192,192,11098,1,10,0:0:0:0:
320,192,11242,1,0,0:0:0:0:
64,192,11385,1,2,0:0:0:0:
192,192,11385,128,0,11529:0:0:0:0:
448,192,11529,1,0,0:0:0:0:
320,192,11672,1,2,0:0:0:0:
64,192,11672,1,0,0:0:0:0:
448,192,11816,128,0,11959:0:0:0:0:
64,192,11959,1,2,0:0:0:0:
192,192,11959,1,0,0:0:0:0:
320,192,12103,1,0,0:0:0:0:
64,192,12246,1,2,0:0:0:0:
192,192,12246,128,0,12390:0:0:0:0:
448,192,12390,1,0,0:0:0:0:
320,192,12534,1,2,0:0:0:0:
64,192,12534,1,0,0:0:0:0:
448,192,12677,128,0,12821:0:0:0:0:
64,192,12821,1,2,0:0:0:0:
192,192,12821,1,0,0:0:0:0:
320,192,12964,1,0,0:0:0:0:
192,192,13108,128,2,13251:0:0:0:0:
64,192,13108,1,0,0:0:0:0:
448,192,13251,128,0,13395:0:0:0:0:
192,192,13395,1,2,0:0:0:0:
64,192,13395,1,0,0:0:0:0:
448,192,13538,1,0,0:0:0:0:
192,192,13682,1,2,0:0:0:0:
64,192,13682,128,0,13825:0:0:0:0:
448,192,13825,1,0,0:0:0:0:
192,192,13969,1,2,0:0:0:0:
64,192,13969,1,0,0:0:0:0:
320,192,14112,128,0,14256:0:0:0:0:
64,192,14256,1,2,0:0:0:0:
448,192,14256,1,0,0:0:0:0:
192,192,14400,1,0,0:0:0:0:
448,192,14543,1,2,0:0:0:0:
64,192,14543,128,0,14687:0:0:0:0:
320,192,14687,1,0,0:0:0:0:
64,192,14830,1,2,0:0:0:0:
448,192,14830,1,0,0:0:0:0:
320,192,14974,128,0,15117:0:0:0:0:
64,192,15117,1,2,0:0:0:0:
192,192,15117,1,0,0:0:0:0:
448,192,15261,1,0,0:0:0:0:
192,192,15404,1,2,0:0:0:0:
64,192,15404,128,0,15548:0:0:0:0:
320,192,15548,128,0,15691:0:0:0:0:
448,192,15691,1,2,0:0:0:0:
192,192,15691,1,0,0:0:0:0:
64,192,15691,1,0,0:0:0:0:
192,192,15835,1,2,0:0:0:0:
320,192,15835,1,0,0:0:0:0:
320,192,15978,1,2,0:0:0:0:
448,192,15978,1,0,0:0:0:0:
64,192,15978,1,0,0:0:0:0:
192,192,16122,1,2,0:0:0:0:
448,192,16122,1,0,0:0:0:0:
448,192,16266,1,2,0:0:0:0:
64,192,16266,1,0,0:0:0:0:
320,192,16266,1,0,0:0:0:0:
320,192,16409,1,2,0:0:0:0:
192,192,16409,1,0,0:0:0:0:
448,192,16553,1,2,0:0:0:0:
64,192,16553,1,0,0:0:0:0:
192,192,16553,1,0,0:0:0:0:
64,192,16696,1,2,0:0:0:0:
320,192,16696,1,0,0:0:0:0:
192,192,16840,1,2,0:0:0:0:
64,192,16840,1,0,0:0:0:0:
448,192,16840,1,0,0:0:0:0:
320,192,16983,1,0,0:0:0:0:
448,192,16983,1,2,0:0:0:0:
192,192,17127,1,2,0:0:0:0:
64,192,17127,1,0,0:0:0:0:
448,192,17127,1,0,0:0:0:0:
320,192,17270,1,0,0:0:0:0:
64,192,17270,1,2,0:0:0:0:
320,192,17414,1,2,0:0:0:0:
192,192,17414,1,0,0:0:0:0:
448,192,17414,1,0,0:0:0:0:
192,192,17557,1,0,0:0:0:0:
64,192,17557,1,2,0:0:0:0:
448,192,17701,1,2,0:0:0:0:
64,192,17701,1,0,0:0:0:0:
320,192,17701,1,0,0:0:0:0:
192,192,17845,1,2,0:0:0:0:
320,192,17845,1,0,0:0:0:0:
64,192,17988,1,2,0:0:0:0:
192,192,17988,1,0,0:0:0:0:
320,192,18060,1,2,0:0:0:0:
448,192,18060,1,0,0:0:0:0:
192,192,18132,1,2,0:0:0:0:
64,192,18132,1,0,0:0:0:0:
448,192,18203,1,2,0:0:0:0:
320,192,18203,1,0,0:0:0:0:
192,192,18275,1,2,0:0:0:0:
64,192,18275,1,0,0:0:0:0:
320,192,18347,1,2,0:0:0:0:
448,192,18347,1,0,0:0:0:0:
192,192,18419,1,2,0:0:0:0:
64,192,18419,1,0,0:0:0:0:
320,192,18490,1,2,0:0:0:0:
448,192,18490,1,0,0:0:0:0:
64,192,18562,1,2,0:0:0:0:
192,192,18562,1,0,0:0:0:0:
320,192,18634,1,2,0:0:0:0:
448,192,18634,1,0,0:0:0:0:
192,192,18706,1,2,0:0:0:0:
64,192,18706,1,0,0:0:0:0:
448,192,18778,1,2,0:0:0:0:
320,192,18778,1,0,0:0:0:0:
192,192,18849,1,2,0:0:0:0:
64,192,18849,1,0,0:0:0:0:
448,192,18921,1,2,0:0:0:0:
320,192,18921,1,0,0:0:0:0:
192,192,18993,1,2,0:0:0:0:
64,192,18993,1,0,0:0:0:0:
320,192,19065,1,2,0:0:0:0:
448,192,19065,1,0,0:0:0:0:
192,192,19136,1,0,0:0:0:0:
64,192,19172,1,0,0:0:0:0:
320,192,19208,1,0,0:0:0:0:
448,192,19244,1,0,0:0:0:0:
192,192,19280,1,0,0:0:0:0:
64,192,19316,1,0,0:0:0:0:
320,192,19352,1,0,0:0:0:0:
448,192,19388,1,0,0:0:0:0:
64,192,19423,1,0,0:0:0:0:
192,192,19459,1,0,0:0:0:0:
448,192,19495,1,0,0:0:0:0:
320,192,19531,1,0,0:0:0:0:
64,192,19567,1,0,0:0:0:0:
192,192,19603,1,0,0:0:0:0:
448,192,19639,1,0,0:0:0:0:
320,192,19675,1,0,0:0:0:0:
64,192,19711,1,0,0:0:0:0:
192,192,19746,1,0,0:0:0:0:
448,192,19782,1,0,0:0:0:0:
320,192,19818,1,0,0:0:0:0:
192,192,19854,1,0,0:0:0:0:
64,192,19890,1,0,0:0:0:0:
448,192,19926,1,0,0:0:0:0:
320,192,19962,1,0,0:0:0:0:
192,192,19998,1,0,0:0:0:0:
64,192,20034,1,0,0:0:0:0:
448,192,20069,1,0,0:0:0:0:
320,192,20105,1,0,0:0:0:0:
192,192,20141,1,0,0:0:0:0:
64,192,20141,1,0,0:0:0:0:
448,192,20213,1,0,0:0:0:0:
320,192,20285,1,12,0:0:0:0:
64,192,20285,1,2,0:0:0:0:
192,192,20285,1,0,0:0:0:0:
448,192,20428,1,0,0:0:0:0:
192,192,20428,1,0,0:0:0:0:
320,192,20572,1,8,0:0:0:0:
64,192,20572,1,0,0:0:0:0:
192,192,20715,1,0,0:0:0:0:
320,192,20715,1,0,0:0:0:0:
64,192,20859,1,2,0:0:0:0:
448,192,20859,1,0,0:0:0:0:
192,192,21002,1,0,0:0:0:0:
448,192,21146,1,8,0:0:0:0:
320,192,21146,1,0,0:0:0:0:
192,192,21218,1,0,0:0:0:0:
448,192,21289,1,0,0:0:0:0:
64,192,21289,1,0,0:0:0:0:
320,192,21361,1,0,0:0:0:0:
64,192,21433,1,2,0:0:0:0:
192,192,21433,1,0,0:0:0:0:
448,192,21577,1,0,0:0:0:0:
192,192,21577,1,0,0:0:0:0:
192,192,21720,1,8,0:0:0:0:
320,192,21720,1,0,0:0:0:0:
64,192,21864,1,0,0:0:0:0:
320,192,21864,1,0,0:0:0:0:
448,192,22007,1,2,0:0:0:0:
64,192,22007,1,0,0:0:0:0:
192,192,22151,1,0,0:0:0:0:
448,192,22294,1,8,0:0:0:0:
64,192,22294,1,0,0:0:0:0:
192,192,22366,1,0,0:0:0:0:
320,192,22438,1,0,0:0:0:0:
448,192,22438,1,0,0:0:0:0:
64,192,22510,1,0,0:0:0:0:
192,192,22581,1,2,0:0:0:0:
448,192,22581,1,0,0:0:0:0:
320,192,22725,1,0,0:0:0:0:
448,192,22868,1,8,0:0:0:0:
64,192,22868,1,0,0:0:0:0:
192,192,23012,1,0,0:0:0:0:
64,192,23156,1,2,0:0:0:0:
448,192,23156,1,0,0:0:0:0:
320,192,23156,1,0,0:0:0:0:
320,192,23299,1,0,0:0:0:0:
192,192,23299,1,0,0:0:0:0:
64,192,23443,1,8,0:0:0:0:
192,192,23443,1,0,0:0:0:0:
448,192,23443,1,0,0:0:0:0:
320,192,23586,1,0,0:0:0:0:
64,192,23586,1,0,0:0:0:0:
448,192,23730,128,2,23801:0:0:0:0:
320,192,23730,128,0,23801:0:0:0:0:
192,192,23801,128,0,23873:0:0:0:0:
64,192,23873,128,0,23945:0:0:0:0:
448,192,23945,128,0,24017:0:0:0:0:
320,192,24017,128,8,24089:0:0:0:0:
192,192,24017,128,0,24089:0:0:0:0:
64,192,24089,128,0,24160:0:0:0:0:
448,192,24160,128,0,24232:0:0:0:0:
320,192,24232,128,0,24304:0:0:0:0:
192,192,24304,1,2,0:0:0:0:
64,192,24304,1,0,0:0:0:0:
64,192,24447,128,0,24591:0:0:0:0:
192,192,24519,128,0,24591:0:0:0:0:
448,192,24591,1,8,0:0:0:0:
320,192,24591,1,0,0:0:0:0:
64,192,24734,1,0,0:0:0:0:
192,192,24878,1,2,0:0:0:0:
448,192,24878,1,4,0:0:0:0:
320,192,24878,1,0,0:0:0:0:
64,192,25022,1,0,0:0:0:0:
448,192,25165,1,8,0:0:0:0:
320,192,25165,1,0,0:0:0:0:
192,192,25309,1,0,0:0:0:0:
448,192,25452,1,2,0:0:0:0:
64,192,25452,1,0,0:0:0:0:
320,192,25596,1,0,0:0:0:0:
64,192,25667,1,0,0:0:0:0:
192,192,25667,1,0,0:0:0:0:
448,192,25739,1,8,0:0:0:0:
320,192,25739,1,0,0:0:0:0:
192,192,25883,1,0,0:0:0:0:
448,192,25883,1,0,0:0:0:0:
320,192,26026,1,2,0:0:0:0:
192,192,26026,1,0,0:0:0:0:
320,192,26170,1,0,0:0:0:0:
64,192,26170,1,0,0:0:0:0:
192,192,26313,1,8,0:0:0:0:
448,192,26313,1,0,0:0:0:0:
192,192,26457,1,0,0:0:0:0:
320,192,26457,1,0,0:0:0:0:
448,192,26529,1,0,0:0:0:0:
64,192,26529,1,0,0:0:0:0:
320,192,26600,1,2,0:0:0:0:
192,192,26600,1,0,0:0:0:0:
64,192,26744,1,0,0:0:0:0:
448,192,26744,1,0,0:0:0:0:
320,192,26816,1,0,0:0:0:0:
192,192,26888,1,8,0:0:0:0:
448,192,26888,1,0,0:0:0:0:
320,192,26983,1,0,0:0:0:0:
64,192,26983,1,0,0:0:0:0:
192,192,27079,1,0,0:0:0:0:
448,192,27175,1,2,0:0:0:0:
64,192,27175,1,0,0:0:0:0:
320,192,27175,1,0,0:0:0:0:
192,192,27318,1,2,0:0:0:0:
320,192,27318,1,0,0:0:0:0:
192,192,27462,1,2,0:0:0:0:
64,192,27462,1,0,0:0:0:0:
448,192,27462,1,0,0:0:0:0:
448,192,27605,1,2,0:0:0:0:
320,192,27605,1,0,0:0:0:0:
192,192,27749,1,2,0:0:0:0:
64,192,27749,1,0,0:0:0:0:
320,192,27821,1,2,0:0:0:0:
448,192,27821,1,0,0:0:0:0:
192,192,27892,1,2,0:0:0:0:
64,192,27892,1,0,0:0:0:0:
320,192,27964,1,2,0:0:0:0:
448,192,27964,1,0,0:0:0:0:
64,192,28036,1,2,0:0:0:0:
192,192,28036,1,0,0:0:0:0:
320,192,28108,1,2,0:0:0:0:
448,192,28108,1,0,0:0:0:0:
192,192,28179,1,2,0:0:0:0:
64,192,28179,1,0,0:0:0:0:
448,192,28251,1,2,0:0:0:0:
320,192,28251,1,0,0:0:0:0:
192,192,28323,5,0,0:0:0:0:
64,192,28359,1,0,0:0:0:0:
448,192,28395,1,0,0:0:0:0:
320,192,28431,1,0,0:0:0:0:
192,192,28467,1,0,0:0:0:0:
64,192,28502,1,0,0:0:0:0:
448,192,28538,1,0,0:0:0:0:
320,192,28574,1,0,0:0:0:0:
192,192,28610,128,0,28897:0:0:0:0:
64,192,28754,128,0,28897:0:0:0:0:
320,192,28897,128,0,29041:0:0:0:0:
448,192,28897,128,0,29041:0:0:0:0:
320,192,29112,128,0,29256:0:0:0:0:
64,192,29112,128,0,29256:0:0:0:0:
64,192,29328,128,0,29400:0:0:0:0:
192,192,29328,128,0,29400:0:0:0:0:
320,192,29471,1,10,0:0:0:0:
64,192,29471,1,4,0:0:0:0:
448,192,29471,1,0,0:0:0:0:
192,192,29471,1,0,0:0:0:0:
448,192,29615,1,0,0:0:0:0:
192,192,29687,128,0,30045:0:0:0:0:
64,192,30045,128,8,30548:0:0:0:0:
320,192,30045,128,0,30548:0:0:0:0:
448,192,30045,128,0,30548:0:0:0:0:
64,192,30620,128,2,30691:0:0:0:0:
448,192,30620,1,0,0:0:0:0:
192,192,30620,128,0,30691:0:0:0:0:
64,192,30835,128,0,30907:0:0:0:0:
192,192,30835,128,0,30907:0:0:0:0:
64,192,31050,128,0,31194:0:0:0:0:
192,192,31122,128,0,31194:0:0:0:0:
448,192,31194,128,8,31266:0:0:0:0:
320,192,31194,128,0,31266:0:0:0:0:
192,192,31337,128,0,31481:0:0:0:0:
64,192,31337,128,0,31481:0:0:0:0:
320,192,31481,128,0,31696:0:0:0:0:
448,192,31481,128,0,31696:0:0:0:0:
192,192,31624,128,0,31696:0:0:0:0:
64,192,31624,128,0,31696:0:0:0:0:
448,192,31768,1,2,0:0:0:0:
320,192,31768,1,0,0:0:0:0:
64,192,31768,1,0,0:0:0:0:
192,192,31840,1,0,0:0:0:0:
448,192,31912,128,0,32270:0:0:0:0:
320,192,31983,128,0,32270:0:0:0:0:
64,192,32055,128,0,32127:0:0:0:0:
192,192,32127,128,0,32199:0:0:0:0:
64,192,32199,128,0,32270:0:0:0:0:
192,192,32270,128,0,32342:0:0:0:0:
448,192,32342,1,8,0:0:0:0:
320,192,32342,1,0,0:0:0:0:
64,192,32414,128,0,32916:0:0:0:0:
192,192,32486,128,0,32629:0:0:0:0:
448,192,32557,128,0,32845:0:0:0:0:
320,192,32629,128,0,32701:0:0:0:0:
192,192,32701,128,0,32773:0:0:0:0:
320,192,32773,128,0,32845:0:0:0:0:
192,192,32845,128,0,32916:0:0:0:0:
448,192,32916,128,2,33060:0:0:0:0:
320,192,32916,128,0,33060:0:0:0:0:
64,192,33203,128,0,33275:0:0:0:0:
192,192,33203,128,0,33275:0:0:0:0:
320,192,33490,128,8,33562:0:0:0:0:
64,192,33490,128,0,33562:0:0:0:0:
448,192,33490,128,0,33562:0:0:0:0:
448,192,33682,128,0,33778:0:0:0:0:
192,192,33682,128,0,33778:0:0:0:0:
64,192,33778,128,0,34065:0:0:0:0:
320,192,33778,128,0,33921:0:0:0:0:
192,192,33921,128,0,34065:0:0:0:0:
448,192,34065,1,2,0:0:0:0:
320,192,34065,1,4,0:0:0:0:
448,192,34352,1,2,0:0:0:0:
320,192,34352,1,0,0:0:0:0:
64,192,34423,1,0,0:0:0:0:
192,192,34495,1,0,0:0:0:0:
64,192,34567,1,0,0:0:0:0:
448,192,34639,1,2,0:0:0:0:
320,192,34639,1,0,0:0:0:0:
192,192,34782,1,0,0:0:0:0:
64,192,34782,1,0,0:0:0:0:
448,192,34854,1,0,0:0:0:0:
320,192,34854,1,0,0:0:0:0:
64,192,34926,128,2,35428:0:0:0:0:
192,192,34926,1,0,0:0:0:0:
448,192,35213,128,2,35500:0:0:0:0:
320,192,35213,1,0,0:0:0:0:
192,192,35500,1,2,0:0:0:0:
64,192,35500,1,0,0:0:0:0:
448,192,35572,1,0,0:0:0:0:
64,192,35644,1,0,0:0:0:0:
448,192,35715,1,0,0:0:0:0:
192,192,35787,1,2,0:0:0:0:
64,192,35787,1,0,0:0:0:0:
320,192,35787,1,0,0:0:0:0:
448,192,35931,1,0,0:0:0:0:
192,192,36074,1,2,0:0:0:0:
64,192,36074,1,0,0:0:0:0:
448,192,36218,1,0,0:0:0:0:
64,192,36361,1,2,0:0:0:0:
320,192,36361,1,0,0:0:0:0:
192,192,36433,1,0,0:0:0:0:
448,192,36505,1,2,0:0:0:0:
64,192,36505,1,0,0:0:0:0:
320,192,36577,1,0,0:0:0:0:
64,192,36648,1,2,0:0:0:0:
192,192,36648,1,0,0:0:0:0:
320,192,36720,1,0,0:0:0:0:
448,192,36792,1,2,0:0:0:0:
64,192,36792,1,0,0:0:0:0:
192,192,36864,1,0,0:0:0:0:
320,192,36935,1,2,0:0:0:0:
448,192,36935,1,0,0:0:0:0:
64,192,37007,1,0,0:0:0:0:
448,192,37079,1,2,0:0:0:0:
192,192,37079,1,0,0:0:0:0:
320,192,37151,1,0,0:0:0:0:
192,192,37223,1,2,0:0:0:0:
64,192,37223,1,0,0:0:0:0:
320,192,37294,1,0,0:0:0:0:
448,192,37366,1,2,0:0:0:0:
64,192,37366,1,0,0:0:0:0:
192,192,37438,1,0,0:0:0:0:
320,192,37510,1,2,0:0:0:0:
448,192,37510,1,0,0:0:0:0:
64,192,37581,1,2,0:0:0:0:
192,192,37581,1,0,0:0:0:0:
320,192,37653,1,2,0:0:0:0:
448,192,37653,1,0,0:0:0:0:
192,192,37725,1,2,0:0:0:0:
64,192,37725,1,0,0:0:0:0:
320,192,37797,1,2,0:0:0:0:
448,192,37797,1,0,0:0:0:0:
192,192,37868,1,2,0:0:0:0:
64,192,37868,1,0,0:0:0:0:
448,192,37940,1,2,0:0:0:0:
320,192,37940,1,0,0:0:0:0:
192,192,38012,1,2,0:0:0:0:
64,192,38012,1,0,0:0:0:0:
320,192,38084,1,2,0:0:0:0:
448,192,38084,1,0,0:0:0:0:
320,192,38156,1,2,0:0:0:0:
448,192,38156,1,0,0:0:0:0:
192,192,38227,1,2,0:0:0:0:
64,192,38227,1,0,0:0:0:0:
192,192,38299,1,2,0:0:0:0:
64,192,38299,1,0,0:0:0:0:
320,192,38371,1,2,0:0:0:0:
448,192,38371,1,0,0:0:0:0:
320,192,38443,1,2,0:0:0:0:
448,192,38443,1,0,0:0:0:0:
192,192,38514,1,2,0:0:0:0:
64,192,38514,1,0,0:0:0:0:
192,192,38586,1,2,0:0:0:0:
64,192,38586,1,0,0:0:0:0:
320,192,38658,1,4,0:0:0:0:
448,192,38658,1,8,0:0:0:0:
64,192,38658,1,2,0:0:0:0:
64,192,38945,1,2,0:0:0:0:
448,192,38945,1,0,0:0:0:0:
320,192,39089,1,0,0:0:0:0:
448,192,39232,1,2,0:0:0:0:
192,192,39376,1,0,0:0:0:0:
320,192,39447,1,0,0:0:0:0:
64,192,39519,1,2,0:0:0:0:
448,192,39519,1,0,0:0:0:0:
192,192,39663,1,0,0:0:0:0:
320,192,39806,1,2,0:0:0:0:
448,192,39806,1,0,0:0:0:0:
64,192,40022,1,0,0:0:0:0:
448,192,40093,1,2,0:0:0:0:
192,192,40237,1,0,0:0:0:0:
448,192,40380,1,2,0:0:0:0:
448,192,40667,1,2,0:0:0:0:
192,192,40811,1,0,0:0:0:0:
320,192,40883,1,0,0:0:0:0:
64,192,40955,1,2,0:0:0:0:
448,192,40955,1,0,0:0:0:0:
192,192,41242,1,2,0:0:0:0:
448,192,41242,1,0,0:0:0:0:
64,192,41529,1,2,0:0:0:0:
448,192,41529,1,0,0:0:0:0:
192,192,41744,1,0,0:0:0:0:
448,192,41816,1,2,0:0:0:0:
320,192,41959,1,0,0:0:0:0:
192,192,42103,1,2,0:0:0:0:
448,192,42103,1,0,0:0:0:0:
64,192,42318,1,0,0:0:0:0:
448,192,42390,1,2,0:0:0:0:
320,192,42534,1,0,0:0:0:0:
64,192,42677,1,2,0:0:0:0:
448,192,42677,1,0,0:0:0:0:
192,192,42964,1,2,0:0:0:0:
448,192,42964,1,0,0:0:0:0:
320,192,43251,1,8,0:0:0:0:
64,192,43251,1,0,0:0:0:0:
448,192,43538,1,8,0:0:0:0:
64,192,43538,1,0,0:0:0:0:
320,192,43682,1,0,0:0:0:0:
64,192,43825,1,8,0:0:0:0:
448,192,43969,1,0,0:0:0:0:
320,192,44041,1,0,0:0:0:0:
192,192,44112,1,8,0:0:0:0:
64,192,44112,1,0,0:0:0:0:
448,192,44256,1,0,0:0:0:0:
320,192,44400,1,8,0:0:0:0:
64,192,44400,1,0,0:0:0:0:
448,192,44615,1,0,0:0:0:0:
64,192,44687,1,8,0:0:0:0:
320,192,44830,1,0,0:0:0:0:
64,192,44974,1,8,0:0:0:0:
64,192,45261,1,8,0:0:0:0:
192,192,45404,1,0,0:0:0:0:
320,192,45476,1,0,0:0:0:0:
64,192,45548,5,8,0:0:0:0:
448,192,45548,1,0,0:0:0:0:
64,192,45835,1,8,0:0:0:0:
320,192,45835,1,0,0:0:0:0:
448,192,46122,1,8,0:0:0:0:
64,192,46122,1,0,0:0:0:0:
320,192,46337,1,0,0:0:0:0:
64,192,46409,1,8,0:0:0:0:
448,192,46553,1,0,0:0:0:0:
192,192,46696,5,8,0:0:0:0:
64,192,46696,1,0,0:0:0:0:
320,192,46983,5,8,0:0:0:0:
64,192,46983,1,0,0:0:0:0:
448,192,47127,5,0,0:0:0:0:
192,192,47127,1,0,0:0:0:0:
64,192,47270,128,0,47414:0:0:0:0:
192,192,47342,128,0,47486:0:0:0:0:
320,192,47414,128,0,47557:0:0:0:0:
448,192,47486,128,0,47629:0:0:0:0:
64,192,47557,128,0,47701:0:0:0:0:
192,192,47629,128,0,47773:0:0:0:0:
320,192,47701,128,0,47845:0:0:0:0:
448,192,47773,128,0,47845:0:0:0:0:
192,192,47845,1,6,0:0:0:0:
64,192,47845,128,8,48132:0:0:0:0:
320,192,47988,1,0,0:0:0:0:
448,192,48132,128,8,48275:0:0:0:0:
192,192,48132,1,0,0:0:0:0:
64,192,48275,128,0,48562:0:0:0:0:
320,192,48275,1,0,0:0:0:0:
192,192,48419,1,2,0:0:0:0:
448,192,48419,1,0,0:0:0:0:
320,192,48562,1,0,0:0:0:0:
192,192,48634,1,0,0:0:0:0:
320,192,48706,1,8,0:0:0:0:
448,192,48706,128,0,48849:0:0:0:0:
192,192,48849,128,0,48993:0:0:0:0:
320,192,48993,1,2,0:0:0:0:
64,192,48993,128,0,49136:0:0:0:0:
448,192,48993,1,0,0:0:0:0:
192,192,49136,1,0,0:0:0:0:
320,192,49208,1,0,0:0:0:0:
448,192,49208,1,0,0:0:0:0:
64,192,49280,1,8,0:0:0:0:
192,192,49280,1,0,0:0:0:0:
448,192,49423,128,0,49854:0:0:0:0:
320,192,49423,1,0,0:0:0:0:
64,192,49567,1,2,0:0:0:0:
192,192,49567,1,0,0:0:0:0:
320,192,49711,1,0,0:0:0:0:
64,192,49854,1,8,0:0:0:0:
320,192,49854,1,0,0:0:0:0:
192,192,49998,1,0,0:0:0:0:
320,192,50069,1,0,0:0:0:0:
64,192,50141,128,2,50428:0:0:0:0:
448,192,50141,1,0,0:0:0:0:
192,192,50141,1,0,0:0:0:0:
320,192,50285,1,0,0:0:0:0:
448,192,50428,128,8,50715:0:0:0:0:
192,192,50428,1,0,0:0:0:0:
320,192,50572,1,0,0:0:0:0:
192,192,50715,1,2,0:0:0:0:
64,192,50715,128,0,50859:0:0:0:0:
320,192,50859,1,0,0:0:0:0:
192,192,50931,1,0,0:0:0:0:
448,192,50931,1,0,0:0:0:0:
320,192,51002,1,8,0:0:0:0:
64,192,51002,1,0,0:0:0:0:
192,192,51146,1,0,0:0:0:0:
64,192,51146,128,0,51289:0:0:0:0:
320,192,51289,1,2,0:0:0:0:
448,192,51289,128,0,51433:0:0:0:0:
192,192,51433,1,0,0:0:0:0:
64,192,51505,1,0,0:0:0:0:
320,192,51505,1,0,0:0:0:0:
448,192,51577,1,8,0:0:0:0:
192,192,51577,1,0,0:0:0:0:
64,192,51720,1,0,0:0:0:0:
192,192,51720,1,0,0:0:0:0:
64,192,51864,128,2,51959:0:0:0:0:
448,192,51864,128,0,51959:0:0:0:0:
320,192,51959,128,0,52055:0:0:0:0:
192,192,52055,128,0,52151:0:0:0:0:
64,192,52151,128,8,52246:0:0:0:0:
448,192,52151,128,0,52246:0:0:0:0:
320,192,52246,128,0,52342:0:0:0:0:
192,192,52342,128,0,52438:0:0:0:0:
448,192,52438,128,8,52725:0:0:0:0:
320,192,52438,128,2,52725:0:0:0:0:
64,192,52438,1,4,0:0:0:0:
64,192,52725,1,2,0:0:0:0:
192,192,52725,1,0,0:0:0:0:
64,192,52868,128,2,53156:0:0:0:0:
192,192,52868,128,8,53156:0:0:0:0:
448,192,52868,128,4,53156:0:0:0:0:
320,192,53156,1,0,0:0:0:0:
192,192,53227,1,0,0:0:0:0:
448,192,53299,1,8,0:0:0:0:
320,192,53299,1,0,0:0:0:0:
192,192,53443,1,2,0:0:0:0:
64,192,53443,1,0,0:0:0:0:
448,192,53443,1,0,0:0:0:0:
448,192,53586,1,2,0:0:0:0:
320,192,53586,1,4,0:0:0:0:
64,192,53586,1,8,0:0:0:0:
192,192,53801,1,8,0:0:0:0:
320,192,53801,1,2,0:0:0:0:
448,192,53801,1,4,0:0:0:0:
192,192,54017,1,4,0:0:0:0:
448,192,54017,128,2,54447:0:0:0:0:
64,192,54017,128,8,54447:0:0:0:0:
192,192,54447,1,8,0:0:0:0:
320,192,54447,1,2,0:0:0:0:
64,192,54591,1,2,0:0:0:0:
192,192,54591,1,0,0:0:0:0:
448,192,54663,1,2,0:0:0:0:
320,192,54663,1,0,0:0:0:0:
192,192,54734,1,2,0:0:0:0:
64,192,54734,1,12,0:0:0:0:
320,192,55022,1,8,0:0:0:0:
448,192,55022,1,2,0:0:0:0:
64,192,55022,1,4,0:0:0:0:
64,192,55309,1,4,0:0:0:0:
192,192,55309,1,2,0:0:0:0:
320,192,55309,1,8,0:0:0:0:
64,192,55524,1,8,0:0:0:0:
192,192,55524,1,2,0:0:0:0:
448,192,55524,1,4,0:0:0:0:
448,192,55739,1,4,0:0:0:0:
320,192,55739,1,8,0:0:0:0:
192,192,55739,1,2,0:0:0:0:
64,192,55883,1,12,0:0:0:0:
192,192,55883,1,2,0:0:0:0:
448,192,55883,1,0,0:0:0:0:
320,192,55883,1,0,0:0:0:0:
320,192,56026,1,0,0:0:0:0:
64,192,56170,1,0,0:0:0:0:
448,192,56313,1,0,0:0:0:0:
192,192,56457,1,0,0:0:0:0:
448,192,56600,1,0,0:0:0:0:
320,192,56744,1,0,0:0:0:0:
64,192,56888,1,0,0:0:0:0:
448,192,57031,1,0,0:0:0:0:
192,192,57175,1,0,0:0:0:0:
448,192,57318,1,0,0:0:0:0:
64,192,57462,1,0,0:0:0:0:
320,192,57605,1,0,0:0:0:0:
192,192,57749,1,0,0:0:0:0:
448,192,57892,1,0,0:0:0:0:
64,192,58036,1,0,0:0:0:0:
320,192,58179,1,0,0:0:0:0:
64,192,58323,1,0,0:0:0:0:
448,192,58467,1,0,0:0:0:0:
192,192,58610,1,0,0:0:0:0:
320,192,58754,1,0,0:0:0:0:
192,192,58897,1,0,0:0:0:0:
448,192,59041,1,0,0:0:0:0:
320,192,59184,1,0,0:0:0:0:
64,192,59328,5,0,0:0:0:0:
448,192,59471,1,0,0:0:0:0:
192,192,59615,1,0,0:0:0:0:
320,192,59758,1,0,0:0:0:0:
64,192,59902,1,0,0:0:0:0:
448,192,60045,1,0,0:0:0:0:
64,192,60189,1,0,0:0:0:0:
192,192,60333,1,0,0:0:0:0:
448,192,60476,5,2,0:0:0:0:
320,192,60476,1,0,0:0:0:0:
192,192,60548,1,2,0:0:0:0:
64,192,60548,1,0,0:0:0:0:
320,192,60620,1,2,0:0:0:0:
448,192,60620,1,0,0:0:0:0:
192,192,60691,1,2,0:0:0:0:
64,192,60691,1,0,0:0:0:0:
448,192,60763,1,2,0:0:0:0:
320,192,60763,1,0,0:0:0:0:
192,192,60907,1,2,0:0:0:0:
448,192,60907,1,12,0:0:0:0:
64,192,60907,1,0,0:0:0:0:
320,192,60907,1,0,0:0:0:0:
320,192,61050,1,0,0:0:0:0:
64,192,61194,1,0,0:0:0:0:
448,192,61337,1,0,0:0:0:0:
192,192,61481,1,0,0:0:0:0:
448,192,61624,1,0,0:0:0:0:
320,192,61768,1,0,0:0:0:0:
64,192,61912,1,0,0:0:0:0:
448,192,62055,1,0,0:0:0:0:
192,192,62199,1,0,0:0:0:0:
320,192,62342,1,0,0:0:0:0:
64,192,62486,1,0,0:0:0:0:
320,192,62629,1,0,0:0:0:0:
64,192,62773,5,0,0:0:0:0:
448,192,62916,1,0,0:0:0:0:
192,192,63060,1,0,0:0:0:0:
320,192,63203,1,0,0:0:0:0:
192,192,63347,1,0,0:0:0:0:
448,192,63490,1,0,0:0:0:0:
64,192,63634,1,0,0:0:0:0:
320,192,63778,1,0,0:0:0:0:
448,192,63921,128,0,64065:0:0:0:0:
320,192,63993,128,0,64136:0:0:0:0:
192,192,64065,128,0,64208:0:0:0:0:
64,192,64136,128,0,64280:0:0:0:0:
448,192,64208,128,0,64352:0:0:0:0:
320,192,64280,128,0,64423:0:0:0:0:
192,192,64352,128,0,64495:0:0:0:0:
64,192,64423,128,0,64567:0:0:0:0:
448,192,64495,128,0,64854:0:0:0:0:
320,192,64567,128,0,64782:0:0:0:0:
192,192,64639,128,0,64711:0:0:0:0:
64,192,64711,128,0,64926:0:0:0:0:
192,192,64782,128,0,64998:0:0:0:0:
320,192,64854,128,0,64998:0:0:0:0:
448,192,64926,128,0,64998:0:0:0:0:
64,192,64998,1,0,0:0:0:0:
448,192,65069,1,2,0:0:0:0:
192,192,65069,1,12,0:0:0:0:
320,192,65069,1,0,0:0:0:0:
64,192,65213,1,0,0:0:0:0:
192,192,65356,128,2,65500:0:0:0:0:
320,192,65356,1,0,0:0:0:0:
448,192,65500,1,0,0:0:0:0:
64,192,65644,1,2,0:0:0:0:
320,192,65644,1,0,0:0:0:0:
448,192,65787,128,0,65931:0:0:0:0:
192,192,65931,1,2,0:0:0:0:
64,192,65931,1,0,0:0:0:0:
320,192,66074,1,0,0:0:0:0:
64,192,66218,128,2,66361:0:0:0:0:
448,192,66218,1,0,0:0:0:0:
192,192,66361,1,0,0:0:0:0:
448,192,66505,1,2,0:0:0:0:
64,192,66505,1,0,0:0:0:0:
320,192,66648,128,0,66792:0:0:0:0:
64,192,66792,1,2,0:0:0:0:
192,192,66792,1,0,0:0:0:0:
448,192,66935,128,0,67151:0:0:0:0:
64,192,67079,128,2,67294:0:0:0:0:
192,192,67079,1,0,0:0:0:0:
448,192,67223,128,0,67366:0:0:0:0:
320,192,67366,1,2,0:0:0:0:
64,192,67366,1,0,0:0:0:0:
192,192,67510,1,0,0:0:0:0:
448,192,67653,128,2,67797:0:0:0:0:
320,192,67653,1,0,0:0:0:0:
64,192,67797,1,0,0:0:0:0:
448,192,67940,1,2,0:0:0:0:
192,192,67940,1,0,0:0:0:0:
64,192,68084,128,0,68227:0:0:0:0:
320,192,68227,1,2,0:0:0:0:
448,192,68227,1,0,0:0:0:0:
192,192,68371,1,0,0:0:0:0:
448,192,68514,128,2,68658:0:0:0:0:
64,192,68514,1,0,0:0:0:0:
320,192,68658,1,0,0:0:0:0:
64,192,68801,1,2,0:0:0:0:
448,192,68801,1,0,0:0:0:0:
192,192,68945,128,0,69089:0:0:0:0:
448,192,69089,1,2,0:0:0:0:
320,192,69089,1,0,0:0:0:0:
64,192,69232,128,0,69447:0:0:0:0:
448,192,69376,128,2,69591:0:0:0:0:
320,192,69376,1,0,0:0:0:0:
64,192,69519,128,0,69663:0:0:0:0:
448,192,69663,1,2,0:0:0:0:
320,192,69663,1,0,0:0:0:0:
192,192,69663,1,0,0:0:0:0:
64,192,69806,1,2,0:0:0:0:
192,192,69806,1,0,0:0:0:0:
320,192,69950,1,2,0:0:0:0:
448,192,69950,1,0,0:0:0:0:
64,192,69950,1,0,0:0:0:0:
192,192,70093,1,2,0:0:0:0:
320,192,70093,1,0,0:0:0:0:
320,192,70237,1,2,0:0:0:0:
64,192,70237,1,0,0:0:0:0:
448,192,70237,1,0,0:0:0:0:
448,192,70380,1,0,0:0:0:0:
192,192,70380,1,2,0:0:0:0:
64,192,70524,1,2,0:0:0:0:
448,192,70524,1,0,0:0:0:0:
320,192,70524,1,0,0:0:0:0:
192,192,70667,1,0,0:0:0:0:
320,192,70667,1,2,0:0:0:0:
320,192,70811,1,2,0:0:0:0:
448,192,70811,1,0,0:0:0:0:
64,192,70811,1,0,0:0:0:0:
448,192,70955,1,0,0:0:0:0:
192,192,70955,1,2,0:0:0:0:
64,192,71098,1,2,0:0:0:0:
448,192,71098,1,0,0:0:0:0:
320,192,71098,1,0,0:0:0:0:
320,192,71242,1,2,0:0:0:0:
192,192,71242,1,0,0:0:0:0:
64,192,71385,1,2,0:0:0:0:
448,192,71385,1,0,0:0:0:0:
192,192,71385,1,0,0:0:0:0:
320,192,71529,1,0,0:0:0:0:
64,192,71529,1,2,0:0:0:0:
320,192,71672,1,2,0:0:0:0:
448,192,71672,1,0,0:0:0:0:
192,192,71672,1,0,0:0:0:0:
64,192,71816,1,2,0:0:0:0:
192,192,71816,1,0,0:0:0:0:
448,192,71959,1,2,0:0:0:0:
320,192,71959,1,0,0:0:0:0:
192,192,72031,1,2,0:0:0:0:
64,192,72031,1,0,0:0:0:0:
320,192,72103,1,2,0:0:0:0:
448,192,72103,1,0,0:0:0:0:
192,192,72175,1,2,0:0:0:0:
64,192,72175,1,0,0:0:0:0:
320,192,72246,1,2,0:0:0:0:
448,192,72246,1,0,0:0:0:0:
192,192,72318,1,2,0:0:0:0:
64,192,72318,1,0,0:0:0:0:
320,192,72390,1,2,0:0:0:0:
448,192,72390,1,0,0:0:0:0:
64,192,72462,1,2,0:0:0:0:
192,192,72462,1,0,0:0:0:0:
448,192,72534,1,0,0:0:0:0:
320,192,72569,1,0,0:0:0:0:
64,192,72605,1,0,0:0:0:0:
192,192,72641,1,0,0:0:0:0:
448,192,72677,1,0,0:0:0:0:
320,192,72713,1,0,0:0:0:0:
64,192,72749,1,0,0:0:0:0:
192,192,72785,1,0,0:0:0:0:
320,192,72821,1,0,0:0:0:0:
448,192,72856,1,0,0:0:0:0:
192,192,72892,1,0,0:0:0:0:
64,192,72928,1,0,0:0:0:0:
320,192,72964,1,0,0:0:0:0:
448,192,73000,1,0,0:0:0:0:
192,192,73036,1,0,0:0:0:0:
64,192,73072,1,0,0:0:0:0:
320,192,73108,128,0,73251:0:0:0:0:
448,192,73108,128,0,73251:0:0:0:0:
192,192,73323,128,0,73467:0:0:0:0:
64,192,73323,128,0,73467:0:0:0:0:
448,192,73538,1,0,0:0:0:0:
320,192,73538,1,0,0:0:0:0:
192,192,73610,1,0,0:0:0:0:
64,192,73610,1,0,0:0:0:0:
448,192,73682,1,0,0:0:0:0:
320,192,73682,1,0,0:0:0:0:
320,192,73825,1,0,0:0:0:0:
192,192,73825,1,0,0:0:0:0:
64,192,73969,128,0,74184:0:0:0:0:
448,192,73969,128,0,74184:0:0:0:0:
192,192,73969,128,0,74184:0:0:0:0:
320,192,73969,128,0,74184:0:0:0:0:
320,192,74256,1,12,0:0:0:0:
192,192,74256,1,2,0:0:0:0:
448,192,74256,1,0,0:0:0:0:
64,192,74256,1,0,0:0:0:0:
64,192,74400,1,0,0:0:0:0:
192,192,74543,1,8,0:0:0:0:
448,192,74543,1,0,0:0:0:0:
320,192,74615,1,0,0:0:0:0:
448,192,74687,1,0,0:0:0:0:
64,192,74687,1,0,0:0:0:0:
192,192,74758,1,0,0:0:0:0:
448,192,74830,1,2,0:0:0:0:
320,192,74830,1,0,0:0:0:0:
64,192,74974,1,0,0:0:0:0:
192,192,75045,1,0,0:0:0:0:
448,192,75045,1,0,0:0:0:0:
64,192,75117,1,8,0:0:0:0:
320,192,75117,1,0,0:0:0:0:
448,192,75261,1,0,0:0:0:0:
192,192,75261,1,0,0:0:0:0:
320,192,75333,1,0,0:0:0:0:
192,192,75404,1,2,0:0:0:0:
64,192,75404,1,0,0:0:0:0:
448,192,75548,1,0,0:0:0:0:
320,192,75620,1,0,0:0:0:0:
64,192,75691,1,8,0:0:0:0:
192,192,75691,1,0,0:0:0:0:
320,192,75763,1,0,0:0:0:0:
448,192,75835,1,0,0:0:0:0:
64,192,75835,1,0,0:0:0:0:
192,192,75907,1,0,0:0:0:0:
320,192,75978,1,2,0:0:0:0:
448,192,75978,1,0,0:0:0:0:
64,192,76122,1,0,0:0:0:0:
192,192,76194,1,0,0:0:0:0:
320,192,76194,1,0,0:0:0:0:
448,192,76266,1,8,0:0:0:0:
64,192,76266,1,0,0:0:0:0:
192,192,76409,1,0,0:0:0:0:
320,192,76409,1,0,0:0:0:0:
448,192,76481,1,0,0:0:0:0:
192,192,76553,1,2,0:0:0:0:
64,192,76553,1,0,0:0:0:0:
320,192,76696,1,0,0:0:0:0:
192,192,76768,1,0,0:0:0:0:
64,192,76840,1,8,0:0:0:0:
448,192,76840,1,0,0:0:0:0:
320,192,76912,1,0,0:0:0:0:
64,192,76983,1,0,0:0:0:0:
192,192,77055,1,0,0:0:0:0:
320,192,77127,1,2,0:0:0:0:
448,192,77127,1,0,0:0:0:0:
192,192,77270,1,0,0:0:0:0:
64,192,77342,1,0,0:0:0:0:
320,192,77342,1,0,0:0:0:0:
192,192,77414,1,8,0:0:0:0:
448,192,77414,1,0,0:0:0:0:
320,192,77557,1,0,0:0:0:0:
64,192,77557,1,0,0:0:0:0:
192,192,77629,1,0,0:0:0:0:
320,192,77701,1,2,0:0:0:0:
448,192,77701,1,0,0:0:0:0:
64,192,77845,1,0,0:0:0:0:
192,192,77916,1,0,0:0:0:0:
320,192,77988,1,8,0:0:0:0:
448,192,77988,1,0,0:0:0:0:
64,192,78132,1,0,0:0:0:0:
320,192,78203,1,0,0:0:0:0:
192,192,78275,1,2,0:0:0:0:
64,192,78275,1,0,0:0:0:0:
448,192,78419,1,0,0:0:0:0:
320,192,78490,1,0,0:0:0:0:
192,192,78490,1,0,0:0:0:0:
64,192,78562,1,8,0:0:0:0:
448,192,78562,1,0,0:0:0:0:
64,192,78706,1,0,0:0:0:0:
320,192,78706,1,0,0:0:0:0:
192,192,78778,1,0,0:0:0:0:
448,192,78849,1,2,0:0:0:0:
320,192,78849,1,0,0:0:0:0:
64,192,78849,1,0,0:0:0:0:
192,192,78993,1,0,0:0:0:0:
448,192,79065,1,0,0:0:0:0:
320,192,79136,1,8,0:0:0:0:
64,192,79136,1,0,0:0:0:0:
192,192,79208,1,0,0:0:0:0:
320,192,79280,1,0,0:0:0:0:
448,192,79280,1,0,0:0:0:0:
192,192,79352,1,0,0:0:0:0:
64,192,79423,1,2,0:0:0:0:
448,192,79423,1,0,0:0:0:0:
320,192,79567,1,0,0:0:0:0:
64,192,79639,1,0,0:0:0:0:
192,192,79711,1,8,0:0:0:0:
320,192,79711,1,0,0:0:0:0:
448,192,79854,1,0,0:0:0:0:
64,192,79854,1,0,0:0:0:0:
192,192,79998,5,2,0:0:0:0:
448,192,79998,1,0,0:0:0:0:
320,192,79998,1,0,0:0:0:0:
64,192,80141,1,0,0:0:0:0:
320,192,80213,1,0,0:0:0:0:
192,192,80285,1,8,0:0:0:0:
64,192,80285,1,0,0:0:0:0:
448,192,80356,1,0,0:0:0:0:
320,192,80428,1,0,0:0:0:0:
192,192,80428,1,0,0:0:0:0:
64,192,80500,1,0,0:0:0:0:
192,192,80572,1,2,0:0:0:0:
448,192,80572,1,0,0:0:0:0:
320,192,80715,1,0,0:0:0:0:
64,192,80787,1,0,0:0:0:0:
192,192,80787,1,0,0:0:0:0:
320,192,80859,1,8,0:0:0:0:
448,192,80859,1,0,0:0:0:0:
192,192,81002,1,0,0:0:0:0:
64,192,81002,1,0,0:0:0:0:
320,192,81146,1,2,0:0:0:0:
64,192,81146,1,0,0:0:0:0:
448,192,81146,1,0,0:0:0:0:
320,192,81289,1,2,0:0:0:0:
192,192,81289,1,0,0:0:0:0:
320,192,81433,1,2,0:0:0:0:
64,192,81433,1,0,0:0:0:0:
64,192,81577,1,2,0:0:0:0:
192,192,81577,1,0,0:0:0:0:
320,192,81720,1,2,0:0:0:0:
192,192,81720,1,0,0:0:0:0:
448,192,81864,1,2,0:0:0:0:
192,192,81864,1,0,0:0:0:0:
320,192,82007,1,2,0:0:0:0:
448,192,82007,1,0,0:0:0:0:
64,192,82151,1,2,0:0:0:0:
192,192,82151,1,0,0:0:0:0:
448,192,82294,128,4,82438:0:0:0:0:
320,192,82294,128,2,82438:0:0:0:0:
64,192,82294,1,8,0:0:0:0:
64,192,82510,1,8,0:0:0:0:
448,192,82510,1,4,0:0:0:0:
320,192,82510,1,2,0:0:0:0:
192,192,82725,128,2,82868:0:0:0:0:
64,192,82725,128,8,82868:0:0:0:0:
448,192,82725,1,4,0:0:0:0:
448,192,82940,1,4,0:0:0:0:
64,192,82940,1,8,0:0:0:0:
192,192,82940,1,2,0:0:0:0:
64,192,83156,1,2,0:0:0:0:
448,192,83156,1,12,0:0:0:0:
320,192,83156,1,0,0:0:0:0:
448,192,83299,1,2,0:0:0:0:
192,192,83299,1,12,0:0:0:0:
64,192,83299,1,0,0:0:0:0:
64,192,83443,1,2,0:0:0:0:
448,192,83443,1,4,0:0:0:0:
320,192,83443,1,8,0:0:0:0:
192,192,83443,1,0,0:0:0:0:
192,192,83586,1,0,0:0:0:0:
320,192,83658,1,0,0:0:0:0:
192,192,83730,1,2,0:0:0:0:
448,192,83730,1,0,0:0:0:0:
64,192,83801,1,0,0:0:0:0:
320,192,83873,1,0,0:0:0:0:
448,192,83873,1,0,0:0:0:0:
192,192,83945,1,0,0:0:0:0:
64,192,83945,1,0,0:0:0:0:
320,192,84017,1,2,0:0:0:0:
448,192,84017,1,0,0:0:0:0:
64,192,84160,1,0,0:0:0:0:
192,192,84232,1,0,0:0:0:0:
320,192,84232,1,0,0:0:0:0:
448,192,84304,1,2,0:0:0:0:
64,192,84304,1,0,0:0:0:0:
192,192,84447,1,0,0:0:0:0:
320,192,84447,1,0,0:0:0:0:
448,192,84591,1,2,0:0:0:0:
192,192,84591,1,0,0:0:0:0:
64,192,84591,1,0,0:0:0:0:
320,192,84734,1,0,0:0:0:0:
64,192,84806,1,0,0:0:0:0:
192,192,84878,1,2,0:0:0:0:
448,192,84878,1,0,0:0:0:0:
320,192,84950,1,0,0:0:0:0:
192,192,85022,1,0,0:0:0:0:
64,192,85022,1,0,0:0:0:0:
320,192,85093,1,0,0:0:0:0:
448,192,85093,1,0,0:0:0:0:
192,192,85165,1,2,0:0:0:0:
64,192,85165,1,0,0:0:0:0:
448,192,85309,1,0,0:0:0:0:
320,192,85380,1,0,0:0:0:0:
192,192,85380,1,0,0:0:0:0:
64,192,85452,1,2,0:0:0:0:
448,192,85452,1,0,0:0:0:0:
320,192,85596,1,0,0:0:0:0:
192,192,85596,1,0,0:0:0:0:
64,192,85739,1,2,0:0:0:0:
192,192,85739,1,0,0:0:0:0:
448,192,85739,1,0,0:0:0:0:
320,192,85883,1,0,0:0:0:0:
64,192,85955,1,0,0:0:0:0:
192,192,86026,1,2,0:0:0:0:
320,192,86026,1,0,0:0:0:0:
448,192,86026,1,0,0:0:0:0:
64,192,86170,1,0,0:0:0:0:
448,192,86242,1,0,0:0:0:0:
320,192,86313,1,2,0:0:0:0:
192,192,86313,1,0,0:0:0:0:
64,192,86313,1,0,0:0:0:0:
448,192,86457,1,0,0:0:0:0:
64,192,86529,1,0,0:0:0:0:
192,192,86529,1,0,0:0:0:0:
320,192,86600,1,2,0:0:0:0:
448,192,86600,1,0,0:0:0:0:
320,192,86744,1,0,0:0:0:0:
192,192,86744,1,0,0:0:0:0:
192,192,86888,1,0,0:0:0:0:
64,192,86888,1,0,0:0:0:0:
448,192,86888,128,0,87175:0:0:0:0:
192,192,87031,1,0,0:0:0:0:
192,192,87175,1,2,0:0:0:0:
64,192,87175,128,0,87462:0:0:0:0:
320,192,87175,1,0,0:0:0:0:
320,192,87318,1,0,0:0:0:0:
192,192,87462,1,2,0:0:0:0:
320,192,87462,1,0,0:0:0:0:
448,192,87462,1,0,0:0:0:0:
192,192,87605,1,0,0:0:0:0:
320,192,87677,1,0,0:0:0:0:
448,192,87677,1,0,0:0:0:0:
192,192,87749,1,2,0:0:0:0:
64,192,87749,1,0,0:0:0:0:
320,192,87892,1,0,0:0:0:0:
192,192,87892,1,0,0:0:0:0:
64,192,88036,5,2,0:0:0:0:
448,192,88036,1,0,0:0:0:0:
320,192,88108,1,0,0:0:0:0:
192,192,88179,1,2,0:0:0:0:
64,192,88179,1,0,0:0:0:0:
320,192,88251,1,0,0:0:0:0:
448,192,88323,1,2,0:0:0:0:
64,192,88323,1,0,0:0:0:0:
192,192,88395,1,0,0:0:0:0:
448,192,88467,1,2,0:0:0:0:
320,192,88467,1,0,0:0:0:0:
192,192,88538,1,0,0:0:0:0:
64,192,88538,1,0,0:0:0:0:
320,192,88610,1,2,0:0:0:0:
448,192,88610,1,0,0:0:0:0:
64,192,88682,1,0,0:0:0:0:
320,192,88754,1,2,0:0:0:0:
192,192,88754,1,0,0:0:0:0:
448,192,88825,1,0,0:0:0:0:
64,192,88825,1,0,0:0:0:0:
192,192,88897,1,2,0:0:0:0:
320,192,88897,1,0,0:0:0:0:
448,192,88969,1,0,0:0:0:0:
64,192,89041,1,2,0:0:0:0:
192,192,89041,1,0,0:0:0:0:
320,192,89112,1,0,0:0:0:0:
64,192,89184,1,2,0:0:0:0:
448,192,89184,1,0,0:0:0:0:
192,192,89256,1,0,0:0:0:0:
320,192,89328,1,2,0:0:0:0:
64,192,89328,1,0,0:0:0:0:
448,192,89400,1,0,0:0:0:0:
192,192,89471,1,2,0:0:0:0:
64,192,89471,1,0,0:0:0:0:
448,192,89543,1,0,0:0:0:0:
320,192,89615,1,2,0:0:0:0:
192,192,89615,1,0,0:0:0:0:
448,192,89687,1,0,0:0:0:0:
64,192,89687,1,0,0:0:0:0:
192,192,89758,1,2,0:0:0:0:
320,192,89758,1,0,0:0:0:0:
64,192,89830,1,0,0:0:0:0:
320,192,89902,1,2,0:0:0:0:
448,192,89902,1,0,0:0:0:0:
192,192,89974,1,0,0:0:0:0:
64,192,89974,1,0,0:0:0:0:
320,192,90045,1,2,0:0:0:0:
448,192,90045,1,0,0:0:0:0:
192,192,90117,1,0,0:0:0:0:
448,192,90189,1,2,0:0:0:0:
64,192,90189,1,0,0:0:0:0:
320,192,90261,1,0,0:0:0:0:
64,192,90333,1,2,0:0:0:0:
192,192,90333,1,0,0:0:0:0:
320,192,90404,1,2,0:0:0:0:
448,192,90404,1,0,0:0:0:0:
64,192,90476,1,2,0:0:0:0:
192,192,90476,1,0,0:0:0:0:
320,192,90548,1,2,0:0:0:0:
448,192,90548,1,0,0:0:0:0:
64,192,90620,1,2,0:0:0:0:
192,192,90620,1,0,0:0:0:0:
320,192,90691,1,2,0:0:0:0:
448,192,90691,1,0,0:0:0:0:
64,192,90763,1,2,0:0:0:0:
192,192,90763,1,0,0:0:0:0:
320,192,90835,1,2,0:0:0:0:
448,192,90835,1,0,0:0:0:0:
64,192,90907,1,2,0:0:0:0:
192,192,90907,1,0,0:0:0:0:
448,192,90978,1,2,0:0:0:0:
320,192,90978,1,0,0:0:0:0:
192,192,91050,1,2,0:0:0:0:
64,192,91050,1,0,0:0:0:0:
448,192,91122,1,2,0:0:0:0:
320,192,91122,1,0,0:0:0:0:
192,192,91194,1,2,0:0:0:0:
64,192,91194,1,0,0:0:0:0:
448,192,91266,1,2,0:0:0:0:
320,192,91266,1,0,0:0:0:0:
192,192,91337,1,2,0:0:0:0:
64,192,91337,1,0,0:0:0:0:
448,192,91409,1,2,0:0:0:0:
320,192,91409,1,0,0:0:0:0:
64,192,91481,1,0,0:0:0:0:
192,192,91517,1,0,0:0:0:0:
320,192,91553,1,0,0:0:0:0:
448,192,91589,1,0,0:0:0:0:
64,192,91624,1,0,0:0:0:0:
192,192,91660,1,0,0:0:0:0:
448,192,91696,1,0,0:0:0:0:
320,192,91732,1,0,0:0:0:0:
64,192,91768,1,0,0:0:0:0:
192,192,91804,1,0,0:0:0:0:
448,192,91840,1,0,0:0:0:0:
320,192,91876,1,0,0:0:0:0:
192,192,91912,1,0,0:0:0:0:
64,192,91947,1,0,0:0:0:0:
448,192,91983,1,0,0:0:0:0:
320,192,92019,1,0,0:0:0:0:
192,192,92055,1,0,0:0:0:0:
64,192,92091,1,0,0:0:0:0:
320,192,92127,1,0,0:0:0:0:
448,192,92163,1,0,0:0:0:0:
192,192,92199,1,0,0:0:0:0:
64,192,92234,1,0,0:0:0:0:
448,192,92270,1,0,0:0:0:0:
320,192,92306,1,0,0:0:0:0:
64,192,92342,1,0,0:0:0:0:
192,192,92378,1,0,0:0:0:0:
448,192,92414,1,0,0:0:0:0:
320,192,92450,1,0,0:0:0:0:
64,192,92486,1,0,0:0:0:0:
192,192,92522,1,0,0:0:0:0:
448,192,92557,1,0,0:0:0:0:
320,192,92593,1,0,0:0:0:0:
64,192,92629,1,0,0:0:0:0:
192,192,92629,1,0,0:0:0:0:
448,192,92773,1,0,0:0:0:0:
320,192,92773,1,0,0:0:0:0:
320,192,92916,1,12,0:0:0:0:
64,192,92916,1,2,0:0:0:0:
448,192,92916,1,0,0:0:0:0:
192,192,92916,1,0,0:0:0:0:
192,192,93060,1,0,0:0:0:0:
448,192,93060,1,0,0:0:0:0:
320,192,93203,1,2,0:0:0:0:
64,192,93203,1,0,0:0:0:0:
192,192,93347,1,0,0:0:0:0:
320,192,93490,1,8,0:0:0:0:
64,192,93490,1,0,0:0:0:0:
192,192,93562,1,0,0:0:0:0:
320,192,93634,1,0,0:0:0:0:
448,192,93634,1,0,0:0:0:0:
64,192,93706,1,0,0:0:0:0:
192,192,93778,1,2,0:0:0:0:
448,192,93778,1,0,0:0:0:0:
192,192,93921,1,0,0:0:0:0:
320,192,93921,1,0,0:0:0:0:
64,192,94065,1,8,0:0:0:0:
320,192,94065,1,0,0:0:0:0:
448,192,94208,1,0,0:0:0:0:
192,192,94208,1,0,0:0:0:0:
64,192,94352,1,2,0:0:0:0:
320,192,94352,1,0,0:0:0:0:
192,192,94495,1,0,0:0:0:0:
64,192,94639,1,8,0:0:0:0:
448,192,94639,1,0,0:0:0:0:
320,192,94711,1,0,0:0:0:0:
192,192,94782,1,0,0:0:0:0:
64,192,94782,1,0,0:0:0:0:
448,192,94854,1,0,0:0:0:0:
64,192,94926,1,2,0:0:0:0:
320,192,94926,1,0,0:0:0:0:
192,192,95069,1,0,0:0:0:0:
448,192,95213,1,8,0:0:0:0:
64,192,95213,1,0,0:0:0:0:
320,192,95356,1,0,0:0:0:0:
64,192,95500,1,2,0:0:0:0:
448,192,95500,1,0,0:0:0:0:
192,192,95500,1,0,0:0:0:0:
320,192,95644,1,0,0:0:0:0:
64,192,95644,1,0,0:0:0:0:
192,192,95787,1,8,0:0:0:0:
448,192,95787,1,0,0:0:0:0:
64,192,95787,1,0,0:0:0:0:
320,192,95931,1,0,0:0:0:0:
192,192,95931,1,0,0:0:0:0:
64,192,96074,128,2,96146:0:0:0:0:
448,192,96074,128,0,96146:0:0:0:0:
320,192,96146,128,0,96218:0:0:0:0:
192,192,96218,128,0,96289:0:0:0:0:
448,192,96289,128,0,96361:0:0:0:0:
320,192,96361,128,8,96433:0:0:0:0:
64,192,96361,128,0,96433:0:0:0:0:
192,192,96433,128,0,96505:0:0:0:0:
448,192,96505,128,0,96577:0:0:0:0:
320,192,96577,128,0,96648:0:0:0:0:
64,192,96648,1,2,0:0:0:0:
192,192,96648,1,0,0:0:0:0:
64,192,96792,128,0,96935:0:0:0:0:
192,192,96864,128,0,96935:0:0:0:0:
448,192,96935,1,8,0:0:0:0:
320,192,96935,1,0,0:0:0:0:
192,192,97079,1,0,0:0:0:0:
448,192,97223,1,2,0:0:0:0:
64,192,97223,1,0,0:0:0:0:
320,192,97223,1,0,0:0:0:0:
192,192,97366,1,0,0:0:0:0:
448,192,97510,1,8,0:0:0:0:
64,192,97510,1,0,0:0:0:0:
320,192,97653,1,0,0:0:0:0:
192,192,97797,1,2,0:0:0:0:
64,192,97797,1,0,0:0:0:0:
448,192,97940,1,0,0:0:0:0:
320,192,98012,1,0,0:0:0:0:
192,192,98012,1,0,0:0:0:0:
448,192,98084,1,8,0:0:0:0:
64,192,98084,1,0,0:0:0:0:
448,192,98227,1,0,0:0:0:0:
192,192,98227,1,0,0:0:0:0:
320,192,98371,1,2,0:0:0:0:
64,192,98371,1,0,0:0:0:0:
448,192,98514,1,0,0:0:0:0:
192,192,98514,1,0,0:0:0:0:
192,192,98658,1,8,0:0:0:0:
320,192,98658,1,0,0:0:0:0:
320,192,98801,1,0,0:0:0:0:
64,192,98801,1,0,0:0:0:0:
448,192,98873,1,0,0:0:0:0:
192,192,98873,1,0,0:0:0:0:
64,192,98945,1,2,0:0:0:0:
320,192,98945,1,0,0:0:0:0:
192,192,99017,1,2,0:0:0:0:
320,192,99089,1,2,0:0:0:0:
448,192,99089,1,0,0:0:0:0:
192,192,99160,1,2,0:0:0:0:
64,192,99160,1,0,0:0:0:0:
320,192,99232,1,2,0:0:0:0:
448,192,99232,1,0,0:0:0:0:
192,192,99304,1,2,0:0:0:0:
64,192,99304,1,0,0:0:0:0:
320,192,99376,1,2,0:0:0:0:
448,192,99376,1,0,0:0:0:0:
192,192,99447,1,2,0:0:0:0:
448,192,99519,5,4,0:0:0:0:
64,192,99519,1,10,0:0:0:0:
320,192,99519,1,0,0:0:0:0:
192,192,99663,1,2,0:0:0:0:
64,192,99663,1,0,0:0:0:0:
448,192,99663,1,0,0:0:0:0:
448,192,99806,1,2,0:0:0:0:
320,192,99806,1,0,0:0:0:0:
192,192,99806,1,0,0:0:0:0:
320,192,99950,1,2,0:0:0:0:
64,192,99950,1,0,0:0:0:0:
192,192,99950,1,0,0:0:0:0:
448,192,100093,1,2,0:0:0:0:
320,192,100093,1,0,0:0:0:0:
64,192,100093,1,0,0:0:0:0:
192,192,100237,1,2,0:0:0:0:
64,192,100237,1,0,0:0:0:0:
448,192,100237,1,0,0:0:0:0:
320,192,100380,1,2,0:0:0:0:
192,192,100380,1,0,0:0:0:0:
448,192,100380,1,0,0:0:0:0:
320,192,100524,1,2,0:0:0:0:
192,192,100524,1,0,0:0:0:0:
64,192,100524,1,0,0:0:0:0:
64,192,100667,1,8,0:0:0:0:
448,192,100667,1,6,0:0:0:0:
320,192,100667,1,0,0:0:0:0:
192,192,100667,1,0,0:0:0:0:
448,192,100811,1,2,0:0:0:0:
64,192,100811,1,0,0:0:0:0:
320,192,100811,1,0,0:0:0:0:
192,192,100955,1,2,0:0:0:0:
64,192,100955,1,0,0:0:0:0:
448,192,100955,1,0,0:0:0:0:
448,192,101098,1,2,0:0:0:0:
320,192,101098,1,0,0:0:0:0:
192,192,101098,1,0,0:0:0:0:
64,192,101242,1,2,0:0:0:0:
448,192,101242,1,0,0:0:0:0:
320,192,101242,1,0,0:0:0:0:
192,192,101385,1,2,0:0:0:0:
64,192,101385,1,0,0:0:0:0:
448,192,101385,1,0,0:0:0:0:
192,192,101529,1,2,0:0:0:0:
320,192,101529,1,0,0:0:0:0:
448,192,101529,1,0,0:0:0:0:
64,192,101672,1,2,0:0:0:0:
192,192,101672,1,0,0:0:0:0:
320,192,101672,1,0,0:0:0:0:
448,192,101816,1,6,0:0:0:0:
320,192,101816,1,8,0:0:0:0:
64,192,101888,1,2,0:0:0:0:
192,192,101888,1,0,0:0:0:0:
320,192,101959,1,2,0:0:0:0:
448,192,101959,1,0,0:0:0:0:
320,192,102031,1,2,0:0:0:0:
448,192,102031,1,0,0:0:0:0:
64,192,102103,1,2,0:0:0:0:
192,192,102103,1,0,0:0:0:0:
320,192,102175,1,2,0:0:0:0:
448,192,102175,1,0,0:0:0:0:
320,192,102246,1,2,0:0:0:0:
448,192,102246,1,0,0:0:0:0:
64,192,102318,1,2,0:0:0:0:
192,192,102318,1,0,0:0:0:0:
320,192,102390,1,0,0:0:0:0:
448,192,102390,1,14,0:0:0:0:
64,192,102462,1,2,0:0:0:0:
192,192,102462,1,0,0:0:0:0:
64,192,102534,1,2,0:0:0:0:
192,192,102534,1,0,0:0:0:0:
320,192,102605,1,2,0:0:0:0:
448,192,102605,1,0,0:0:0:0:
64,192,102677,1,2,0:0:0:0:
192,192,102677,1,0,0:0:0:0:
192,192,102749,1,2,0:0:0:0:
64,192,102749,1,0,0:0:0:0:
320,192,102821,1,2,0:0:0:0:
448,192,102821,1,0,0:0:0:0:
192,192,102892,1,2,0:0:0:0:
64,192,102892,1,0,0:0:0:0:
320,192,102964,1,0,0:0:0:0:
448,192,103000,1,0,0:0:0:0:
64,192,103036,1,0,0:0:0:0:
192,192,103072,1,0,0:0:0:0:
320,192,103108,1,0,0:0:0:0:
448,192,103144,1,0,0:0:0:0:
64,192,103179,1,0,0:0:0:0:
192,192,103215,1,0,0:0:0:0:
320,192,103251,1,0,0:0:0:0:
448,192,103287,1,0,0:0:0:0:
64,192,103323,1,0,0:0:0:0:
192,192,103359,1,0,0:0:0:0:
320,192,103395,1,0,0:0:0:0:
448,192,103431,1,0,0:0:0:0:
64,192,103467,1,0,0:0:0:0:
192,192,103502,1,0,0:0:0:0:
320,192,103538,1,0,0:0:0:0:
448,192,103538,1,0,0:0:0:0:
192,192,103682,1,0,0:0:0:0:
64,192,103682,1,0,0:0:0:0:
320,192,103825,1,0,0:0:0:0:
448,192,103825,1,0,0:0:0:0:
64,192,103969,1,0,0:0:0:0:
192,192,104041,1,0,0:0:0:0:
64,192,104112,1,8,0:0:0:0:
448,192,104112,1,6,0:0:0:0:
320,192,104112,1,0,0:0:0:0:
192,192,104256,1,0,0:0:0:0:
448,192,104328,1,0,0:0:0:0:
64,192,104400,1,8,0:0:0:0:
320,192,104400,1,0,0:0:0:0:
192,192,104471,1,0,0:0:0:0:
448,192,104543,1,0,0:0:0:0:
64,192,104615,128,0,104758:0:0:0:0:
320,192,104687,1,2,0:0:0:0:
448,192,104687,1,0,0:0:0:0:
192,192,104758,1,0,0:0:0:0:
448,192,104830,128,0,104974:0:0:0:0:
320,192,104974,1,8,0:0:0:0:
64,192,104974,1,0,0:0:0:0:
192,192,104974,1,0,0:0:0:0:
320,192,105117,1,0,0:0:0:0:
64,192,105261,1,2,0:0:0:0:
448,192,105261,1,0,0:0:0:0:
192,192,105261,1,0,0:0:0:0:
320,192,105404,1,0,0:0:0:0:
64,192,105476,1,0,0:0:0:0:
448,192,105548,1,8,0:0:0:0:
192,192,105548,1,0,0:0:0:0:
320,192,105620,1,0,0:0:0:0:
64,192,105691,1,0,0:0:0:0:
448,192,105763,128,0,105907:0:0:0:0:
192,192,105835,1,2,0:0:0:0:
64,192,105835,1,0,0:0:0:0:
320,192,105907,1,0,0:0:0:0:
64,192,105978,128,0,106122:0:0:0:0:
192,192,106122,1,8,0:0:0:0:
448,192,106122,1,0,0:0:0:0:
320,192,106122,1,0,0:0:0:0:
320,192,106266,1,0,0:0:0:0:
448,192,106409,1,2,0:0:0:0:
64,192,106409,1,0,0:0:0:0:
192,192,106409,1,0,0:0:0:0:
320,192,106553,1,0,0:0:0:0:
64,192,106624,1,8,0:0:0:0:
192,192,106696,1,0,0:0:0:0:
448,192,106696,1,0,0:0:0:0:
320,192,106768,1,0,0:0:0:0:
448,192,106912,128,0,107055:0:0:0:0:
192,192,106983,1,2,0:0:0:0:
64,192,106983,1,0,0:0:0:0:
320,192,107055,1,0,0:0:0:0:
64,192,107127,128,0,107270:0:0:0:0:
192,192,107270,1,8,0:0:0:0:
448,192,107270,1,0,0:0:0:0:
320,192,107270,1,0,0:0:0:0:
320,192,107414,1,0,0:0:0:0:
448,192,107486,1,0,0:0:0:0:
64,192,107557,1,2,0:0:0:0:
192,192,107557,1,0,0:0:0:0:
192,192,107701,1,2,0:0:0:0:
320,192,107701,1,0,0:0:0:0:
64,192,107773,1,0,0:0:0:0:
448,192,107845,1,10,0:0:0:0:
320,192,107845,1,0,0:0:0:0:
192,192,107916,1,0,0:0:0:0:
448,192,107988,1,2,0:0:0:0:
64,192,107988,1,0,0:0:0:0:
320,192,108060,1,0,0:0:0:0:
192,192,108132,1,2,0:0:0:0:
64,192,108132,1,0,0:0:0:0:
448,192,108203,1,0,0:0:0:0:
320,192,108203,1,2,0:0:0:0:
192,192,108275,1,2,0:0:0:0:
64,192,108275,1,0,0:0:0:0:
320,192,108347,1,2,0:0:0:0:
448,192,108347,1,0,0:0:0:0:
64,192,108419,1,0,0:0:0:0:
192,192,108455,1,0,0:0:0:0:
448,192,108490,1,0,0:0:0:0:
320,192,108526,1,0,0:0:0:0:
64,192,108562,1,0,0:0:0:0:
192,192,108598,1,0,0:0:0:0:
448,192,108634,1,0,0:0:0:0:
320,192,108670,1,0,0:0:0:0:
192,192,108706,1,8,0:0:0:0:
64,192,108706,1,6,0:0:0:0:
448,192,108849,1,0,0:0:0:0:
192,192,108921,1,0,0:0:0:0:
64,192,108993,1,8,0:0:0:0:
320,192,108993,1,0,0:0:0:0:
448,192,109065,1,0,0:0:0:0:
192,192,109136,1,0,0:0:0:0:
64,192,109208,128,0,109352:0:0:0:0:
320,192,109280,1,2,0:0:0:0:
448,192,109280,1,0,0:0:0:0:
192,192,109352,1,0,0:0:0:0:
448,192,109423,128,0,109567:0:0:0:0:
320,192,109567,1,8,0:0:0:0:
64,192,109567,1,0,0:0:0:0:
192,192,109567,1,0,0:0:0:0:
192,192,109711,1,0,0:0:0:0:
448,192,109782,1,0,0:0:0:0:
64,192,109854,1,2,0:0:0:0:
320,192,109854,1,0,0:0:0:0:
448,192,109998,1,0,0:0:0:0:
192,192,110069,1,0,0:0:0:0:
64,192,110141,1,8,0:0:0:0:
448,192,110141,1,0,0:0:0:0:
320,192,110213,1,0,0:0:0:0:
64,192,110285,1,0,0:0:0:0:
192,192,110356,128,0,110500:0:0:0:0:
320,192,110428,1,2,0:0:0:0:
448,192,110428,1,0,0:0:0:0:
64,192,110500,1,0,0:0:0:0:
448,192,110572,128,0,110715:0:0:0:0:
64,192,110715,1,8,0:0:0:0:
320,192,110715,1,0,0:0:0:0:
192,192,110715,1,0,0:0:0:0:
320,192,110859,1,0,0:0:0:0:
448,192,111002,1,2,0:0:0:0:
64,192,111002,1,0,0:0:0:0:
192,192,111002,1,0,0:0:0:0:
320,192,111146,1,0,0:0:0:0:
192,192,111218,1,0,0:0:0:0:
64,192,111289,1,8,0:0:0:0:
320,192,111289,1,0,0:0:0:0:
448,192,111361,1,0,0:0:0:0:
192,192,111433,1,0,0:0:0:0:
64,192,111505,128,0,111648:0:0:0:0:
448,192,111577,1,2,0:0:0:0:
320,192,111577,1,0,0:0:0:0:
192,192,111648,1,0,0:0:0:0:
448,192,111720,128,0,111864:0:0:0:0:
320,192,111864,1,8,0:0:0:0:
64,192,111864,1,0,0:0:0:0:
192,192,111864,1,0,0:0:0:0:
192,192,112007,1,0,0:0:0:0:
448,192,112151,5,2,0:0:0:0:
320,192,112151,1,0,0:0:0:0:
64,192,112223,1,0,0:0:0:0:
320,192,112294,1,2,0:0:0:0:
192,192,112294,1,0,0:0:0:0:
448,192,112366,1,0,0:0:0:0:
192,192,112438,1,2,0:0:0:0:
64,192,112438,1,8,0:0:0:0:
320,192,112510,1,0,0:0:0:0:
64,192,112581,1,2,0:0:0:0:
448,192,112581,1,0,0:0:0:0:
192,192,112653,1,0,0:0:0:0:
448,192,112725,5,2,0:0:0:0:
320,192,112725,1,0,0:0:0:0:
192,192,112797,1,2,0:0:0:0:
64,192,112797,1,0,0:0:0:0:
320,192,112868,1,2,0:0:0:0:
448,192,112868,1,0,0:0:0:0:
64,192,112940,1,2,0:0:0:0:
192,192,112940,1,0,0:0:0:0:
320,192,113012,1,0,0:0:0:0:
448,192,113048,1,0,0:0:0:0:
192,192,113084,1,0,0:0:0:0:
64,192,113120,1,0,0:0:0:0:
320,192,113156,1,0,0:0:0:0:
448,192,113191,1,0,0:0:0:0:
192,192,113227,1,0,0:0:0:0:
64,192,113263,1,0,0:0:0:0:
320,192,113299,1,2,0:0:0:0:
448,192,113299,1,0,0:0:0:0:
64,192,113371,1,2,0:0:0:0:
192,192,113371,1,0,0:0:0:0:
192,192,113443,1,2,0:0:0:0:
64,192,113443,1,0,0:0:0:0:
320,192,113514,1,2,0:0:0:0:
448,192,113514,1,0,0:0:0:0:
448,192,113658,1,2,0:0:0:0:
64,192,113658,1,12,0:0:0:0:
192,192,113658,1,0,0:0:0:0:
320,192,113658,1,0,0:0:0:0:
320,192,113801,1,2,0:0:0:0:
448,192,113801,1,0,0:0:0:0:
192,192,113873,1,2,0:0:0:0:
64,192,113873,1,0,0:0:0:0:
320,192,113945,1,2,0:0:0:0:
448,192,113945,1,0,0:0:0:0:
320,192,114017,1,2,0:0:0:0:
448,192,114017,1,0,0:0:0:0:
192,192,114089,1,2,0:0:0:0:
64,192,114089,1,0,0:0:0:0:
448,192,114232,1,8,0:0:0:0:
320,192,114232,1,6,0:0:0:0:
64,192,114232,1,0,0:0:0:0:
192,192,114232,1,0,0:0:0:0:
192,192,114376,1,2,0:0:0:0:
64,192,114376,1,0,0:0:0:0:
320,192,114447,1,2,0:0:0:0:
448,192,114447,1,0,0:0:0:0:
192,192,114519,1,2,0:0:0:0:
64,192,114519,1,0,0:0:0:0:
192,192,114591,1,2,0:0:0:0:
64,192,114591,1,0,0:0:0:0:
320,192,114663,1,2,0:0:0:0:
448,192,114663,1,0,0:0:0:0:
448,192,114806,1,4,0:0:0:0:
64,192,114806,1,10,0:0:0:0:
192,192,114806,1,0,0:0:0:0:
320,192,114806,1,0,0:0:0:0:
448,192,114950,1,2,0:0:0:0:
320,192,114950,1,0,0:0:0:0:
192,192,115022,1,2,0:0:0:0:
64,192,115022,1,0,0:0:0:0:
320,192,115093,1,2,0:0:0:0:
448,192,115093,1,0,0:0:0:0:
320,192,115165,1,2,0:0:0:0:
448,192,115165,1,0,0:0:0:0:
192,192,115237,1,2,0:0:0:0:
64,192,115237,1,0,0:0:0:0:
64,192,115309,1,8,0:0:0:0:
448,192,115309,1,6,0:0:0:0:
320,192,115309,1,0,0:0:0:0:
192,192,115452,1,0,0:0:0:0:
320,192,115524,1,2,0:0:0:0:
448,192,115524,1,12,0:0:0:0:
64,192,115524,1,0,0:0:0:0:
192,192,115596,1,2,0:0:0:0:
320,192,115667,1,0,0:0:0:0:
448,192,115739,1,0,0:0:0:0:
192,192,115811,1,0,0:0:0:0:
320,192,115883,1,0,0:0:0:0:
192,192,115955,1,0,0:0:0:0:
64,192,116026,1,0,0:0:0:0:
448,192,116098,1,0,0:0:0:0:
320,192,116170,1,0,0:0:0:0:
64,192,116242,1,0,0:0:0:0:
192,192,116313,1,0,0:0:0:0:
448,192,116385,1,0,0:0:0:0:
320,192,116457,1,0,0:0:0:0:
192,192,116529,1,0,0:0:0:0:
320,192,116600,1,0,0:0:0:0:
64,192,116672,1,0,0:0:0:0:
192,192,116744,1,0,0:0:0:0:
320,192,116816,1,0,0:0:0:0:
64,192,116888,1,0,0:0:0:0:
448,192,116959,1,0,0:0:0:0:
320,192,117031,1,0,0:0:0:0:
192,192,117103,1,0,0:0:0:0:
64,192,117175,1,0,0:0:0:0:
192,192,117246,1,0,0:0:0:0:
320,192,117318,1,0,0:0:0:0:
448,192,117390,1,0,0:0:0:0:
192,192,117462,1,0,0:0:0:0:
64,192,117534,1,0,0:0:0:0:
320,192,117605,1,0,0:0:0:0:
192,192,117677,1,0,0:0:0:0:
320,192,117749,1,0,0:0:0:0:
448,192,117821,1,0,0:0:0:0:
64,192,117892,1,4,0:0:0:0:
192,192,117928,1,0,0:0:0:0:
320,192,117964,1,0,0:0:0:0:
448,192,118000,1,0,0:0:0:0:
