osu file format v14

[General]
AudioFilename: audio.mp3
AudioLeadIn: 0
PreviewTime: 29471
Countdown: 0
SampleSet: Soft
StackLeniency: 0.7
Mode: 3
LetterboxInBreaks: 0
SpecialStyle: 0
WidescreenStoryboard: 0

[Editor]
DistanceSpacing: 0.8
BeatDivisor: 1
GridSize: 32
TimelineZoom: 2

[Metadata]
Title:Zettai Reido
TitleUnicode:絶対零度
Artist:Kaneko Chiharu
ArtistUnicode:かねこちはる
Creator:SpectorDG
Version:CS' NOVICE
Source:SOUND VOLTEX III GRAVITY WARS
Tags:KONAMI BEMANI SDVX 3 MUSECA 1+1/2 Critical_Star C.Star [_Juvia_] [ Juvia ] Juvuulee Oyuka Ouka _FrEsH_ChICkEn_ Fresh Chicken
BeatmapID:1100181
BeatmapSetID:514461

[Difficulty]
HPDrainRate:7.5
CircleSize:4
OverallDifficulty:7
ApproachRate:5
SliderMultiplier:1.4
SliderTickRate:1

[Events]
//Background and Video events
0,0,"BG.jpg",0,0
//Break Periods
//Storyboard Layer 0 (Background)
//Storyboard Layer 1 (Fail)
//Storyboard Layer 2 (Pass)
//Storyboard Layer 3 (Foreground)
//Storyboard Sound Samples

[TimingPoints]
1912,287.081339712919,4,2,1,60,1,0
47845,-100,4,2,1,60,0,1
52438,-100,4,2,1,60,0,0
65069,-100,4,2,1,60,0,1
69663,-100,4,2,1,60,0,0
74256,-100,4,2,1,60,0,1
82294,-100,4,2,1,60,0,0
83443,-100,4,2,1,60,0,1
88036,-100,4,2,1,60,0,0
104112,-100,4,2,1,60,0,1
108132,-100,4,2,1,60,0,0
108706,-100,4,2,1,60,0,1
113299,-100,4,2,1,60,0,0

[HitObjects]
320,192,1624,128,0,1911:0:0:0:0:
64,192,1911,1,12,0:0:0:0:
192,192,1911,1,2,0:0:0:0:
448,192,2199,1,0,0:0:0:0:
320,192,2629,1,0,0:0:0:0:
192,192,3060,1,0,0:0:0:0:
64,192,3490,1,0,0:0:0:0:
192,192,3921,1,0,0:0:0:0:
448,192,4065,1,0,0:0:0:0:
64,192,4495,1,0,0:0:0:0:
192,192,4926,1,0,0:0:0:0:
320,192,5356,1,0,0:0:0:0:
448,192,5787,1,0,0:0:0:0:
320,192,6218,1,0,0:0:0:0:
192,192,6361,1,0,0:0:0:0:
64,192,6505,1,4,0:0:0:0:
448,192,6505,1,0,0:0:0:0:
320,192,6792,1,0,0:0:0:0:
192,192,7223,1,0,0:0:0:0:
448,192,7653,1,0,0:0:0:0:
320,192,8084,1,0,0:0:0:0:
64,192,8514,1,0,0:0:0:0:
448,192,8658,1,0,0:0:0:0:
192,192,9089,1,0,0:0:0:0:
64,192,9519,1,0,0:0:0:0:
192,192,9950,5,0,0:0:0:0:
320,192,10380,1,0,0:0:0:0:
448,192,10811,1,0,0:0:0:0:
64,192,10955,1,0,0:0:0:0:
192,192,11098,5,6,0:0:0:0:
448,192,11098,1,0,0:0:0:0:
320,192,11242,1,0,0:0:0:0:
448,192,11385,1,2,0:0:0:0:
64,192,11529,1,0,0:0:0:0:
192,192,11672,1,2,0:0:0:0:
448,192,11816,1,0,0:0:0:0:
64,192,11959,1,2,0:0:0:0:
192,192,12103,1,0,0:0:0:0:
320,192,12246,1,2,0:0:0:0:
64,192,12390,1,0,0:0:0:0:
448,192,12534,1,2,0:0:0:0:
192,192,12677,1,0,0:0:0:0:
320,192,12821,1,2,0:0:0:0:
448,192,12964,1,0,0:0:0:0:
64,192,13108,1,2,0:0:0:0:
192,192,13251,1,0,0:0:0:0:
448,192,13395,1,2,0:0:0:0:
320,192,13538,1,0,0:0:0:0:
64,192,13682,1,2,0:0:0:0:
448,192,13825,1,0,0:0:0:0:
320,192,13969,1,2,0:0:0:0:
192,192,14112,1,0,0:0:0:0:
448,192,14256,1,2,0:0:0:0:
64,192,14400,1,0,0:0:0:0:
320,192,14543,1,2,0:0:0:0:
192,192,14687,1,0,0:0:0:0:
448,192,14830,1,2,0:0:0:0:
64,192,14974,1,0,0:0:0:0:
320,192,15117,1,2,0:0:0:0:
192,192,15261,1,0,0:0:0:0:
64,192,15404,1,2,0:0:0:0:
448,192,15548,1,0,0:0:0:0:
64,192,15691,1,2,0:0:0:0:
320,192,15835,1,2,0:0:0:0:
192,192,15978,1,2,0:0:0:0:
448,192,16122,1,2,0:0:0:0:
192,192,16266,1,2,0:0:0:0:
320,192,16409,1,2,0:0:0:0:
64,192,16553,1,2,0:0:0:0:
192,192,16696,1,2,0:0:0:0:
448,192,16840,1,2,0:0:0:0:
320,192,16983,1,2,0:0:0:0:
64,192,17127,1,2,0:0:0:0:
448,192,17270,1,2,0:0:0:0:
192,192,17414,1,2,0:0:0:0:
320,192,17557,1,2,0:0:0:0:
64,192,17701,1,2,0:0:0:0:
448,192,17845,1,2,0:0:0:0:
64,192,17988,128,2,19136:0:0:0:0:
192,192,18275,1,2,0:0:0:0:
320,192,18706,1,2,0:0:0:0:
448,192,19136,128,0,20285:0:0:0:0:
192,192,19567,1,0,0:0:0:0:
64,192,19998,1,0,0:0:0:0:
320,192,20141,1,0,0:0:0:0:
192,192,20285,1,12,0:0:0:0:
64,192,20285,1,2,0:0:0:0:
448,192,20428,1,0,0:0:0:0:
192,192,20572,1,8,0:0:0:0:
320,192,20715,1,0,0:0:0:0:
64,192,21146,1,8,0:0:0:0:
192,192,21218,1,0,0:0:0:0:
320,192,21289,1,0,0:0:0:0:
448,192,21361,1,0,0:0:0:0:
64,192,21433,1,2,0:0:0:0:
192,192,21577,1,0,0:0:0:0:
448,192,21720,1,8,0:0:0:0:
320,192,21864,1,0,0:0:0:0:
448,192,22294,1,8,0:0:0:0:
192,192,22366,1,0,0:0:0:0:
64,192,22438,1,0,0:0:0:0:
320,192,22510,1,0,0:0:0:0:
448,192,22581,1,2,0:0:0:0:
320,192,22868,1,8,0:0:0:0:
192,192,23156,1,2,0:0:0:0:
320,192,23299,1,0,0:0:0:0:
64,192,23443,1,8,0:0:0:0:
192,192,23586,1,0,0:0:0:0:
448,192,23730,128,2,24304:0:0:0:0:
192,192,24304,1,2,0:0:0:0:
320,192,24447,128,0,24878:0:0:0:0:
64,192,24878,1,2,0:0:0:0:
448,192,24878,1,4,0:0:0:0:
192,192,25165,1,8,0:0:0:0:
448,192,25452,1,2,0:0:0:0:
320,192,25667,1,0,0:0:0:0:
192,192,25883,1,0,0:0:0:0:
64,192,26026,1,2,0:0:0:0:
320,192,26170,1,0,0:0:0:0:
64,192,26313,1,8,0:0:0:0:
448,192,26457,1,0,0:0:0:0:
320,192,26529,1,0,0:0:0:0:
192,192,26600,1,2,0:0:0:0:
64,192,26888,1,8,0:0:0:0:
192,192,26983,1,0,0:0:0:0:
320,192,27079,1,0,0:0:0:0:
448,192,27175,1,2,0:0:0:0:
64,192,27462,1,2,0:0:0:0:
320,192,27749,1,2,0:0:0:0:
192,192,27892,1,2,0:0:0:0:
448,192,28036,1,2,0:0:0:0:
64,192,28179,1,2,0:0:0:0:
192,192,28251,1,2,0:0:0:0:
320,192,28323,128,0,28610:0:0:0:0:
64,192,28610,1,0,0:0:0:0:
448,192,28897,1,0,0:0:0:0:
320,192,28897,1,0,0:0:0:0:
320,192,29112,1,0,0:0:0:0:
192,192,29112,1,0,0:0:0:0:
192,192,29328,1,0,0:0:0:0:
64,192,29328,1,0,0:0:0:0:
448,192,29471,1,10,0:0:0:0:
64,192,29471,1,4,0:0:0:0:
320,192,29758,1,0,0:0:0:0:
192,192,30045,128,8,30620:0:0:0:0:
64,192,30045,1,0,0:0:0:0:
448,192,30620,1,2,0:0:0:0:
448,192,30835,1,0,0:0:0:0:
64,192,31050,1,0,0:0:0:0:
192,192,31122,1,0,0:0:0:0:
448,192,31194,1,8,0:0:0:0:
64,192,31337,128,0,31481:0:0:0:0:
192,192,31481,1,0,0:0:0:0:
320,192,31624,1,0,0:0:0:0:
64,192,31768,1,2,0:0:0:0:
448,192,31768,128,0,32342:0:0:0:0:
320,192,32055,128,0,32342:0:0:0:0:
64,192,32342,128,8,32629:0:0:0:0:
192,192,32342,1,0,0:0:0:0:
448,192,32629,128,0,32916:0:0:0:0:
192,192,32916,128,2,33203:0:0:0:0:
320,192,33203,1,0,0:0:0:0:
448,192,33490,1,8,0:0:0:0:
192,192,33682,1,0,0:0:0:0:
64,192,33921,1,0,0:0:0:0:
448,192,34065,1,2,0:0:0:0:
320,192,34065,1,4,0:0:0:0:
192,192,34352,128,2,34639:0:0:0:0:
64,192,34639,1,2,0:0:0:0:
448,192,34782,1,0,0:0:0:0:
192,192,34854,1,0,0:0:0:0:
320,192,34926,128,2,35213:0:0:0:0:
64,192,35213,128,2,35500:0:0:0:0:
448,192,35500,1,2,0:0:0:0:
320,192,35644,1,0,0:0:0:0:
192,192,35787,1,2,0:0:0:0:
64,192,35787,1,0,0:0:0:0:
448,192,35931,1,0,0:0:0:0:
192,192,36074,1,2,0:0:0:0:
320,192,36218,1,0,0:0:0:0:
64,192,36361,1,2,0:0:0:0:
64,192,36505,1,2,0:0:0:0:
320,192,36648,1,2,0:0:0:0:
320,192,36792,1,2,0:0:0:0:
192,192,36935,1,2,0:0:0:0:
192,192,37079,1,2,0:0:0:0:
448,192,37223,1,2,0:0:0:0:
448,192,37366,1,2,0:0:0:0:
64,192,37510,128,2,38658:0:0:0:0:
320,192,38658,1,6,0:0:0:0:
448,192,38658,1,8,0:0:0:0:
192,192,38945,1,2,0:0:0:0:
448,192,39089,1,0,0:0:0:0:
320,192,39376,1,0,0:0:0:0:
192,192,39447,1,0,0:0:0:0:
64,192,39519,1,2,0:0:0:0:
448,192,39663,1,0,0:0:0:0:
64,192,39806,1,2,0:0:0:0:
320,192,40022,1,0,0:0:0:0:
192,192,40237,1,0,0:0:0:0:
192,192,40811,1,0,0:0:0:0:
320,192,40883,1,0,0:0:0:0:
448,192,40955,1,2,0:0:0:0:
192,192,41242,1,2,0:0:0:0:
64,192,41529,1,2,0:0:0:0:
320,192,41744,1,0,0:0:0:0:
192,192,41959,1,0,0:0:0:0:
448,192,42103,1,2,0:0:0:0:
320,192,42318,1,0,0:0:0:0:
192,192,42534,1,0,0:0:0:0:
448,192,42677,1,2,0:0:0:0:
64,192,42964,1,2,0:0:0:0:
320,192,43251,1,8,0:0:0:0:
448,192,43538,1,8,0:0:0:0:
192,192,43682,1,0,0:0:0:0:
320,192,43969,1,0,0:0:0:0:
192,192,44041,1,0,0:0:0:0:
64,192,44112,1,8,0:0:0:0:
320,192,44256,1,0,0:0:0:0:
448,192,44400,1,8,0:0:0:0:
64,192,44615,1,0,0:0:0:0:
320,192,44830,1,0,0:0:0:0:
64,192,45404,1,0,0:0:0:0:
192,192,45476,1,0,0:0:0:0:
320,192,45548,1,8,0:0:0:0:
448,192,45835,1,8,0:0:0:0:
320,192,46122,1,8,0:0:0:0:
192,192,46337,1,0,0:0:0:0:
64,192,46553,1,0,0:0:0:0:
320,192,46696,1,8,0:0:0:0:
192,192,46983,1,8,0:0:0:0:
448,192,47127,1,0,0:0:0:0:
64,192,47270,128,0,47845:0:0:0:0:
448,192,47845,1,12,0:0:0:0:
192,192,47845,1,2,0:0:0:0:
64,192,48132,1,8,0:0:0:0:
320,192,48275,1,0,0:0:0:0:
64,192,48562,1,0,0:0:0:0:
448,192,48634,1,0,0:0:0:0:
192,192,48706,1,8,0:0:0:0:
320,192,48849,1,0,0:0:0:0:
64,192,48993,1,2,0:0:0:0:
192,192,49208,1,0,0:0:0:0:
320,192,49423,128,0,49854:0:0:0:0:
64,192,49854,1,8,0:0:0:0:
192,192,49998,1,0,0:0:0:0:
320,192,50069,1,0,0:0:0:0:
448,192,50141,128,2,50428:0:0:0:0:
192,192,50428,128,8,50715:0:0:0:0:
64,192,50715,1,2,0:0:0:0:
320,192,50931,1,0,0:0:0:0:
192,192,51146,1,0,0:0:0:0:
448,192,51289,1,2,0:0:0:0:
320,192,51505,1,0,0:0:0:0:
64,192,51720,1,0,0:0:0:0:
192,192,51864,128,2,52151:0:0:0:0:
448,192,52151,128,8,52438:0:0:0:0:
192,192,52438,1,8,0:0:0:0:
64,192,52438,1,6,0:0:0:0:
448,192,52725,1,2,0:0:0:0:
192,192,52868,1,2,0:0:0:0:
64,192,52868,1,12,0:0:0:0:
320,192,53156,1,0,0:0:0:0:
192,192,53227,1,0,0:0:0:0:
64,192,53299,1,8,0:0:0:0:
448,192,53443,1,2,0:0:0:0:
192,192,53586,1,10,0:0:0:0:
64,192,53586,1,4,0:0:0:0:
192,192,53801,1,12,0:0:0:0:
320,192,53801,1,2,0:0:0:0:
448,192,54017,128,4,54447:0:0:0:0:
64,192,54017,1,10,0:0:0:0:
192,192,54447,1,8,0:0:0:0:
64,192,54447,1,2,0:0:0:0:
320,192,54591,1,2,0:0:0:0:
64,192,54663,1,2,0:0:0:0:
448,192,54734,1,14,0:0:0:0:
192,192,55022,1,12,0:0:0:0:
320,192,55022,1,2,0:0:0:0:
192,192,55309,1,4,0:0:0:0:
64,192,55309,1,10,0:0:0:0:
320,192,55524,1,12,0:0:0:0:
448,192,55524,1,2,0:0:0:0:
192,192,55739,1,6,0:0:0:0:
320,192,55739,1,8,0:0:0:0:
448,192,55883,1,12,0:0:0:0:
64,192,55883,128,2,60476:0:0:0:0:
448,192,60476,1,2,0:0:0:0:
192,192,60548,1,2,0:0:0:0:
320,192,60620,1,2,0:0:0:0:
64,192,60691,1,2,0:0:0:0:
448,192,60763,1,2,0:0:0:0:
192,192,60907,128,2,65069:0:0:0:0:
64,192,60907,1,12,0:0:0:0:
320,192,63921,128,0,65069:0:0:0:0:
448,192,65069,1,2,0:0:0:0:
64,192,65069,1,12,0:0:0:0:
192,192,65213,1,0,0:0:0:0:
448,192,65356,1,2,0:0:0:0:
64,192,65500,1,0,0:0:0:0:
320,192,65644,1,2,0:0:0:0:
448,192,65787,1,0,0:0:0:0:
64,192,65931,1,2,0:0:0:0:
192,192,66074,1,0,0:0:0:0:
320,192,66218,1,2,0:0:0:0:
64,192,66361,1,0,0:0:0:0:
448,192,66505,1,2,0:0:0:0:
192,192,66648,1,0,0:0:0:0:
448,192,66792,1,2,0:0:0:0:
320,192,66935,1,0,0:0:0:0:
64,192,67079,1,2,0:0:0:0:
192,192,67223,1,0,0:0:0:0:
448,192,67366,1,2,0:0:0:0:
320,192,67510,1,0,0:0:0:0:
64,192,67653,1,2,0:0:0:0:
448,192,67797,1,0,0:0:0:0:
192,192,67940,1,2,0:0:0:0:
64,192,68084,1,0,0:0:0:0:
448,192,68227,1,2,0:0:0:0:
320,192,68371,1,0,0:0:0:0:
192,192,68514,1,2,0:0:0:0:
448,192,68658,1,0,0:0:0:0:
64,192,68801,1,2,0:0:0:0:
192,192,68945,1,0,0:0:0:0:
448,192,69089,1,2,0:0:0:0:
64,192,69232,1,0,0:0:0:0:
448,192,69376,1,2,0:0:0:0:
320,192,69519,1,0,0:0:0:0:
64,192,69663,1,2,0:0:0:0:
64,192,69806,1,2,0:0:0:0:
448,192,69950,1,2,0:0:0:0:
448,192,70093,1,2,0:0:0:0:
192,192,70237,1,2,0:0:0:0:
192,192,70380,1,2,0:0:0:0:
320,192,70524,1,2,0:0:0:0:
320,192,70667,1,2,0:0:0:0:
64,192,70811,1,2,0:0:0:0:
64,192,70955,1,2,0:0:0:0:
192,192,71098,1,2,0:0:0:0:
192,192,71242,1,2,0:0:0:0:
320,192,71385,1,2,0:0:0:0:
320,192,71529,1,2,0:0:0:0:
448,192,71672,1,2,0:0:0:0:
448,192,71816,1,2,0:0:0:0:
64,192,71959,128,2,73108:0:0:0:0:
192,192,72534,128,0,73108:0:0:0:0:
448,192,73108,1,0,0:0:0:0:
320,192,73323,1,0,0:0:0:0:
64,192,73538,1,0,0:0:0:0:
448,192,73610,1,0,0:0:0:0:
64,192,73682,1,0,0:0:0:0:
320,192,73825,1,0,0:0:0:0:
192,192,73969,128,0,74256:0:0:0:0:
448,192,74256,1,12,0:0:0:0:
64,192,74256,1,2,0:0:0:0:
448,192,74687,1,0,0:0:0:0:
448,192,74830,1,2,0:0:0:0:
192,192,75045,1,0,0:0:0:0:
64,192,75261,1,0,0:0:0:0:
320,192,75404,1,2,0:0:0:0:
192,192,75835,1,0,0:0:0:0:
192,192,75978,1,2,0:0:0:0:
192,192,76194,1,0,0:0:0:0:
64,192,76409,1,0,0:0:0:0:
320,192,76553,1,2,0:0:0:0:
448,192,76840,1,8,0:0:0:0:
192,192,77127,1,2,0:0:0:0:
320,192,77342,1,0,0:0:0:0:
64,192,77557,1,0,0:0:0:0:
448,192,77701,1,2,0:0:0:0:
320,192,77988,1,8,0:0:0:0:
64,192,78275,1,2,0:0:0:0:
192,192,78490,1,0,0:0:0:0:
448,192,78706,1,0,0:0:0:0:
64,192,78849,1,2,0:0:0:0:
192,192,79280,1,0,0:0:0:0:
192,192,79423,1,2,0:0:0:0:
192,192,79639,1,0,0:0:0:0:
64,192,79854,1,0,0:0:0:0:
448,192,79998,1,2,0:0:0:0:
320,192,80428,1,0,0:0:0:0:
320,192,80572,1,2,0:0:0:0:
320,192,80787,1,0,0:0:0:0:
192,192,81002,1,0,0:0:0:0:
448,192,81146,1,2,0:0:0:0:
64,192,81577,1,2,0:0:0:0:
64,192,81720,1,2,0:0:0:0:
192,192,81864,1,2,0:0:0:0:
320,192,82007,1,2,0:0:0:0:
448,192,82151,1,2,0:0:0:0:
192,192,82294,1,12,0:0:0:0:
64,192,82294,1,2,0:0:0:0:
320,192,82510,1,2,0:0:0:0:
192,192,82510,1,12,0:0:0:0:
448,192,82725,1,2,0:0:0:0:
64,192,82725,1,12,0:0:0:0:
448,192,82940,1,12,0:0:0:0:
320,192,82940,1,2,0:0:0:0:
192,192,83156,1,14,0:0:0:0:
320,192,83299,1,14,0:0:0:0:
448,192,83443,1,2,0:0:0:0:
64,192,83443,1,12,0:0:0:0:
192,192,83873,1,0,0:0:0:0:
448,192,83945,1,0,0:0:0:0:
192,192,84017,1,2,0:0:0:0:
320,192,84232,1,0,0:0:0:0:
192,192,84447,1,0,0:0:0:0:
448,192,84591,1,2,0:0:0:0:
320,192,85022,1,0,0:0:0:0:
64,192,85093,1,0,0:0:0:0:
320,192,85165,1,2,0:0:0:0:
192,192,85380,1,0,0:0:0:0:
320,192,85596,1,0,0:0:0:0:
64,192,85739,128,2,85883:0:0:0:0:
192,192,86026,128,2,86170:0:0:0:0:
448,192,86313,128,2,86457:0:0:0:0:
64,192,86529,1,0,0:0:0:0:
192,192,86744,1,0,0:0:0:0:
448,192,86888,1,2,0:0:0:0:
64,192,87031,1,0,0:0:0:0:
320,192,87175,1,2,0:0:0:0:
64,192,87462,1,2,0:0:0:0:
320,192,87677,1,0,0:0:0:0:
192,192,87892,1,0,0:0:0:0:
448,192,88036,1,2,0:0:0:0:
320,192,88467,1,2,0:0:0:0:
64,192,88538,1,0,0:0:0:0:
448,192,88610,1,2,0:0:0:0:
192,192,88825,1,0,0:0:0:0:
320,192,89041,1,2,0:0:0:0:
64,192,89184,1,2,0:0:0:0:
192,192,89615,1,2,0:0:0:0:
448,192,89687,1,0,0:0:0:0:
64,192,89758,1,2,0:0:0:0:
320,192,89974,1,0,0:0:0:0:
192,192,90189,1,2,0:0:0:0:
448,192,90333,1,2,0:0:0:0:
192,192,90763,1,2,0:0:0:0:
320,192,90835,1,2,0:0:0:0:
192,192,90907,1,2,0:0:0:0:
448,192,91050,1,2,0:0:0:0:
64,192,91194,1,2,0:0:0:0:
192,192,91337,1,2,0:0:0:0:
448,192,91481,128,0,91624:0:0:0:0:
192,192,91624,128,0,91768:0:0:0:0:
320,192,91768,128,0,91912:0:0:0:0:
64,192,91912,128,0,92055:0:0:0:0:
448,192,92055,128,0,92199:0:0:0:0:
320,192,92199,128,0,92342:0:0:0:0:
192,192,92342,128,0,92486:0:0:0:0:
64,192,92486,128,0,92629:0:0:0:0:
448,192,92629,1,0,0:0:0:0:
320,192,92773,1,0,0:0:0:0:
64,192,92916,1,12,0:0:0:0:
192,192,92916,1,2,0:0:0:0:
448,192,93060,1,0,0:0:0:0:
320,192,93490,1,8,0:0:0:0:
192,192,93562,1,0,0:0:0:0:
64,192,93634,1,0,0:0:0:0:
448,192,93706,1,0,0:0:0:0:
192,192,93778,1,2,0:0:0:0:
320,192,93921,1,0,0:0:0:0:
64,192,94065,1,8,0:0:0:0:
192,192,94208,1,0,0:0:0:0:
448,192,94639,1,8,0:0:0:0:
64,192,94711,1,0,0:0:0:0:
192,192,94782,1,0,0:0:0:0:
320,192,94854,1,0,0:0:0:0:
448,192,94926,1,2,0:0:0:0:
64,192,95213,1,8,0:0:0:0:
448,192,95500,1,2,0:0:0:0:
320,192,95644,1,0,0:0:0:0:
192,192,95787,1,8,0:0:0:0:
448,192,95931,1,0,0:0:0:0:
64,192,96074,128,2,96648:0:0:0:0:
448,192,96648,1,2,0:0:0:0:
192,192,96792,128,0,97223:0:0:0:0:
64,192,97223,1,2,0:0:0:0:
448,192,97223,1,0,0:0:0:0:
320,192,97510,1,8,0:0:0:0:
192,192,97797,1,2,0:0:0:0:
448,192,98012,1,0,0:0:0:0:
320,192,98227,1,0,0:0:0:0:
64,192,98371,1,2,0:0:0:0:
192,192,98514,1,0,0:0:0:0:
64,192,98658,1,8,0:0:0:0:
448,192,98801,1,0,0:0:0:0:
192,192,98873,1,0,0:0:0:0:
448,192,99232,1,2,0:0:0:0:
320,192,99304,1,2,0:0:0:0:
64,192,99376,1,2,0:0:0:0:
192,192,99447,1,2,0:0:0:0:
320,192,99519,1,4,0:0:0:0:
448,192,99519,1,10,0:0:0:0:
192,192,99806,1,2,0:0:0:0:
448,192,100093,1,2,0:0:0:0:
64,192,100380,1,2,0:0:0:0:
320,192,100667,1,8,0:0:0:0:
448,192,100667,1,6,0:0:0:0:
64,192,100955,1,2,0:0:0:0:
320,192,101242,1,2,0:0:0:0:
192,192,101529,1,2,0:0:0:0:
448,192,101816,1,14,0:0:0:0:
64,192,101959,1,2,0:0:0:0:
192,192,102103,1,2,0:0:0:0:
448,192,102246,1,2,0:0:0:0:
64,192,102390,1,14,0:0:0:0:
320,192,102534,1,2,0:0:0:0:
448,192,102677,1,2,0:0:0:0:
64,192,102821,1,2,0:0:0:0:
448,192,102964,128,0,103538:0:0:0:0:
192,192,103538,1,0,0:0:0:0:
64,192,103682,1,0,0:0:0:0:
320,192,103825,1,0,0:0:0:0:
64,192,103969,1,0,0:0:0:0:
192,192,104041,1,0,0:0:0:0:
320,192,104112,1,8,0:0:0:0:
448,192,104112,1,6,0:0:0:0:
64,192,104400,1,8,0:0:0:0:
320,192,104687,1,2,0:0:0:0:
192,192,104974,1,8,0:0:0:0:
448,192,105261,1,2,0:0:0:0:
64,192,105548,1,8,0:0:0:0:
192,192,105835,1,2,0:0:0:0:
448,192,106122,1,8,0:0:0:0:
320,192,106409,1,2,0:0:0:0:
64,192,106696,1,8,0:0:0:0:
448,192,106983,1,2,0:0:0:0:
192,192,107270,1,8,0:0:0:0:
320,192,107557,1,2,0:0:0:0:
64,192,107701,1,2,0:0:0:0:
320,192,107845,1,10,0:0:0:0:
64,192,107988,1,2,0:0:0:0:
448,192,108132,128,2,108706:0:0:0:0:
320,192,108419,128,0,108706:0:0:0:0:
64,192,108706,1,8,0:0:0:0:
192,192,108706,1,6,0:0:0:0:
320,192,108993,1,8,0:0:0:0:
448,192,109280,1,2,0:0:0:0:
64,192,109567,1,8,0:0:0:0:
320,192,109854,1,2,0:0:0:0:
192,192,110141,1,8,0:0:0:0:
448,192,110428,1,2,0:0:0:0:
320,192,110715,1,8,0:0:0:0:
64,192,111002,1,2,0:0:0:0:
192,192,111289,1,8,0:0:0:0:
448,192,111577,1,2,0:0:0:0:
64,192,111864,1,8,0:0:0:0:
192,192,112151,1,2,0:0:0:0:
448,192,112294,1,2,0:0:0:0:
192,192,112438,1,2,0:0:0:0:
448,192,112581,1,2,0:0:0:0:
64,192,112725,128,2,113299:0:0:0:0:
192,192,113012,128,0,113299:0:0:0:0:
448,192,113299,128,2,113586:0:0:0:0:
192,192,113658,1,2,0:0:0:0:
64,192,113658,1,12,0:0:0:0:
448,192,113801,128,2,114160:0:0:0:0:
192,192,114232,1,8,0:0:0:0:
64,192,114232,1,6,0:0:0:0:
448,192,114376,128,2,114734:0:0:0:0:
192,192,114806,1,4,0:0:0:0:
64,192,114806,1,10,0:0:0:0:
448,192,114950,128,2,115309:0:0:0:0:
192,192,115309,1,8,0:0:0:0:
64,192,115309,1,6,0:0:0:0:
320,192,115452,1,2,0:0:0:0:
448,192,115452,1,0,0:0:0:0:
64,192,115524,128,2,117892:0:0:0:0:
192,192,115524,1,12,0:0:0:0:
448,192,117892,1,4,0:0:0:0:
