osu file format v14

[General]
AudioFilename: audio.mp3
AudioLeadIn: 0
PreviewTime: 72963
Countdown: 0
SampleSet: Soft
StackLeniency: 0.5
Mode: 0
LetterboxInBreaks: 0
WidescreenStoryboard: 0

[Editor]
DistanceSpacing: 1.2
BeatDivisor: 4
GridSize: 8
TimelineZoom: 1.9

[Metadata]
Title:Zettai Reido
TitleUnicode:絶対零度
Artist:Kaneko Chiharu
ArtistUnicode:かねこちはる
Creator:Karen
Version:Insane
Source:MÚSECA 1+1/2
Tags:SOUND VOLTEX III GRAVITY WARS BEMANI KONAMI sdvx MUSECA toybot Asahina Momoko mokori m_o_k_o_r_i Leader
BeatmapID:1613453
BeatmapSetID:641201

[Difficulty]
HPDrainRate:6
CircleSize:4.2
OverallDifficulty:7
ApproachRate:9
SliderMultiplier:1.8
SliderTickRate:1

[Events]
//Background and Video events
0,0,"kv_bg.jpg",0,0
//Break Periods
2,56082,59875
2,61106,63320
//Storyboard Layer 0 (Background)
//Storyboard Layer 1 (Fail)
//Storyboard Layer 2 (Pass)
//Storyboard Layer 3 (Foreground)
//Storyboard Sound Samples

[TimingPoints]
763,287.081339712919,4,2,1,70,1,0
1050,-100,4,2,1,70,0,0
1121,-100,4,2,1,70,0,0
1193,-100,4,2,1,70,0,0
1265,-100,4,2,1,70,0,0
1337,-100,4,2,1,70,0,0
1408,-100,4,2,1,70,0,0
1480,-100,4,2,1,70,0,0
1552,-100,4,2,1,70,0,0
1624,-100,4,1,2,70,0,0
1911,-117.647058823529,4,1,2,70,0,0
1983,-117.647058823529,4,1,2,40,0,0
5786,-117.647058823529,4,2,1,40,0,0
11097,-117.647058823529,4,2,2,50,0,0
19136,-117.647058823529,4,2,2,40,0,0
19279,-117.647058823529,4,2,2,45,0,0
19423,-117.647058823529,4,2,2,50,0,0
19566,-117.647058823529,4,2,2,55,0,0
19710,-117.647058823529,4,2,2,60,0,0
20284,-117.647058823529,4,2,3,60,0,0
28896,-117.647058823529,4,2,3,70,0,0
29471,-117.647058823529,4,2,2,60,0,0
30045,-117.647058823529,4,2,1,60,0,0
34064,-117.647058823529,4,2,1,50,0,0
35786,-117.647058823529,4,2,1,70,0,0
36074,-117.647058823529,4,2,1,50,0,0
36935,-117.647058823529,4,2,2,20,0,0
37078,-117.647058823529,4,2,2,35,0,0
37222,-117.647058823529,4,2,2,50,0,0
37365,-117.647058823529,4,2,2,75,0,0
37509,-117.647058823529,4,2,2,75,0,0
37652,-117.647058823529,4,1,1,75,0,0
37796,-117.647058823529,4,2,1,40,0,0
38083,-117.647058823529,4,2,1,50,0,0
38227,-117.647058823529,4,2,1,60,0,0
38370,-117.647058823529,4,2,1,70,0,0
38514,-117.647058823529,4,2,1,80,0,0
38657,-117.647058823529,4,2,1,40,0,0
47270,-117.647058823529,4,2,1,60,0,0
47844,-117.647058823529,4,2,3,60,0,0
55308,-117.647058823529,4,2,3,70,0,0
56026,-117.647058823529,4,2,3,50,0,0
59327,-117.647058823529,4,2,1,50,0,0
60906,-117.647058823529,4,2,3,50,0,0
63920,-153.846153846153,4,2,1,40,0,0
64207,-153.846153846153,4,2,1,50,0,0
64495,-153.846153846153,4,2,1,60,0,0
64782,-153.846153846153,4,2,1,70,0,0
65069,-100,4,2,1,70,0,0
69662,-100,4,2,3,70,0,0
72533,-100,4,2,1,50,0,0
72676,-100,4,2,1,60,0,0
72820,-100,4,2,1,70,0,0
72963,-100,4,2,1,80,0,0
73107,-100,4,2,1,70,0,0
74255,-100,4,2,1,80,0,1
82294,-100,4,2,1,70,0,0
82509,-100,4,2,1,80,0,0
82724,-100,4,2,1,70,0,0
82940,-100,4,2,1,80,0,0
83155,-100,4,2,3,70,0,0
83442,-100,4,2,1,80,0,1
90332,-100,4,2,1,50,0,1
90619,-100,4,2,1,60,0,1
90906,-100,4,2,1,70,0,1
91193,-100,4,2,1,80,0,1
91480,-100,4,2,1,70,0,1
92629,-181.818181818181,4,2,1,70,0,1
92916,-117.647058823529,4,2,1,70,0,0
93203,-117.647058823529,4,2,3,70,0,0
102963,-117.647058823529,4,2,1,50,0,0
103107,-117.647058823529,4,2,1,60,0,0
103251,-117.647058823529,4,2,1,70,0,0
103394,-117.647058823529,4,2,1,80,0,0
103538,-117.647058823529,4,2,1,90,0,0
104112,-117.647058823529,4,2,3,70,0,0
104399,-117.647058823529,4,2,3,60,0,0
104614,-117.647058823529,4,2,3,80,0,0
104829,-117.647058823529,4,2,3,60,0,0
104973,-117.647058823529,4,2,3,40,0,0
105547,-117.647058823529,4,2,3,60,0,0
105763,-117.647058823529,4,2,3,80,0,0
105978,-117.647058823529,4,2,3,60,0,0
106121,-117.647058823529,4,2,3,40,0,0
106696,-117.647058823529,4,2,3,60,0,0
106911,-117.647058823529,4,2,3,80,0,0
107126,-117.647058823529,4,2,3,60,0,0
107270,-117.647058823529,4,2,3,60,0,0
108418,-117.647058823529,4,2,3,60,0,0
108705,-117.647058823529,4,2,3,70,0,0
108992,-117.647058823529,4,2,3,60,0,0
109207,-117.647058823529,4,2,3,80,0,0
109423,-117.647058823529,4,2,3,60,0,0
109566,-117.647058823529,4,2,3,40,0,0
110140,-117.647058823529,4,2,3,60,0,0
110356,-117.647058823529,4,2,3,80,0,0
110571,-117.647058823529,4,2,3,60,0,0
110715,-117.647058823529,4,2,3,40,0,0
111289,-117.647058823529,4,2,3,60,0,0
111504,-117.647058823529,4,2,3,80,0,0
111719,-117.647058823529,4,2,3,60,0,0
111863,-117.647058823529,4,2,3,60,0,0
113011,-117.647058823529,4,2,3,60,0,0
113298,-117.647058823529,4,2,3,70,0,0
113657,-117.647058823529,4,2,3,60,0,0
115308,-117.647058823529,4,2,3,70,0,0
115523,-181.818181818181,4,2,3,70,0,0
115882,-181.818181818181,4,2,1,40,0,0
116169,-181.818181818181,4,2,1,50,0,0
116456,-181.818181818181,4,2,1,60,0,0
116743,-181.818181818181,4,2,1,70,0,0
117030,-181.818181818181,4,2,1,60,0,0
117318,-181.818181818181,4,2,1,50,0,0
117605,-181.818181818181,4,2,1,40,0,0

[Colours]
Combo1 : 128,128,255
Combo2 : 205,193,253
Combo3 : 0,102,227
Combo4 : 255,0,128
Combo5 : 0,255,255

[HitObjects]
138,53,1624,5,2,2:1:0:0:
145,64,1696,1,2,2:1:0:0:
152,75,1767,1,2,2:1:0:0:
159,86,1839,1,2,2:1:0:0:
166,97,1911,6,0,L|243:88,1,76.5000014591217,4|0,1:0|0:0,0:0:0:0:
350,9,2198,2,0,P|402:8|462:91,1,153.000002918243,0|0,0:0|0:0,0:0:0:0:
410,148,2629,2,0,P|398:203|400:303,1,153.000002918243,0|0,0:0|0:0,0:0:0:0:
431,376,3059,6,0,P|356:369|273:353,1,153.000002918243,0|0,0:0|0:0,0:0:0:0:
246,276,3490,2,0,P|171:283|88:299,1,153.000002918243,0|0,0:0|0:0,0:0:0:0:
0,377,3920,1,0,0:0:0:0:
0,377,4064,1,0,0:0:0:0:
11,294,4207,6,0,P|6:250|-4:209,1,76.5000014591217,0|0,0:0|0:0,0:0:0:0:
37,98,4495,2,0,P|92:144|176:118,1,153.000002918243,0|0,0:0|0:0,0:0:0:0:
164,43,4925,2,0,L|323:19,1,153.000002918243,0|0,0:0|0:0,0:0:0:0:
396,43,5356,6,0,P|385:115|378:202,1,153.000002918243,0|0,0:0|0:0,0:0:0:0:
458,171,5786,2,0,P|469:243|476:330,1,153.000002918243,0|0,0:0|0:0,0:0:0:0:
359,373,6217,1,2,0:0:0:0:
359,373,6361,1,2,0:0:0:0:
318,299,6504,6,0,P|350:290|409:311,1,76.5000014591217,0|0,0:0|0:0,0:0:0:0:
465,340,6791,2,0,P|475:254|492:171,1,153.000002918243,2|0,0:1|0:0,0:0:0:0:
474,105,7222,2,0,P|403:142|321:118,1,153.000002918243,2|0,0:1|0:0,0:0:0:0:
300,50,7652,2,0,B|252:25|206:18|206:18|182:31|150:69,1,153.000002918243,2|0,0:1|0:0,0:0:0:0:
121,123,8083,2,0,B|169:148|215:155|215:155|239:142|271:104,1,153.000002918243,2|0,0:1|0:0,0:0:0:0:
338,222,8514,1,2,0:1:0:0:
338,222,8657,1,2,0:1:0:0:
263,260,8801,6,0,L|171:240,1,76.5000014591217,0|0,0:0|0:0,0:0:0:0:
112,205,9088,2,0,P|43:204|-6:286,1,153.000002918243,2|0,0:1|0:0,0:0:0:0:
21,345,9518,2,0,L|175:369,1,153.000002918243,2|0,0:1|0:0,0:0:0:0:
254,352,9949,6,0,L|434:325,1,153.000002918243,2|0,0:1|0:0,0:0:0:0:
488,343,10380,2,0,P|516:276|511:189,1,153.000002918243,2|0,0:1|0:0,0:0:0:0:
404,133,10810,1,2,0:1:0:0:
404,133,10954,1,0,0:0:0:0:
497,15,11097,6,0,P|486:53|484:104,1,76.5000014591217,0|0,1:0|0:0,0:0:0:0:
311,100,11385,2,0,P|307:61|297:25,1,76.5000014591217,2|0,1:2|0:0,0:0:0:0:
213,13,11672,1,0,1:0:0:0:
263,198,11815,2,0,L|351:182,1,76.5000014591217,2|0,0:0|1:0,0:0:0:0:
404,133,12102,1,0,0:0:0:0:
406,274,12246,6,0,L|318:270,1,76.5000014591217,2|0,1:2|0:0,0:0:0:0:
187,145,12533,1,0,1:0:0:0:
122,198,12676,2,0,P|115:239|127:288,2,76.5000014591217,2|0|0,0:0|1:0|0:0,0:0:0:0:
206,63,13107,1,2,1:2:0:0:
206,63,13251,1,2,0:0:0:0:
99,5,13394,6,0,L|8:-1,1,76.5000014591217,0|0,1:0|0:0,0:0:0:0:
20,122,13681,2,0,L|96:116,1,76.5000014591217,2|0,1:2|0:0,0:0:0:0:
206,63,13968,1,0,1:0:0:0:
111,229,14112,2,0,L|171:182,1,76.5000014591217,2|0,0:0|1:0,0:0:0:0:
206,63,14399,1,0,0:0:0:0:
239,252,14542,6,0,L|267:181,1,76.5000014591217,2|0,1:2|0:0,0:0:0:0:
206,63,14829,1,0,1:0:0:0:
352,142,14973,2,0,P|394:143|435:124,2,76.5000014591217,2|0|0,0:0|1:0|0:0,0:0:0:0:
313,69,15404,1,2,1:2:0:0:
313,69,15547,1,2,0:0:0:0:
465,198,15691,6,0,L|481:280,1,76.5000014591217,4|0,1:0|0:0,0:0:0:0:
462,358,15979,1,2,1:2:0:0:
370,201,16121,2,0,L|354:283,1,76.5000014591217,0|0,0:0|1:0,0:0:0:0:
367,361,16409,1,2,0:0:0:0:
250,200,16552,2,0,L|266:282,1,76.5000014591217,0|0,1:0|0:0,0:0:0:0:
247,360,16840,5,2,1:2:0:0:
155,203,16983,2,0,L|139:285,1,76.5000014591217,0|0,0:0|1:0,0:0:0:0:
152,363,17270,1,2,0:0:0:0:
30,202,17413,2,0,L|46:284,1,76.5000014591217,0|0,1:0|0:0,0:0:0:0:
27,362,17700,1,2,1:2:0:0:
27,362,17844,1,2,1:2:0:0:
141,335,17987,5,0,1:0:0:0:
156,337,18059,1,0,0:0:0:0:
171,339,18131,1,0,1:0:0:0:
186,341,18203,1,0,0:0:0:0:
200,343,18274,6,0,L|195:293,3,38.2500007295609,2|0|0|0,1:0|0:0|1:0|0:0,0:0:0:0:
296,356,18562,1,0,1:0:0:0:
311,358,18634,1,0,0:0:0:0:
325,360,18705,2,0,L|320:310,3,38.2500007295609,2|0|0|0,1:0|0:0|1:0|1:0,0:0:0:0:
413,233,18992,1,0,1:0:0:0:
398,231,19064,1,0,1:0:0:0:
384,229,19136,6,0,L|389:279,3,38.2500007295609,2|0|0|0,1:0|1:2|1:2|1:2,0:0:0:0:
294,214,19423,1,0,1:2:0:0:
279,212,19495,1,0,1:2:0:0:
265,210,19566,2,0,L|270:260,3,38.2500007295609,2|0|2|2,1:0|1:2|0:0|0:0,0:0:0:0:
189,304,19853,1,2,0:0:0:0:
174,309,19925,1,2,0:0:0:0:
160,315,19997,2,0,L|67:308,1,76.5000014591217,2|2,0:1|0:1,0:0:0:0:
10,194,20284,5,4,3:1:0:0:
0,102,20428,1,2,0:0:0:0:
79,57,20571,1,2,1:2:0:0:
162,96,20715,6,0,P|231:106|328:99,1,153.000002918243,2|0,0:0|3:0,0:0:0:0:
432,37,21145,1,2,1:2:0:0:
429,48,21217,1,0,0:0:0:0:
426,59,21289,1,0,0:0:0:0:
423,70,21361,1,0,0:0:0:0:
419,80,21432,5,0,3:0:0:0:
432,171,21576,1,2,0:0:0:0:
440,262,21719,1,2,1:2:0:0:
449,353,21863,6,0,P|367:337|290:328,1,153.000002918243,2|0,0:0|3:2,0:0:0:0:
176,359,22294,1,2,1:2:0:0:
164,361,22365,1,0,0:0:0:0:
152,361,22437,1,0,0:0:0:0:
140,358,22509,1,0,0:0:0:0:
130,352,22581,6,0,P|107:270|120:198,1,153.000002918243,2|0,3:2|1:0,0:0:0:0:
181,138,23011,1,0,0:0:0:0:
246,254,23155,1,2,0:1:0:0:
377,190,23298,1,2,3:1:0:0:
241,267,23442,1,2,1:0:0:0:
286,63,23585,1,2,0:1:0:0:
235,279,23729,5,2,3:2:0:0:
231,289,23801,1,2,0:0:0:0:
227,299,23873,1,2,0:0:0:0:
222,309,23944,1,2,0:0:0:0:
218,320,24016,2,0,L|256:315,3,38.2500007295609,2|2|2|0,1:2|0:0|3:2|0:0,0:0:0:0:
332,345,24303,2,0,P|398:332|492:320,1,153.000002918243,0|0,0:0|1:0,0:0:0:0:
480,233,24734,1,0,0:0:0:0:
419,72,24877,6,0,P|396:122|415:200,1,114.750002188683,4|0,3:1|0:0,0:0:0:0:
399,190,25164,2,0,P|338:180|267:173,1,114.750002188683,2|0,1:2|0:0,0:0:0:0:
278,183,25451,2,0,L|294:309,1,114.750002188683,2|2,3:2|0:0,0:0:0:0:
300,305,25739,2,0,L|198:314,1,76.5000014591217,0|2,1:0|0:0,0:0:0:0:
83,242,26026,5,2,3:2:0:0:
91,150,26169,1,0,0:0:0:0:
11,102,26313,1,2,1:2:0:0:
53,20,26456,1,2,0:0:0:0:
53,20,26528,2,0,P|111:24|188:36,1,114.750002188683,2|0,0:0|3:0,0:0:0:0:
300,75,26887,2,0,L|342:40,2,51.0000009727478,2|2|2,1:0|0:1|0:1,0:0:0:0:
290,87,27174,5,4,3:1:0:0:
418,99,27318,1,0,0:0:0:0:
274,182,27461,1,2,1:2:0:0:
440,226,27605,1,0,0:0:0:0:
317,279,27748,5,2,3:2:0:0:
305,275,27820,1,0,0:0:0:0:
294,271,27892,1,2,0:0:0:0:
283,267,27963,1,0,0:0:0:0:
251,261,28035,5,2,1:2:0:0:
240,265,28106,1,0,0:0:0:0:
229,269,28178,1,2,0:0:0:0:
217,273,28250,1,2,0:0:0:0:
207,279,28322,6,0,L|155:258,3,38.2500007295609,0|0|0|0,3:0|1:0|1:0|1:0,0:0:0:0:
161,270,28609,2,0,P|109:285|43:265,1,114.750002188683,4|0,1:0|3:0,0:0:0:0:
19,195,28896,2,0,P|15:137|0:65,2,114.750002188683,4|4|4,1:0|1:0|1:0,0:0:0:0:
45,287,29471,5,0,3:0:0:0:
142,185,29614,1,2,0:0:0:0:
142,185,29686,2,0,P|196:174|260:170,1,114.750002188683,2|0,0:0|0:0,0:0:0:0:
330,263,30045,2,0,P|357:303|423:272,1,114.750002188683,8|0,0:0|0:0,0:0:0:0:
421,280,30332,2,0,P|409:319|401:360,1,76.5000014591217,0|0,0:0|0:0,0:0:0:0:
244,372,30619,6,0,P|249:321|244:241,1,114.750002188683,0|0,1:0|3:0,0:0:0:0:
238,249,30906,1,0,0:0:0:0:
139,296,31050,1,0,3:0:0:0:
130,303,31121,1,0,0:0:0:0:
122,311,31193,2,0,L|72:309,1,38.2500007295609,8|0,0:0|0:0,0:0:0:0:
92,223,31337,2,0,L|42:221,1,38.2500007295609,2|0,0:0|0:0,0:0:0:0:
20,146,31480,2,0,P|19:90|78:61,1,114.750002188683,0|0,0:0|0:0,0:0:0:0:
72,68,31767,6,0,P|116:94|193:98,1,114.750002188683,0|0,1:0|3:0,0:0:0:0:
186,92,32054,1,0,0:0:0:0:
196,86,32126,1,0,3:0:0:0:
206,81,32198,1,0,1:0:0:0:
217,80,32270,1,0,0:0:0:0:
249,88,32341,5,8,0:0:0:0:
259,93,32413,1,0,3:0:0:0:
270,95,32485,1,0,3:0:0:0:
281,93,32557,1,0,3:0:0:0:
291,89,32629,2,0,L|341:58,3,38.2500007295609,2|2|2|2,0:1|0:1|0:1|0:1,0:0:0:0:
409,56,32916,6,0,P|404:114|395:182,1,114.750002188683,0|0,1:0|0:0,0:0:0:0:
404,178,33203,1,2,0:1:0:0:
367,260,33346,1,0,0:0:0:0:
298,200,33490,2,0,P|247:219|173:200,2,114.750002188683,10|2|2,0:0|0:0|0:0,0:0:0:0:
302,108,34064,5,0,1:0:0:0:
336,282,34351,1,0,1:0:0:0:
302,108,34638,5,0,1:0:0:0:
336,282,34782,1,0,1:0:0:0:
282,198,34925,1,0,1:0:0:0:
316,372,35069,1,0,0:0:0:0:
354,272,35212,6,0,L|465:245,1,114.750002188683,0|0,1:0|0:0,0:0:0:0:
475,250,35499,2,0,L|485:186,3,38.2500007295609,0|0|0|0,1:0|0:0|0:0|0:0,0:0:0:0:
447,139,35786,2,0,L|366:159,1,76.5000014591217,2|2,3:1|3:1,0:0:0:0:
390,351,36074,2,0,L|464:332,1,76.5000014591217,0|0,1:0|1:0,0:0:0:0:
507,210,36361,5,0,1:0:0:0:
337,229,36504,1,0,1:0:0:0:
426,253,36648,1,0,1:0:0:0:
256,272,36791,1,0,1:0:0:0:
358,187,36935,6,0,L|348:225,1,38.2500007295609,2|2,1:0|1:0,0:0:0:0:
162,199,37078,2,0,L|171:237,1,38.2500007295609,2|2,1:0|1:0,0:0:0:0:
343,241,37222,2,0,L|333:277,1,38.2500007295609,2|2,1:0|1:0,0:0:0:0:
175,255,37365,2,0,L|184:292,1,38.2500007295609,2|2,1:0|1:0,0:0:0:0:
100,373,37509,5,2,3:2:0:0:
88,371,37581,1,0,1:0:0:0:
76,369,37652,1,0,1:0:0:0:
64,367,37724,1,0,1:0:0:0:
52,364,37796,2,0,L|44:326,3,38.2500007295609,0|0|0|0,1:0|1:0|1:0|1:0,0:0:0:0:
85,243,38083,5,0,1:0:0:0:
73,241,38155,1,0,1:0:0:0:
61,239,38226,1,0,1:0:0:0:
49,237,38298,1,0,1:0:0:0:
31,218,38370,5,0,1:0:0:0:
27,207,38442,1,0,1:0:0:0:
22,196,38514,1,0,1:0:0:0:
16,186,38585,1,0,1:0:0:0:
11,175,38657,6,0,P|30:97|80:47,1,153.000002918243,4|2,1:0|1:2,0:0:0:0:
143,107,39088,2,0,P|178:115|236:105,1,76.5000014591217,2|0,0:2|0:0,0:0:0:0:
264,36,39375,1,2,0:0:0:0:
264,36,39447,1,2,0:0:0:0:
264,36,39518,2,0,P|302:28|359:32,1,76.5000014591217,2|2,0:0|0:0,0:0:0:0:
419,108,39806,6,0,L|431:241,2,114.750002188683,2|2|2,0:0|0:0|0:0,0:0:0:0:
471,32,40380,1,0,0:0:0:0:
336,173,40667,1,0,0:0:0:0:
275,104,40810,1,2,0:0:0:0:
275,104,40882,1,2,0:0:0:0:
275,104,40954,6,0,L|183:92,1,76.5000014591217,2|0,0:0|0:0,0:0:0:0:
249,193,41241,2,0,L|157:181,1,76.5000014591217,2|0,0:0|0:0,0:0:0:0:
91,225,41528,2,0,P|83:271|94:346,2,114.750002188683,2|2|2,0:0|0:0|0:0,0:0:0:0:
106,134,42102,6,0,P|114:88|103:13,2,114.750002188683,2|2|2,0:0|0:0|0:0,0:0:0:0:
96,237,42676,1,2,0:0:0:0:
98,121,42963,1,2,0:0:0:0:
103,252,43251,6,0,L|261:238,1,153.000002918243,2|2,0:1|0:0,0:0:0:0:
337,199,43681,2,0,P|349:148|347:112,1,76.5000014591217,2|0,0:0|0:0,0:0:0:0:
300,45,43968,1,2,0:0:0:0:
300,45,44040,1,2,0:0:0:0:
300,45,44112,2,0,L|222:62,1,76.5000014591217,2|2,0:0|0:0,0:0:0:0:
115,12,44399,6,0,P|68:-4|0:20,2,114.750002188683,2|2|2,0:0|0:0|0:0,0:0:0:0:
146,98,44973,1,0,0:0:0:0:
94,262,45260,1,0,0:0:0:0:
51,180,45404,1,2,0:0:0:0:
51,180,45475,1,2,0:0:0:0:
51,180,45547,6,0,L|148:180,1,76.5000014591217,2|0,0:0|0:0,0:0:0:0:
184,252,45834,2,0,L|281:252,1,76.5000014591217,2|0,0:0|0:0,0:0:0:0:
295,166,46121,2,0,P|346:137|420:159,2,114.750002188683,2|2|2,0:0|0:0|0:0,0:0:0:0:
363,228,46696,6,0,P|365:292|347:388,1,153.000002918243,0|0,0:0|0:0,0:0:0:0:
264,346,47126,1,0,0:0:0:0:
179,382,47270,5,2,0:0:0:0:
167,380,47341,1,2,0:0:0:0:
156,375,47413,1,2,0:0:0:0:
146,368,47485,1,2,0:0:0:0:
133,338,47557,5,2,0:1:0:0:
135,326,47629,1,2,0:1:0:0:
138,315,47700,1,2,0:1:0:0:
145,306,47772,1,2,0:1:0:0:
154,298,47844,6,0,P|100:273|15:322,1,153.000002918243,4|0,3:1|1:0,0:0:0:0:
206,226,48274,2,0,P|176:202|126:183,1,76.5000014591217,0|0,0:0|3:0,0:0:0:0:
49,200,48562,1,0,0:0:0:0:
38,204,48633,1,0,0:0:0:0:
27,209,48705,2,0,P|22:168|14:125,1,76.5000014591217,0|0,1:0|0:0,0:0:0:0:
144,47,48992,6,0,P|139:105|137:176,2,114.750002188683,0|0|0,3:0|0:0|0:0,0:0:0:0:
233,79,49566,2,0,L|323:65,1,76.5000014591217,0|0,3:0|0:0,0:0:0:0:
384,117,49853,1,0,1:0:0:0:
322,185,49997,1,0,0:0:0:0:
322,185,50069,1,0,0:0:0:0:
322,185,50140,6,0,P|305:252|326:314,1,114.750002188683,0|0,3:0|0:0,0:0:0:0:
322,304,50428,2,0,L|411:287,1,76.5000014591217,0|0,1:0|0:0,0:0:0:0:
483,233,50715,2,0,L|478:358,2,114.750002188683,0|0|0,3:0|0:0|0:0,0:0:0:0:
512,147,51289,6,0,L|507:32,2,114.750002188683,0|0|0,3:0|0:0|0:0,0:0:0:0:
408,188,51863,2,0,P|382:182|351:166,2,51.0000009727478,0|0|0,3:0|0:0|0:0,0:0:0:0:
395,272,52150,2,0,P|369:279|334:281,2,51.0000009727478,0|0|0,1:0|0:0|0:0,0:0:0:0:
419,178,52437,6,0,P|337:191|246:201,1,153.000002918243,4|0,1:0|3:0,0:0:0:0:
103,102,52868,2,0,P|141:90|189:106,1,76.5000014591217,4|0,1:0|0:0,0:0:0:0:
144,183,53155,1,2,0:0:0:0:
140,193,53227,1,2,0:0:0:0:
135,203,53298,2,0,L|148:278,1,76.5000014591217,2|0,0:0|3:0,0:0:0:0:
225,357,53585,6,0,L|312:339,1,76.5000014591217,4|0,1:0|0:0,0:0:0:0:
310,346,53801,2,0,L|391:362,1,76.5000014591217,4|0,1:0|0:0,0:0:0:0:
396,359,54016,2,0,P|433:322|425:223,1,153.000002918243,4|0,3:1|0:0,0:0:0:0:
344,187,54447,1,0,0:0:0:0:
374,100,54590,1,2,1:2:0:0:
374,100,54662,1,2,0:0:0:0:
374,100,54734,6,0,P|423:112|490:114,1,114.750002188683,4|0,3:1|0:0,0:0:0:0:
493,104,55021,2,0,L|501:22,1,76.5000014591217,4|0,1:0|0:0,0:0:0:0:
267,21,55308,2,0,L|284:147,2,114.750002188683,4|4|0,3:1|1:0|1:0,0:0:0:0:
289,219,55882,5,4,3:1:0:0:
289,219,60475,5,0,1:0:0:0:
290,230,60547,1,0,1:0:0:0:
291,241,60619,1,0,1:0:0:0:
292,252,60691,1,0,1:0:0:0:
293,263,60763,1,0,1:0:0:0:
393,324,60906,5,4,1:0:0:0:
370,140,63920,5,2,0:0:0:0:
368,148,63992,1,0,0:0:0:0:
366,156,64064,1,2,0:0:0:0:
364,164,64136,1,0,0:0:0:0:
362,172,64207,1,2,0:0:0:0:
360,180,64279,1,0,0:0:0:0:
358,188,64351,1,2,0:0:0:0:
355,196,64423,1,0,0:0:0:0:
352,204,64495,6,0,L|341:248,3,29.2499986610413,2|0|2|0,0:1|0:0|0:1|0:0,0:0:0:0:
341,240,64782,2,0,L|330:284,3,29.2499986610413,2|0|2|0,0:1|0:0|0:1|0:0,0:0:0:0:
269,317,65069,6,0,L|177:304,1,90,4|0,1:0|0:0,0:0:0:0:
86,368,65356,2,0,P|34:369|-5:335,1,90,2|0,1:0|0:0,0:0:0:0:
9,258,65643,1,0,1:0:0:0:
113,223,65786,2,0,P|67:197|50:148,1,90,2|0,0:1|1:0,0:0:0:0:
101,89,66073,1,0,0:0:0:0:
214,122,66217,6,0,P|187:77|197:26,1,90,2|0,1:0|0:0,0:0:0:0:
270,0,66504,1,0,1:0:0:0:
429,68,66648,2,0,L|421:163,2,90,2|0|0,0:1|1:0|0:0,0:0:0:0:
301,114,67078,1,2,1:0:0:0:
301,114,67222,1,2,0:1:0:0:
384,247,67365,6,0,L|492:229,1,90,0|0,1:0|0:0,0:0:0:0:
453,347,67652,2,0,L|345:329,1,90,2|0,1:0|0:0,0:0:0:0:
275,314,67940,1,0,1:0:0:0:
99,384,68083,2,0,L|168:299,1,90,2|0,0:1|1:0,0:0:0:0:
216,246,68371,1,0,0:0:0:0:
238,60,68514,6,0,L|276:162,1,90,2|0,1:0|0:0,0:0:0:0:
299,230,68802,1,0,1:0:0:0:
123,236,68944,2,0,L|25:222,2,90,2|0|0,0:1|1:0|0:0,0:0:0:0:
243,332,69375,1,2,1:0:0:0:
243,332,69518,1,2,0:1:0:0:
377,321,69662,6,0,L|386:211,1,90,0|0,3:0|3:0,0:0:0:0:
440,160,69949,1,2,3:1:0:0:
511,334,70093,2,0,L|502:224,1,90,0|0,3:0|3:0,0:0:0:0:
448,173,70380,1,2,3:1:0:0:
375,16,70523,2,0,L|384:126,1,90,0|0,3:0|3:0,0:0:0:0:
438,177,70810,5,2,3:1:0:0:
509,3,70954,2,0,L|500:113,1,90,0|0,3:0|3:0,0:0:0:0:
446,164,71241,1,2,3:1:0:0:
297,79,71385,2,0,L|209:63,1,90,0|0,3:0|3:0,0:0:0:0:
151,227,71672,1,2,3:1:0:0:
151,227,71815,1,2,3:1:0:0:
226,152,71959,5,0,3:0:0:0:
230,164,72030,1,0,3:0:0:0:
233,177,72102,1,0,3:0:0:0:
236,190,72174,1,0,3:0:0:0:
240,202,72246,2,0,L|301:193,3,45,2|0|0|0,3:1|3:0|3:0|0:0,0:0:0:0:
348,251,72533,2,0,L|357:284,14,22.5,2|0|0|0|2|0|0|0|2|0|0|0|2|0|0,0:1|0:0|0:0|0:0|0:1|0:0|0:0|0:0|0:1|0:0|0:0|0:0|0:1|0:0|0:0,0:0:0:0:
344,359,73107,6,0,L|249:344,1,90,0|0,0:0|0:0,0:0:0:0:
241,347,73322,2,0,L|143:360,1,90,0|0,0:0|0:0,0:0:0:0:
140,351,73538,1,0,0:0:0:0:
132,340,73609,1,0,0:0:0:0:
128,326,73681,2,0,P|137:273|137:232,1,90,0|0,0:0|0:0,0:0:0:0:
0,172,73968,2,0,L|3:200,6,22.5,0|0|0|0|0|0|0,0:0|0:0|0:0|0:0|0:0|0:0|0:0,0:0:0:0:
19,137,74255,6,0,P|99:123|209:132,1,180,4|8,1:0|0:0,0:0:0:0:
251,201,74686,1,2,0:0:0:0:
349,117,74829,1,2,1:2:0:0:
485,200,75045,1,2,0:0:0:0:
482,213,75117,1,8,0:0:0:0:
445,110,75260,1,2,0:0:0:0:
478,221,75404,6,0,L|494:322,1,90,2|0,1:2|0:0,0:0:0:0:
326,305,75691,2,0,L|331:252,2,45,8|0|2,0:0|0:0|0:0,0:0:0:0:
406,372,75978,1,2,1:2:0:0:
217,340,76193,1,2,0:0:0:0:
204,335,76265,1,8,0:0:0:0:
122,368,76408,1,2,0:0:0:0:
229,344,76552,6,0,L|214:209,1,135,2|0,1:2|0:0,0:0:0:0:
204,200,76839,2,0,P|158:177|103:183,1,90,10|0,0:0|0:0,0:0:0:0:
40,99,77126,2,0,P|109:91|176:74,1,135,2|2,1:2|0:0,0:0:0:0:
181,64,77413,2,0,P|224:61|281:71,1,90,8|2,0:0|0:0,0:0:0:0:
295,178,77700,6,0,P|359:184|410:109,1,135,2|0,1:2|0:0,0:0:0:0:
409,123,77987,2,0,P|409:165|400:231,1,90,8|2,0:0|0:0,0:0:0:0:
458,338,78274,1,2,1:2:0:0:
497,144,78490,1,2,0:0:0:0:
502,157,78562,1,8,0:0:0:0:
410,223,78705,1,2,0:0:0:0:
506,167,78849,6,0,P|508:120|519:47,1,90,4|0,1:0|0:0,0:0:0:0:
407,9,79136,2,0,L|356:4,2,45,8|0|2,0:0|0:0|0:0,0:0:0:0:
421,126,79423,1,2,1:2:0:0:
216,122,79638,1,2,0:0:0:0:
219,135,79710,1,8,0:0:0:0:
316,90,79853,1,2,0:0:0:0:
222,150,79997,6,0,P|128:138|32:132,1,180,4|8,1:0|0:0,0:0:0:0:
10,216,80428,1,2,0:0:0:0:
76,318,80571,1,2,1:2:0:0:
262,256,80786,1,2,0:0:0:0:
274,261,80858,1,8,0:0:0:0:
332,179,81002,1,2,0:0:0:0:
287,265,81145,6,0,L|181:249,1,90,2|0,1:2|1:0,0:0:0:0:
308,358,81432,2,0,L|202:342,1,90,8|2,0:0|1:2,0:0:0:0:
111,216,81719,1,2,1:2:0:0:
207,71,81863,1,2,1:2:0:0:
100,210,82007,1,10,0:0:0:0:
208,59,82150,1,2,1:2:0:0:
87,202,82294,6,0,L|94:98,1,90,0|0,1:0|0:0,0:0:0:0:
106,112,82509,2,0,L|112:40,1,45,4|0,3:1|0:0,0:0:0:0:
328,197,82724,2,0,L|321:93,1,90,0|0,1:0|0:0,0:0:0:0:
309,108,82939,2,0,L|303:36,1,45,4|0,3:1|0:0,0:0:0:0:
205,213,83155,2,0,L|207:281,1,45,4|0,1:0|0:0,0:0:0:0:
205,340,83298,2,0,L|207:408,1,45,4|0,1:0|0:0,0:0:0:0:
304,380,83442,6,0,P|386:361|502:372,1,180,4|8,1:0|0:0,0:0:0:0:
496,184,83873,1,2,0:0:0:0:
487,194,83944,1,2,0:0:0:0:
477,203,84016,2,0,L|381:191,1,90,2|0,1:2|0:0,0:0:0:0:
376,199,84231,2,0,L|273:207,1,90,2|0,0:0|0:0,0:0:0:0:
274,199,84447,1,2,0:0:0:0:
119,109,84590,6,0,P|204:68|277:126,1,180,2|8,1:2|0:0,0:0:0:0:
208,264,85021,1,2,0:0:0:0:
199,253,85093,1,0,0:0:0:0:
191,242,85164,2,0,P|183:194|193:152,1,90,2|0,1:2|0:0,0:0:0:0:
205,153,85380,2,0,P|213:105|203:63,1,90,2|0,0:0|0:0,0:0:0:0:
195,54,85595,1,2,0:0:0:0:
24,99,85739,6,0,P|34:164|50:243,1,135,2|0,1:2|0:0,0:0:0:0:
60,227,86026,2,0,P|50:292|34:371,1,135,10|0,0:0|0:0,0:0:0:0:
25,367,86313,2,0,P|71:357|133:361,1,90,2|0,1:2|0:0,0:0:0:0:
126,362,86528,2,0,P|170:362|214:352,1,90,2|0,0:0|0:0,0:0:0:0:
224,342,86743,1,2,0:0:0:0:
333,260,86887,6,0,P|325:305|321:353,1,90,2|0,1:2|0:0,0:0:0:0:
162,278,87174,2,0,P|158:233|150:188,1,90,10|0,0:0|0:0,0:0:0:0:
207,69,87461,2,0,P|247:105|334:98,1,135,2|2,1:2|0:0,0:0:0:0:
334,93,87748,2,0,L|439:64,1,90,8|2,0:0|0:0,0:0:0:0:
510,139,88035,5,4,1:0:0:0:
403,261,88179,1,0,1:0:0:0:
420,173,88322,1,8,0:0:0:0:
493,227,88466,1,2,1:2:0:0:
509,124,88609,6,0,L|501:31,1,90,2|0,1:2|1:0,0:0:0:0:
397,277,88896,2,0,L|389:366,1,90,8|2,0:0|1:2,0:0:0:0:
300,238,89184,5,4,1:0:0:0:
210,240,89327,1,0,1:0:0:0:
73,164,89471,1,8,0:0:0:0:
162,161,89614,1,2,1:2:0:0:
185,58,89758,6,0,L|171:171,1,90,2|0,1:2|1:0,0:0:0:0:
211,344,90045,2,0,L|199:254,1,90,8|2,0:0|1:2,0:0:0:0:
24,232,90332,5,4,1:0:0:0:
29,244,90404,1,0,1:0:0:0:
34,256,90475,1,0,1:0:0:0:
39,268,90547,1,0,1:0:0:0:
44,280,90619,2,0,L|-11:273,3,45,8|0|2|2,0:0|1:0|1:2|1:2,0:0:0:0:
30,366,90906,5,2,1:1:0:0:
42,371,90978,1,0,1:0:0:0:
55,371,91050,1,2,1:2:0:0:
68,369,91121,1,0,1:0:0:0:
103,347,91193,5,10,0:2:0:0:
115,342,91265,1,0,1:0:0:0:
128,342,91337,1,2,1:2:0:0:
141,344,91408,1,0,1:0:0:0:
152,351,91480,6,0,L|155:386,6,22.5,2|0|0|0|2|0|0,0:1|0:0|0:1|0:0|0:1|0:0|0:0,0:0:0:0:
237,330,91767,2,0,L|240:365,6,22.5,0|0|0|0|2|0|0,0:0|0:0|0:0|0:0|0:1|0:0|0:0,0:0:0:0:
325,308,92054,2,0,L|328:343,6,22.5,0|0|0|0|2|0|0,0:0|0:0|0:0|0:0|0:1|0:0|0:0,0:0:0:0:
412,283,92341,2,0,L|415:318,6,22.5,2|0|0|0|2|0|0,0:1|0:0|0:0|0:0|0:1|0:0|0:0,0:0:0:0:
494,256,92629,6,0,L|498:315,1,49.5000015106202,2|2,0:0|0:0,0:0:0:0:
512,384,92916,6,0,L|500:218,1,153.000002918243,4|0,1:0|3:0,0:0:0:0:
429,129,93346,1,0,0:0:0:0:
489,59,93490,1,2,1:2:0:0:
483,49,93562,1,2,0:0:0:0:
477,38,93633,1,2,0:0:0:0:
471,28,93705,1,2,0:0:0:0:
464,18,93777,6,0,L|378:29,1,76.5000014591217,2|2,3:2|0:0,0:0:0:0:
360,183,94064,1,2,1:2:0:0:
299,114,94207,2,0,L|141:96,1,153.000002918243,2|0,0:0|0:0,0:0:0:0:
45,149,94638,1,2,1:2:0:0:
47,160,94710,1,2,0:0:0:0:
49,171,94782,1,2,0:0:0:0:
51,182,94853,1,2,0:0:0:0:
54,193,94925,6,0,L|132:179,1,76.5000014591217,2|0,3:2|0:0,0:0:0:0:
136,85,95212,2,0,L|58:71,1,76.5000014591217,0|0,1:0|0:0,0:0:0:0:
0,272,95499,1,2,3:1:0:0:
128,358,95643,1,2,0:1:0:0:
174,278,95786,1,2,1:0:0:0:
37,356,95930,1,2,0:1:0:0:
94,246,96074,6,0,L|88:284,3,38.2500007295609,2|2|2|2,3:2|0:0|0:0|0:0,0:0:0:0:
143,360,96361,1,2,1:2:0:0:
154,360,96432,1,2,0:0:0:0:
165,360,96504,2,0,P|235:343|322:335,1,153.000002918243,2|2,0:0|0:0,0:0:0:0:
478,336,96935,1,0,1:0:0:0:
309,347,97078,1,0,0:0:0:0:
397,379,97222,6,0,P|391:322|383:266,1,114.750002188683,4|0,3:1|0:0,0:0:0:0:
375,257,97509,2,0,L|282:244,1,76.5000014591217,2|0,1:2|0:0,0:0:0:0:
114,229,97796,2,0,P|95:182|142:116,1,114.750002188683,2|2,3:2|0:0,0:0:0:0:
132,127,98083,2,0,L|211:116,1,76.5000014591217,0|2,1:0|0:0,0:0:0:0:
316,180,98370,5,2,3:2:0:0:
367,252,98514,1,2,0:0:0:0:
305,165,98657,1,2,1:2:0:0:
422,139,98801,2,0,L|365:123,1,38.2500007295609,2|2,0:0|0:0,0:0:0:0:
295,153,98944,5,0,0:0:0:0:
298,141,99016,1,0,0:0:0:0:
301,129,99088,1,0,3:0:0:0:
303,117,99160,1,0,0:0:0:0:
306,106,99231,2,0,L|321:45,3,38.2500007295609,2|0|0|0,1:0|0:0|0:0|0:0,0:0:0:0:
387,27,99518,6,0,L|473:21,1,76.5000014591217,4|0,1:0|3:0,0:0:0:0:
230,32,99806,2,0,L|153:37,1,76.5000014591217,2|0,3:2|3:0,0:0:0:0:
385,109,100093,2,0,L|471:103,1,76.5000014591217,2|0,3:2|3:0,0:0:0:0:
228,114,100381,2,0,L|151:119,1,76.5000014591217,2|0,3:2|3:0,0:0:0:0:
397,21,100667,6,0,L|494:14,1,76.5000014591217,4|0,1:0|3:0,0:0:0:0:
220,27,100955,2,0,L|134:33,1,76.5000014591217,2|0,3:2|0:0,0:0:0:0:
394,113,101242,2,0,L|491:107,1,76.5000014591217,2|0,3:2|3:0,0:0:0:0:
217,119,101528,2,0,L|131:125,1,76.5000014591217,2|0,3:2|3:0,0:0:0:0:
371,205,101815,6,0,L|439:200,1,38.2500007295609,4|0,1:0|3:0,0:0:0:0:
245,208,101959,2,0,L|184:212,1,38.2500007295609,2|0,3:2|3:0,0:0:0:0:
372,286,102102,2,0,L|440:281,1,38.2500007295609,2|0,3:2|3:0,0:0:0:0:
247,290,102246,2,0,L|186:294,1,38.2500007295609,2|0,3:2|3:0,0:0:0:0:
387,193,102389,6,0,L|447:190,1,38.2500007295609,4|0,1:0|3:0,0:0:0:0:
228,197,102533,2,0,L|165:202,1,38.2500007295609,2|0,3:2|3:0,0:0:0:0:
388,296,102676,2,0,L|440:293,1,38.2500007295609,2|0,3:2|3:0,0:0:0:0:
230,301,102820,2,0,L|180:303,1,38.2500007295609,2|0,3:2|3:0,0:0:0:0:
311,216,102963,5,0,0:0:0:0:
311,228,103035,1,0,0:0:0:0:
311,239,103107,1,2,0:1:0:0:
311,250,103179,1,0,0:0:0:0:
311,261,103251,1,2,0:1:0:0:
311,272,103322,1,0,0:0:0:0:
311,283,103394,1,2,0:1:0:0:
311,294,103466,1,0,0:0:0:0:
311,325,103538,5,2,0:1:0:0:
140,367,104112,6,0,P|74:370|25:358,1,114.750002188683,4|0,3:1|0:0,0:0:0:0:
23,347,104399,2,0,L|6:253,1,76.5000014591217,2|0,1:0|0:0,0:0:0:0:
16,262,104614,2,0,L|33:165,1,76.5000014591217,2|0,0:1|0:0,0:0:0:0:
24,176,104829,1,2,0:1:0:0:
55,89,104973,2,0,L|141:114,1,76.5000014591217,2|0,1:0|0:0,0:0:0:0:
222,77,105260,6,0,P|266:64|338:94,1,114.750002188683,2|0,3:1|0:0,0:0:0:0:
334,96,105547,2,0,L|346:173,1,76.5000014591217,2|0,1:0|0:0,0:0:0:0:
353,180,105763,2,0,L|442:197,1,76.5000014591217,2|0,0:1|0:0,0:0:0:0:
438,189,105978,1,2,0:1:0:0:
492,86,106121,2,0,L|403:103,1,76.5000014591217,2|0,1:0|0:0,0:0:0:0:
267,148,106408,6,0,L|258:282,1,114.750002188683,2|0,3:1|0:0,0:0:0:0:
253,272,106696,2,0,P|215:292|170:290,1,76.5000014591217,2|0,1:0|0:0,0:0:0:0:
172,286,106911,2,0,L|90:264,1,76.5000014591217,2|0,0:1|0:0,0:0:0:0:
86,269,107126,1,2,0:1:0:0:
108,382,107270,2,0,L|197:371,1,76.5000014591217,2|0,1:0|0:0,0:0:0:0:
318,339,107557,5,0,3:0:0:0:
404,368,107700,1,0,3:0:0:0:
435,281,107844,1,2,1:2:0:0:
349,252,107987,1,2,3:2:0:0:
448,285,108131,5,0,3:0:0:0:
458,288,108203,1,0,3:0:0:0:
468,291,108274,1,0,3:0:0:0:
479,294,108346,1,0,3:0:0:0:
505,275,108418,5,2,0:1:0:0:
501,264,108490,1,2,0:1:0:0:
496,253,108562,1,2,0:1:0:0:
491,242,108633,1,2,0:1:0:0:
485,231,108705,6,0,P|475:188|501:121,1,114.750002188683,4|0,3:1|0:0,0:0:0:0:
508,116,108992,2,0,L|427:90,1,76.5000014591217,2|0,1:0|0:0,0:0:0:0:
424,97,109207,2,0,L|337:116,1,76.5000014591217,2|0,0:1|0:0,0:0:0:0:
339,107,109423,1,2,0:1:0:0:
378,189,109566,2,0,P|388:233|380:276,1,76.5000014591217,2|0,1:0|0:0,0:0:0:0:
254,274,109853,6,0,P|197:255|138:244,1,114.750002188683,2|0,3:1|0:0,0:0:0:0:
133,250,110140,2,0,L|125:159,1,76.5000014591217,2|0,1:0|0:0,0:0:0:0:
116,168,110356,2,0,L|100:84,1,76.5000014591217,2|0,0:1|0:0,0:0:0:0:
108,83,110571,1,2,0:1:0:0:
199,0,110715,2,0,P|205:48|192:92,1,76.5000014591217,2|0,1:0|0:0,0:0:0:0:
22,139,111002,6,0,P|27:189|46:273,1,114.750002188683,2|0,3:1|0:0,0:0:0:0:
48,259,111289,2,0,P|50:294|32:345,1,76.5000014591217,2|0,1:0|0:0,0:0:0:0:
30,341,111504,2,0,L|131:332,1,76.5000014591217,2|0,0:1|0:0,0:0:0:0:
116,340,111719,1,2,0:1:0:0:
193,278,111863,2,0,P|191:226|206:190,1,76.5000014591217,2|0,1:0|0:0,0:0:0:0:
292,86,112150,5,0,3:0:0:0:
383,76,112294,1,0,3:0:0:0:
397,166,112437,1,2,1:2:0:0:
306,176,112581,1,2,3:2:0:0:
399,178,112724,5,0,3:0:0:0:
402,188,112796,1,0,3:0:0:0:
405,199,112868,1,0,3:0:0:0:
407,210,112940,1,0,3:0:0:0:
410,220,113011,2,0,L|440:217,6,19.1250003647804,2|0|2|0|2|0|2,0:1|0:0|0:1|0:0|0:1|0:0|0:1,0:0:0:0:
344,279,113298,6,0,L|303:270,3,38.2500007295609,4|0|0|0,1:0|0:0|0:0|0:0,0:0:0:0:
386,124,113657,1,0,1:0:0:0:
320,183,113801,1,0,3:0:0:0:
308,181,113873,1,0,3:0:0:0:
296,179,113944,1,0,3:0:0:0:
284,177,114016,1,0,3:0:0:0:
272,175,114088,1,0,3:0:0:0:
364,28,114231,5,0,1:0:0:0:
298,87,114375,1,0,3:0:0:0:
286,85,114447,1,0,3:0:0:0:
274,83,114518,1,0,3:0:0:0:
262,81,114590,1,0,3:0:0:0:
250,79,114662,1,0,3:0:0:0:
410,220,114806,5,0,1:0:0:0:
495,189,114949,1,0,3:0:0:0:
498,178,115021,1,0,3:0:0:0:
501,167,115093,2,0,L|512:130,2,38.2500007295609,0|0|0,3:0|3:0|3:0,0:0:0:0:
418,232,115308,2,0,P|421:269|433:319,1,76.5000014591217,4|0,1:0|0:0,0:0:0:0:
441,320,115523,6,0,B|370:295|298:293|237:340|237:340|152:343|-14:262|72:6|373:28|320:285,1,816.750024925233,4|2,1:0|0:1,0:0:0:0:
