osu file format v14

[General]
AudioFilename: audio.mp3
AudioLeadIn: 0
PreviewTime: 72963
Countdown: 0
SampleSet: Soft
StackLeniency: 0.5
Mode: 0
LetterboxInBreaks: 0
WidescreenStoryboard: 0

[Editor]
DistanceSpacing: 0.5
BeatDivisor: 4
GridSize: 8
TimelineZoom: 1.9

[Metadata]
Title:Zettai Reido
TitleUnicode:絶対零度
Artist:Kaneko Chiharu
ArtistUnicode:かねこちはる
Creator:Karen
Version:Hard
Source:MÚSECA 1+1/2
Tags:SOUND VOLTEX III GRAVITY WARS BEMANI KONAMI sdvx MUSECA toybot Asahina Momoko mokori m_o_k_o_r_i Leader
BeatmapID:1615739
BeatmapSetID:641201

[Difficulty]
HPDrainRate:5
CircleSize:4
OverallDifficulty:6
ApproachRate:8
SliderMultiplier:1.6
SliderTickRate:1

[Events]
//Background and Video events
0,0,"kv_bg.jpg",0,0
//Break Periods
2,56082,59725
2,61106,64319
//Storyboard Layer 0 (Background)
//Storyboard Layer 1 (Fail)
//Storyboard Layer 2 (Pass)
//Storyboard Layer 3 (Foreground)
//Storyboard Sound Samples

[TimingPoints]
763,287.081339712919,4,2,1,70,1,0
1050,-100,4,2,1,70,0,0
1121,-100,4,2,1,70,0,0
1193,-100,4,2,1,70,0,0
1265,-100,4,2,1,70,0,0
1337,-100,4,2,1,70,0,0
1408,-100,4,2,1,70,0,0
1480,-100,4,2,1,70,0,0
1552,-100,4,2,1,70,0,0
1624,-100,4,1,2,70,0,0
1911,-133.333333333333,4,1,2,70,0,0
1983,-133.333333333333,4,1,2,40,0,0
5786,-133.333333333333,4,2,1,40,0,0
11097,-133.333333333333,4,2,2,50,0,0
19136,-133.333333333333,4,2,2,40,0,0
19279,-133.333333333333,4,2,2,45,0,0
19423,-133.333333333333,4,2,2,50,0,0
19566,-133.333333333333,4,2,2,55,0,0
19710,-133.333333333333,4,2,2,60,0,0
20284,-117.647058823529,4,2,3,60,0,0
28896,-117.647058823529,4,2,3,70,0,0
29471,-117.647058823529,4,2,2,60,0,0
30045,-117.647058823529,4,2,1,60,0,0
34064,-117.647058823529,4,2,1,50,0,0
35786,-117.647058823529,4,2,1,70,0,0
36074,-117.647058823529,4,2,1,50,0,0
36935,-117.647058823529,4,2,2,20,0,0
37078,-117.647058823529,4,2,2,35,0,0
37222,-117.647058823529,4,2,2,50,0,0
37365,-117.647058823529,4,2,2,75,0,0
37509,-117.647058823529,4,2,2,75,0,0
37652,-117.647058823529,4,1,1,75,0,0
37796,-117.647058823529,4,2,1,40,0,0
38083,-117.647058823529,4,2,1,50,0,0
38227,-117.647058823529,4,2,1,60,0,0
38370,-117.647058823529,4,2,1,70,0,0
38514,-117.647058823529,4,2,1,80,0,0
38657,-133.333333333333,4,2,1,40,0,0
47270,-133.333333333333,4,2,1,60,0,0
47844,-117.647058823529,4,2,3,60,0,0
55308,-117.647058823529,4,2,3,70,0,0
56026,-117.647058823529,4,2,3,50,0,0
59327,-117.647058823529,4,2,1,50,0,0
60475,-181.818181818181,4,2,1,50,0,0
60906,-181.818181818181,4,2,3,50,0,0
63920,-181.818181818181,4,2,1,40,0,0
64207,-181.818181818181,4,2,1,50,0,0
64495,-181.818181818181,4,2,1,60,0,0
64782,-181.818181818181,4,2,1,70,0,0
65069,-100,4,2,1,70,0,0
69662,-100,4,2,3,70,0,0
72533,-100,4,2,1,50,0,0
72676,-100,4,2,1,60,0,0
72820,-100,4,2,1,70,0,0
72963,-100,4,2,1,80,0,0
73107,-100,4,2,1,70,0,0
74255,-100,4,2,1,80,0,1
82294,-100,4,2,1,70,0,0
82509,-100,4,2,1,80,0,0
82724,-100,4,2,1,70,0,0
82940,-100,4,2,1,80,0,0
83155,-100,4,2,3,70,0,0
83442,-100,4,2,1,80,0,1
90332,-100,4,2,1,50,0,1
90619,-100,4,2,1,60,0,1
90906,-100,4,2,1,70,0,1
91193,-100,4,2,1,80,0,1
91480,-100,4,2,1,70,0,1
92629,-117.647058823529,4,2,1,70,0,1
92916,-117.647058823529,4,2,1,70,0,0
93203,-117.647058823529,4,2,3,70,0,0
102963,-117.647058823529,4,2,1,50,0,0
103107,-117.647058823529,4,2,1,60,0,0
103251,-117.647058823529,4,2,1,70,0,0
103394,-117.647058823529,4,2,1,80,0,0
103538,-117.647058823529,4,2,1,90,0,0
104112,-117.647058823529,4,2,3,70,0,0
104399,-117.647058823529,4,2,3,60,0,0
104614,-117.647058823529,4,2,3,80,0,0
104829,-117.647058823529,4,2,3,60,0,0
104973,-117.647058823529,4,2,3,40,0,0
105547,-117.647058823529,4,2,3,60,0,0
105763,-117.647058823529,4,2,3,80,0,0
105978,-117.647058823529,4,2,3,60,0,0
106121,-117.647058823529,4,2,3,40,0,0
106696,-117.647058823529,4,2,3,60,0,0
106911,-117.647058823529,4,2,3,80,0,0
107126,-117.647058823529,4,2,3,60,0,0
107270,-117.647058823529,4,2,3,60,0,0
108418,-117.647058823529,4,2,3,60,0,0
108705,-117.647058823529,4,2,3,70,0,0
108992,-117.647058823529,4,2,3,60,0,0
109207,-117.647058823529,4,2,3,80,0,0
109423,-117.647058823529,4,2,3,60,0,0
109566,-117.647058823529,4,2,3,40,0,0
110140,-117.647058823529,4,2,3,60,0,0
110356,-117.647058823529,4,2,3,80,0,0
110571,-117.647058823529,4,2,3,60,0,0
110715,-117.647058823529,4,2,3,40,0,0
111289,-117.647058823529,4,2,3,60,0,0
111504,-117.647058823529,4,2,3,80,0,0
111719,-117.647058823529,4,2,3,60,0,0
111863,-117.647058823529,4,2,3,60,0,0
113011,-117.647058823529,4,2,3,60,0,0
113298,-117.647058823529,4,2,3,70,0,0
113657,-117.647058823529,4,2,3,60,0,0
115308,-117.647058823529,4,2,3,70,0,0
115523,-181.818181818181,4,2,3,70,0,0
115882,-181.818181818181,4,2,1,40,0,0
116169,-181.818181818181,4,2,1,50,0,0
116456,-181.818181818181,4,2,1,60,0,0
116743,-181.818181818181,4,2,1,70,0,0
117030,-181.818181818181,4,2,1,60,0,0
117318,-181.818181818181,4,2,1,50,0,0
117605,-181.818181818181,4,2,1,40,0,0

[Colours]
Combo1 : 128,128,255
Combo2 : 205,193,253
Combo3 : 0,102,227
Combo4 : 255,0,128
Combo5 : 0,255,255

[HitObjects]
110,100,1911,5,4,1:0:0:0:
110,100,2054,1,0,0:0:0:0:
110,100,2198,2,0,P|168:94|236:77,1,120.000004577637,0|0,0:0|0:0,0:0:0:0:
290,33,2629,2,0,P|348:39|416:56,1,120.000004577637,0|0,0:0|0:0,0:0:0:0:
421,129,3059,6,0,P|409:178|401:254,1,120.000004577637,0|0,0:0|0:0,0:0:0:0:
323,253,3490,2,0,P|316:193|303:134,1,120.000004577637,0|0,0:0|0:0,0:0:0:0:
232,168,3920,1,0,0:0:0:0:
232,168,4064,1,0,0:0:0:0:
232,168,4207,6,0,L|160:171,1,60.0000022888184,0|0,0:0|0:0,0:0:0:0:
101,134,4495,2,0,P|53:128|-7:177,1,120.000004577637,0|0,0:0|0:0,0:0:0:0:
66,202,4925,2,0,P|79:263|57:328,1,120.000004577637,0|0,0:0|0:0,0:0:0:0:
113,377,5356,6,0,L|232:362,1,120.000004577637,0|0,0:0|0:0,0:0:0:0:
258,288,5786,2,0,L|377:303,1,120.000004577637,0|0,0:0|0:0,0:0:0:0:
413,384,6217,1,2,0:0:0:0:
413,384,6361,1,2,0:0:0:0:
413,384,6504,6,0,L|483:372,1,60.0000022888184,0|0,0:0|0:0,0:0:0:0:
507,303,6791,2,0,P|511:245|526:175,1,120.000004577637,2|0,0:1|0:0,0:0:0:0:
503,108,7222,2,0,P|434:86|368:85,1,120.000004577637,2|0,0:1|0:0,0:0:0:0:
341,146,7652,6,0,P|283:164|227:134,1,120.000004577637,2|0,0:1|0:0,0:0:0:0:
154,132,8083,2,0,P|164:185|177:274,1,120.000004577637,2|0,0:1|0:0,0:0:0:0:
238,309,8514,1,2,0:1:0:0:
238,309,8657,1,2,0:1:0:0:
238,309,8801,6,0,L|224:375,1,60.0000022888184,0|0,0:0|0:0,0:0:0:0:
148,380,9088,2,0,P|90:371|28:369,1,120.000004577637,2|0,0:1|0:0,0:0:0:0:
9,293,9518,2,0,P|16:238|76:200,1,120.000004577637,2|0,0:1|0:0,0:0:0:0:
87,276,9949,6,0,P|142:286|228:281,1,120.000004577637,2|0,0:1|0:0,0:0:0:0:
255,223,10380,2,0,P|310:213|396:218,1,120.000004577637,2|0,0:1|0:0,0:0:0:0:
431,272,10810,1,2,0:1:0:0:
431,272,10954,1,0,0:0:0:0:
497,181,11097,6,0,L|490:97,1,60.0000022888184,0|0,1:0|0:0,0:0:0:0:
396,68,11385,2,0,L|403:152,1,60.0000022888184,2|0,1:2|0:0,0:0:0:0:
382,55,11672,1,0,1:0:0:0:
304,106,11815,2,0,L|311:190,1,60.0000022888184,2|0,0:0|1:0,0:0:0:0:
290,93,12102,1,0,0:0:0:0:
212,139,12246,6,0,L|219:223,1,60.0000022888184,2|0,1:2|0:0,0:0:0:0:
198,126,12533,1,0,1:0:0:0:
121,177,12676,2,0,L|128:261,1,60.0000022888184,2|0,0:0|1:0,0:0:0:0:
107,164,12963,1,0,0:0:0:0:
200,277,13107,2,0,L|281:264,1,60.0000022888184,2|2,1:2|0:0,0:0:0:0:
316,377,13394,6,0,L|235:364,1,60.0000022888184,0|0,1:0|0:0,0:0:0:0:
143,352,13681,2,0,P|111:349|73:353,1,60.0000022888184,2|0,1:2|0:0,0:0:0:0:
154,362,13968,1,0,1:0:0:0:
200,277,14112,2,0,P|169:265|132:259,1,60.0000022888184,2|0,0:0|1:0,0:0:0:0:
208,289,14399,1,0,0:0:0:0:
272,222,14542,6,0,P|245:203|210:187,1,60.0000022888184,2|0,1:2|0:0,0:0:0:0:
277,236,14829,1,0,1:0:0:0:
362,192,14973,2,0,P|341:167|311:143,1,60.0000022888184,2|0,0:0|1:0,0:0:0:0:
362,205,15260,1,0,0:0:0:0:
492,162,15404,2,0,P|469:181|450:204,1,60.0000022888184,2|2,1:2|0:0,0:0:0:0:
479,317,15691,6,0,L|489:391,1,60.0000022888184,4|0,1:0|0:0,0:0:0:0:
398,302,15978,2,0,L|408:376,1,60.0000022888184,2|0,1:2|0:0,0:0:0:0:
487,302,16265,2,0,L|497:376,1,60.0000022888184,0|2,1:0|0:0,0:0:0:0:
406,287,16552,2,0,L|416:361,1,60.0000022888184,0|0,1:0|0:0,0:0:0:0:
309,351,16839,6,0,L|319:277,1,60.0000022888184,2|0,1:2|0:0,0:0:0:0:
228,366,17126,2,0,L|238:292,1,60.0000022888184,0|2,1:0|0:0,0:0:0:0:
317,366,17413,2,0,L|327:292,1,60.0000022888184,0|0,1:0|0:0,0:0:0:0:
236,381,17700,2,0,L|246:307,1,60.0000022888184,2|2,1:2|1:2,0:0:0:0:
192,236,17987,6,0,L|160:249,3,30.0000011444092,0|0|0|0,1:0|0:0|1:0|0:0,0:0:0:0:
132,223,18274,2,0,L|119:191,3,30.0000011444092,2|0|0|0,1:0|0:0|1:0|0:0,0:0:0:0:
141,161,18562,2,0,L|173:148,3,30.0000011444092,0|0|2|0,1:0|0:0|1:0|0:0,0:0:0:0:
201,174,18849,2,0,L|214:206,3,30.0000011444092,0|0|0|0,1:0|1:0|1:0|1:0,0:0:0:0:
290,230,19136,6,0,L|313:222,30,15.0000005722046,2|0|0|0|0|0|0|0|0|0|0|0|2|0|0|0|2|2|2|2|2|2|2|2|2|2|2|2|2|2|2,1:0|0:0|1:2|0:0|1:2|0:0|1:2|0:0|1:2|0:0|1:2|0:0|1:0|0:0|1:2|0:0|0:0|0:0|0:0|0:0|0:0|0:0|0:0|0:0|0:1|0:0|0:0|0:0|0:1|0:0|0:0,0:0:0:0:
325,209,20284,6,0,L|331:131,1,68.0000012969971,4|2,3:1|0:0,0:0:0:0:
276,79,20571,1,2,1:2:0:0:
196,99,20715,2,0,P|129:120|59:124,1,136.000002593994,2|0,0:0|3:0,0:0:0:0:
23,195,21145,1,2,1:2:0:0:
28,203,21217,1,0,0:0:0:0:
30,212,21289,1,0,0:0:0:0:
30,222,21361,1,0,0:0:0:0:
27,231,21432,6,0,P|58:231|104:240,1,68.0000012969971,0|2,3:0|0:0,0:0:0:0:
138,306,21719,1,2,1:2:0:0:
95,375,21863,2,0,P|149:353|248:355,1,136.000002593994,2|0,0:0|3:2,0:0:0:0:
301,381,22294,1,2,1:2:0:0:
311,380,22365,1,0,0:0:0:0:
321,378,22437,1,0,0:0:0:0:
331,376,22509,1,0,0:0:0:0:
341,374,22581,6,0,P|354:306|362:231,1,136.000002593994,2|0,3:2|1:0,0:0:0:0:
403,102,23155,1,2,0:1:0:0:
482,86,23298,1,2,3:1:0:0:
498,166,23442,1,2,1:0:0:0:
419,182,23585,1,2,0:1:0:0:
389,88,23729,6,0,L|377:16,1,68.0000012969971,2|2,3:2|0:0,0:0:0:0:
296,14,24016,1,2,1:2:0:0:
232,65,24160,1,2,3:2:0:0:
232,75,24231,1,0,0:0:0:0:
232,85,24303,2,0,P|199:96|153:100,1,68.0000012969971,0|2,0:0|3:2,0:0:0:0:
100,52,24590,1,0,1:0:0:0:
90,40,24877,6,0,L|18:24,1,68.0000012969971,4|0,3:1|0:0,0:0:0:0:
91,136,25164,2,0,L|19:120,1,68.0000012969971,2|0,1:2|0:0,0:0:0:0:
0,202,25451,2,0,P|0:247|46:304,2,102.000001945496,2|2|2,3:2|0:0|0:0,0:0:0:0:
78,227,26026,5,2,3:2:0:0:
153,196,26169,1,0,0:0:0:0:
220,242,26313,2,0,L|297:242,1,68.0000012969971,2|2,1:2|0:0,0:0:0:0:
292,232,26528,2,0,L|343:231,1,34.0000006484985,2|0,0:0|0:0,0:0:0:0:
389,282,26743,1,0,3:0:0:0:
388,292,26815,1,0,0:0:0:0:
387,302,26887,2,0,L|401:383,2,45.3333341979981,2|2|2,1:0|0:1|0:1,0:0:0:0:
475,285,27174,6,0,L|484:215,1,68.0000012969971,4|0,3:1|0:0,0:0:0:0:
404,202,27461,2,0,L|413:132,1,68.0000012969971,2|0,1:2|0:0,0:0:0:0:
459,67,27748,2,0,L|429:49,3,34.0000006484985,2|0|2|0,3:2|0:0|0:0|0:0,0:0:0:0:
388,51,28035,2,0,L|358:69,3,34.0000006484985,2|0|2|2,1:2|0:0|0:0|0:0,0:0:0:0:
338,104,28322,6,0,L|331:158,3,34.0000006484985,0|0|0|0,3:0|1:0|1:0|1:0,0:0:0:0:
330,178,28609,1,4,1:0:0:0:
219,285,28896,6,0,L|114:268,1,102.000001945496,4|4,1:0|1:0,0:0:0:0:
92,99,29327,1,4,1:0:0:0:
145,37,29471,6,0,P|223:53|265:101,1,136.000002593994,0|0,3:0|0:0,0:0:0:0:
182,189,30045,2,0,P|145:113|163:196,1,238.00000453949,8|0,0:0|0:0,0:0:0:0:
145,201,30619,6,0,L|30:184,1,102.000001945496,0|0,1:0|3:0,0:0:0:0:
35,191,30906,1,0,0:0:0:0:
2,266,31050,1,0,3:0:0:0:
6,274,31121,1,0,0:0:0:0:
10,282,31193,2,0,L|84:276,1,68.0000012969971,8|2,0:0|0:0,0:0:0:0:
139,330,31480,2,0,L|230:345,1,68.0000012969971,0|0,0:0|0:0,0:0:0:0:
271,292,31767,6,0,P|321:279|385:307,1,102.000001945496,0|0,1:0|3:0,0:0:0:0:
372,302,32054,2,0,L|390:265,3,34.0000006484985,0|0|0|0,0:0|3:0|1:0|0:0,0:0:0:0:
387,230,32341,2,0,L|378:174,3,34.0000006484985,8|0|0|0,0:0|3:0|3:0|3:0,0:0:0:0:
349,170,32629,2,0,L|310:165,3,34.0000006484985,2|2|2|2,0:1|0:1|0:1|0:1,0:0:0:0:
280,186,32916,6,0,P|212:196|136:180,1,136.000002593994,0|2,1:0|0:1,0:0:0:0:
96,119,33346,1,0,0:0:0:0:
27,163,33490,2,0,P|26:210|16:274,2,102.000001945496,10|2|2,0:0|0:0|0:0,0:0:0:0:
52,46,34064,6,0,P|95:36|172:82,1,136.000002593994,0|0,1:0|1:0,0:0:0:0:
341,79,34638,2,0,P|393:39|460:46,1,136.000002593994,0|0,1:0|1:0,0:0:0:0:
358,161,35212,6,0,L|337:303,1,136.000002593994,0|0,1:0|1:0,0:0:0:0:
158,161,35786,2,0,L|179:303,1,136.000002593994,2|0,3:1|1:0,0:0:0:0:
308,382,36361,6,0,L|388:377,1,68.0000012969971,0|0,1:0|1:0,0:0:0:0:
204,382,36648,2,0,L|124:377,1,68.0000012969971,0|0,1:0|1:0,0:0:0:0:
96,281,36935,1,2,1:0:0:0:
135,210,37078,1,2,1:0:0:0:
216,210,37222,1,2,1:0:0:0:
268,272,37365,1,2,1:0:0:0:
347,291,37509,6,0,L|383:276,3,34.0000006484985,2|0|0|0,3:2|1:0|1:0|1:0,0:0:0:0:
406,247,37796,2,0,L|422:209,3,34.0000006484985,0|0|0|0,1:0|1:0|1:0|1:0,0:0:0:0:
415,174,38083,2,0,L|405:141,3,34.0000006484985,0|0|0|0,1:0|1:0|1:0|1:0,0:0:0:0:
404,100,38370,2,0,L|409:56,3,34.0000006484985,0|0|0|0,1:0|1:0|1:0|1:0,0:0:0:0:
399,30,38657,6,0,P|336:20|268:44,1,120.000004577637,4|2,1:0|1:2,0:0:0:0:
250,106,39088,1,2,0:2:0:0:
94,119,39375,1,2,0:0:0:0:
97,127,39447,1,2,0:0:0:0:
101,134,39518,2,0,L|94:50,1,60.0000022888184,2|2,0:0|0:0,0:0:0:0:
147,14,39806,6,0,P|109:-1|54:7,2,90.0000034332277,2|2|2,0:0|0:0|0:0,0:0:0:0:
173,87,40380,2,0,L|181:215,1,120.000004577637,0|0,0:0|0:0,0:0:0:0:
137,271,40810,1,2,0:0:0:0:
130,277,40882,1,2,0:0:0:0:
123,282,40954,6,0,P|61:291|18:246,1,120.000004577637,2|2,0:0|0:0,0:0:0:0:
167,199,41528,2,0,L|266:189,2,90.0000034332277,2|2|2,0:0|0:0|0:0,0:0:0:0:
111,143,42102,6,0,L|12:133,2,90.0000034332277,2|2|2,0:0|0:0|0:0,0:0:0:0:
171,93,42676,1,2,0:0:0:0:
89,225,42963,1,2,0:0:0:0:
183,100,43251,6,0,P|237:104|303:95,1,120.000004577637,2|2,0:1|0:0,0:0:0:0:
341,27,43681,1,2,0:0:0:0:
448,139,43968,1,2,0:0:0:0:
442,146,44040,1,2,0:0:0:0:
436,152,44112,2,0,L|371:145,1,60.0000022888184,2|2,0:0|0:0,0:0:0:0:
305,179,44399,6,0,P|303:221|307:284,2,90.0000034332277,2|2|2,0:0|0:0|0:0,0:0:0:0:
227,167,44973,2,0,P|229:222|226:296,1,120.000004577637,0|0,0:0|0:0,0:0:0:0:
282,341,45404,1,2,0:0:0:0:
290,344,45475,1,2,0:0:0:0:
299,347,45547,6,0,L|430:327,1,120.000004577637,2|2,0:0|0:0,0:0:0:0:
485,198,46121,2,0,P|431:176|382:187,2,90.0000034332277,2|2|2,0:0|0:0|0:0,0:0:0:0:
428,252,46696,5,0,0:0:0:0:
275,221,46983,2,0,L|259:149,1,60.0000022888184,0|0,0:0|0:0,0:0:0:0:
300,94,47270,2,0,P|378:109|487:92,1,180.000006866455,2|2,0:0|0:1,0:0:0:0:
420,36,47844,6,0,P|397:80|438:172,1,136.000002593994,4|0,3:1|1:0,0:0:0:0:
497,184,48274,1,0,0:0:0:0:
413,324,48562,1,0,0:0:0:0:
410,314,48633,1,0,0:0:0:0:
407,304,48705,2,0,L|328:291,1,68.0000012969971,0|0,1:0|0:0,0:0:0:0:
276,344,48992,6,0,P|233:370|161:365,2,102.000001945496,0|0|0,3:0|0:0|0:0,0:0:0:0:
210,294,49566,2,0,P|199:227|195:157,1,136.000002593994,0|0,3:0|1:0,0:0:0:0:
231,85,49997,1,0,0:0:0:0:
240,89,50069,1,0,0:0:0:0:
248,93,50140,6,0,L|180:81,1,68.0000012969971,0|0,3:0|0:0,0:0:0:0:
116,134,50428,2,0,L|48:145,1,68.0000012969971,0|0,1:0|0:0,0:0:0:0:
12,72,50715,2,0,P|43:24|114:17,2,102.000001945496,0|0|0,3:0|0:0|0:0,0:0:0:0:
34,150,51289,6,0,P|41:196|42:266,2,102.000001945496,0|0|0,3:0|0:0|0:0,0:0:0:0:
115,154,51863,2,0,P|120:178|118:218,2,45.3333341979981,0|0|0,3:0|0:0|0:0,0:0:0:0:
100,101,52150,2,0,P|100:78|105:56,2,45.3333341979981,0|0|0,1:0|0:0|0:0,0:0:0:0:
152,114,52437,6,0,P|221:124|298:126,1,136.000002593994,4|0,1:0|3:0,0:0:0:0:
344,67,52868,2,0,P|386:69|425:94,1,68.0000012969971,4|0,1:0|0:0,0:0:0:0:
364,148,53155,1,2,0:0:0:0:
362,158,53227,1,2,0:0:0:0:
359,167,53298,2,0,L|378:247,1,68.0000012969971,2|0,0:0|3:0,0:0:0:0:
452,260,53585,6,0,P|466:225|465:133,2,102.000001945496,4|4|4,1:0|1:0|3:1,0:0:0:0:
235,375,54447,1,0,0:0:0:0:
185,310,54590,1,2,1:2:0:0:
182,300,54662,1,2,0:0:0:0:
179,290,54734,6,0,P|183:225|194:150,1,136.000002593994,4|4,3:1|1:0,0:0:0:0:
38,206,55308,2,0,P|47:250|56:315,2,102.000001945496,4|4|0,3:1|1:0|1:0,0:0:0:0:
2,132,55882,5,4,3:1:0:0:
256,184,60475,6,0,L|256:152,4,22.0000006713867,0|0|0|0|0,1:0|1:0|1:0|1:0|1:0,0:0:0:0:
256,272,60906,1,4,1:0:0:0:
264,326,65069,6,0,L|343:333,1,80,4|0,1:0|0:0,0:0:0:0:
450,230,65356,2,0,P|400:226|371:243,1,80,2|0,1:0|0:0,0:0:0:0:
368,254,65643,1,0,1:0:0:0:
384,131,65786,2,0,P|338:152|322:181,1,80,2|0,0:1|1:0,0:0:0:0:
323,192,66073,1,0,0:0:0:0:
276,75,66217,6,0,P|247:116|247:149,1,80,2|0,1:0|0:0,0:0:0:0:
250,159,66504,1,0,1:0:0:0:
153,78,66648,2,0,P|148:128|166:156,1,80,2|0,0:1|1:0,0:0:0:0:
173,164,66935,1,0,0:0:0:0:
217,248,67078,2,0,P|221:298|204:326,1,80,2|2,1:0|0:1,0:0:0:0:
119,375,67365,6,0,L|33:360,1,80,0|0,1:0|0:0,0:0:0:0:
21,221,67652,2,0,L|107:206,1,80,2|0,1:0|0:0,0:0:0:0:
111,195,67940,1,0,1:0:0:0:
155,265,68083,2,0,L|241:250,1,80,2|0,0:1|1:0,0:0:0:0:
243,238,68371,1,0,0:0:0:0:
290,309,68514,6,0,L|376:294,1,80,2|0,1:0|0:0,0:0:0:0:
379,283,68802,1,0,1:0:0:0:
424,353,68945,2,0,L|510:338,1,80,2|0,0:1|1:0,0:0:0:0:
510,325,69231,1,0,0:0:0:0:
462,241,69375,2,0,L|473:159,1,80,2|2,1:0|0:1,0:0:0:0:
385,81,69662,6,0,P|336:76|292:102,1,80,0|0,3:0|3:0,0:0:0:0:
302,167,69949,2,0,P|339:179|378:173,1,80,2|0,3:1|3:0,0:0:0:0:
376,50,70236,2,0,P|327:57|291:94,1,80,0|2,3:0|3:1,0:0:0:0:
296,179,70523,2,0,P|328:201|368:205,1,80,0|0,3:0|3:0,0:0:0:0:
212,174,70810,6,0,P|174:186|135:180,1,80,2|0,3:1|3:0,0:0:0:0:
129,88,71097,2,0,P|178:83|222:109,1,80,0|2,3:0|3:1,0:0:0:0:
218,186,71385,2,0,P|185:208|145:212,1,80,0|0,3:0|3:0,0:0:0:0:
138,57,71672,2,0,P|186:64|222:101,1,80,2|2,3:1|3:1,0:0:0:0:
329,80,71959,6,0,L|368:61,3,40,0|0|0|0,3:0|3:0|3:0|3:0,0:0:0:0:
405,63,72246,2,0,L|449:90,3,40,2|0|0|0,3:1|3:0|3:0|0:0,0:0:0:0:
458,119,72533,2,0,L|454:151,14,20,2|0|0|0|2|0|0|0|2|0|0|0|2|0|0,0:1|0:0|0:0|0:0|0:1|0:0|0:0|0:0|0:1|0:0|0:0|0:0|0:1|0:0|0:0,0:0:0:0:
441,155,73107,6,0,L|432:287,1,120,0|0,0:0|0:0,0:0:0:0:
274,377,73538,1,0,0:0:0:0:
269,366,73609,1,0,0:0:0:0:
264,354,73681,1,0,0:0:0:0:
271,266,73825,1,0,0:0:0:0:
274,181,73968,2,0,L|242:174,6,20,0|0|0|0|0|0|0,0:0|0:0|0:0|0:0|0:0|0:0|0:0,0:0:0:0:
310,197,74255,6,0,P|311:134|324:33,1,160,4|8,1:0|0:0,0:0:0:0:
244,56,74686,1,2,0:0:0:0:
177,12,74829,2,0,P|112:9|53:20,2,120,2|2|2,1:2|0:0|0:0,0:0:0:0:
218,128,75404,6,0,P|222:185|214:302,1,160,2|8,1:2|0:0,0:0:0:0:
152,336,75834,1,2,0:0:0:0:
216,384,75978,2,0,L|356:369,2,120,2|2|2,1:2|0:0|0:0,0:0:0:0:
102,270,76552,6,0,P|94:227|95:173,1,80,2|0,1:2|0:0,0:0:0:0:
233,214,76839,2,0,P|231:253|224:293,1,80,10|0,0:0|0:0,0:0:0:0:
120,354,77126,2,0,L|-20:339,2,120,2|2|2,1:2|0:0|0:0,0:0:0:0:
231,376,77700,6,0,P|277:359|302:335,1,80,2|0,1:2|0:0,0:0:0:0:
395,290,77987,2,0,P|349:273|324:249,1,80,8|2,0:0|0:0,0:0:0:0:
222,164,78274,2,0,P|277:144|333:172,2,120,2|2|2,1:2|0:0|0:0,0:0:0:0:
239,242,78849,6,0,P|256:151|266:61,1,160,4|8,1:0|0:0,0:0:0:0:
218,18,79279,1,2,0:0:0:0:
182,89,79423,2,0,P|132:107|48:109,2,120,2|2|2,1:2|0:0|0:0,0:0:0:0:
301,14,79997,6,0,P|360:16|456:55,1,160,4|8,1:0|0:0,0:0:0:0:
426,128,80428,1,2,0:0:0:0:
469,195,80571,2,0,P|484:251|455:308,2,120,2|2|2,1:2|0:0|0:0,0:0:0:0:
406,244,81145,6,0,L|324:266,1,80,2|0,1:2|1:0,0:0:0:0:
388,337,81432,2,0,L|306:359,1,80,8|2,0:0|1:2,0:0:0:0:
204,354,81719,2,0,L|122:332,1,80,2|2,1:2|1:2,0:0:0:0:
186,261,82006,2,0,L|104:239,1,80,10|2,0:0|1:2,0:0:0:0:
2,143,82294,6,0,P|46:130|101:142,1,80,0|0,1:0|0:0,0:0:0:0:
89,140,82509,2,0,P|133:153|188:141,1,80,4|0,3:1|0:0,0:0:0:0:
177,142,82724,2,0,P|221:129|276:141,1,80,0|0,1:0|0:0,0:0:0:0:
264,140,82939,2,0,P|308:153|363:141,1,80,4|0,3:1|0:0,0:0:0:0:
363,124,83155,2,0,P|370:83|373:43,1,80,4|4,1:0|1:0,0:0:0:0:
486,27,83442,6,0,P|484:105|485:200,1,160,4|8,1:0|0:0,0:0:0:0:
503,265,83873,1,2,0:0:0:0:
497,275,83944,1,2,0:0:0:0:
490,285,84016,2,0,P|427:270|369:276,2,120,2|2|2,1:2|0:0|0:0,0:0:0:0:
401,357,84590,6,0,P|401:277|399:197,1,160,2|8,1:2|0:0,0:0:0:0:
334,149,85021,1,2,0:0:0:0:
326,158,85093,1,0,0:0:0:0:
317,166,85164,2,0,P|264:186|202:156,2,120,2|2|2,1:2|0:0|0:0,0:0:0:0:
300,33,85739,6,0,P|280:63|265:118,1,80,2|0,1:2|0:0,0:0:0:0:
215,176,86026,2,0,P|235:206|250:261,1,80,10|0,0:0|0:0,0:0:0:0:
190,338,86313,2,0,P|255:325|326:322,2,120,2|2|2,1:2|0:0|0:0,0:0:0:0:
53,347,86887,6,0,P|18:315|4:281,1,80,2|0,1:2|0:0,0:0:0:0:
89,269,87174,2,0,P|75:225|80:188,1,80,10|0,0:0|0:0,0:0:0:0:
53,109,87461,2,0,P|109:115|167:169,2,120,2|2|2,1:2|0:0|0:0,0:0:0:0:
0,29,88035,6,0,P|43:24|99:10,1,80,4|0,1:0|1:0,0:0:0:0:
151,49,88322,2,0,P|190:57|229:61,1,80,8|2,0:0|1:2,0:0:0:0:
240,56,88538,1,2,0:0:0:0:
250,49,88609,2,0,P|253:89|253:144,1,80,2|0,1:2|1:0,0:0:0:0:
227,207,88896,2,0,P|224:247|224:302,1,80,8|2,0:0|1:2,0:0:0:0:
319,361,89184,6,0,L|411:347,1,80,4|0,1:0|1:0,0:0:0:0:
379,269,89471,2,0,L|471:255,1,80,8|2,0:0|1:2,0:0:0:0:
466,248,89686,1,2,0:0:0:0:
472,237,89758,2,0,P|477:193|468:141,1,80,2|0,1:2|1:0,0:0:0:0:
393,138,90045,2,0,P|388:94|397:42,1,80,8|2,0:0|1:2,0:0:0:0:
306,10,90332,6,0,L|262:29,3,40,4|0|0|0,1:0|1:0|1:0|1:0,0:0:0:0:
264,65,90619,2,0,L|270:111,3,40,8|0|2|2,0:0|1:0|1:2|1:2,0:0:0:0:
269,144,90906,2,0,L|225:163,3,40,2|0|2|0,1:1|1:0|1:2|1:0,0:0:0:0:
227,199,91193,2,0,L|233:245,3,40,10|0|2|0,0:2|1:0|1:2|1:0,0:0:0:0:
254,271,91480,6,0,L|288:272,30,20,2|0|0|0|2|0|0|0|0|0|0|0|2|0|0|0|0|0|0|0|2|0|0|0|2|0|0|0|2|0|0,0:1|0:0|0:1|0:0|0:1|0:0|0:0|0:0|0:0|0:0|0:0|0:0|0:1|0:0|0:0|0:0|0:0|0:0|0:0|0:0|0:1|0:0|0:0|0:0|0:1|0:0|0:0|0:0|0:1|0:0|0:0,0:0:0:0:
233,307,92629,6,0,P|197:315|159:309,1,68.0000012969971,2|2,0:0|0:0,0:0:0:0:
69,348,92916,2,0,P|45:294|57:203,1,136.000002593994,4|0,1:0|3:0,0:0:0:0:
114,168,93346,1,0,0:0:0:0:
94,88,93490,1,2,1:2:0:0:
89,78,93562,1,2,0:0:0:0:
88,67,93633,1,2,0:0:0:0:
90,57,93705,1,2,0:0:0:0:
95,48,93777,6,0,P|130:38|172:33,1,68.0000012969971,2|2,3:2|0:0,0:0:0:0:
206,103,94064,1,2,1:2:0:0:
278,66,94207,2,0,P|336:78|434:74,1,136.000002593994,2|0,0:0|0:0,0:0:0:0:
485,113,94638,1,2,1:2:0:0:
481,122,94710,1,2,0:0:0:0:
477,131,94782,1,2,0:0:0:0:
474,140,94853,1,2,0:0:0:0:
469,149,94925,6,0,P|480:202|497:294,1,136.000002593994,2|0,3:2|1:0,0:0:0:0:
353,363,95499,1,2,3:1:0:0:
331,284,95643,1,2,0:1:0:0:
410,263,95786,1,2,1:0:0:0:
431,341,95930,1,2,0:1:0:0:
343,373,96074,6,0,L|266:363,1,68.0000012969971,2|2,3:2|0:0,0:0:0:0:
223,300,96361,1,2,1:2:0:0:
147,329,96504,1,2,0:0:0:0:
142,338,96576,1,0,0:0:0:0:
138,347,96648,2,0,P|128:306|126:274,1,68.0000012969971,0|2,3:0|0:0,0:0:0:0:
183,222,96935,1,0,1:0:0:0:
193,205,97222,6,0,P|200:169|204:105,1,68.0000012969971,4|0,3:1|0:0,0:0:0:0:
109,176,97509,2,0,P|109:142|107:108,1,68.0000012969971,2|0,1:2|0:0,0:0:0:0:
175,62,97796,2,0,P|229:49|303:35,2,102.000001945496,2|2|2,3:2|0:0|0:0,0:0:0:0:
104,21,98370,5,2,3:2:0:0:
24,41,98514,1,2,0:0:0:0:
10,121,98657,2,0,L|27:210,1,68.0000012969971,2|2,1:2|0:0,0:0:0:0:
31,193,98873,2,0,L|28:247,1,34.0000006484985,2|0,0:0|0:0,0:0:0:0:
8,306,99088,1,0,3:0:0:0:
13,314,99160,1,0,0:0:0:0:
18,322,99231,2,0,L|69:306,3,34.0000006484985,2|0|0|0,1:0|0:0|0:0|0:0,0:0:0:0:
86,331,99518,6,0,L|176:346,1,68.0000012969971,4|0,1:0|3:0,0:0:0:0:
179,263,99806,2,0,L|168:340,1,68.0000012969971,2|0,3:2|3:0,0:0:0:0:
247,354,100093,2,0,L|337:369,1,68.0000012969971,2|0,3:2|3:0,0:0:0:0:
340,286,100381,2,0,L|329:363,1,68.0000012969971,2|0,3:2|3:0,0:0:0:0:
288,194,100667,6,0,L|355:205,1,68.0000012969971,4|0,1:0|3:0,0:0:0:0:
271,205,100955,2,0,L|261:272,1,68.0000012969971,2|0,3:2|0:0,0:0:0:0:
126,171,101242,2,0,L|193:182,1,68.0000012969971,2|0,3:2|3:0,0:0:0:0:
110,182,101528,2,0,L|100:249,1,68.0000012969971,2|0,3:2|3:0,0:0:0:0:
25,279,101815,6,0,L|0:243,7,34.0000006484985,4|0|2|0|2|0|2|0,1:0|3:0|3:2|3:0|3:2|3:0|3:2|3:0,0:0:0:0:
6,210,102389,2,0,L|11:155,7,34.0000006484985,4|0|2|0|2|0|2|0,1:0|3:0|3:2|3:0|3:2|3:0|3:2|3:0,0:0:0:0:
18,136,102963,6,0,L|-7:126,14,17.0000003242493,2|0|0|0|2|0|0|0|2|0|0|0|2|0|0,0:1|0:0|0:0|0:0|0:1|0:0|0:0|0:0|0:1|0:0|0:0|0:0|0:1|0:0|0:0,0:0:0:0:
52,112,103538,1,2,0:1:0:0:
66,97,104112,6,0,P|110:84|202:97,1,136.000002593994,4|2,3:1|1:0,0:0:0:0:
256,247,104686,1,0,0:0:0:0:
323,292,104829,1,2,0:1:0:0:
329,300,104901,1,0,0:0:0:0:
334,308,104973,2,0,P|341:271|346:230,1,68.0000012969971,2|0,1:0|0:0,0:0:0:0:
299,176,105260,6,0,P|237:167|177:223,1,136.000002593994,2|2,3:1|1:0,0:0:0:0:
212,370,105834,1,0,0:0:0:0:
156,309,105978,1,2,0:1:0:0:
147,303,106050,1,0,0:0:0:0:
138,298,106121,2,0,L|45:309,1,68.0000012969971,2|0,1:0|0:0,0:0:0:0:
36,203,106408,6,0,P|98:214|171:217,1,136.000002593994,2|2,3:1|1:0,0:0:0:0:
220,61,106983,1,0,0:0:0:0:
291,99,107126,1,2,0:1:0:0:
290,107,107198,1,0,0:0:0:0:
287,117,107270,2,0,P|287:146|298:189,1,68.0000012969971,2|0,1:0|0:0,0:0:0:0:
368,220,107557,6,0,L|448:206,1,68.0000012969971,0|0,3:0|3:0,0:0:0:0:
439,126,107844,2,0,L|372:137,1,68.0000012969971,2|2,1:2|3:2,0:0:0:0:
287,192,108131,1,0,3:0:0:0:
285,202,108203,1,0,3:0:0:0:
284,212,108274,1,0,3:0:0:0:
282,222,108346,1,0,3:0:0:0:
280,232,108418,2,0,L|251:243,6,17.0000003242493,2|0|2|0|2|0|2,0:1|0:0|0:1|0:0|0:1|0:0|0:1,0:0:0:0:
305,264,108705,6,0,P|322:314|256:383,1,136.000002593994,4|2,3:1|1:0,0:0:0:0:
148,277,109279,1,0,0:0:0:0:
183,350,109423,1,2,0:1:0:0:
188,358,109495,1,0,0:0:0:0:
192,367,109566,2,0,L|107:355,1,68.0000012969971,2|0,1:0|0:0,0:0:0:0:
91,216,109853,6,0,P|151:194|222:235,1,136.000002593994,2|2,3:1|1:0,0:0:0:0:
370,176,110428,1,0,0:0:0:0:
313,117,110571,1,2,0:1:0:0:
307,108,110643,1,0,0:0:0:0:
300,99,110715,2,0,P|298:62|302:24,1,68.0000012969971,2|0,1:0|0:0,0:0:0:0:
451,128,111002,6,0,P|448:192|438:271,1,136.000002593994,2|2,3:1|1:0,0:0:0:0:
325,380,111576,1,0,0:0:0:0:
262,327,111719,1,2,0:1:0:0:
267,318,111791,1,0,0:0:0:0:
275,312,111863,2,0,P|302:301|367:308,1,68.0000012969971,2|0,1:0|0:0,0:0:0:0:
411,384,112150,6,0,L|482:376,1,68.0000012969971,0|0,3:0|3:0,0:0:0:0:
496,294,112437,2,0,L|429:302,1,68.0000012969971,2|2,1:2|3:2,0:0:0:0:
324,217,112724,1,0,3:0:0:0:
321,207,112796,1,0,3:0:0:0:
318,196,112868,1,0,3:0:0:0:
315,186,112940,1,0,3:0:0:0:
311,176,113011,2,0,L|301:147,6,17.0000003242493,2|0|2|0|2|0|2,0:1|0:0|0:1|0:0|0:1|0:0|0:1,0:0:0:0:
289,141,113298,6,0,L|295:97,3,34.0000006484985,4|0|0|0,1:0|0:0|0:0|0:0,0:0:0:0:
230,55,113657,1,0,1:0:0:0:
164,104,113801,1,0,3:0:0:0:
164,104,113873,1,0,3:0:0:0:
164,104,113944,2,0,L|159:137,2,34.0000006484985,0|0|0,3:0|3:0|3:0,0:0:0:0:
103,49,114231,5,0,1:0:0:0:
21,51,114375,1,0,3:0:0:0:
21,51,114447,1,0,3:0:0:0:
21,51,114518,2,0,L|25:17,2,34.0000006484985,0|0|0,3:0|3:0|3:0,0:0:0:0:
63,121,114806,1,0,1:0:0:0:
32,196,114949,1,0,3:0:0:0:
32,196,115021,1,0,3:0:0:0:
32,196,115093,2,0,L|-22:183,2,34.0000006484985,0|0|0,3:0|3:0|3:0,0:0:0:0:
45,234,115308,2,0,P|84:248|124:241,1,68.0000012969971,4|0,1:0|0:0,0:0:0:0:
137,216,115523,6,0,B|182:134|281:125|355:200|314:269|341:286|341:286|397:268|443:223|448:110|448:110|501:140|530:205|491:295,1,726.000022155762,4|2,1:0|0:1,0:0:0:0:
