osu file format v14

[General]
AudioFilename: audio.mp3
AudioLeadIn: 0
PreviewTime: 72963
Countdown: 0
SampleSet: Soft
StackLeniency: 0.2
Mode: 0
LetterboxInBreaks: 0
WidescreenStoryboard: 0

[Editor]
DistanceSpacing: 0.5
BeatDivisor: 4
GridSize: 8
TimelineZoom: 3.099999

[Metadata]
Title:Zettai Reido
TitleUnicode:絶対零度
Artist:Kaneko Chiharu
ArtistUnicode:かねこちはる
Creator:Karen
Version:Ex
Source:MÚSECA 1+1/2
Tags:SOUND VOLTEX III GRAVITY WARS BEMANI KONAMI sdvx MUSECA toybot Asahina Momoko mokori m_o_k_o_r_i Leader
BeatmapID:1359720
BeatmapSetID:641201

[Difficulty]
HPDrainRate:7
CircleSize:4
OverallDifficulty:8
ApproachRate:9.5
SliderMultiplier:1.8
SliderTickRate:1

[Events]
//Background and Video events
0,0,"kv_bg.jpg",0,0
//Break Periods
//Storyboard Layer 0 (Background)
//Storyboard Layer 1 (Fail)
//Storyboard Layer 2 (Pass)
//Storyboard Layer 3 (Foreground)
//Storyboard Sound Samples

[TimingPoints]
763,287.081339712919,4,2,1,70,1,0
1624,-50,4,1,2,70,0,0
1911,-200,4,1,2,70,0,0
1983,-200,4,1,2,40,0,0
5786,-200,4,2,1,40,0,0
11097,-100,4,2,2,50,0,0
19136,-100,4,2,2,40,0,0
19279,-100,4,2,2,45,0,0
19423,-100,4,2,2,50,0,0
19566,-100,4,2,2,55,0,0
19710,-100,4,2,2,60,0,0
20284,-125,4,2,3,60,0,0
28896,-83.3333333333333,4,2,3,70,0,0
29327,-41.6666666666667,4,2,3,70,0,0
29471,-125,4,2,2,60,0,0
30045,-71.4285714285714,4,2,1,60,0,0
30332,-125,4,2,1,60,0,0
30619,-71.4285714285714,4,2,1,60,0,0
31480,-125,4,2,1,60,0,0
31767,-83.3333333333333,4,2,1,60,0,0
32629,-50,4,2,1,60,0,0
32916,-62.5,4,2,1,60,0,0
33203,-83.3333333333333,4,2,1,60,0,0
33490,-71.4285714285714,4,2,1,60,0,0
33705,-83.3333333333333,4,2,1,60,0,0
33920,-125,4,2,1,60,0,0
34064,-83.3333333333333,4,2,1,50,0,0
35786,-83.3333333333333,4,2,1,70,0,0
36074,-83.3333333333333,4,2,1,50,0,0
36935,-83.3333333333333,4,2,2,20,0,0
37078,-83.3333333333333,4,2,2,35,0,0
37222,-83.3333333333333,4,2,2,50,0,0
37365,-83.3333333333333,4,2,2,75,0,0
37509,-66.6666666666667,4,2,2,75,0,0
37652,-66.6666666666667,4,1,1,75,0,0
37796,-100,4,2,1,40,0,0
38083,-100,4,2,1,50,0,0
38227,-100,4,2,1,60,0,0
38370,-100,4,2,1,70,0,0
38514,-100,4,2,1,80,0,0
38657,-125,4,2,1,40,0,0
47270,-125,4,2,1,60,0,0
47844,-100,4,2,3,60,0,0
52437,-83.3333333333333,4,2,3,60,0,0
53585,-62.5,4,2,3,60,0,0
54016,-71.4285714285714,4,2,3,60,0,0
54734,-83.3333333333333,4,2,3,60,0,0
55308,-62.5,4,2,3,70,0,0
56026,-62.5,4,2,3,50,0,0
59327,-200,4,2,1,50,0,0
60906,-200,4,2,3,50,0,0
63920,-200,4,2,1,40,0,0
64207,-200,4,2,1,50,0,0
64495,-200,4,2,1,60,0,0
64782,-200,4,2,1,70,0,0
65069,-83.3333333333333,4,2,1,70,0,0
69662,-83.3333333333333,4,2,3,70,0,0
72533,-83.3333333333333,4,2,1,50,0,0
72676,-83.3333333333333,4,2,1,60,0,0
72820,-83.3333333333333,4,2,1,70,0,0
72963,-83.3333333333333,4,2,1,80,0,0
73107,-71.4285714285714,4,2,1,70,0,0
73968,-1000,4,2,1,70,0,0
74255,-83.3333333333333,4,2,1,80,0,1
82294,-71.4285714285714,4,2,1,70,0,0
82509,-71.4285714285714,4,2,1,80,0,0
82724,-71.4285714285714,4,2,1,70,0,0
82940,-71.4285714285714,4,2,1,80,0,0
83155,-50,4,2,3,70,0,0
83442,-71.4285714285714,4,2,1,80,0,1
90332,-71.4285714285714,4,2,1,50,0,1
90619,-71.4285714285714,4,2,1,60,0,1
90906,-71.4285714285714,4,2,1,70,0,1
91193,-71.4285714285714,4,2,1,80,0,1
91480,-71.4285714285714,4,2,1,70,0,1
92629,-133.333333333333,4,2,1,70,0,1
92916,-100,4,2,1,70,0,0
93203,-100,4,2,3,70,0,0
99518,-83.3333333333333,4,2,3,70,0,0
102963,-83.3333333333333,4,2,1,50,0,0
103107,-83.3333333333333,4,2,1,60,0,0
103251,-83.3333333333333,4,2,1,70,0,0
103394,-83.3333333333333,4,2,1,80,0,0
103538,-83.3333333333333,4,2,1,90,0,0
104112,-83.3333333333333,4,2,3,70,0,0
104399,-83.3333333333333,4,2,3,60,0,0
104614,-55.5555555555556,4,2,3,80,0,0
104829,-62.5,4,2,3,60,0,0
104973,-333.333333333333,4,2,3,40,0,0
105260,-83.3333333333333,4,2,3,40,0,0
105547,-83.3333333333333,4,2,3,60,0,0
105763,-55.5555555555556,4,2,3,80,0,0
105978,-62.5,4,2,3,60,0,0
106121,-333.333333333333,4,2,3,40,0,0
106408,-83.3333333333333,4,2,3,40,0,0
106696,-83.3333333333333,4,2,3,60,0,0
106911,-55.5555555555556,4,2,3,80,0,0
107126,-62.5,4,2,3,60,0,0
107270,-333.333333333333,4,2,3,40,0,0
107557,-83.3333333333333,4,2,3,40,0,0
108059,-62.5,4,2,3,60,0,0
108418,-62.5,4,2,3,60,0,0
108705,-71.4285714285714,4,2,3,70,0,0
108992,-71.4285714285714,4,2,3,60,0,0
109207,-45.4545454545455,4,2,3,80,0,0
109423,-50,4,2,3,60,0,0
109566,-333.333333333333,4,2,3,40,0,0
109853,-71.4285714285714,4,2,3,40,0,0
110140,-71.4285714285714,4,2,3,60,0,0
110356,-45.4545454545455,4,2,3,80,0,0
110571,-50,4,2,3,60,0,0
110715,-333.333333333333,4,2,3,40,0,0
111002,-71.4285714285714,4,2,3,40,0,0
111289,-71.4285714285714,4,2,3,60,0,0
111504,-45.4545454545455,4,2,3,80,0,0
111719,-50,4,2,3,60,0,0
111863,-333.333333333333,4,2,3,40,0,0
112150,-71.4285714285714,4,2,3,60,0,0
113011,-71.4285714285714,4,2,3,60,0,0
113298,-71.4285714285714,4,2,3,70,0,0
113657,-71.4285714285714,4,2,3,60,0,0
115308,-100,4,2,3,70,0,0
115882,-100,4,2,1,40,0,0
116169,-100,4,2,1,50,0,0
116456,-100,4,2,1,60,0,0
116743,-100,4,2,1,70,0,0
117030,-100,4,2,1,60,0,0
117318,-100,4,2,1,50,0,0
117605,-100,4,2,1,40,0,0

[Colours]
Combo1 : 128,128,255
Combo2 : 205,193,253
Combo3 : 0,102,227
Combo4 : 255,0,128
Combo5 : 0,255,255

[HitObjects]
256,320,1624,6,0,L|256:224,3,90,2|2|2|2,2:1|2:1|2:1|2:1,0:0:0:0:
256,128,1911,5,4,1:0:0:0:
194,62,2054,1,0,0:0:0:0:
108,90,2198,1,0,0:0:0:0:
256,128,2341,5,0,0:0:0:0:
179,80,2484,1,0,0:0:0:0:
103,129,2628,1,0,0:0:0:0:
256,128,2772,5,0,0:0:0:0:
169,101,2915,1,0,0:0:0:0:
108,168,3059,1,0,0:0:0:0:
256,128,3203,5,0,0:0:0:0:
164,124,3346,1,0,0:0:0:0:
123,204,3490,1,0,0:0:0:0:
240,278,3633,5,0,0:0:0:0:
246,260,3777,1,0,0:0:0:0:
152,297,3920,2,0,L|157:353,1,45,0|0,0:0|0:0,0:0:0:0:
423,338,4207,6,0,L|425:282,1,45,0|0,0:0|0:0,0:0:0:0:
375,222,4495,1,0,0:0:0:0:
448,161,4638,6,0,L|400:131,1,45,0|0,0:0|0:0,0:0:0:0:
323,144,4926,1,0,0:0:0:0:
308,46,5069,6,0,L|258:72,1,45,0|0,0:0|0:0,0:0:0:0:
230,145,5357,1,0,0:0:0:0:
140,114,5499,6,0,L|137:170,1,45,0|0,0:0|0:0,0:0:0:0:
186,231,5787,1,0,0:0:0:0:
279,346,5930,5,0,0:0:0:0:
279,327,6074,1,0,0:0:0:0:
185,323,6217,2,0,L|124:312,1,45,2|2,0:0|0:0,0:0:0:0:
275,233,6504,5,0,0:0:0:0:
363,267,6648,1,0,0:0:0:0:
347,174,6791,1,2,0:1:0:0:
276,219,6935,5,0,0:0:0:0:
352,274,7079,1,0,0:0:0:0:
360,180,7222,1,2,0:1:0:0:
279,203,7365,5,0,0:0:0:0:
338,275,7509,1,0,0:0:0:0:
370,187,7652,1,2,0:1:0:0:
287,186,7796,5,0,0:0:0:0:
325,270,7940,1,0,0:0:0:0:
379,194,8083,1,2,0:1:0:0:
328,364,8227,5,0,0:0:0:0:
306,359,8370,1,0,0:0:0:0:
196,377,8514,2,0,L|192:316,1,45,2|2,0:1|0:1,0:0:0:0:
113,241,8801,6,0,L|174:230,1,45,0|0,0:0|0:0,0:0:0:0:
220,168,9088,1,2,0:1:0:0:
148,46,9232,6,0,L|159:107,1,45,0|0,0:0|0:0,0:0:0:0:
221,153,9519,1,2,0:1:0:0:
329,63,9662,6,0,L|268:74,1,45,0|0,0:0|0:0,0:0:0:0:
222,136,9949,1,2,0:1:0:0:
297,225,10093,6,0,L|286:164,1,45,0|0,0:0|0:0,0:0:0:0:
224,118,10380,1,2,0:1:0:0:
131,172,10524,5,0,0:0:0:0:
107,167,10667,1,0,0:0:0:0:
6,135,10811,2,0,L|15:189,1,45,2|0,0:1|0:0,0:0:0:0:
0,305,11097,6,0,P|53:279|134:312,1,135,0|0,1:0|0:0,0:0:0:0:
142,290,11385,2,0,P|189:276|244:298,1,90,2|0,1:2|0:0,0:0:0:0:
303,350,11672,1,0,1:0:0:0:
477,196,11815,2,0,P|430:182|375:204,1,90,2|0,0:0|1:0,0:0:0:0:
316,256,12102,1,0,0:0:0:0:
224,117,12246,5,2,1:2:0:0:
308,162,12389,1,0,0:0:0:0:
383,97,12533,1,0,1:0:0:0:
228,215,12676,5,2,0:0:0:0:
391,192,12820,1,0,1:0:0:0:
300,50,12963,1,0,0:0:0:0:
316,256,13107,5,2,1:2:0:0:
316,256,13251,1,2,0:0:0:0:
273,351,13394,6,0,L|367:344,1,90,0|0,1:0|0:0,0:0:0:0:
480,235,13681,2,0,P|486:185|475:135,1,90,2|0,1:2|0:0,0:0:0:0:
391,192,13968,1,0,1:0:0:0:
230,211,14112,6,0,P|270:241|319:256,1,90,2|0,0:0|1:0,0:0:0:0:
311,155,14399,1,0,0:0:0:0:
377,0,14542,6,0,P|330:19|292:54,1,90,2|0,1:2|0:0,0:0:0:0:
384,98,14829,1,0,1:0:0:0:
391,192,14973,5,2,0:0:0:0:
311,155,15117,1,0,1:0:0:0:
384,98,15260,1,0,0:0:0:0:
316,246,15404,6,0,L|212:232,1,90,2|2,1:2|0:0,0:0:0:0:
39,154,15691,5,4,1:0:0:0:
135,131,15834,1,0,0:0:0:0:
67,161,15978,2,0,L|137:142,1,45,2|0,1:2|0:0,0:0:0:0:
221,131,16121,5,0,0:0:0:0:
317,154,16264,1,0,1:0:0:0:
249,124,16408,2,0,L|319:143,1,45,2|0,0:0|0:0,0:0:0:0:
405,154,16552,5,0,1:0:0:0:
501,131,16695,1,0,0:0:0:0:
433,161,16839,2,0,L|503:142,1,45,2|0,1:2|0:0,0:0:0:0:
416,272,16983,5,0,0:0:0:0:
256,240,17126,1,0,1:0:0:0:
96,272,17270,1,2,0:0:0:0:
324,307,17413,5,0,1:0:0:0:
188,307,17557,1,0,0:0:0:0:
256,384,17700,5,2,1:2:0:0:
256,384,17844,1,2,1:2:0:0:
256,240,17987,5,0,1:0:0:0:
256,224,18059,1,0,0:0:0:0:
256,208,18131,1,0,1:0:0:0:
256,192,18203,1,0,0:0:0:0:
256,176,18274,1,2,1:0:0:0:
256,160,18346,1,0,0:0:0:0:
256,144,18418,1,0,1:0:0:0:
256,128,18490,1,0,0:0:0:0:
217,112,18562,5,0,1:0:0:0:
199,72,18633,1,0,0:0:0:0:
214,31,18705,1,2,1:0:0:0:
254,13,18777,1,0,0:0:0:0:
295,29,18849,1,0,1:0:0:0:
312,70,18920,1,0,1:0:0:0:
295,110,18992,1,0,1:0:0:0:
255,127,19064,1,0,1:0:0:0:
217,112,19136,6,0,L|194:134,1,22.5,2|0,1:0|0:0,0:0:0:0:
199,72,19207,2,0,L|166:72,1,22.5,0|0,1:2|0:0,0:0:0:0:
214,31,19279,2,0,L|191:8,1,22.5,0|0,1:2|0:0,0:0:0:0:
254,13,19351,2,0,L|254:-19,1,22.5,0|0,1:2|0:0,0:0:0:0:
295,29,19423,2,0,L|317:6,1,22.5,0|0,1:2|0:0,0:0:0:0:
312,70,19495,2,0,L|344:70,1,22.5,0|0,1:2|0:0,0:0:0:0:
295,112,19566,2,0,L|317:134,1,22.5,2|0,1:0|0:0,0:0:0:0:
255,149,19638,2,0,L|255:117,1,22.5,0|0,1:2|0:0,0:0:0:0:
217,112,19710,6,2,L|194:134,1,22.5,2|2,0:0|0:0,0:0:0:0:
173,123,19782,2,2,L|164:153,1,22.5,2|2,0:0|0:0,0:0:0:0:
144,160,19853,2,2,L|152:190,1,22.5,2|2,0:0|0:0,0:0:0:0:
140,207,19925,2,2,L|162:229,1,22.5,2|2,0:0|0:0,0:0:0:0:
177,240,19997,2,2,L|207:248,1,22.5,2|2,0:1|0:0,0:0:0:0:
225,236,20069,2,2,L|255:227,1,22.5,2|2,0:0|0:0,0:0:0:0:
273,230,20140,2,2,L|303:238,1,22.5,2|2,0:1|0:0,0:0:0:0:
317,251,20212,2,2,L|339:273,1,22.5,2|2,0:0|0:0,0:0:0:0:
340,287,20284,5,4,3:1:0:0:
260,377,20428,2,0,L|186:371,1,72,2|2,0:0|1:2,0:0:0:0:
14,294,20715,2,0,P|90:293|176:283,1,144,2|0,0:0|3:0,0:0:0:0:
265,133,21145,1,2,1:2:0:0:
263,150,21217,1,0,0:0:0:0:
261,167,21289,1,0,0:0:0:0:
259,185,21361,1,0,0:0:0:0:
257,202,21432,5,0,3:0:0:0:
199,64,21576,1,2,0:0:0:0:
355,184,21719,1,2,1:2:0:0:
444,37,21863,2,0,P|368:38|282:48,1,144,2|0,0:0|3:2,0:0:0:0:
123,119,22294,1,2,1:2:0:0:
106,95,22365,1,0,0:0:0:0:
100,66,22437,1,0,0:0:0:0:
105,37,22509,1,0,0:0:0:0:
123,14,22581,6,0,L|43:22,1,72,2|0,3:2|0:0,0:0:0:0:
117,220,22868,1,0,1:0:0:0:
199,64,23011,1,0,0:0:0:0:
36,156,23155,6,0,L|12:152,1,18,2|0,0:1|0:0,0:0:0:0:
202,177,23298,2,0,L|219:179,1,18,2|0,3:1|0:0,0:0:0:0:
51,286,23442,2,0,L|32:270,1,18,2|0,1:0|0:0,0:0:0:0:
163,295,23585,2,0,L|178:288,1,18,2|0,0:1|0:0,0:0:0:0:
111,104,23729,5,2,3:2:0:0:
113,121,23801,1,2,0:0:0:0:
114,139,23873,1,2,0:0:0:0:
116,156,23944,1,2,0:0:0:0:
117,173,24016,1,2,1:2:0:0:
119,190,24088,1,2,0:0:0:0:
120,207,24160,1,2,3:2:0:0:
199,64,24303,1,0,0:0:0:0:
303,204,24447,2,0,P|304:155|309:110,1,72,2|0,3:2|1:0,0:0:0:0:
217,254,24734,1,0,0:0:0:0:
217,254,24806,1,0,0:0:0:0:
217,254,24877,6,0,P|219:289|220:325,1,72,4|0,3:1|0:0,0:0:0:0:
298,365,25093,1,0,0:0:0:0:
318,376,25164,2,0,P|370:379|421:342,1,108,2|0,1:2|0:0,0:0:0:0:
433,267,25451,2,0,L|510:268,1,72,2|0,3:2|0:0,0:0:0:0:
512,179,25667,1,2,0:0:0:0:
502,166,25739,1,0,1:0:0:0:
377,134,25882,1,2,0:0:0:0:
343,283,26026,6,0,P|341:239|331:204,1,72,2|0,3:2|0:0,0:0:0:0:
456,75,26313,1,2,1:2:0:0:
276,136,26456,1,2,0:0:0:0:
276,136,26528,2,0,P|219:140|138:126,1,108,2|0,0:0|3:0,0:0:0:0:
0,253,26887,5,2,1:0:0:0:
83,277,26983,5,2,0:1:0:0:
157,234,27078,5,2,0:1:0:0:
240,258,27174,6,0,L|236:344,1,72,4|0,3:1|0:0,0:0:0:0:
480,321,27461,2,0,L|476:249,1,72,2|0,1:2|0:0,0:0:0:0:
339,64,27748,1,2,3:2:0:0:
314,78,27820,1,0,0:0:0:0:
285,80,27892,1,2,0:0:0:0:
260,66,27963,1,0,0:0:0:0:
234,53,28035,1,2,1:2:0:0:
205,53,28107,1,0,0:0:0:0:
177,61,28179,1,2,0:0:0:0:
157,82,28251,1,2,0:0:0:0:
151,110,28322,6,0,L|140:83,1,18,0|0,3:0|0:0,0:0:0:0:
157,126,28394,2,0,L|136:104,1,18,0|0,1:0|0:0,0:0:0:0:
157,126,28466,2,0,L|146:99,1,18,0|0,1:0|0:0,0:0:0:0:
163,142,28538,2,0,L|144:128,1,18,0|0,1:0|0:0,0:0:0:0:
171,156,28609,6,0,P|226:141|299:158,1,108,4|0,1:0|3:0,0:0:0:0:
393,65,28896,6,0,B|369:43|343:41|343:41|341:69|357:97,1,107.999996704102,4|0,1:0|0:0,0:0:0:0:
496,211,29112,2,0,B|527:201|541:179|541:179|526:157|486:163,1,107.999996704102,4|0,1:0|0:0,0:0:0:0:
318,227,29327,6,0,B|311:258|323:281|323:281|349:279|364:242,1,107.999996704102,4|0,1:0|0:0,0:0:0:0:
405,170,29471,5,0,3:0:0:0:
499,361,29614,1,2,0:0:0:0:
499,361,29686,2,0,P|438:348|382:357,1,108,2|0,0:0|0:0,0:0:0:0:
193,367,30045,6,0,B|156:315|168:271|214:241|214:241|226:266|247:290,1,188.999994232178,8|0,0:0|0:0,0:0:0:0:
208,375,30332,2,0,L|115:368,1,72,0|0,0:0|0:0,0:0:0:0:
72,135,30619,6,0,P|72:65|26:12,1,125.999996154785,0|0,1:0|0:0,0:0:0:0:
196,186,30834,2,0,P|245:136|250:66,1,125.999996154785,0|0,3:0|0:0,0:0:0:0:
163,0,31050,1,0,3:0:0:0:
159,18,31121,1,0,0:0:0:0:
155,36,31193,2,0,L|160:107,1,62.9999980773926,8|0,0:0|0:0,0:0:0:0:
47,249,31337,2,0,L|45:214,4,20.9999993591309,2|0|0|0|0,0:0|0:0|0:0|0:0|0:0,0:0:0:0:
93,331,31480,6,0,P|146:320|205:336,1,108,0|0,0:0|0:0,0:0:0:0:
314,354,31767,6,0,L|201:349,1,107.999996704102,0|0,1:0|0:0,0:0:0:0:
144,244,31983,1,0,3:0:0:0:
130,225,32054,2,0,P|125:196|136:164,1,53.9999983520508,0|0,0:0|3:0,0:0:0:0:
227,108,32198,1,0,1:0:0:0:
227,108,32270,1,0,0:0:0:0:
227,108,32341,6,0,P|231:133|230:168,3,53.9999983520508,8|0|0|0,0:0|3:0|3:0|3:0,0:0:0:0:
321,180,32629,2,0,P|327:135|321:91,3,90,2|2|2|2,0:1|0:1|0:1|0:1,0:0:0:0:
178,6,32916,6,0,B|241:10|323:-6|323:-6|265:4|242:32,1,216,0|0,1:0|0:0,0:0:0:0:
141,146,33203,6,0,P|126:193|179:293,1,161.999995056153,2|0,0:1|0:0,0:0:0:0:
303,256,33490,6,0,L|288:400,1,125.999996154785,10|0,0:0|0:0,0:0:0:0:
275,180,33705,6,0,L|296:312,1,107.999996704102,2|0,0:0|0:0,0:0:0:0:
379,340,33920,6,0,L|437:324,1,36,2|0,0:0|0:0,0:0:0:0:
503,179,34064,6,0,P|445:156|372:218,1,161.999995056153,0|0,1:0|0:0,0:0:0:0:
388,236,34351,2,0,L|270:229,1,107.999996704102,0|0,1:0|0:0,0:0:0:0:
102,84,34638,6,0,P|160:61|233:123,1,161.999995056153,0|0,1:0|0:0,0:0:0:0:
217,141,34925,2,0,L|335:134,1,107.999996704102,0|0,1:0|0:0,0:0:0:0:
362,346,35212,5,0,1:0:0:0:
173,217,35356,1,0,0:0:0:0:
262,339,35499,1,0,1:0:0:0:
271,313,35571,1,0,0:0:0:0:
260,288,35643,1,0,0:0:0:0:
269,262,35715,1,0,0:0:0:0:
255,239,35786,5,2,3:1:0:0:
171,316,35930,1,2,3:1:0:0:
264,213,36074,1,0,1:0:0:0:
365,258,36217,1,0,1:0:0:0:
274,185,36361,6,0,L|271:241,1,53.9999983520508,0|0,1:0|0:0,0:0:0:0:
293,109,36504,2,0,L|290:165,1,53.9999983520508,0|0,1:0|0:0,0:0:0:0:
176,147,36648,6,0,L|179:203,1,53.9999983520508,0|0,1:0|0:0,0:0:0:0:
157,71,36791,2,0,L|160:127,1,53.9999983520508,0|0,1:0|0:0,0:0:0:0:
111,265,36935,5,2,1:0:0:0:
85,255,37007,1,2,1:0:0:0:
58,252,37078,1,2,1:0:0:0:
32,260,37150,1,2,1:0:0:0:
4,300,37222,5,2,1:0:0:0:
9,348,37294,1,2,1:0:0:0:
43,381,37365,1,2,1:0:0:0:
91,372,37437,1,2,1:0:0:0:
131,335,37509,6,0,P|139:266|124:182,1,135.000005149842,2|0,3:2|1:0,0:0:0:0:
201,1,37724,1,0,1:0:0:0:
229,13,37796,6,0,L|285:18,1,45,0|0,1:0|1:0,0:0:0:0:
344,87,37940,2,0,L|339:143,1,45,0|0,1:0|1:0,0:0:0:0:
261,201,38083,2,0,L|205:196,1,45,0|0,1:0|1:0,0:0:0:0:
151,116,38227,2,0,L|155:71,1,45,0|0,1:0|1:0,0:0:0:0:
261,94,38370,5,0,1:0:0:0:
256,120,38441,1,0,1:0:0:0:
231,118,38513,1,0,1:0:0:0:
234,90,38585,1,0,1:0:0:0:
245,106,38657,6,0,P|302:92|386:129,1,144,4|2,1:0|1:2,0:0:0:0:
418,232,39088,2,0,L|408:317,1,72,2|0,0:2|0:0,0:0:0:0:
287,362,39375,1,2,0:0:0:0:
287,362,39447,1,2,0:0:0:0:
287,362,39518,2,0,L|278:290,1,72,2|2,0:0|0:0,0:0:0:0:
196,193,39806,6,0,P|169:171|118:158,1,72,2|0,0:0|0:0,0:0:0:0:
197,211,40021,2,0,P|220:168|251:146,1,72,2|0,0:0|0:0,0:0:0:0:
192,303,40236,1,2,0:0:0:0:
59,218,40380,2,0,L|54:68,1,144,0|0,0:0|0:0,0:0:0:0:
268,58,40810,1,2,0:0:0:0:
268,58,40882,1,2,0:0:0:0:
268,58,40954,6,0,P|310:80|338:147,1,108,2|0,0:0|0:0,0:0:0:0:
405,79,41241,2,0,P|357:98|329:165,1,108,2|0,0:0|0:0,0:0:0:0:
261,135,41528,2,0,P|301:148|334:167,1,72,2|0,0:0|0:0,0:0:0:0:
404,158,41743,2,0,P|363:167|327:184,1,72,2|0,0:0|0:0,0:0:0:0:
324,261,41959,1,2,0:0:0:0:
263,384,42102,6,0,P|303:371|336:352,1,72,2|0,0:0|0:0,0:0:0:0:
406,361,42317,2,0,P|365:352|329:335,1,72,2|0,0:0|0:0,0:0:0:0:
324,261,42533,1,2,0:0:0:0:
191,325,42676,2,0,P|115:325|44:315,1,144,2|2,0:0|0:0,0:0:0:0:
126,73,43251,6,0,P|113:131|125:229,1,144,2|2,0:1|0:0,0:0:0:0:
215,155,43681,2,0,P|250:147|308:142,1,72,2|0,0:0|0:0,0:0:0:0:
350,59,43968,1,2,0:0:0:0:
350,59,44040,1,2,0:0:0:0:
350,59,44112,2,0,P|314:54|279:46,1,72,2|2,0:0|0:0,0:0:0:0:
259,237,44399,6,0,L|273:327,1,72,2|0,0:0|0:0,0:0:0:0:
362,198,44614,2,0,L|348:288,1,72,2|0,0:0|0:0,0:0:0:0:
436,287,44829,1,2,0:0:0:0:
330,373,44973,2,0,P|286:355|190:367,1,144,0|0,0:0|0:0,0:0:0:0:
81,290,45404,1,2,0:0:0:0:
81,290,45475,1,2,0:0:0:0:
81,290,45547,6,0,P|96:228|87:167,1,108,2|0,0:0|0:0,0:0:0:0:
67,95,45834,2,0,P|63:148|78:200,1,108,2|0,0:0|0:0,0:0:0:0:
175,226,46121,2,0,L|261:217,1,72,2|0,0:0|0:0,0:0:0:0:
224,134,46337,2,0,L|295:141,1,72,2|0,0:0|0:0,0:0:0:0:
372,99,46552,1,2,0:0:0:0:
298,297,46696,5,0,0:0:0:0:
242,206,46983,1,0,0:0:0:0:
305,311,47126,1,0,0:0:0:0:
392,258,47270,5,2,0:0:0:0:
409,253,47341,1,2,0:0:0:0:
426,254,47413,1,2,0:0:0:0:
442,261,47485,1,2,0:0:0:0:
459,279,47557,5,2,0:1:0:0:
450,247,47629,1,2,0:1:0:0:
424,217,47700,1,2,0:1:0:0:
377,207,47772,1,2,0:1:0:0:
322,229,47844,6,0,P|250:251|171:230,1,135,4|0,3:1|0:0,0:0:0:0:
174,222,48131,1,0,1:0:0:0:
264,44,48274,2,0,L|254:159,1,90,0|0,0:0|3:0,0:0:0:0:
94,279,48562,1,0,0:0:0:0:
85,262,48633,1,0,0:0:0:0:
79,244,48705,2,0,P|74:191|91:155,1,90,0|0,1:0|0:0,0:0:0:0:
253,324,48992,6,0,L|379:308,1,90,0|0,3:0|0:0,0:0:0:0:
416,264,49207,1,0,0:0:0:0:
416,264,49279,1,0,1:0:0:0:
257,182,49423,1,0,0:0:0:0:
365,84,49566,2,0,P|357:128|358:189,1,90,0|0,3:0|0:0,0:0:0:0:
262,369,49853,2,0,P|261:324|253:279,1,90,0|0,1:0|0:0,0:0:0:0:
166,230,50069,1,0,0:0:0:0:
150,251,50140,6,0,P|109:268|14:258,1,135,0|0,3:0|0:0,0:0:0:0:
13,117,50428,2,0,P|79:106|142:126,1,135,0|0,1:0|0:0,0:0:0:0:
246,197,50715,5,0,3:0:0:0:
196,42,50930,1,0,0:0:0:0:
187,21,51002,1,0,1:0:0:0:
90,46,51145,1,0,0:0:0:0:
246,197,51289,5,0,3:0:0:0:
298,44,51504,1,0,0:0:0:0:
307,23,51576,1,0,1:0:0:0:
404,48,51719,1,0,0:0:0:0:
246,197,51863,5,0,3:0:0:0:
181,133,51959,2,0,L|172:55,1,60
265,204,52150,5,0,1:0:0:0:
354,189,52246,2,0,L|360:129,1,60
512,239,52437,6,0,P|507:305|421:358,1,161.999995056153,4|0,1:0|0:0,0:0:0:0:
417,339,52724,1,0,3:0:0:0:
315,275,52868,2,0,L|323:399,1,107.999996704102,4|0,1:0|0:0,0:0:0:0:
141,384,53155,1,2,0:0:0:0:
129,365,53227,1,2,0:0:0:0:
128,343,53298,1,2,0:0:0:0:
123,150,53442,2,0,L|131:205,1,53.9999983520508,0|0,3:0|0:0,0:0:0:0:
68,274,53585,6,0,P|133:251|206:297,1,144,4|0,1:0|0:0,0:0:0:0:
329,297,53801,2,0,P|264:274|191:320,1,144,4|0,1:0|0:0,0:0:0:0:
220,77,54016,6,0,L|203:331,1,251.999992309571,4|0,3:1|0:0,0:0:0:0:
130,153,54447,1,0,0:0:0:0:
309,208,54590,1,2,1:2:0:0:
309,208,54662,1,2,0:0:0:0:
309,208,54734,6,0,P|381:184|474:195,1,161.999995056153,4|0,3:1|0:0,0:0:0:0:
376,92,55021,2,0,P|296:100|219:76,1,161.999995056153,4|0,1:0|0:0,0:0:0:0:
130,153,55308,6,0,B|82:138|48:163|48:163|39:200|73:243,1,144,4|0,3:1|0:0,0:0:0:0:
157,339,55523,2,0,B|205:354|239:329|239:329|248:292|214:249,1,144,4|0,1:0|0:0,0:0:0:0:
145,245,55739,1,0,1:0:0:0:
358,183,55882,5,4,3:1:0:0:
256,192,55954,12,0,59184,0:0:0:0:
101,312,59327,5,2,0:0:0:0:
101,312,59471,1,0,0:0:0:0:
101,312,59614,1,0,0:0:0:0:
191,314,59758,5,2,0:0:0:0:
101,312,59902,1,0,0:0:0:0:
12,309,60045,1,0,0:0:0:0:
47,180,60188,2,0,L|57:238,1,45,2|2,0:0|0:0,0:0:0:0:
210,229,60475,5,0,1:0:0:0:
221,228,60547,1,0,1:0:0:0:
232,227,60619,1,0,1:0:0:0:
243,226,60691,1,0,1:0:0:0:
254,224,60763,1,0,1:0:0:0:
191,314,60906,5,4,1:0:0:0:
256,192,60978,12,0,63777,0:0:0:0:
208,160,63920,5,2,0:0:0:0:
216,167,63992,1,0,0:0:0:0:
222,176,64064,1,2,0:0:0:0:
226,186,64136,1,0,0:0:0:0:
227,197,64207,1,2,0:0:0:0:
227,208,64279,1,0,0:0:0:0:
226,219,64351,1,2,0:0:0:0:
219,228,64423,1,0,0:0:0:0:
207,238,64495,5,2,0:1:0:0:
190,244,64566,1,0,0:0:0:0:
169,242,64638,1,2,0:1:0:0:
149,230,64710,1,0,0:0:0:0:
124,223,64782,1,2,0:1:0:0:
97,226,64853,1,0,0:0:0:0:
72,241,64925,1,2,0:1:0:0:
55,268,64997,1,0,0:0:0:0:
59,301,65069,5,4,1:0:0:0:
173,374,65212,1,0,0:0:0:0:
281,316,65356,5,2,1:0:0:0:
503,301,65499,1,0,0:0:0:0:
389,374,65642,1,0,1:0:0:0:
281,316,65786,6,0,P|275:254|295:209,1,107.999996704102,2|0,0:1|1:0,0:0:0:0:
387,172,66074,1,0,0:0:0:0:
212,151,66217,6,0,P|262:114|311:109,1,107.999996704102,2|0,1:0|0:0,0:0:0:0:
370,276,66504,1,0,1:0:0:0:
316,15,66648,6,0,P|372:40|401:80,1,107.999996704102,2|0,0:1|1:0,0:0:0:0:
292,212,66935,1,0,0:0:0:0:
481,138,67078,6,0,L|498:9,1,107.999996704102,2|2,1:0|0:1,0:0:0:0:
179,80,67365,6,0,L|193:187,1,107.999996704102,0|0,1:0|0:0,0:0:0:0:
86,337,67652,5,2,1:0:0:0:
244,301,67796,1,0,0:0:0:0:
402,264,67940,1,0,1:0:0:0:
89,253,68083,5,2,0:1:0:0:
244,301,68227,1,0,1:0:0:0:
400,348,68371,1,0,0:0:0:0:
180,235,68514,6,0,L|171:118,1,107.999996704102,2|0,1:0|0:0,0:0:0:0:
265,73,68801,1,0,1:0:0:0:
81,155,68944,5,2,0:1:0:0:
185,8,69088,1,0,1:0:0:0:
271,203,69231,1,0,0:0:0:0:
97,64,69375,6,0,L|-34:53,1,107.999996704102,2|2,1:0|0:1,0:0:0:0:
194,253,69662,5,0,3:0:0:0:
353,243,69806,1,0,3:0:0:0:
279,347,69949,2,0,L|278:293,1,53.9999983520508,2|0,3:1|0:0,0:0:0:0:
265,111,70093,5,0,3:0:0:0:
194,253,70237,1,0,3:0:0:0:
141,137,70380,2,0,L|188:163,1,53.9999983520508,2|0,3:1|0:0,0:0:0:0:
353,243,70523,5,0,3:0:0:0:
265,110,70667,1,0,3:0:0:0:
392,122,70810,2,0,L|345:149,1,53.9999983520508,2|0,3:1|0:0,0:0:0:0:
278,263,70954,5,0,3:0:0:0:
215,174,71097,1,0,3:0:0:0:
322,167,71241,1,2,3:1:0:0:
191,300,71385,1,0,3:0:0:0:
340,338,71528,1,0,3:0:0:0:
169,299,71672,5,2,3:1:0:0:
369,248,71815,1,2,3:1:0:0:
145,296,71959,5,0,3:0:0:0:
123,294,72030,1,0,3:0:0:0:
101,291,72102,1,0,3:0:0:0:
79,289,72174,1,0,3:0:0:0:
49,257,72246,5,2,3:1:0:0:
37,215,72318,1,0,3:0:0:0:
62,181,72389,1,0,3:0:0:0:
104,171,72461,1,0,0:0:0:0:
144,187,72533,6,0,L|140:152,1,26.9999991760254,2|0,0:1|0:0,0:0:0:0:
160,197,72605,2,0,L|156:162,1,26.9999991760254,0|0,0:0|0:0,0:0:0:0:
175,206,72676,2,0,L|171:171,1,26.9999991760254,2|0,0:1|0:0,0:0:0:0:
191,216,72748,2,0,L|187:181,1,26.9999991760254,0|0,0:0|0:0,0:0:0:0:
235,211,72820,6,0,L|231:237,1,26.9999991760254,2|0,0:1|0:0,0:0:0:0:
251,201,72892,2,0,L|247:227,1,26.9999991760254,0|0,0:0|0:0,0:0:0:0:
266,192,72963,2,0,L|262:218,1,26.9999991760254,2|0,0:1|0:0,0:0:0:0:
282,182,73035,2,0,L|278:208,1,26.9999991760254,0|0,0:0|0:0,0:0:0:0:
280,155,73107,6,0,P|268:92|309:21,1,125.999996154785,0|0,0:0|0:0,0:0:0:0:
217,253,73322,2,0,P|175:204|175:122,1,125.999996154785,0|0,0:0|0:0,0:0:0:0:
386,171,73538,1,0,0:0:0:0:
388,195,73609,1,0,0:0:0:0:
390,220,73681,6,0,L|385:295,1,62.9999980773926,0|0,0:0|0:0,0:0:0:0:
280,155,73825,2,0,L|284:92,1,62.9999980773926,0|0,0:0|0:0,0:0:0:0:
426,63,73968,6,0,L|429:77,1,13.5,0|0,0:0|0:0,0:0:0:0:
512,23,74255,6,0,L|347:13,1,161.999995056153,4|0,1:0|0:0,0:0:0:0:
333,24,74542,1,8,0:0:0:0:
190,127,74686,1,2,0:0:0:0:
51,22,74829,2,0,P|109:21|155:48,1,107.999996704102,2|0,1:2|0:0,0:0:0:0:
296,126,75045,2,0,P|238:125|192:152,1,107.999996704102,2|0,0:0|0:0,0:0:0:0:
189,238,75260,1,2,0:0:0:0:
287,380,75404,6,0,L|410:368,1,107.999996704102,2|0,1:2|0:0,0:0:0:0:
472,285,75619,1,0,0:0:0:0:
477,258,75691,1,8,0:0:0:0:
471,231,75763,1,0,0:0:0:0:
457,208,75834,2,0,L|402:193,1,53.9999983520508,2|0,0:0|0:0,0:0:0:0:
332,268,75978,5,2,1:2:0:0:
248,89,76193,1,2,0:0:0:0:
257,66,76265,1,8,0:0:0:0:
382,8,76408,1,2,0:0:0:0:
511,97,76552,6,0,P|433:95|345:112,1,161.999995056153,2|0,1:2|0:0,0:0:0:0:
332,131,76839,1,10,0:0:0:0:
170,29,76983,1,0,0:0:0:0:
237,215,77126,2,0,P|246:151|234:104,1,107.999996704102,2|0,1:2|0:0,0:0:0:0:
155,164,77341,2,0,P|104:124|57:111,1,107.999996704102,2|0,0:0|0:0,0:0:0:0:
68,214,77557,1,2,0:0:0:0:
144,359,77700,5,2,1:2:0:0:
86,229,77844,1,0,0:0:0:0:
152,68,77987,1,8,0:0:0:0:
104,242,78131,1,2,0:0:0:0:
311,165,78274,5,2,1:2:0:0:
48,324,78490,1,2,0:0:0:0:
28,319,78562,1,8,0:0:0:0:
66,152,78705,1,2,0:0:0:0:
199,276,78849,6,0,L|315:260,1,107.999996704102,4|0,1:0|0:0,0:0:0:0:
418,209,79064,1,0,0:0:0:0:
406,184,79136,1,8,0:0:0:0:
406,157,79207,1,0,0:0:0:0:
417,132,79279,2,0,L|471:142,1,53.9999983520508,2|0,0:0|0:0,0:0:0:0:
495,272,79423,5,2,1:2:0:0:
256,180,79638,1,2,0:0:0:0:
249,152,79710,1,8,0:0:0:0:
314,348,79853,1,2,0:0:0:0:
357,154,79997,6,0,B|369:92|369:92|343:44,1,107.999996704102,4|0,1:0|0:0,0:0:0:0:
249,152,80212,1,0,0:0:0:0:
256,189,80284,1,8,0:0:0:0:
263,226,80356,1,0,0:0:0:0:
268,263,80428,2,0,L|325:253,1,53.9999983520508,2|0,0:0|0:0,0:0:0:0:
403,377,80571,5,2,1:2:0:0:
468,108,80787,1,2,0:0:0:0:
443,101,80858,1,8,0:0:0:0:
408,279,81002,1,2,0:0:0:0:
339,74,81145,6,0,L|347:151,1,53.9999983520508,2|0,1:2|0:0,0:0:0:0:
408,190,81289,1,0,1:0:0:0:
226,313,81432,6,0,L|234:236,1,53.9999983520508,8|0,0:0|0:0,0:0:0:0:
295,197,81576,1,2,1:2:0:0:
164,83,81719,1,2,1:2:0:0:
317,284,81863,1,2,1:2:0:0:
345,45,82007,1,10,0:0:0:0:
216,257,82150,1,2,1:2:0:0:
73,183,82294,6,0,L|209:165,1,125.999996154785,0|0,1:0|0:0,0:0:0:0:
84,161,82509,2,0,L|15:151,1,62.9999980773926,4|0,3:1|0:0,0:0:0:0:
435,181,82724,6,0,L|299:163,1,125.999996154785,0|0,1:0|0:0,0:0:0:0:
424,159,82939,2,0,L|493:149,1,62.9999980773926,4|0,3:1|0:0,0:0:0:0:
175,257,83155,6,0,P|192:299|192:348,1,90,4|0,1:0|0:0,0:0:0:0:
319,343,83298,2,0,P|320:298|337:257,1,90,4|0,1:0|0:0,0:0:0:0:
158,366,83442,6,0,L|354:369,1,188.999994232178,4|0,1:0|0:0,0:0:0:0:
372,382,83729,1,8,0:0:0:0:
481,180,83873,1,2,0:0:0:0:
484,204,83944,1,2,0:0:0:0:
487,228,84016,2,0,P|428:258|358:239,1,125.999996154785,2|0,1:2|0:0,0:0:0:0:
304,171,84231,2,0,P|307:104|358:53,1,125.999996154785,2|0,0:0|0:0,0:0:0:0:
460,99,84447,1,2,0:0:0:0:
275,264,84590,6,0,B|210:282|210:282|135:256,1,125.999996154785,2|0,1:2|0:0,0:0:0:0:
143,126,84806,1,0,0:0:0:0:
163,111,84877,1,8,0:0:0:0:
188,113,84949,1,0,0:0:0:0:
211,122,85021,2,0,L|210:184,1,62.9999980773926,2|0,0:0|0:0,0:0:0:0:
207,366,85164,5,2,1:2:0:0:
50,182,85380,1,2,0:0:0:0:
44,152,85451,1,8,0:0:0:0:
104,361,85595,1,2,0:0:0:0:
205,269,85739,6,0,B|72:261|72:261|26:305,1,188.999994232178,2|0,1:2|0:0,0:0:0:0:
207,366,86026,2,0,L|338:357,1,125.999996154785,10|0,0:0|0:0,0:0:0:0:
392,111,86313,6,0,B|355:95|355:95|363:192,1,125.999996154785,2|0,1:2|0:0,0:0:0:0:
352,268,86528,2,0,B|389:284|389:284|381:187,1,125.999996154785,2|0,0:0|0:0,0:0:0:0:
268,154,86743,1,2,0:0:0:0:
21,236,86887,5,2,1:2:0:0:
209,242,87030,1,0,0:0:0:0:
124,96,87174,2,0,P|126:155|117:221,1,125.999996154785,10|0,0:0|0:0,0:0:0:0:
229,372,87461,5,2,1:2:0:0:
291,110,87676,1,2,0:0:0:0:
285,85,87748,1,8,0:0:0:0:
209,242,87892,1,2,0:0:0:0:
360,206,88035,6,0,L|290:205,1,62.9999980773926,4|0,1:0|0:0,0:0:0:0:
201,145,88179,1,0,1:0:0:0:
46,187,88322,2,0,L|116:186,1,62.9999980773926,8|0,0:0|0:0,0:0:0:0:
205,126,88466,1,2,1:2:0:0:
208,105,88538,1,2,0:0:0:0:
211,86,88609,6,0,L|205:226,1,125.999996154785,2|0,1:2|1:0,0:0:0:0:
223,353,88825,2,0,L|218:228,1,125.999996154785,2|0,0:0|0:0,0:0:0:0:
230,244,89040,1,2,1:2:0:0:
46,150,89184,6,0,L|116:151,1,62.9999980773926,4|0,1:0|0:0,0:0:0:0:
205,211,89328,1,0,1:0:0:0:
360,169,89471,2,0,L|290:170,1,62.9999980773926,8|0,0:0|0:0,0:0:0:0:
201,230,89615,1,2,1:2:0:0:
198,251,89687,1,2,0:0:0:0:
195,270,89758,6,0,L|201:130,1,125.999996154785,2|0,1:2|1:0,0:0:0:0:
183,3,89974,2,0,L|188:128,1,125.999996154785,2|0,0:0|0:0,0:0:0:0:
176,112,90189,1,2,1:2:0:0:
91,334,90332,5,4,1:0:0:0:
109,333,90404,1,0,1:0:0:0:
127,330,90475,1,0,1:0:0:0:
145,329,90547,1,0,1:0:0:0:
182,323,90619,5,8,0:0:0:0:
219,318,90691,1,0,1:0:0:0:
256,316,90763,1,2,1:2:0:0:
293,312,90834,1,2,1:2:0:0:
343,305,90906,5,2,1:1:0:0:
379,270,90978,1,0,1:0:0:0:
387,220,91050,1,2,1:2:0:0:
359,178,91121,1,0,1:0:0:0:
312,159,91193,5,10,0:2:0:0:
281,199,91265,1,0,1:0:0:0:
235,220,91337,1,2,1:2:0:0:
188,203,91408,1,0,1:0:0:0:
155,164,91480,6,0,L|147:123,3,31.4999990386963,2|0|0|0,0:1|0:0|0:1|0:0,0:0:0:0:
233,136,91624,2,0,L|232:85,3,31.4999990386963,2|0|0|0,0:1|0:0|0:0|0:0,0:0:0:0:
312,159,91767,6,0,L|304:200,3,31.4999990386963,0|0|0|0,0:0|0:0|0:0|0:0,0:0:0:0:
388,198,91911,2,0,L|387:249,3,31.4999990386963,2|0|0|0,0:1|0:0|0:0|0:0,0:0:0:0:
464,161,92054,6,0,L|499:160,3,31.4999990386963,0|0|0|0,0:0|0:0|0:0|0:0,0:0:0:0:
451,77,92198,2,0,L|467:46,3,31.4999990386963,2|0|0|0,0:1|0:0|0:0|0:0,0:0:0:0:
380,45,92341,6,0,L|361:15,3,31.4999990386963,2|0|0|0,0:1|0:0|0:0|0:0,0:0:0:0:
307,75,92485,2,0,L|272:76,3,31.4999990386963,2|0|0|0,0:1|0:0|0:0|0:0,0:0:0:0:
224,138,92629,6,0,L|229:213,1,67.5000025749208,2|2,0:0|0:0,0:0:0:0:
292,356,92916,1,4,1:0:0:0:
384,331,93059,2,0,P|403:246|379:144,1,180,2|0,0:0|0:0,0:0:0:0:
208,296,93490,1,2,1:2:0:0:
185,292,93562,1,2,0:0:0:0:
162,288,93633,1,2,0:0:0:0:
139,283,93705,1,2,0:0:0:0:
116,278,93777,5,2,3:2:0:0:
186,191,93920,1,2,0:0:0:0:
165,380,94064,1,2,1:2:0:0:
91,181,94207,6,0,P|128:115|241:114,1,180,2|0,0:0|0:0,0:0:0:0:
365,187,94638,5,2,1:2:0:0:
374,212,94710,1,2,0:0:0:0:
372,239,94782,1,2,0:0:0:0:
364,264,94853,1,2,0:0:0:0:
348,286,94925,6,0,L|254:277,1,90,2|0,3:2|0:0,0:0:0:0:
186,191,95212,1,0,1:0:0:0:
246,371,95356,1,0,0:0:0:0:
276,149,95499,6,0,L|278:110,1,22.5,2|0,3:1|0:0,0:0:0:0:
165,290,95643,2,0,L|142:288,1,22.5,2|0,0:1|0:0,0:0:0:0:
357,230,95786,2,0,L|359:191,1,22.5,2|0,1:0|0:0,0:0:0:0:
246,371,95930,2,0,L|223:369,1,22.5,2|0,0:1|0:0,0:0:0:0:
347,322,96074,5,2,3:2:0:0:
370,332,96146,1,2,0:0:0:0:
393,342,96218,1,2,0:0:0:0:
415,351,96289,1,2,0:0:0:0:
432,347,96361,5,2,1:2:0:0:
449,343,96432,1,2,0:0:0:0:
466,337,96504,1,2,0:0:0:0:
483,332,96576,1,0,0:0:0:0:
500,328,96648,6,0,P|512:269|502:228,1,90,0|2,3:0|0:0,0:0:0:0:
348,82,96935,1,0,1:0:0:0:
310,208,97078,1,0,0:0:0:0:
310,208,97150,1,0,0:0:0:0:
310,208,97222,6,0,L|412:195,1,90,4|0,3:1|0:0,0:0:0:0:
413,307,97437,1,0,0:0:0:0:
400,320,97509,2,0,L|298:307,1,90,2|0,0:0|0:0,0:0:0:0:
204,191,97796,2,0,P|219:137|212:93,1,90,2|0,3:2|0:0,0:0:0:0:
117,12,98011,2,0,P|114:56|128:99,1,90,2|0,0:0|0:0,0:0:0:0:
86,188,98227,1,2,0:0:0:0:
270,270,98370,6,0,L|375:259,1,90,2|2,3:2|0:0,0:0:0:0:
398,125,98657,1,2,1:2:0:0:
476,335,98801,1,2,0:0:0:0:
463,355,98873,2,0,P|412:370|321:349,1,135,2|0,0:0|3:0,0:0:0:0:
181,259,99231,5,2,1:0:0:0:
145,177,99327,5,2,0:1:0:0:
193,102,99423,5,2,0:1:0:0:
153,21,99518,6,0,P|101:21|43:56,1,107.999996704102,4|0,1:0|3:0,0:0:0:0:
359,21,99806,2,0,P|411:21|469:56,1,107.999996704102,2|0,3:2|3:0,0:0:0:0:
116,109,100093,6,0,P|79:145|62:211,1,107.999996704102,2|0,3:2|3:0,0:0:0:0:
396,109,100380,2,0,P|432:145|449:211,1,107.999996704102,2|0,3:2|3:0,0:0:0:0:
151,196,100667,5,4,1:0:0:0:
361,196,100810,1,0,3:0:0:0:
151,196,100954,1,2,3:2:0:0:
361,196,101097,1,0,3:0:0:0:
169,283,101241,5,2,3:2:0:0:
343,283,101385,1,0,3:0:0:0:
169,283,101528,1,2,3:2:0:0:
343,283,101672,1,0,3:0:0:0:
256,352,101815,5,4,1:0:0:0:
256,328,101887,1,0,3:0:0:0:
256,304,101959,1,2,3:2:0:0:
256,280,102030,1,0,3:0:0:0:
256,256,102102,1,2,3:2:0:0:
256,232,102174,1,0,3:0:0:0:
256,208,102246,1,2,3:2:0:0:
256,184,102318,1,0,3:0:0:0:
232,144,102389,5,4,1:0:0:0:
232,168,102461,1,0,3:0:0:0:
232,192,102533,1,2,3:2:0:0:
232,216,102605,1,0,3:0:0:0:
232,240,102677,1,2,3:2:0:0:
232,264,102748,1,0,3:0:0:0:
232,288,102820,1,2,3:2:0:0:
232,312,102892,1,0,3:0:0:0:
192,336,102963,6,0,L|160:336,1,26.9999991760254,2|0,0:1|0:0,0:0:0:0:
153,316,103035,2,0,L|122:307,1,26.9999991760254,0|0,0:0|0:0,0:0:0:0:
119,288,103107,2,0,L|91:272,1,26.9999991760254,2|0,0:1|0:0,0:0:0:0:
103,253,103179,2,0,L|80:230,1,26.9999991760254,0|0,0:0|0:0,0:0:0:0:
94,214,103251,2,0,L|78:186,1,26.9999991760254,2|0,0:1|0:0,0:0:0:0:
97,177,103322,2,0,L|88:146,1,26.9999991760254,0|0,0:0|0:0,0:0:0:0:
109,140,103394,2,0,L|109:107,1,26.9999991760254,2|0,0:1|0:0,0:0:0:0:
131,109,103466,2,0,L|139:78,1,26.9999991760254,0|0,0:0|0:0,0:0:0:0:
158,74,103538,5,2,0:1:0:0:
158,74,104112,6,0,P|211:104|291:85,1,107.999996704102,4|0,3:1|0:0,0:0:0:0:
377,69,104327,1,0,0:0:0:0:
360,55,104399,2,0,P|306:55|261:83,1,107.999996704102,2|0,1:0|0:0,0:0:0:0:
205,190,104614,6,0,P|203:267|183:366,1,161.999995056153,2|0,0:1|0:0,0:0:0:0:
178,367,104829,2,0,P|142:354|89:348,1,72,2|0,0:1|0:0,0:0:0:0:
282,315,104973,6,0,L|325:313,1,40.4999987640381,2|0,1:0|0:0,0:0:0:0:
335,324,105260,6,0,P|379:345|455:331,1,107.999996704102,2|0,3:1|0:0,0:0:0:0:
487,235,105475,1,0,0:0:0:0:
473,217,105547,2,0,P|419:211|371:233,1,107.999996704102,2|0,1:0|0:0,0:0:0:0:
287,169,105763,6,0,P|291:91|311:-22,1,161.999995056153,2|0,0:1|0:0,0:0:0:0:
316,20,105978,2,0,P|348:33|386:38,1,72,2|0,0:1|0:0,0:0:0:0:
210,90,106121,6,0,P|187:91|160:98,1,40.4999987640381,2|0,1:0|0:0,0:0:0:0:
154,105,106408,6,0,P|166:48|157:-6,1,107.999996704102,2|0,3:1|0:0,0:0:0:0:
36,2,106624,1,0,0:0:0:0:
20,16,106696,2,0,P|12:69|24:121,1,107.999996704102,2|0,1:0|0:0,0:0:0:0:
180,211,106911,6,0,P|100:193|19:226,1,161.999995056153,2|0,0:1|0:0,0:0:0:0:
17,237,107126,2,0,P|26:269|35:315,1,72,2|0,0:1|0:0,0:0:0:0:
151,367,107270,6,0,P|153:348|158:320,1,40.4999987640381,2|0,1:0|0:0,0:0:0:0:
174,317,107557,6,0,P|206:317|240:312,1,53.9999983520508,0|0,3:0|0:0,0:0:0:0:
304,261,107700,2,0,P|326:238|347:210,1,53.9999983520508,0|0,3:0|0:0,0:0:0:0:
309,370,107844,2,0,P|339:361|371:348,1,53.9999983520508,2|0,1:2|0:0,0:0:0:0:
419,281,107987,2,0,P|435:253|447:221,1,53.9999983520508,2|0,3:2|0:0,0:0:0:0:
405,97,108131,5,0,3:0:0:0:
377,73,108203,1,0,3:0:0:0:
342,65,108274,1,0,3:0:0:0:
306,71,108346,1,0,3:0:0:0:
276,91,108418,2,0,L|286:129,6,36,2|0|2|0|2|0|2,0:1|0:0|0:1|0:0|0:1|0:0|0:1,0:0:0:0:
220,209,108705,6,0,P|160:211|89:153,1,125.999996154785,4|0,3:1|0:0,0:0:0:0:
185,113,108920,1,0,0:0:0:0:
181,131,108992,2,0,P|149:80|163:-10,1,125.999996154785,2|0,1:0|0:0,0:0:0:0:
93,165,109207,6,0,P|104:243|110:368,1,198.000006042481,2|0,0:1|0:0,0:0:0:0:
128,371,109423,2,0,P|83:360|27:356,1,90,2|0,0:1|0:0,0:0:0:0:
196,300,109566,6,0,P|220:298|238:293,1,40.4999987640381,2|0,1:0|0:0,0:0:0:0:
251,303,109853,6,0,P|319:313|392:317,1,125.999996154785,2|0,3:1|0:0,0:0:0:0:
283,210,110069,1,0,0:0:0:0:
297,222,110140,2,0,P|365:214|436:199,1,125.999996154785,2|0,1:0|0:0,0:0:0:0:
427,55,110356,6,0,P|378:18|397:109,1,198.000006042481,2|0,0:1|0:0,0:0:0:0:
383,118,110571,2,0,P|337:125|267:119,1,90,2|0,0:1|0:0,0:0:0:0:
203,24,110715,6,0,P|207:41|210:70,1,40.4999987640381,2|0,1:0|0:0,0:0:0:0:
201,82,111002,6,0,P|195:136|193:225,1,125.999996154785,2|0,3:1|0:0,0:0:0:0:
97,103,111217,1,0,0:0:0:0:
85,117,111289,2,0,P|93:170|114:257,1,125.999996154785,2|0,1:0|0:0,0:0:0:0:
217,303,111504,6,0,P|127:291|7:282,1,198.000006042481,2|0,0:1|0:0,0:0:0:0:
10,298,111719,2,0,P|-2:331|41:380,1,90,2|0,0:1|0:0,0:0:0:0:
142,374,111863,6,0,L|136:322,1,40.4999987640381,2|0,1:0|0:0,0:0:0:0:
129,320,112150,6,0,L|140:238,1,62.9999980773926,0|0,3:0|0:0,0:0:0:0:
299,345,112294,2,0,L|310:263,1,62.9999980773926,0|0,3:0|0:0,0:0:0:0:
119,306,112437,2,0,L|131:210,1,62.9999980773926,2|0,1:2|0:0,0:0:0:0:
315,334,112581,2,0,L|327:238,1,62.9999980773926,2|0,3:2|0:0,0:0:0:0:
270,114,112724,5,0,3:0:0:0:
244,112,112796,1,0,3:0:0:0:
218,110,112868,1,0,3:0:0:0:
192,109,112940,1,0,3:0:0:0:
167,106,113011,2,0,L|143:66,6,31.4999990386963,2|0|2|0|2|0|2,0:1|0:0|0:1|0:0|0:1|0:0|0:1,0:0:0:0:
110,255,113298,5,4,1:0:0:0:
121,232,113370,1,0,0:0:0:0:
125,207,113442,1,0,0:0:0:0:
118,182,113514,1,0,0:0:0:0:
10,87,113657,6,0,L|35:226,1,125.999996154785,0|0,1:0|3:0,0:0:0:0:
210,257,113873,5,0,3:0:0:0:
221,234,113945,1,0,3:0:0:0:
225,209,114017,1,0,3:0:0:0:
218,184,114089,1,0,3:0:0:0:
106,91,114231,6,0,L|131:230,1,125.999996154785,0|0,1:0|3:0,0:0:0:0:
305,261,114447,5,0,3:0:0:0:
316,238,114519,1,0,3:0:0:0:
320,213,114591,1,0,3:0:0:0:
313,188,114663,1,0,3:0:0:0:
200,92,114806,6,0,L|225:231,1,125.999996154785,0|0,1:0|3:0,0:0:0:0:
281,357,115021,5,0,3:0:0:0:
306,355,115093,1,0,3:0:0:0:
331,353,115165,1,0,3:0:0:0:
356,351,115237,1,0,3:0:0:0:
380,349,115308,6,0,L|383:279,1,45,4|0,1:0|0:0,0:0:0:0:
391,203,115451,1,0,0:0:0:0:
404,183,115523,2,0,B|421:144|415:102|388:69|388:69|381:93|358:122,1,180,4|0,1:0|0:0,0:0:0:0:
270,261,115882,5,2,0:1:0:0:
255,250,115954,1,0,0:0:0:0:
237,245,116026,1,0,0:0:0:0:
219,246,116097,1,0,0:0:0:0:
195,259,116169,5,2,0:1:0:0:
167,274,116241,1,0,0:0:0:0:
130,272,116313,1,0,0:0:0:0:
96,249,116385,1,0,0:0:0:0:
81,206,116456,1,2,0:1:0:0:
105,162,116528,1,0,0:0:0:0:
157,149,116600,1,0,0:0:0:0:
202,185,116672,1,0,0:0:0:0:
147,193,116743,5,2,0:1:0:0:
95,154,116815,1,2,0:1:0:0:
78,92,116887,1,2,0:1:0:0:
111,37,116959,1,0,0:0:0:0:
166,23,117030,1,2,0:1:0:0:
215,44,117102,1,2,0:1:0:0:
244,84,117174,1,2,0:1:0:0:
278,111,117246,1,0,0:1:0:0:
319,113,117318,1,2,0:1:0:0:
352,103,117389,1,2,0:1:0:0:
379,87,117461,1,2,0:1:0:0:
396,67,117533,1,0,0:1:0:0:
403,45,117605,1,2,0:1:0:0:
402,27,117676,1,2,0:1:0:0:
398,13,117748,1,2,0:1:0:0:
393,5,117820,1,2,0:1:0:0:
392,0,117892,6,0,L|432:39,1,45,2|0,0:1|0:0,0:0:0:0:
