osu file format v14

[General]
AudioFilename: audio.mp3
AudioLeadIn: 0
PreviewTime: 72963
Countdown: 0
SampleSet: Soft
StackLeniency: 0.5
Mode: 0
LetterboxInBreaks: 0
WidescreenStoryboard: 0

[Editor]
DistanceSpacing: 1
BeatDivisor: 4
GridSize: 8
TimelineZoom: 1.9

[Metadata]
Title:Zettai Reido
TitleUnicode:絶対零度
Artist:Kaneko Chiharu
ArtistUnicode:かねこちはる
Creator:Karen
Version:Easy
Source:MÚSECA 1+1/2
Tags:SOUND VOLTEX III GRAVITY WARS BEMANI KONAMI sdvx MUSECA toybot Asahina Momoko mokori m_o_k_o_r_i Leader
BeatmapID:1617476
BeatmapSetID:641201

[Difficulty]
HPDrainRate:3
CircleSize:3
OverallDifficulty:3
ApproachRate:4
SliderMultiplier:0.9
SliderTickRate:1

[Events]
//Background and Video events
0,0,"kv_bg.jpg",0,0
//Break Periods
2,56082,59466
2,61106,63749
//Storyboard Layer 0 (Background)
//Storyboard Layer 1 (Fail)
//Storyboard Layer 2 (Pass)
//Storyboard Layer 3 (Foreground)
//Storyboard Sound Samples

[TimingPoints]
763,287.081339712919,4,2,1,70,1,0
1050,-100,4,2,1,70,0,0
1121,-100,4,2,1,70,0,0
1193,-100,4,2,1,70,0,0
1265,-100,4,2,1,70,0,0
1337,-100,4,2,1,70,0,0
1408,-100,4,2,1,70,0,0
1480,-100,4,2,1,70,0,0
1552,-100,4,2,1,70,0,0
1624,-100,4,1,2,70,0,0
1911,-100,4,1,2,70,0,0
1983,-100,4,1,2,40,0,0
5786,-100,4,2,1,40,0,0
11097,-100,4,2,2,50,0,0
19136,-100,4,2,2,40,0,0
19279,-100,4,2,2,45,0,0
19423,-100,4,2,2,50,0,0
19566,-100,4,2,2,55,0,0
19710,-100,4,2,2,60,0,0
20284,-100,4,2,3,60,0,0
28896,-100,4,2,3,70,0,0
29471,-100,4,2,2,60,0,0
30045,-100,4,2,1,60,0,0
34064,-100,4,2,1,50,0,0
35786,-100,4,2,1,70,0,0
36074,-100,4,2,1,50,0,0
36935,-100,4,2,2,20,0,0
37078,-100,4,2,2,35,0,0
37222,-100,4,2,2,50,0,0
37365,-100,4,2,2,75,0,0
37509,-100,4,2,2,75,0,0
37652,-100,4,1,1,75,0,0
37796,-100,4,2,1,40,0,0
38083,-100,4,2,1,50,0,0
38227,-100,4,2,1,60,0,0
38370,-100,4,2,1,70,0,0
38514,-100,4,2,1,80,0,0
38657,-100,4,2,1,40,0,0
47270,-100,4,2,1,60,0,0
47844,-100,4,2,3,60,0,0
55308,-100,4,2,3,70,0,0
56026,-100,4,2,3,50,0,0
59327,-100,4,2,1,50,0,0
60906,-100,4,2,3,50,0,0
63920,-100,4,2,1,40,0,0
64207,-100,4,2,1,50,0,0
64495,-100,4,2,1,60,0,0
64782,-100,4,2,1,70,0,0
65069,-100,4,2,1,70,0,0
69662,-100,4,2,3,70,0,0
72533,-100,4,2,1,50,0,0
72676,-100,4,2,1,60,0,0
72820,-100,4,2,1,70,0,0
72963,-100,4,2,1,80,0,0
73107,-100,4,2,1,70,0,0
74255,-100,4,2,1,80,0,1
82294,-100,4,2,1,70,0,0
82509,-100,4,2,1,80,0,0
82724,-100,4,2,1,70,0,0
82940,-100,4,2,1,80,0,0
83155,-100,4,2,3,70,0,0
83442,-100,4,2,1,80,0,1
90332,-100,4,2,1,50,0,1
90619,-100,4,2,1,60,0,1
90906,-100,4,2,1,70,0,1
91193,-100,4,2,1,80,0,1
91480,-100,4,2,1,70,0,1
92916,-100,4,2,1,70,0,0
93203,-100,4,2,3,70,0,0
102963,-100,4,2,1,50,0,0
103107,-100,4,2,1,60,0,0
103251,-100,4,2,1,70,0,0
103394,-100,4,2,1,80,0,0
103538,-100,4,2,1,90,0,0
104112,-100,4,2,3,70,0,0
104399,-100,4,2,3,60,0,0
104614,-100,4,2,3,80,0,0
104829,-100,4,2,3,60,0,0
104973,-100,4,2,3,40,0,0
105547,-100,4,2,3,60,0,0
105763,-100,4,2,3,80,0,0
105978,-100,4,2,3,60,0,0
106121,-100,4,2,3,40,0,0
106696,-100,4,2,3,60,0,0
106911,-100,4,2,3,80,0,0
107126,-100,4,2,3,60,0,0
107270,-100,4,2,3,60,0,0
108418,-100,4,2,3,60,0,0
108705,-100,4,2,3,70,0,0
108992,-100,4,2,3,60,0,0
109207,-100,4,2,3,80,0,0
109423,-100,4,2,3,60,0,0
109566,-100,4,2,3,40,0,0
110140,-100,4,2,3,60,0,0
110356,-100,4,2,3,80,0,0
110571,-100,4,2,3,60,0,0
110715,-100,4,2,3,40,0,0
111289,-100,4,2,3,60,0,0
111504,-100,4,2,3,80,0,0
111719,-100,4,2,3,60,0,0
111863,-100,4,2,3,60,0,0
113011,-100,4,2,3,60,0,0
113298,-100,4,2,3,70,0,0
113657,-100,4,2,3,60,0,0
115308,-100,4,2,3,70,0,0
115882,-100,4,2,1,40,0,0
116169,-100,4,2,1,50,0,0
116456,-100,4,2,1,60,0,0
116743,-100,4,2,1,70,0,0
117030,-100,4,2,1,60,0,0
117318,-100,4,2,1,50,0,0
117605,-100,4,2,1,40,0,0

[Colours]
Combo1 : 128,128,255
Combo2 : 205,193,253
Combo3 : 0,102,227
Combo4 : 255,0,128
Combo5 : 0,255,255

[HitObjects]
46,262,1911,5,4,1:0:0:0:
101,332,2198,2,0,P|164:336|250:324,3,135,0|0|0|0,0:0|0:0|0:0|0:0,0:0:0:0:
302,210,3920,1,0,0:0:0:0:
381,252,4207,5,0,0:0:0:0:
468,230,4495,2,0,P|479:178|467:96,3,135,0|0|0|0,0:0|0:0|0:0|0:0,0:0:0:0:
348,33,6217,1,2,0:0:0:0:
258,28,6504,5,0,0:0:0:0:
198,95,6791,2,0,P|127:120|68:90,3,135,2|2|2|2,0:1|0:1|0:1|0:1,0:0:0:0:
21,221,8514,1,2,0:1:0:0:
76,291,8801,5,0,0:0:0:0:
155,249,9088,2,0,L|295:229,3,135,2|2|2|2,0:1|0:1|0:1|0:1,0:0:0:0:
379,329,10810,1,2,0:1:0:0:
465,305,11097,6,0,L|480:203,1,90,0|2,1:0|1:2,0:0:0:0:
388,230,11672,2,0,L|403:128,1,90,0|0,1:0|1:0,0:0:0:0:
467,79,12246,2,0,P|429:56|364:58,1,90,2|0,1:2|1:0,0:0:0:0:
312,106,12820,2,0,P|274:129|209:127,1,90,0|2,1:0|1:2,0:0:0:0:
174,60,13394,6,0,L|79:41,2,90,0|2|0,1:0|1:2|1:0,0:0:0:0:
142,144,14255,1,0,1:0:0:0:
172,228,14542,2,0,L|267:209,2,90,2|0|0,1:2|1:0|1:0,0:0:0:0:
107,290,15404,1,2,1:2:0:0:
160,362,15691,6,0,P|203:373|254:363,1,90,4|2,1:0|1:2,0:0:0:0:
306,298,16265,2,0,P|349:287|400:297,1,90,0|0,1:0|1:0,0:0:0:0:
469,341,16839,2,0,L|488:247,1,90,2|0,1:2|1:0,0:0:0:0:
410,205,17413,2,0,L|391:111,1,90,0|2,1:0|1:2,0:0:0:0:
458,55,17987,6,0,B|417:15|335:21|309:84|309:84|264:108|205:84,1,270,0|0,1:0|1:0,0:0:0:0:
166,16,19136,2,0,B|92:8|48:62|48:62|88:90|114:140|112:193,1,270,2|2,1:0|0:1,0:0:0:0:
156,256,20284,6,0,P|214:278|301:262,2,135,4|2|2,3:1|0:0|1:2,0:0:0:0:
66,256,21432,2,0,P|42:312|56:386,2,135,0|2|2,3:0|0:0|1:2,0:0:0:0:
111,178,22581,6,0,L|205:161,1,90,2|0,3:2|1:0,0:0:0:0:
289,153,23155,1,2,0:1:0:0:
371,189,23442,1,2,1:0:0:0:
446,140,23729,2,0,L|455:34,1,90,2|2,3:2|1:2,0:0:0:0:
374,8,24303,2,0,L|366:97,1,90,0|0,0:0|1:0,0:0:0:0:
371,189,24877,6,0,P|386:229|380:289,2,90,4|2|2,3:1|1:2|3:2,0:0:0:0:
300,245,25739,1,0,1:0:0:0:
218,207,26026,2,0,L|110:199,1,90,2|2,3:2|1:2,0:0:0:0:
69,268,26600,1,0,0:0:0:0:
100,352,26887,1,2,1:0:0:0:
188,334,27174,6,0,P|232:333|284:353,1,90,4|2,3:1|1:2,0:0:0:0:
361,373,27748,2,0,P|405:374|457:354,1,90,2|2,3:2|1:2,0:0:0:0:
487,278,28322,1,0,3:0:0:0:
441,200,28609,1,4,1:0:0:0:
482,119,28896,2,0,P|482:75|412:18,1,135,4|4,1:0|1:0,0:0:0:0:
381,46,29471,6,0,P|332:68|284:67,1,90,0|0,3:0|0:0,0:0:0:0:
207,54,30045,2,0,L|214:146,1,90,8|0,0:0|0:0,0:0:0:0:
153,210,30619,2,0,P|83:161|-18:199,1,180,0|8,1:0|0:0,0:0:0:0:
26,268,31480,1,0,0:0:0:0:
15,357,31767,6,0,L|120:354,1,90,0|0,1:0|0:0,0:0:0:0:
180,305,32341,1,8,0:0:0:0:
259,347,32629,1,2,0:1:0:0:
348,334,32916,1,0,1:0:0:0:
434,360,33203,2,0,L|423:256,1,90,2|10,0:1|0:0,0:0:0:0:
350,219,33777,1,0,0:0:0:0:
407,149,34064,6,0,L|499:153,1,90,0|0,1:0|1:0,0:0:0:0:
505,63,34638,2,0,L|415:59,1,90,0|0,1:0|1:0,0:0:0:0:
331,26,35212,1,0,1:0:0:0:
260,82,35499,1,0,1:0:0:0:
301,161,35786,2,0,P|310:211|301:256,1,90,2|0,3:1|1:0,0:0:0:0:
236,309,36361,6,0,P|130:274|149:132,1,270,0|2,1:0|0:0,0:0:0:0:
227,167,37509,2,0,P|172:55|61:102,1,270,2|0,3:2|1:0,0:0:0:0:
15,179,38657,6,0,P|32:240|33:323,1,135,4|2,1:0|0:2,0:0:0:0:
102,370,39375,2,0,L|161:359,1,45,2|2,0:0|0:0,0:0:0:0:
216,304,39806,2,0,P|272:290|340:324,2,135,2|2|0,0:0|0:0|0:0,0:0:0:0:
155,237,40954,6,0,L|141:134,1,90,2|2,0:0|0:0,0:0:0:0:
183,67,41528,2,0,P|251:98|355:76,1,180,2|2,0:0|0:0,0:0:0:0:
407,7,42389,1,0,0:0:0:0:
482,55,42676,2,0,L|471:154,1,90,2|2,0:0|0:0,0:0:0:0:
443,229,43251,6,0,P|425:286|457:358,1,135,2|2,0:1|0:0,0:0:0:0:
363,370,43968,2,0,L|303:365,1,45,2|2,0:0|0:0,0:0:0:0:
272,288,44399,2,0,L|133:316,2,135,2|2|0,0:0|0:0|0:0,0:0:0:0:
305,204,45547,6,0,L|209:184,1,90,2|2,0:0|0:0,0:0:0:0:
134,149,46121,2,0,P|58:155|10:241,1,180,2|0,0:0|0:0,0:0:0:0:
46,321,46983,1,0,0:0:0:0:
46,321,47844,6,0,P|115:344|186:358,1,135,4|0,3:1|0:0,0:0:0:0:
242,295,48562,2,0,L|298:280,1,45,0|0,0:0|1:0,0:0:0:0:
370,313,48992,2,0,P|436:326|499:348,2,135,0|0|0,3:0|0:0|1:0,0:0:0:0:
355,224,50140,6,0,L|342:127,1,90,0|0,3:0|1:0,0:0:0:0:
409,74,50715,2,0,P|377:56|321:49,1,90,0|0,3:0|1:0,0:0:0:0:
258,109,51289,2,0,P|226:127|170:134,1,90,0|0,3:0|1:0,0:0:0:0:
117,64,51863,1,0,3:0:0:0:
28,77,52150,1,0,1:0:0:0:
18,166,52437,6,0,L|47:311,1,135,4|4,1:0|1:0,0:0:0:0:
169,349,53298,1,2,0:0:0:0:
232,284,53585,2,0,P|301:282|372:301,1,135,4|4,1:0|3:1,0:0:0:0:
482,231,54447,1,0,0:0:0:0:
408,179,54734,6,0,P|400:129|421:79,1,90,4|4,3:1|1:0,0:0:0:0:
474,27,55308,2,0,P|393:5|325:82,1,180,4|4,3:1|3:1,0:0:0:0:
328,65,60906,5,4,1:0:0:0:
328,65,65069,5,4,1:0:0:0:
259,122,65356,2,0,L|112:104,3,135,2|2|2|2,1:0|0:1|1:0|0:1,0:0:0:0:
37,208,67078,1,2,1:0:0:0:
72,290,67365,5,0,1:0:0:0:
158,265,67652,2,0,P|216:252|302:270,3,135,2|2|2|2,1:0|0:1|1:0|0:1,0:0:0:0:
382,362,69375,1,2,1:0:0:0:
467,334,69662,5,0,3:0:0:0:
420,257,69949,2,0,P|401:188|435:119,3,135,2|2|2|2,3:1|3:1|3:1|3:1,0:0:0:0:
509,26,71672,1,2,3:1:0:0:
421,45,71959,6,0,L|55:40,1,360,0|0,3:0|0:0,0:0:0:0:
160,291,73968,1,0,0:0:0:0:
203,212,74255,6,0,P|140:205|73:305,1,180,4|2,1:0|1:2,0:0:0:0:
108,371,75117,1,8,0:0:0:0:
197,378,75404,2,0,L|292:361,1,90,2|8,1:2|0:0,0:0:0:0:
305,274,75978,2,0,L|393:289,1,90,2|8,1:2|0:0,0:0:0:0:
479,263,76552,5,2,1:2:0:0:
460,175,76839,1,10,0:0:0:0:
499,94,77126,2,0,P|509:45|491:-11,1,90,2|8,1:2|0:0,0:0:0:0:
422,51,77700,1,2,1:2:0:0:
335,24,77987,1,8,0:0:0:0:
255,65,78274,2,0,L|159:71,1,90,2|8,1:2|0:0,0:0:0:0:
88,22,78849,6,0,P|43:49|26:98,1,90,4|8,1:0|0:0,0:0:0:0:
47,169,79423,1,2,1:2:0:0:
97,243,79710,1,8,0:0:0:0:
75,329,79997,2,0,P|120:337|183:325,1,90,4|8,1:0|0:0,0:0:0:0:
220,261,80571,1,2,1:2:0:0:
305,288,80858,1,8,0:0:0:0:
388,253,81145,6,0,L|401:152,1,90,2|8,1:2|0:0,0:0:0:0:
450,89,81719,1,2,1:2:0:0:
400,13,82007,1,10,0:0:0:0:
336,76,82294,2,0,P|271:100|196:88,2,135,0|0|4,1:0|1:0|1:0,0:0:0:0:
400,13,83442,6,0,P|449:26|490:148,1,180,4|2,1:0|1:2,0:0:0:0:
451,216,84303,1,8,0:0:0:0:
445,305,84590,2,0,L|350:294,1,90,2|8,1:2|0:0,0:0:0:0:
307,218,85164,2,0,L|217:228,1,90,2|8,1:2|0:0,0:0:0:0:
155,294,85739,6,0,P|118:322|61:329,1,90,2|10,1:2|0:0,0:0:0:0:
15,264,86313,1,2,1:2:0:0:
66,190,86600,1,8,0:0:0:0:
15,115,86887,2,0,P|2:74|5:17,1,90,2|10,1:2|0:0,0:0:0:0:
86,59,87461,1,2,1:2:0:0:
173,37,87748,1,8,0:0:0:0:
241,95,88035,6,0,L|345:97,1,90,4|8,1:0|0:0,0:0:0:0:
390,29,88609,1,2,1:2:0:0:
466,76,88896,1,8,0:0:0:0:
432,160,89184,2,0,L|415:266,1,90,4|8,1:0|0:0,0:0:0:0:
435,337,89758,1,2,1:2:0:0:
354,376,90045,1,8,0:0:0:0:
301,302,90332,6,0,P|256:274|209:269,1,90,4|8,1:0|0:0,0:0:0:0:
147,322,90906,1,2,1:1:0:0:
60,347,91193,1,10,0:2:0:0:
14,269,91480,2,0,B|-27:186|-14:102|57:41|57:41|106:80|119:140,1,360,2|2,0:1|0:0,0:0:0:0:
168,202,92916,6,0,L|270:172,1,90,4|0,1:0|3:0,0:0:0:0:
320,115,93490,1,2,1:2:0:0:
387,174,93777,2,0,P|435:200|520:173,2,135,2|2|2,3:2|0:0|1:2,0:0:0:0:
453,112,94925,6,0,P|463:66|450:15,1,90,2|0,3:2|1:0,0:0:0:0:
366,5,95499,1,2,3:1:0:0:
278,26,95786,1,2,1:0:0:0:
189,6,96074,2,0,L|91:14,1,90,2|2,3:2|1:2,0:0:0:0:
29,69,96648,2,0,L|54:158,1,90,0|0,3:0|1:0,0:0:0:0:
118,218,97222,6,0,P|75:291|120:376,1,180,4|2,3:1|3:2,0:0:0:0:
168,296,98083,1,0,1:0:0:0:
236,354,98370,2,0,L|346:345,1,90,2|2,3:2|1:2,0:0:0:0:
345,258,98944,2,0,L|255:265,1,90,0|2,0:0|1:0,0:0:0:0:
209,187,99518,6,0,L|194:94,1,90,4|2,1:0|3:2,0:0:0:0:
284,86,100093,2,0,L|298:174,1,90,2|2,3:2|3:2,0:0:0:0:
388,173,100667,2,0,L|402:84,1,90,4|2,1:0|3:2,0:0:0:0:
491,97,101242,2,0,L|476:185,1,90,2|2,3:2|3:2,0:0:0:0:
480,275,101815,6,0,P|458:335|347:362,2,180,4|4|2,1:0|1:0|0:1,0:0:0:0:
480,275,104112,6,0,P|389:259|286:253,1,180,4|0,3:1|0:0,0:0:0:0:
231,309,104973,1,2,1:0:0:0:
156,258,105260,2,0,P|145:211|165:160,2,90,2|2|0,3:1|1:0|0:0,0:0:0:0:
142,346,106121,1,2,1:0:0:0:
70,291,106408,6,0,P|53:216|91:109,1,180,2|0,3:1|0:0,0:0:0:0:
171,102,107270,1,2,1:0:0:0:
109,36,107557,2,0,L|12:28,2,90,0|2|0,3:0|1:2|3:0,0:0:0:0:
196,15,108418,1,2,0:1:0:0:
260,77,108705,6,0,P|339:109|428:57,1,180,4|0,3:1|0:0,0:0:0:0:
481,4,109566,1,2,1:0:0:0:
505,90,109853,2,0,P|501:136|491:195,2,90,2|2|0,3:1|1:0|0:0,0:0:0:0:
481,4,110715,1,2,1:0:0:0:
398,38,111002,6,0,L|405:220,1,180,2|0,3:1|0:0,0:0:0:0:
471,277,111863,1,2,1:0:0:0:
411,344,112150,2,0,P|467:365|508:358,2,90,0|2|0,3:0|1:2|3:0,0:0:0:0:
344,282,113011,1,2,0:1:0:0:
271,335,113298,6,0,L|143:322,1,112.5,4|0,1:0|1:0,0:0:0:0:
121,147,114231,2,0,P|171:139|268:221,1,180,0|0,1:0|1:0,0:0:0:0:
421,185,115308,2,0,L|431:99,1,67.5,4|4,1:0|1:0,0:0:0:0:
256,192,115595,12,0,117892,0:0:0:0:
