osu file format v14

[General]
AudioFilename: audio.mp3
AudioLeadIn: 0
PreviewTime: -1
Countdown: 0
SampleSet: None
StackLeniency: 0.7
Mode: 3
LetterboxInBreaks: 0
SpecialStyle: 0
WidescreenStoryboard: 0

[Editor]
DistanceSpacing: 1
BeatDivisor: 1
GridSize: 16
TimelineZoom: 3.899999

[Metadata]
Title:Yuki Otoko
TitleUnicode:雪男
Artist:Kaneko Chiharu
ArtistUnicode:かねこちはる
Creator:Topcayk
Version:Blight
Source:CHUNITHM NEW
Tags:
BeatmapID:4566836
BeatmapSetID:2164990

[Difficulty]
HPDrainRate:8
CircleSize:4
OverallDifficulty:8
ApproachRate:5
SliderMultiplier:1.4
SliderTickRate:1

[Events]
//Background and Video events
0,0,"yuki otoko.png",0,0
//Break Periods
//Storyboard Layer 0 (Background)
//Storyboard Layer 1 (Fail)
//Storyboard Layer 2 (Pass)
//Storyboard Layer 3 (Foreground)
//Storyboard Layer 4 (Overlay)
//Storyboard Sound Samples

[TimingPoints]
2625,234.375,4,2,0,10,1,0
2859,234.375,4,2,0,10,1,0

[HitObjects]
64,192,2625,5,0,0:0:0:0:
448,192,2625,1,0,0:0:0:0:
320,192,2625,1,0,0:0:0:0:
448,192,2859,128,0,3034:0:0:0:0:
64,192,2859,128,0,2976:0:0:0:0:
64,192,3093,128,0,3269:0:0:0:0:
192,192,3210,128,0,3386:0:0:0:0:
320,192,3327,128,0,3503:0:0:0:0:
448,192,3444,128,0,3620:0:0:0:0:
192,192,3562,128,0,3737:0:0:0:0:
64,192,3679,128,0,3855:0:0:0:0:
320,192,3796,128,0,3913:0:0:0:0:
192,192,3913,128,0,4148:0:0:0:0:
448,192,4030,128,0,4148:0:0:0:0:
320,192,4148,128,0,4206:0:0:0:0:
64,192,4206,128,0,4265:0:0:0:0:
448,192,4265,128,0,4343:0:0:0:0:
320,192,4421,128,0,4499:0:0:0:0:
192,192,4577,128,0,4655:0:0:0:0:
64,192,4734,128,0,4812:0:0:0:0:
448,192,4734,128,0,4890:0:0:0:0:
320,192,4968,128,0,5124:0:0:0:0:
64,192,5046,128,0,5202:0:0:0:0:
448,192,5124,128,0,5280:0:0:0:0:
192,192,5202,128,0,5437:0:0:0:0:
320,192,5359,128,0,5573:0:0:0:0:
448,192,5515,128,0,5827:0:0:0:0:
64,192,5671,128,0,5827:0:0:0:0:
192,192,5671,128,0,6023:0:0:0:0:
320,192,5905,128,0,6140:0:0:0:0:
64,192,6140,128,0,6374:0:0:0:0:
320,192,6374,128,0,6550:0:0:0:0:
448,192,6491,1,0,0:0:0:0:
64,192,6550,1,0,0:0:0:0:
192,192,6609,128,0,6784:0:0:0:0:
448,192,6609,128,0,6726:0:0:0:0:
320,192,6843,128,0,6960:0:0:0:0:
64,192,6843,128,0,7019:0:0:0:0:
448,192,6960,128,0,7136:0:0:0:0:
192,192,7077,128,0,7253:0:0:0:0:
320,192,7194,128,0,7370:0:0:0:0:
64,192,7312,128,0,7487:0:0:0:0:
448,192,7429,128,0,7605:0:0:0:0:
192,192,7546,128,0,7722:0:0:0:0:
320,192,7663,128,0,7898:0:0:0:0:
64,192,7663,128,0,7839:0:0:0:0:
448,192,7780,128,0,7898:0:0:0:0:
192,192,7956,1,0,0:0:0:0:
64,192,8015,128,0,8249:0:0:0:0:
448,192,8015,128,0,8132:0:0:0:0:
320,192,8171,128,0,8405:0:0:0:0:
448,192,8327,128,0,8562:0:0:0:0:
64,192,8484,128,0,8733:0:0:0:0:
192,192,8484,128,0,8952:0:0:0:0:
320,192,8718,128,0,9187:0:0:0:0:
448,192,8952,128,0,9421:0:0:0:0:
192,192,9187,128,0,9265:0:0:0:0:
64,192,9265,128,0,9343:0:0:0:0:
320,192,9343,128,0,9421:0:0:0:0:
192,192,9421,128,0,9499:0:0:0:0:
64,192,9538,128,0,9714:0:0:0:0:
320,192,9538,128,0,9655:0:0:0:0:
192,192,9655,1,0,0:0:0:0:
448,192,9773,128,0,9948:0:0:0:0:
192,192,9787,128,0,9890:0:0:0:0:
320,192,9890,1,0,0:0:0:0:
320,192,10007,128,0,10183:0:0:0:0:
192,192,10007,128,0,10124:0:0:0:0:
64,192,10124,1,0,0:0:0:0:
64,192,10241,128,0,10359:0:0:0:0:
448,192,10241,128,0,10359:0:0:0:0:
320,192,10359,1,0,0:0:0:0:
192,192,10359,1,0,0:0:0:0:
192,192,10437,1,0,0:0:0:0:
320,192,10515,1,0,0:0:0:0:
64,192,10593,1,0,0:0:0:0:
192,192,10593,1,0,0:0:0:0:
320,192,10593,1,0,0:0:0:0:
448,192,10593,1,0,0:0:0:0:
192,192,10671,1,0,0:0:0:0:
448,192,10749,1,0,0:0:0:0:
64,192,10827,1,0,0:0:0:0:
192,192,10827,1,0,0:0:0:0:
320,192,10827,1,0,0:0:0:0:
448,192,10827,1,0,0:0:0:0:
320,192,10905,1,0,0:0:0:0:
64,192,10984,1,0,0:0:0:0:
64,192,11062,1,0,0:0:0:0:
320,192,11062,1,0,0:0:0:0:
448,192,11062,1,0,0:0:0:0:
192,192,11062,1,0,0:0:0:0:
192,192,11140,1,0,0:0:0:0:
320,192,11218,1,0,0:0:0:0:
64,192,11296,1,0,0:0:0:0:
448,192,11296,1,0,0:0:0:0:
320,192,11296,1,0,0:0:0:0:
192,192,11296,1,0,0:0:0:0:
192,192,11374,1,0,0:0:0:0:
320,192,11452,1,0,0:0:0:0:
64,192,11530,1,0,0:0:0:0:
192,192,11530,1,0,0:0:0:0:
320,192,11530,1,0,0:0:0:0:
448,192,11530,1,0,0:0:0:0:
192,192,11609,1,0,0:0:0:0:
64,192,11687,1,0,0:0:0:0:
64,192,11765,1,0,0:0:0:0:
192,192,11765,1,0,0:0:0:0:
320,192,11765,1,0,0:0:0:0:
448,192,11765,1,0,0:0:0:0:
320,192,11843,1,0,0:0:0:0:
448,192,11921,1,0,0:0:0:0:
64,192,11999,1,0,0:0:0:0:
192,192,11999,1,0,0:0:0:0:
320,192,11999,1,0,0:0:0:0:
448,192,11999,1,0,0:0:0:0:
64,192,12077,1,0,0:0:0:0:
320,192,12155,1,0,0:0:0:0:
64,192,12234,1,0,0:0:0:0:
192,192,12234,1,0,0:0:0:0:
320,192,12234,1,0,0:0:0:0:
448,192,12234,1,0,0:0:0:0:
448,192,12312,1,0,0:0:0:0:
64,192,12390,1,0,0:0:0:0:
64,192,12468,1,0,0:0:0:0:
192,192,12468,1,0,0:0:0:0:
320,192,12468,1,0,0:0:0:0:
448,192,12468,1,0,0:0:0:0:
320,192,12546,1,0,0:0:0:0:
192,192,12624,1,0,0:0:0:0:
64,192,12702,1,0,0:0:0:0:
192,192,12702,1,0,0:0:0:0:
320,192,12702,1,0,0:0:0:0:
448,192,12702,1,0,0:0:0:0:
448,192,12780,1,0,0:0:0:0:
64,192,12859,1,0,0:0:0:0:
64,192,12937,1,0,0:0:0:0:
192,192,12937,1,0,0:0:0:0:
448,192,12937,1,0,0:0:0:0:
320,192,12937,1,0,0:0:0:0:
192,192,13015,1,0,0:0:0:0:
448,192,13093,1,0,0:0:0:0:
64,192,13171,1,0,0:0:0:0:
448,192,13171,1,0,0:0:0:0:
320,192,13171,1,0,0:0:0:0:
192,192,13171,1,0,0:0:0:0:
320,192,13249,1,0,0:0:0:0:
64,192,13327,1,0,0:0:0:0:
64,192,13405,1,0,0:0:0:0:
192,192,13405,1,0,0:0:0:0:
320,192,13405,1,0,0:0:0:0:
448,192,13405,1,0,0:0:0:0:
192,192,13484,1,0,0:0:0:0:
448,192,13562,1,0,0:0:0:0:
64,192,13640,1,0,0:0:0:0:
448,192,13640,1,0,0:0:0:0:
320,192,13640,1,0,0:0:0:0:
192,192,13640,1,0,0:0:0:0:
320,192,13718,1,0,0:0:0:0:
192,192,13796,1,0,0:0:0:0:
64,192,13874,1,0,0:0:0:0:
192,192,13874,1,0,0:0:0:0:
320,192,13874,1,0,0:0:0:0:
448,192,13874,1,0,0:0:0:0:
64,192,13952,1,0,0:0:0:0:
448,192,14030,1,0,0:0:0:0:
64,192,14109,1,0,0:0:0:0:
192,192,14109,1,0,0:0:0:0:
320,192,14109,1,0,0:0:0:0:
448,192,14109,1,0,0:0:0:0:
64,192,14187,1,0,0:0:0:0:
448,192,14265,1,0,0:0:0:0:
64,192,14343,1,0,0:0:0:0:
192,192,14343,1,0,0:0:0:0:
320,192,14343,1,0,0:0:0:0:
448,192,14343,1,0,0:0:0:0:
192,192,14421,1,0,0:0:0:0:
320,192,14499,1,0,0:0:0:0:
64,192,14577,1,0,0:0:0:0:
192,192,14577,1,0,0:0:0:0:
320,192,14577,1,0,0:0:0:0:
448,192,14577,1,0,0:0:0:0:
192,192,14655,1,0,0:0:0:0:
64,192,14734,1,0,0:0:0:0:
64,192,14812,1,0,0:0:0:0:
192,192,14812,1,0,0:0:0:0:
448,192,14812,1,0,0:0:0:0:
320,192,14812,1,0,0:0:0:0:
320,192,14890,1,0,0:0:0:0:
448,192,14968,1,0,0:0:0:0:
64,192,15046,1,0,0:0:0:0:
192,192,15046,1,0,0:0:0:0:
320,192,15046,1,0,0:0:0:0:
448,192,15046,1,0,0:0:0:0:
320,192,15124,1,0,0:0:0:0:
192,192,15202,1,0,0:0:0:0:
64,192,15280,1,0,0:0:0:0:
448,192,15280,1,0,0:0:0:0:
320,192,15280,1,0,0:0:0:0:
192,192,15280,1,0,0:0:0:0:
448,192,15359,1,0,0:0:0:0:
64,192,15437,1,0,0:0:0:0:
64,192,15515,1,0,0:0:0:0:
320,192,15515,1,0,0:0:0:0:
448,192,15515,1,0,0:0:0:0:
192,192,15515,1,0,0:0:0:0:
192,192,15593,1,0,0:0:0:0:
448,192,15671,1,0,0:0:0:0:
64,192,15749,1,0,0:0:0:0:
192,192,15749,1,0,0:0:0:0:
320,192,15749,1,0,0:0:0:0:
448,192,15749,1,0,0:0:0:0:
192,192,15827,1,0,0:0:0:0:
320,192,15905,1,0,0:0:0:0:
448,192,15984,1,0,0:0:0:0:
64,192,15984,1,0,0:0:0:0:
320,192,15984,1,0,0:0:0:0:
192,192,15984,1,0,0:0:0:0:
448,192,16921,128,0,17507:0:0:0:0:
320,192,17419,128,0,17536:0:0:0:0:
192,192,17448,128,0,17566:0:0:0:0:
64,192,17478,128,0,17595:0:0:0:0:
448,192,17624,128,0,17741:0:0:0:0:
320,192,17624,1,0,0:0:0:0:
192,192,17859,1,0,0:0:0:0:
320,192,17859,1,0,0:0:0:0:
64,192,17859,1,0,0:0:0:0:
448,192,17917,1,0,0:0:0:0:
192,192,17946,1,0,0:0:0:0:
320,192,17976,1,0,0:0:0:0:
448,192,18005,1,0,0:0:0:0:
192,192,18034,1,0,0:0:0:0:
64,192,18093,1,0,0:0:0:0:
320,192,18093,1,0,0:0:0:0:
448,192,18093,1,0,0:0:0:0:
192,192,18151,1,0,0:0:0:0:
448,192,18181,1,0,0:0:0:0:
64,192,18210,1,0,0:0:0:0:
192,192,18239,1,0,0:0:0:0:
320,192,18269,1,0,0:0:0:0:
192,192,18327,1,0,0:0:0:0:
64,192,18327,1,0,0:0:0:0:
448,192,18327,1,0,0:0:0:0:
320,192,18386,1,0,0:0:0:0:
192,192,18415,1,0,0:0:0:0:
448,192,18444,1,0,0:0:0:0:
320,192,18474,1,0,0:0:0:0:
192,192,18503,1,0,0:0:0:0:
320,192,18562,1,0,0:0:0:0:
448,192,18562,1,0,0:0:0:0:
64,192,18562,1,0,0:0:0:0:
192,192,18620,1,0,0:0:0:0:
64,192,18650,1,0,0:0:0:0:
320,192,18679,1,0,0:0:0:0:
448,192,18708,1,0,0:0:0:0:
64,192,18737,1,0,0:0:0:0:
192,192,18796,1,0,0:0:0:0:
320,192,18796,1,0,0:0:0:0:
448,192,18796,1,0,0:0:0:0:
64,192,18855,1,0,0:0:0:0:
320,192,18884,1,0,0:0:0:0:
192,192,18913,1,0,0:0:0:0:
64,192,18942,1,0,0:0:0:0:
448,192,18972,1,0,0:0:0:0:
192,192,19030,1,0,0:0:0:0:
64,192,19030,1,0,0:0:0:0:
448,192,19089,1,0,0:0:0:0:
64,192,19089,1,0,0:0:0:0:
448,192,19148,1,0,0:0:0:0:
192,192,19148,1,0,0:0:0:0:
320,192,19206,1,0,0:0:0:0:
192,192,19265,1,0,0:0:0:0:
64,192,19265,1,0,0:0:0:0:
448,192,19265,1,0,0:0:0:0:
320,192,19323,1,0,0:0:0:0:
192,192,19353,1,0,0:0:0:0:
64,192,19382,1,0,0:0:0:0:
448,192,19411,1,0,0:0:0:0:
192,192,19441,1,0,0:0:0:0:
320,192,19499,1,0,0:0:0:0:
448,192,19499,1,0,0:0:0:0:
64,192,19499,1,0,0:0:0:0:
192,192,19558,1,0,0:0:0:0:
320,192,19587,1,0,0:0:0:0:
448,192,19616,1,0,0:0:0:0:
64,192,19646,1,0,0:0:0:0:
192,192,19675,1,0,0:0:0:0:
320,192,19704,1,0,0:0:0:0:
64,192,19734,1,0,0:0:0:0:
448,192,19734,1,0,0:0:0:0:
64,192,19792,1,0,0:0:0:0:
320,192,19792,1,0,0:0:0:0:
192,192,19851,1,0,0:0:0:0:
320,192,19851,1,0,0:0:0:0:
448,192,19880,1,0,0:0:0:0:
64,192,19909,1,0,0:0:0:0:
192,192,19968,1,0,0:0:0:0:
320,192,19968,1,0,0:0:0:0:
448,192,19968,1,0,0:0:0:0:
64,192,20026,1,0,0:0:0:0:
320,192,20056,1,0,0:0:0:0:
448,192,20085,1,0,0:0:0:0:
192,192,20114,1,0,0:0:0:0:
320,192,20144,1,0,0:0:0:0:
192,192,20202,1,0,0:0:0:0:
64,192,20202,1,0,0:0:0:0:
448,192,20202,1,0,0:0:0:0:
320,192,20261,1,0,0:0:0:0:
448,192,20290,1,0,0:0:0:0:
192,192,20319,1,0,0:0:0:0:
64,192,20349,1,0,0:0:0:0:
448,192,20378,1,0,0:0:0:0:
64,192,20437,1,0,0:0:0:0:
192,192,20437,1,0,0:0:0:0:
320,192,20437,1,0,0:0:0:0:
448,192,20495,1,0,0:0:0:0:
192,192,20525,1,0,0:0:0:0:
320,192,20554,1,0,0:0:0:0:
448,192,20583,1,0,0:0:0:0:
64,192,20612,1,0,0:0:0:0:
192,192,20671,1,0,0:0:0:0:
320,192,20671,1,0,0:0:0:0:
448,192,20671,1,0,0:0:0:0:
64,192,20730,1,0,0:0:0:0:
320,192,20759,1,0,0:0:0:0:
448,192,20788,1,0,0:0:0:0:
64,192,20817,1,0,0:0:0:0:
192,192,20847,1,0,0:0:0:0:
64,192,20905,1,0,0:0:0:0:
320,192,20905,1,0,0:0:0:0:
448,192,20905,1,0,0:0:0:0:
192,192,20964,1,0,0:0:0:0:
320,192,20993,1,0,0:0:0:0:
64,192,21023,1,0,0:0:0:0:
192,192,21052,1,0,0:0:0:0:
320,192,21081,1,0,0:0:0:0:
192,192,21140,1,0,0:0:0:0:
64,192,21140,1,0,0:0:0:0:
448,192,21140,1,0,0:0:0:0:
320,192,21198,1,0,0:0:0:0:
64,192,21228,1,0,0:0:0:0:
448,192,21257,1,0,0:0:0:0:
192,192,21286,1,0,0:0:0:0:
64,192,21316,1,0,0:0:0:0:
320,192,21374,1,0,0:0:0:0:
192,192,21374,1,0,0:0:0:0:
448,192,21374,1,0,0:0:0:0:
64,192,21433,1,0,0:0:0:0:
320,192,21462,1,0,0:0:0:0:
192,192,21491,1,0,0:0:0:0:
64,192,21521,1,0,0:0:0:0:
448,192,21609,1,0,0:0:0:0:
64,192,21609,128,0,21784:0:0:0:0:
320,192,21609,128,0,21726:0:0:0:0:
192,192,21609,128,0,21667:0:0:0:0:
64,192,21843,1,0,0:0:0:0:
448,192,21843,128,0,22019:0:0:0:0:
192,192,21843,128,0,21960:0:0:0:0:
320,192,21843,128,0,21901:0:0:0:0:
448,192,22077,1,0,0:0:0:0:
64,192,22077,128,0,22253:0:0:0:0:
192,192,22077,128,0,22194:0:0:0:0:
320,192,22077,128,0,22136:0:0:0:0:
64,192,22312,1,0,0:0:0:0:
448,192,22312,128,0,22487:0:0:0:0:
320,192,22312,128,0,22429:0:0:0:0:
192,192,22312,128,0,22370:0:0:0:0:
448,192,22546,1,0,0:0:0:0:
192,192,22546,128,0,22722:0:0:0:0:
320,192,22546,128,0,22663:0:0:0:0:
64,192,22546,128,0,22605:0:0:0:0:
64,192,22780,1,0,0:0:0:0:
320,192,22780,128,0,22956:0:0:0:0:
192,192,22780,128,0,22898:0:0:0:0:
448,192,22780,128,0,22839:0:0:0:0:
320,192,23015,1,0,0:0:0:0:
192,192,23015,128,0,23191:0:0:0:0:
64,192,23015,128,0,23132:0:0:0:0:
448,192,23015,128,0,23073:0:0:0:0:
192,192,23249,1,0,0:0:0:0:
320,192,23249,128,0,23425:0:0:0:0:
448,192,23249,128,0,23366:0:0:0:0:
64,192,23249,128,0,23308:0:0:0:0:
64,192,23484,1,0,0:0:0:0:
192,192,23484,1,0,0:0:0:0:
320,192,23523,1,0,0:0:0:0:
448,192,23523,1,0,0:0:0:0:
192,192,23562,1,0,0:0:0:0:
64,192,23562,1,0,0:0:0:0:
448,192,23601,1,0,0:0:0:0:
320,192,23601,1,0,0:0:0:0:
192,192,23640,1,0,0:0:0:0:
64,192,23640,1,0,0:0:0:0:
320,192,23679,1,0,0:0:0:0:
448,192,23679,1,0,0:0:0:0:
64,192,23718,1,0,0:0:0:0:
192,192,23718,1,0,0:0:0:0:
320,192,23835,1,0,0:0:0:0:
448,192,23835,1,0,0:0:0:0:
192,192,23874,1,0,0:0:0:0:
64,192,23874,1,0,0:0:0:0:
448,192,23913,1,0,0:0:0:0:
320,192,23913,1,0,0:0:0:0:
64,192,23952,1,0,0:0:0:0:
192,192,23952,1,0,0:0:0:0:
448,192,23991,1,0,0:0:0:0:
320,192,23991,1,0,0:0:0:0:
192,192,24030,1,0,0:0:0:0:
64,192,24030,1,0,0:0:0:0:
448,192,24069,1,0,0:0:0:0:
320,192,24069,1,0,0:0:0:0:
64,192,24187,1,0,0:0:0:0:
192,192,24187,1,0,0:0:0:0:
448,192,24226,1,0,0:0:0:0:
320,192,24226,1,0,0:0:0:0:
192,192,24265,1,0,0:0:0:0:
64,192,24265,1,0,0:0:0:0:
448,192,24304,1,0,0:0:0:0:
320,192,24304,1,0,0:0:0:0:
192,192,24343,1,0,0:0:0:0:
64,192,24343,1,0,0:0:0:0:
448,192,24382,1,0,0:0:0:0:
320,192,24382,1,0,0:0:0:0:
192,192,24421,128,0,24890:0:0:0:0:
64,192,24421,128,0,24655:0:0:0:0:
320,192,24655,128,0,25359:0:0:0:0:
448,192,24890,128,0,25359:0:0:0:0:
64,192,24890,128,0,25359:0:0:0:0:
192,192,25124,128,0,25359:0:0:0:0:
192,192,25417,1,0,0:0:0:0:
64,192,25446,1,0,0:0:0:0:
320,192,25476,1,0,0:0:0:0:
192,192,25505,1,0,0:0:0:0:
448,192,25534,1,0,0:0:0:0:
320,192,25593,1,0,0:0:0:0:
64,192,25593,1,0,0:0:0:0:
192,192,25593,1,0,0:0:0:0:
448,192,25651,1,0,0:0:0:0:
320,192,25681,1,0,0:0:0:0:
64,192,25710,1,0,0:0:0:0:
192,192,25739,1,0,0:0:0:0:
320,192,25769,1,0,0:0:0:0:
192,192,25827,1,0,0:0:0:0:
64,192,25827,1,0,0:0:0:0:
448,192,25827,1,0,0:0:0:0:
320,192,25886,1,0,0:0:0:0:
64,192,25915,1,0,0:0:0:0:
448,192,25944,1,0,0:0:0:0:
320,192,25974,1,0,0:0:0:0:
192,192,26003,1,0,0:0:0:0:
320,192,26062,1,0,0:0:0:0:
448,192,26062,1,0,0:0:0:0:
64,192,26062,1,0,0:0:0:0:
192,192,26120,1,0,0:0:0:0:
320,192,26150,1,0,0:0:0:0:
64,192,26179,1,0,0:0:0:0:
192,192,26208,1,0,0:0:0:0:
320,192,26237,1,0,0:0:0:0:
192,192,26296,1,0,0:0:0:0:
64,192,26296,1,0,0:0:0:0:
448,192,26296,1,0,0:0:0:0:
320,192,26355,1,0,0:0:0:0:
192,192,26384,1,0,0:0:0:0:
448,192,26413,1,0,0:0:0:0:
64,192,26442,1,0,0:0:0:0:
192,192,26472,1,0,0:0:0:0:
320,192,26530,1,0,0:0:0:0:
448,192,26530,1,0,0:0:0:0:
64,192,26530,1,0,0:0:0:0:
192,192,26589,1,0,0:0:0:0:
64,192,26618,1,0,0:0:0:0:
448,192,26648,1,0,0:0:0:0:
320,192,26677,1,0,0:0:0:0:
64,192,26706,1,0,0:0:0:0:
192,192,26765,1,0,0:0:0:0:
320,192,26765,1,0,0:0:0:0:
448,192,26765,1,0,0:0:0:0:
64,192,26823,1,0,0:0:0:0:
192,192,26853,1,0,0:0:0:0:
448,192,26882,1,0,0:0:0:0:
320,192,26911,1,0,0:0:0:0:
192,192,26941,1,0,0:0:0:0:
64,192,26999,1,0,0:0:0:0:
320,192,26999,1,0,0:0:0:0:
448,192,26999,1,0,0:0:0:0:
192,192,27058,1,0,0:0:0:0:
64,192,27087,1,0,0:0:0:0:
448,192,27116,1,0,0:0:0:0:
192,192,27146,1,0,0:0:0:0:
320,192,27175,1,0,0:0:0:0:
192,192,27234,1,0,0:0:0:0:
64,192,27234,1,0,0:0:0:0:
64,192,27292,1,0,0:0:0:0:
320,192,27292,1,0,0:0:0:0:
320,192,27351,1,0,0:0:0:0:
192,192,27351,1,0,0:0:0:0:
64,192,27380,1,0,0:0:0:0:
448,192,27409,1,0,0:0:0:0:
320,192,27468,1,0,0:0:0:0:
192,192,27468,1,0,0:0:0:0:
64,192,27468,1,0,0:0:0:0:
448,192,27526,1,0,0:0:0:0:
192,192,27556,1,0,0:0:0:0:
320,192,27585,1,0,0:0:0:0:
448,192,27614,1,0,0:0:0:0:
64,192,27644,1,0,0:0:0:0:
320,192,27702,1,0,0:0:0:0:
448,192,27702,1,0,0:0:0:0:
192,192,27702,1,0,0:0:0:0:
64,192,27761,1,0,0:0:0:0:
320,192,27790,1,0,0:0:0:0:
192,192,27819,1,0,0:0:0:0:
448,192,27849,1,0,0:0:0:0:
320,192,27878,1,0,0:0:0:0:
64,192,27937,1,0,0:0:0:0:
192,192,27937,1,0,0:0:0:0:
448,192,27937,1,0,0:0:0:0:
320,192,27995,1,0,0:0:0:0:
64,192,28025,1,0,0:0:0:0:
448,192,28054,1,0,0:0:0:0:
320,192,28083,1,0,0:0:0:0:
192,192,28112,1,0,0:0:0:0:
320,192,28171,1,0,0:0:0:0:
448,192,28171,1,0,0:0:0:0:
64,192,28171,1,0,0:0:0:0:
192,192,28230,1,0,0:0:0:0:
64,192,28259,1,0,0:0:0:0:
320,192,28288,1,0,0:0:0:0:
192,192,28317,1,0,0:0:0:0:
64,192,28347,1,0,0:0:0:0:
192,192,28405,1,0,0:0:0:0:
320,192,28405,1,0,0:0:0:0:
448,192,28405,1,0,0:0:0:0:
64,192,28464,1,0,0:0:0:0:
448,192,28493,1,0,0:0:0:0:
192,192,28523,1,0,0:0:0:0:
320,192,28552,1,0,0:0:0:0:
448,192,28581,1,0,0:0:0:0:
320,192,28640,1,0,0:0:0:0:
192,192,28640,1,0,0:0:0:0:
64,192,28640,1,0,0:0:0:0:
448,192,28698,1,0,0:0:0:0:
192,192,28728,1,0,0:0:0:0:
64,192,28757,1,0,0:0:0:0:
448,192,28786,1,0,0:0:0:0:
320,192,28816,1,0,0:0:0:0:
192,192,28874,1,0,0:0:0:0:
64,192,28874,1,0,0:0:0:0:
448,192,28874,1,0,0:0:0:0:
320,192,28933,1,0,0:0:0:0:
64,192,28962,1,0,0:0:0:0:
448,192,28991,1,0,0:0:0:0:
192,192,29021,1,0,0:0:0:0:
320,192,29050,1,0,0:0:0:0:
64,192,29109,128,0,29226:0:0:0:0:
448,192,29109,128,0,29284:0:0:0:0:
64,192,29343,128,0,29577:0:0:0:0:
192,192,29460,128,0,29694:0:0:0:0:
320,192,29577,128,0,29812:0:0:0:0:
448,192,29694,128,0,29929:0:0:0:0:
64,192,29694,128,0,29870:0:0:0:0:
192,192,29812,128,0,29987:0:0:0:0:
320,192,29929,128,0,30105:0:0:0:0:
64,192,29929,128,0,30105:0:0:0:0:
448,192,30163,128,0,30339:0:0:0:0:
192,192,30163,128,0,30280:0:0:0:0:
320,192,30398,128,0,30515:0:0:0:0:
192,192,30456,128,0,30573:0:0:0:0:
64,192,30515,128,0,30632:0:0:0:0:
320,192,30632,128,0,30866:0:0:0:0:
192,192,30808,128,0,30925:0:0:0:0:
448,192,30808,128,0,30925:0:0:0:0:
64,192,30984,1,0,0:0:0:0:
192,192,30984,1,0,0:0:0:0:
448,192,31023,1,0,0:0:0:0:
320,192,31023,1,0,0:0:0:0:
192,192,31062,1,0,0:0:0:0:
64,192,31062,1,0,0:0:0:0:
448,192,31101,1,0,0:0:0:0:
320,192,31101,1,0,0:0:0:0:
192,192,31140,1,0,0:0:0:0:
64,192,31140,1,0,0:0:0:0:
448,192,31179,1,0,0:0:0:0:
320,192,31179,1,0,0:0:0:0:
64,192,31218,1,0,0:0:0:0:
192,192,31218,1,0,0:0:0:0:
320,192,31335,1,0,0:0:0:0:
448,192,31335,1,0,0:0:0:0:
192,192,31374,1,0,0:0:0:0:
64,192,31374,1,0,0:0:0:0:
448,192,31413,1,0,0:0:0:0:
320,192,31413,1,0,0:0:0:0:
64,192,31452,1,0,0:0:0:0:
192,192,31452,1,0,0:0:0:0:
448,192,31491,1,0,0:0:0:0:
320,192,31491,1,0,0:0:0:0:
192,192,31530,1,0,0:0:0:0:
64,192,31530,1,0,0:0:0:0:
448,192,31569,1,0,0:0:0:0:
320,192,31569,1,0,0:0:0:0:
64,192,31687,1,0,0:0:0:0:
192,192,31687,1,0,0:0:0:0:
448,192,31726,1,0,0:0:0:0:
320,192,31726,1,0,0:0:0:0:
192,192,31765,1,0,0:0:0:0:
64,192,31765,1,0,0:0:0:0:
448,192,31804,1,0,0:0:0:0:
320,192,31804,1,0,0:0:0:0:
192,192,31843,1,0,0:0:0:0:
64,192,31843,1,0,0:0:0:0:
448,192,31882,1,0,0:0:0:0:
320,192,31882,1,0,0:0:0:0:
64,192,31921,128,0,32566:0:0:0:0:
192,192,32155,128,0,32566:0:0:0:0:
320,192,32390,128,0,32566:0:0:0:0:
64,192,32624,1,0,0:0:0:0:
448,192,32624,128,0,32800:0:0:0:0:
320,192,32624,128,0,32741:0:0:0:0:
192,192,32624,128,0,32683:0:0:0:0:
320,192,32859,1,0,0:0:0:0:
192,192,32859,1,0,0:0:0:0:
64,192,32859,1,0,0:0:0:0:
448,192,32917,1,0,0:0:0:0:
64,192,32946,1,0,0:0:0:0:
320,192,32976,1,0,0:0:0:0:
192,192,33005,1,0,0:0:0:0:
64,192,33034,1,0,0:0:0:0:
192,192,33093,1,0,0:0:0:0:
320,192,33093,1,0,0:0:0:0:
448,192,33093,1,0,0:0:0:0:
64,192,33151,1,0,0:0:0:0:
320,192,33181,1,0,0:0:0:0:
192,192,33210,1,0,0:0:0:0:
64,192,33239,1,0,0:0:0:0:
448,192,33269,1,0,0:0:0:0:
192,192,33327,1,0,0:0:0:0:
64,192,33327,1,0,0:0:0:0:
448,192,33386,1,0,0:0:0:0:
64,192,33386,1,0,0:0:0:0:
448,192,33444,1,0,0:0:0:0:
320,192,33444,1,0,0:0:0:0:
64,192,33503,1,0,0:0:0:0:
192,192,33562,1,0,0:0:0:0:
320,192,33562,1,0,0:0:0:0:
448,192,33562,1,0,0:0:0:0:
64,192,33620,1,0,0:0:0:0:
448,192,33650,1,0,0:0:0:0:
320,192,33679,1,0,0:0:0:0:
64,192,33708,1,0,0:0:0:0:
192,192,33737,1,0,0:0:0:0:
64,192,33796,1,0,0:0:0:0:
448,192,33796,1,0,0:0:0:0:
320,192,33825,1,0,0:0:0:0:
192,192,33855,1,0,0:0:0:0:
64,192,33884,1,0,0:0:0:0:
448,192,33913,1,0,0:0:0:0:
320,192,33942,1,0,0:0:0:0:
192,192,33972,1,0,0:0:0:0:
64,192,34030,1,0,0:0:0:0:
448,192,34030,1,0,0:0:0:0:
320,192,34060,1,0,0:0:0:0:
192,192,34089,1,0,0:0:0:0:
64,192,34118,1,0,0:0:0:0:
448,192,34148,1,0,0:0:0:0:
320,192,34177,1,0,0:0:0:0:
192,192,34206,1,0,0:0:0:0:
320,192,34265,1,0,0:0:0:0:
448,192,34265,1,0,0:0:0:0:
64,192,34265,1,0,0:0:0:0:
192,192,34323,1,0,0:0:0:0:
320,192,34353,1,0,0:0:0:0:
64,192,34382,1,0,0:0:0:0:
448,192,34411,1,0,0:0:0:0:
320,192,34441,1,0,0:0:0:0:
192,192,34499,1,0,0:0:0:0:
64,192,34499,1,0,0:0:0:0:
448,192,34499,1,0,0:0:0:0:
320,192,34558,1,0,0:0:0:0:
64,192,34587,1,0,0:0:0:0:
448,192,34616,1,0,0:0:0:0:
320,192,34646,1,0,0:0:0:0:
192,192,34675,1,0,0:0:0:0:
448,192,34734,1,0,0:0:0:0:
64,192,34734,1,0,0:0:0:0:
64,192,34792,1,0,0:0:0:0:
320,192,34792,1,0,0:0:0:0:
192,192,34851,1,0,0:0:0:0:
448,192,34851,1,0,0:0:0:0:
320,192,34909,1,0,0:0:0:0:
448,192,34909,1,0,0:0:0:0:
192,192,34968,1,0,0:0:0:0:
64,192,34968,1,0,0:0:0:0:
64,192,35026,1,0,0:0:0:0:
448,192,35026,1,0,0:0:0:0:
192,192,35085,1,0,0:0:0:0:
320,192,35085,1,0,0:0:0:0:
192,192,35144,1,0,0:0:0:0:
64,192,35144,1,0,0:0:0:0:
448,192,35202,1,0,0:0:0:0:
320,192,35202,1,0,0:0:0:0:
192,192,35261,1,0,0:0:0:0:
64,192,35319,1,0,0:0:0:0:
448,192,35319,1,0,0:0:0:0:
320,192,35319,1,0,0:0:0:0:
320,192,35378,1,0,0:0:0:0:
64,192,35437,1,0,0:0:0:0:
448,192,35437,1,0,0:0:0:0:
192,192,35437,1,0,0:0:0:0:
192,192,35495,1,0,0:0:0:0:
448,192,35525,1,0,0:0:0:0:
320,192,35554,1,0,0:0:0:0:
192,192,35583,1,0,0:0:0:0:
64,192,35612,1,0,0:0:0:0:
448,192,35671,1,0,0:0:0:0:
192,192,35671,1,0,0:0:0:0:
64,192,35700,1,0,0:0:0:0:
320,192,35730,1,0,0:0:0:0:
192,192,35759,1,0,0:0:0:0:
64,192,35788,1,0,0:0:0:0:
448,192,35817,1,0,0:0:0:0:
320,192,35847,1,0,0:0:0:0:
64,192,35905,1,0,0:0:0:0:
192,192,35905,1,0,0:0:0:0:
448,192,35905,1,0,0:0:0:0:
320,192,35964,1,0,0:0:0:0:
448,192,35993,1,0,0:0:0:0:
64,192,36023,1,0,0:0:0:0:
320,192,36052,1,0,0:0:0:0:
192,192,36081,1,0,0:0:0:0:
64,192,36140,1,0,0:0:0:0:
448,192,36140,1,0,0:0:0:0:
320,192,36140,1,0,0:0:0:0:
192,192,36198,1,0,0:0:0:0:
64,192,36228,1,0,0:0:0:0:
320,192,36257,1,0,0:0:0:0:
192,192,36286,1,0,0:0:0:0:
64,192,36316,1,0,0:0:0:0:
320,192,36374,1,0,0:0:0:0:
448,192,36374,1,0,0:0:0:0:
192,192,36374,1,0,0:0:0:0:
64,192,36433,1,0,0:0:0:0:
448,192,36462,1,0,0:0:0:0:
320,192,36491,1,0,0:0:0:0:
192,192,36521,1,0,0:0:0:0:
64,192,36550,1,0,0:0:0:0:
448,192,36609,1,0,0:0:0:0:
192,192,36609,1,0,0:0:0:0:
320,192,36638,1,0,0:0:0:0:
64,192,36667,1,0,0:0:0:0:
448,192,36696,1,0,0:0:0:0:
320,192,36726,1,0,0:0:0:0:
192,192,36755,1,0,0:0:0:0:
64,192,36784,1,0,0:0:0:0:
448,192,36814,1,0,0:0:0:0:
320,192,36843,1,0,0:0:0:0:
192,192,36872,1,0,0:0:0:0:
64,192,36901,1,0,0:0:0:0:
448,192,36931,1,0,0:0:0:0:
320,192,36960,1,0,0:0:0:0:
64,192,36989,1,0,0:0:0:0:
192,192,37019,1,0,0:0:0:0:
448,192,37048,1,0,0:0:0:0:
320,192,37077,1,0,0:0:0:0:
192,192,37107,1,0,0:0:0:0:
64,192,37136,1,0,0:0:0:0:
320,192,37165,1,0,0:0:0:0:
448,192,37194,1,0,0:0:0:0:
192,192,37224,1,0,0:0:0:0:
64,192,37253,1,0,0:0:0:0:
448,192,37282,1,0,0:0:0:0:
320,192,37312,1,0,0:0:0:0:
192,192,37341,1,0,0:0:0:0:
64,192,37370,1,0,0:0:0:0:
448,192,37400,1,0,0:0:0:0:
192,192,37429,1,0,0:0:0:0:
320,192,37458,1,0,0:0:0:0:
448,192,37487,1,0,0:0:0:0:
64,192,37517,1,0,0:0:0:0:
192,192,37546,1,0,0:0:0:0:
320,192,37575,1,0,0:0:0:0:
448,192,37605,1,0,0:0:0:0:
64,192,37634,1,0,0:0:0:0:
192,192,37663,1,0,0:0:0:0:
320,192,37692,1,0,0:0:0:0:
64,192,37722,1,0,0:0:0:0:
192,192,37751,1,0,0:0:0:0:
448,192,37780,1,0,0:0:0:0:
320,192,37810,1,0,0:0:0:0:
64,192,37839,1,0,0:0:0:0:
192,192,37868,1,0,0:0:0:0:
448,192,37898,1,0,0:0:0:0:
64,192,37927,1,0,0:0:0:0:
320,192,37956,1,0,0:0:0:0:
448,192,37985,1,0,0:0:0:0:
192,192,38015,1,0,0:0:0:0:
64,192,38044,1,0,0:0:0:0:
320,192,38073,1,0,0:0:0:0:
192,192,38103,1,0,0:0:0:0:
64,192,38132,1,0,0:0:0:0:
320,192,38161,1,0,0:0:0:0:
448,192,38191,1,0,0:0:0:0:
192,192,38220,1,0,0:0:0:0:
320,192,38249,1,0,0:0:0:0:
448,192,38278,1,0,0:0:0:0:
64,192,38308,1,0,0:0:0:0:
192,192,38337,1,0,0:0:0:0:
448,192,38366,1,0,0:0:0:0:
320,192,38396,1,0,0:0:0:0:
192,192,38425,1,0,0:0:0:0:
320,192,38484,1,0,0:0:0:0:
64,192,38484,1,0,0:0:0:0:
192,192,38513,1,0,0:0:0:0:
448,192,38542,1,0,0:0:0:0:
320,192,38571,1,0,0:0:0:0:
64,192,38601,1,0,0:0:0:0:
192,192,38630,1,0,0:0:0:0:
320,192,38659,1,0,0:0:0:0:
448,192,38689,1,0,0:0:0:0:
64,192,38718,1,0,0:0:0:0:
192,192,38747,1,0,0:0:0:0:
320,192,38776,1,0,0:0:0:0:
448,192,38806,1,0,0:0:0:0:
64,192,38835,1,0,0:0:0:0:
192,192,38864,1,0,0:0:0:0:
320,192,38894,1,0,0:0:0:0:
448,192,38923,1,0,0:0:0:0:
64,192,38952,1,0,0:0:0:0:
192,192,38982,1,0,0:0:0:0:
448,192,39011,1,0,0:0:0:0:
320,192,39040,1,0,0:0:0:0:
192,192,39069,1,0,0:0:0:0:
64,192,39099,1,0,0:0:0:0:
448,192,39128,1,0,0:0:0:0:
320,192,39157,1,0,0:0:0:0:
64,192,39187,1,0,0:0:0:0:
192,192,39216,1,0,0:0:0:0:
320,192,39245,1,0,0:0:0:0:
448,192,39275,1,0,0:0:0:0:
192,192,39304,1,0,0:0:0:0:
320,192,39333,1,0,0:0:0:0:
448,192,39421,128,0,39597:0:0:0:0:
320,192,39421,128,0,39538:0:0:0:0:
192,192,39421,128,0,39480:0:0:0:0:
64,192,39421,1,0,0:0:0:0:
64,192,39655,128,0,39714:0:0:0:0:
192,192,39655,128,0,39714:0:0:0:0:
320,192,39655,1,0,0:0:0:0:
448,192,39655,1,0,0:0:0:0:
64,192,39773,1,0,0:0:0:0:
192,192,39773,128,0,39831:0:0:0:0:
320,192,39773,128,0,39890:0:0:0:0:
448,192,39773,128,0,39948:0:0:0:0:
320,192,40007,1,0,0:0:0:0:
448,192,40007,1,0,0:0:0:0:
64,192,40007,128,0,40066:0:0:0:0:
192,192,40007,128,0,40066:0:0:0:0:
64,192,40124,1,0,0:0:0:0:
192,192,40124,128,0,40183:0:0:0:0:
320,192,40124,128,0,40183:0:0:0:0:
448,192,40124,1,0,0:0:0:0:
64,192,40241,1,0,0:0:0:0:
320,192,40241,128,0,40300:0:0:0:0:
448,192,40241,128,0,40300:0:0:0:0:
192,192,40241,1,0,0:0:0:0:
64,192,40359,1,0,0:0:0:0:
192,192,40359,1,0,0:0:0:0:
64,192,40417,1,0,0:0:0:0:
320,192,40417,1,0,0:0:0:0:
192,192,40446,1,0,0:0:0:0:
448,192,40476,1,0,0:0:0:0:
320,192,40505,1,0,0:0:0:0:
192,192,40534,1,0,0:0:0:0:
64,192,40564,1,0,0:0:0:0:
320,192,40593,1,0,0:0:0:0:
448,192,40593,1,0,0:0:0:0:
448,192,40651,1,0,0:0:0:0:
192,192,40651,1,0,0:0:0:0:
320,192,40681,1,0,0:0:0:0:
64,192,40710,1,0,0:0:0:0:
448,192,40739,1,0,0:0:0:0:
320,192,40769,1,0,0:0:0:0:
192,192,40798,1,0,0:0:0:0:
448,192,40827,1,0,0:0:0:0:
64,192,40827,1,0,0:0:0:0:
64,192,40886,1,0,0:0:0:0:
320,192,40886,1,0,0:0:0:0:
192,192,40915,1,0,0:0:0:0:
448,192,40944,1,0,0:0:0:0:
64,192,40974,1,0,0:0:0:0:
320,192,41003,1,0,0:0:0:0:
448,192,41032,1,0,0:0:0:0:
192,192,41062,1,0,0:0:0:0:
64,192,41062,1,0,0:0:0:0:
192,192,41120,1,0,0:0:0:0:
320,192,41120,1,0,0:0:0:0:
448,192,41150,1,0,0:0:0:0:
64,192,41208,1,0,0:0:0:0:
320,192,41237,1,0,0:0:0:0:
192,192,41267,1,0,0:0:0:0:
448,192,41296,1,0,0:0:0:0:
64,192,41296,1,0,0:0:0:0:
320,192,41355,1,0,0:0:0:0:
448,192,41355,1,0,0:0:0:0:
192,192,41384,1,0,0:0:0:0:
64,192,41413,1,0,0:0:0:0:
448,192,41442,1,0,0:0:0:0:
320,192,41472,1,0,0:0:0:0:
192,192,41501,1,0,0:0:0:0:
448,192,41530,1,0,0:0:0:0:
64,192,41530,1,0,0:0:0:0:
320,192,41589,1,0,0:0:0:0:
448,192,41589,1,0,0:0:0:0:
64,192,41618,1,0,0:0:0:0:
192,192,41648,1,0,0:0:0:0:
448,192,41677,1,0,0:0:0:0:
320,192,41706,1,0,0:0:0:0:
192,192,41735,1,0,0:0:0:0:
448,192,41765,1,0,0:0:0:0:
64,192,41765,1,0,0:0:0:0:
64,192,41823,1,0,0:0:0:0:
192,192,41823,1,0,0:0:0:0:
320,192,41853,1,0,0:0:0:0:
448,192,41882,1,0,0:0:0:0:
192,192,41911,1,0,0:0:0:0:
320,192,41941,1,0,0:0:0:0:
448,192,41970,1,0,0:0:0:0:
192,192,41999,1,0,0:0:0:0:
64,192,41999,1,0,0:0:0:0:
192,192,42058,1,0,0:0:0:0:
320,192,42058,1,0,0:0:0:0:
64,192,42087,1,0,0:0:0:0:
448,192,42116,1,0,0:0:0:0:
320,192,42146,1,0,0:0:0:0:
192,192,42175,1,0,0:0:0:0:
448,192,42204,1,0,0:0:0:0:
64,192,42234,1,0,0:0:0:0:
320,192,42234,1,0,0:0:0:0:
192,192,42263,1,0,0:0:0:0:
448,192,42292,1,0,0:0:0:0:
320,192,42321,1,0,0:0:0:0:
64,192,42351,1,0,0:0:0:0:
192,192,42380,1,0,0:0:0:0:
448,192,42409,1,0,0:0:0:0:
320,192,42439,1,0,0:0:0:0:
64,192,42468,1,0,0:0:0:0:
192,192,42468,1,0,0:0:0:0:
448,192,42497,1,0,0:0:0:0:
320,192,42526,1,0,0:0:0:0:
192,192,42556,1,0,0:0:0:0:
64,192,42585,1,0,0:0:0:0:
320,192,42614,1,0,0:0:0:0:
448,192,42644,1,0,0:0:0:0:
192,192,42673,1,0,0:0:0:0:
64,192,42702,1,0,0:0:0:0:
320,192,42702,1,0,0:0:0:0:
448,192,42732,1,0,0:0:0:0:
192,192,42761,1,0,0:0:0:0:
320,192,42790,1,0,0:0:0:0:
448,192,42819,1,0,0:0:0:0:
64,192,42849,1,0,0:0:0:0:
192,192,42878,1,0,0:0:0:0:
320,192,42907,1,0,0:0:0:0:
64,192,42937,1,0,0:0:0:0:
448,192,42937,1,0,0:0:0:0:
192,192,42966,1,0,0:0:0:0:
320,192,42995,1,0,0:0:0:0:
64,192,43025,1,0,0:0:0:0:
448,192,43054,1,0,0:0:0:0:
320,192,43083,1,0,0:0:0:0:
192,192,43112,1,0,0:0:0:0:
64,192,43142,1,0,0:0:0:0:
448,192,43171,1,0,0:0:0:0:
320,192,43171,1,0,0:0:0:0:
320,192,43230,1,0,0:0:0:0:
192,192,43230,1,0,0:0:0:0:
64,192,43259,1,0,0:0:0:0:
448,192,43288,1,0,0:0:0:0:
320,192,43317,1,0,0:0:0:0:
64,192,43347,1,0,0:0:0:0:
192,192,43376,1,0,0:0:0:0:
448,192,43405,1,0,0:0:0:0:
320,192,43405,1,0,0:0:0:0:
192,192,43464,1,0,0:0:0:0:
448,192,43464,1,0,0:0:0:0:
320,192,43493,1,0,0:0:0:0:
64,192,43523,1,0,0:0:0:0:
192,192,43552,1,0,0:0:0:0:
320,192,43581,1,0,0:0:0:0:
448,192,43640,1,0,0:0:0:0:
192,192,43640,1,0,0:0:0:0:
448,192,43698,1,0,0:0:0:0:
64,192,43698,1,0,0:0:0:0:
192,192,43728,1,0,0:0:0:0:
320,192,43757,1,0,0:0:0:0:
448,192,43786,1,0,0:0:0:0:
64,192,43816,1,0,0:0:0:0:
192,192,43845,1,0,0:0:0:0:
320,192,43874,1,0,0:0:0:0:
448,192,43874,1,0,0:0:0:0:
448,192,43933,1,0,0:0:0:0:
192,192,43933,1,0,0:0:0:0:
320,192,43962,1,0,0:0:0:0:
64,192,43991,1,0,0:0:0:0:
192,192,44021,1,0,0:0:0:0:
320,192,44050,1,0,0:0:0:0:
64,192,44109,128,0,44284:0:0:0:0:
192,192,44109,128,0,44226:0:0:0:0:
448,192,44109,128,0,44167:0:0:0:0:
192,192,44343,1,0,0:0:0:0:
64,192,44343,1,0,0:0:0:0:
192,192,44395,1,0,0:0:0:0:
64,192,44395,1,0,0:0:0:0:
192,192,44447,1,0,0:0:0:0:
64,192,44447,1,0,0:0:0:0:
320,192,44499,1,0,0:0:0:0:
448,192,44499,1,0,0:0:0:0:
320,192,44551,1,0,0:0:0:0:
448,192,44551,1,0,0:0:0:0:
64,192,44636,1,0,0:0:0:0:
192,192,44665,1,0,0:0:0:0:
448,192,44694,1,0,0:0:0:0:
64,192,44724,1,0,0:0:0:0:
320,192,44753,1,0,0:0:0:0:
448,192,44782,1,0,0:0:0:0:
64,192,44812,1,0,0:0:0:0:
192,192,44841,1,0,0:0:0:0:
320,192,44870,1,0,0:0:0:0:
448,192,44900,1,0,0:0:0:0:
64,192,44929,1,0,0:0:0:0:
192,192,44958,1,0,0:0:0:0:
320,192,44987,1,0,0:0:0:0:
448,192,45017,1,0,0:0:0:0:
192,192,45046,1,0,0:0:0:0:
64,192,45046,1,0,0:0:0:0:
64,192,45105,1,0,0:0:0:0:
320,192,45105,1,0,0:0:0:0:
448,192,45134,1,0,0:0:0:0:
192,192,45163,1,0,0:0:0:0:
64,192,45192,1,0,0:0:0:0:
448,192,45222,1,0,0:0:0:0:
320,192,45251,1,0,0:0:0:0:
192,192,45280,1,0,0:0:0:0:
64,192,45310,1,0,0:0:0:0:
448,192,45339,1,0,0:0:0:0:
64,192,45398,1,0,0:0:0:0:
192,192,45398,1,0,0:0:0:0:
320,192,45398,1,0,0:0:0:0:
448,192,45456,1,0,0:0:0:0:
320,192,45485,1,0,0:0:0:0:
192,192,45515,1,0,0:0:0:0:
448,192,45544,1,0,0:0:0:0:
64,192,45573,1,0,0:0:0:0:
192,192,45632,1,0,0:0:0:0:
320,192,45632,1,0,0:0:0:0:
448,192,45632,1,0,0:0:0:0:
64,192,45676,1,0,0:0:0:0:
192,192,45720,1,0,0:0:0:0:
448,192,45749,1,0,0:0:0:0:
320,192,45769,1,0,0:0:0:0:
64,192,45788,1,0,0:0:0:0:
192,192,45808,1,0,0:0:0:0:
448,192,45827,1,0,0:0:0:0:
320,192,45847,1,0,0:0:0:0:
64,192,45866,1,0,0:0:0:0:
192,192,45886,1,0,0:0:0:0:
448,192,45905,1,0,0:0:0:0:
320,192,45925,1,0,0:0:0:0:
64,192,45944,1,0,0:0:0:0:
192,192,45964,1,0,0:0:0:0:
448,192,45984,1,0,0:0:0:0:
320,192,46452,1,0,0:0:0:0:
192,192,46452,1,0,0:0:0:0:
64,192,46452,128,0,46628:0:0:0:0:
448,192,46452,128,0,46569:0:0:0:0:
192,192,46569,128,0,46745:0:0:0:0:
448,192,46687,128,0,47155:0:0:0:0:
320,192,46687,128,0,46804:0:0:0:0:
64,192,46804,128,0,46921:0:0:0:0:
192,192,46862,128,0,46980:0:0:0:0:
320,192,46921,128,0,47038:0:0:0:0:
64,192,46980,128,0,47097:0:0:0:0:
192,192,47038,128,0,47155:0:0:0:0:
320,192,47097,128,0,47214:0:0:0:0:
64,192,47155,128,0,47390:0:0:0:0:
448,192,47214,128,0,47390:0:0:0:0:
320,192,47312,128,0,47546:0:0:0:0:
192,192,47468,128,0,47702:0:0:0:0:
448,192,47468,128,0,47624:0:0:0:0:
64,192,47566,128,0,47800:0:0:0:0:
320,192,47702,128,0,47800:0:0:0:0:
448,192,47859,128,0,48210:0:0:0:0:
192,192,47859,128,0,47976:0:0:0:0:
64,192,47976,128,0,48327:0:0:0:0:
320,192,47976,128,0,48093:0:0:0:0:
192,192,48093,128,0,48444:0:0:0:0:
320,192,48210,128,0,48562:0:0:0:0:
448,192,48327,128,0,48679:0:0:0:0:
64,192,48444,128,0,48796:0:0:0:0:
192,192,48562,128,0,49148:0:0:0:0:
320,192,49265,128,0,49499:0:0:0:0:
64,192,49382,128,0,49616:0:0:0:0:
448,192,49616,128,0,49968:0:0:0:0:
320,192,49734,128,0,50085:0:0:0:0:
64,192,49734,128,0,49851:0:0:0:0:
192,192,49851,128,0,50202:0:0:0:0:
64,192,49968,128,0,50319:0:0:0:0:
448,192,50085,128,0,50319:0:0:0:0:
320,192,50202,128,0,50495:0:0:0:0:
192,192,50319,128,0,50612:0:0:0:0:
64,192,50437,128,0,51023:0:0:0:0:
448,192,50437,128,0,51140:0:0:0:0:
320,192,50554,128,0,50730:0:0:0:0:
192,192,50671,128,0,50847:0:0:0:0:
320,192,50788,128,0,50964:0:0:0:0:
192,192,50905,128,0,51316:0:0:0:0:
320,192,51023,128,0,51433:0:0:0:0:
64,192,51140,128,0,51374:0:0:0:0:
448,192,51257,128,0,51491:0:0:0:0:
192,192,51491,128,0,51726:0:0:0:0:
320,192,51609,128,0,51843:0:0:0:0:
448,192,51609,128,0,51960:0:0:0:0:
64,192,51726,128,0,52077:0:0:0:0:
192,192,51843,128,0,51960:0:0:0:0:
320,192,51960,128,0,52194:0:0:0:0:
448,192,52077,128,0,52312:0:0:0:0:
192,192,52194,128,0,52429:0:0:0:0:
64,192,52312,128,0,52546:0:0:0:0:
448,192,52429,128,0,52663:0:0:0:0:
320,192,52429,128,0,52780:0:0:0:0:
192,192,52546,128,0,52898:0:0:0:0:
64,192,52663,128,0,53015:0:0:0:0:
448,192,52780,128,0,53015:0:0:0:0:
320,192,52898,128,0,53132:0:0:0:0:
192,192,53015,128,0,53249:0:0:0:0:
64,192,53132,128,0,53835:0:0:0:0:
448,192,53132,128,0,53718:0:0:0:0:
192,192,53366,128,0,53542:0:0:0:0:
320,192,53484,128,0,53659:0:0:0:0:
192,192,53601,128,0,53952:0:0:0:0:
320,192,53718,128,0,54069:0:0:0:0:
448,192,53835,128,0,54187:0:0:0:0:
192,192,54187,128,0,54655:0:0:0:0:
64,192,54187,128,0,54421:0:0:0:0:
320,192,54421,128,0,54773:0:0:0:0:
448,192,54538,128,0,54890:0:0:0:0:
192,192,54890,128,0,55124:0:0:0:0:
64,192,54890,128,0,54948:0:0:0:0:
320,192,55007,128,0,55241:0:0:0:0:
448,192,55007,128,0,55066:0:0:0:0:
448,192,55124,128,0,55359:0:0:0:0:
64,192,55124,1,0,0:0:0:0:
192,192,55241,1,0,0:0:0:0:
192,192,55359,128,0,55534:0:0:0:0:
320,192,55359,128,0,55651:0:0:0:0:
64,192,55593,128,0,55944:0:0:0:0:
192,192,55593,128,0,55769:0:0:0:0:
320,192,55710,128,0,55886:0:0:0:0:
448,192,55710,128,0,56062:0:0:0:0:
192,192,55827,128,0,56120:0:0:0:0:
320,192,55944,128,0,56179:0:0:0:0:
64,192,56062,1,0,0:0:0:0:
64,192,56179,128,0,56296:0:0:0:0:
192,192,56179,128,0,56296:0:0:0:0:
448,192,56179,128,0,56296:0:0:0:0:
64,192,56413,128,0,56472:0:0:0:0:
192,192,56413,128,0,56472:0:0:0:0:
448,192,56413,128,0,56472:0:0:0:0:
64,192,56530,128,0,56589:0:0:0:0:
192,192,56530,128,0,56589:0:0:0:0:
448,192,56530,128,0,56589:0:0:0:0:
64,192,56648,128,0,56706:0:0:0:0:
448,192,56648,128,0,56706:0:0:0:0:
448,192,56765,128,0,56882:0:0:0:0:
192,192,56765,1,0,0:0:0:0:
320,192,56765,128,0,56999:0:0:0:0:
192,192,56882,128,0,57116:0:0:0:0:
64,192,56882,128,0,57175:0:0:0:0:
320,192,57116,128,0,57234:0:0:0:0:
448,192,57234,128,0,57468:0:0:0:0:
320,192,57351,128,0,57585:0:0:0:0:
192,192,57468,128,0,57702:0:0:0:0:
64,192,57585,128,0,57819:0:0:0:0:
448,192,57702,128,0,57937:0:0:0:0:
320,192,57702,128,0,57819:0:0:0:0:
192,192,57819,128,0,58054:0:0:0:0:
64,192,57937,128,0,58230:0:0:0:0:
320,192,57937,128,0,58230:0:0:0:0:
448,192,58054,128,0,58230:0:0:0:0:
64,192,58288,128,0,58347:0:0:0:0:
320,192,58288,128,0,58347:0:0:0:0:
448,192,58288,128,0,58347:0:0:0:0:
320,192,58405,128,0,58464:0:0:0:0:
448,192,58405,128,0,58464:0:0:0:0:
64,192,58405,128,0,58464:0:0:0:0:
64,192,58523,128,0,58581:0:0:0:0:
448,192,58523,128,0,58581:0:0:0:0:
64,192,58640,128,0,58757:0:0:0:0:
192,192,58640,128,0,58874:0:0:0:0:
320,192,58757,128,0,58991:0:0:0:0:
448,192,58757,128,0,58874:0:0:0:0:
64,192,58991,128,0,59226:0:0:0:0:
320,192,59109,128,0,59343:0:0:0:0:
192,192,59226,128,0,59460:0:0:0:0:
448,192,59343,128,0,59577:0:0:0:0:
320,192,59460,128,0,59694:0:0:0:0:
64,192,59577,128,0,59812:0:0:0:0:
192,192,59577,1,0,0:0:0:0:
192,192,59694,128,0,59929:0:0:0:0:
448,192,59812,128,0,60105:0:0:0:0:
320,192,59929,128,0,60105:0:0:0:0:
64,192,59929,128,0,60105:0:0:0:0:
64,192,60163,128,0,60222:0:0:0:0:
320,192,60163,128,0,60222:0:0:0:0:
448,192,60163,128,0,60222:0:0:0:0:
64,192,60280,128,0,60456:0:0:0:0:
192,192,60280,128,0,60456:0:0:0:0:
320,192,60280,128,0,60456:0:0:0:0:
64,192,60515,128,0,60691:0:0:0:0:
192,192,60515,128,0,60691:0:0:0:0:
448,192,60515,128,0,60691:0:0:0:0:
320,192,60749,128,0,60866:0:0:0:0:
64,192,60749,128,0,60866:0:0:0:0:
448,192,60749,128,0,60866:0:0:0:0:
64,192,60984,5,0,0:0:0:0:
320,192,60984,1,0,0:0:0:0:
192,192,60984,1,0,0:0:0:0:
448,192,61042,1,0,0:0:0:0:
320,192,61081,1,0,0:0:0:0:
192,192,61120,1,0,0:0:0:0:
64,192,61159,1,0,0:0:0:0:
448,192,61198,1,0,0:0:0:0:
320,192,61237,1,0,0:0:0:0:
192,192,61276,1,0,0:0:0:0:
448,192,61316,1,0,0:0:0:0:
320,192,61355,1,0,0:0:0:0:
448,192,61394,1,0,0:0:0:0:
320,192,61452,1,0,0:0:0:0:
192,192,61452,1,0,0:0:0:0:
64,192,61452,1,0,0:0:0:0:
448,192,61511,1,0,0:0:0:0:
320,192,61550,1,0,0:0:0:0:
64,192,61589,1,0,0:0:0:0:
448,192,61628,1,0,0:0:0:0:
192,192,61667,1,0,0:0:0:0:
320,192,61706,1,0,0:0:0:0:
64,192,61745,1,0,0:0:0:0:
448,192,61784,1,0,0:0:0:0:
192,192,61823,1,0,0:0:0:0:
448,192,61862,1,0,0:0:0:0:
320,192,61921,1,0,0:0:0:0:
192,192,61921,1,0,0:0:0:0:
64,192,61921,1,0,0:0:0:0:
448,192,61980,1,0,0:0:0:0:
192,192,62019,1,0,0:0:0:0:
64,192,62058,1,0,0:0:0:0:
448,192,62097,1,0,0:0:0:0:
320,192,62136,1,0,0:0:0:0:
64,192,62175,1,0,0:0:0:0:
192,192,62214,1,0,0:0:0:0:
448,192,62253,1,0,0:0:0:0:
64,192,62292,1,0,0:0:0:0:
448,192,62331,1,0,0:0:0:0:
192,192,62390,1,0,0:0:0:0:
320,192,62390,1,0,0:0:0:0:
64,192,62390,1,0,0:0:0:0:
320,192,62448,1,0,0:0:0:0:
448,192,62448,1,0,0:0:0:0:
64,192,62507,1,0,0:0:0:0:
192,192,62507,1,0,0:0:0:0:
192,192,62566,1,0,0:0:0:0:
320,192,62566,1,0,0:0:0:0:
448,192,62624,1,0,0:0:0:0:
64,192,62624,1,0,0:0:0:0:
448,192,62683,1,0,0:0:0:0:
192,192,62741,1,0,0:0:0:0:
64,192,62741,1,0,0:0:0:0:
192,192,62800,1,0,0:0:0:0:
320,192,62800,1,0,0:0:0:0:
320,192,62859,1,0,0:0:0:0:
64,192,62859,1,0,0:0:0:0:
448,192,62859,1,0,0:0:0:0:
192,192,62917,1,0,0:0:0:0:
320,192,62956,1,0,0:0:0:0:
448,192,62995,1,0,0:0:0:0:
64,192,63034,1,0,0:0:0:0:
192,192,63073,1,0,0:0:0:0:
320,192,63112,1,0,0:0:0:0:
448,192,63151,1,0,0:0:0:0:
64,192,63191,1,0,0:0:0:0:
320,192,63230,1,0,0:0:0:0:
64,192,63269,1,0,0:0:0:0:
448,192,63327,1,0,0:0:0:0:
320,192,63327,1,0,0:0:0:0:
192,192,63327,1,0,0:0:0:0:
64,192,63386,1,0,0:0:0:0:
192,192,63425,1,0,0:0:0:0:
320,192,63464,1,0,0:0:0:0:
448,192,63503,1,0,0:0:0:0:
192,192,63542,1,0,0:0:0:0:
64,192,63581,1,0,0:0:0:0:
448,192,63620,1,0,0:0:0:0:
320,192,63659,1,0,0:0:0:0:
192,192,63698,1,0,0:0:0:0:
320,192,63737,1,0,0:0:0:0:
448,192,63796,1,0,0:0:0:0:
64,192,63796,1,0,0:0:0:0:
192,192,63796,1,0,0:0:0:0:
192,192,63855,1,0,0:0:0:0:
320,192,63913,1,0,0:0:0:0:
448,192,63913,1,0,0:0:0:0:
320,192,63972,1,0,0:0:0:0:
192,192,64030,1,0,0:0:0:0:
64,192,64030,1,0,0:0:0:0:
64,192,64089,1,0,0:0:0:0:
192,192,64148,1,0,0:0:0:0:
320,192,64148,1,0,0:0:0:0:
192,192,64206,1,0,0:0:0:0:
320,192,64265,1,0,0:0:0:0:
448,192,64265,1,0,0:0:0:0:
320,192,64323,1,0,0:0:0:0:
448,192,64382,1,0,0:0:0:0:
192,192,64382,1,0,0:0:0:0:
192,192,64441,1,0,0:0:0:0:
448,192,64499,1,0,0:0:0:0:
64,192,64499,1,0,0:0:0:0:
448,192,64558,1,0,0:0:0:0:
64,192,64616,1,0,0:0:0:0:
192,192,64616,1,0,0:0:0:0:
64,192,64675,1,0,0:0:0:0:
192,192,64734,1,0,0:0:0:0:
320,192,64734,1,0,0:0:0:0:
448,192,64734,1,0,0:0:0:0:
64,192,64792,1,0,0:0:0:0:
448,192,64831,1,0,0:0:0:0:
320,192,64870,1,0,0:0:0:0:
192,192,64909,1,0,0:0:0:0:
64,192,64948,1,0,0:0:0:0:
448,192,64987,1,0,0:0:0:0:
320,192,65026,1,0,0:0:0:0:
64,192,65066,1,0,0:0:0:0:
192,192,65105,1,0,0:0:0:0:
64,192,65144,1,0,0:0:0:0:
448,192,65202,1,0,0:0:0:0:
320,192,65202,1,0,0:0:0:0:
192,192,65202,1,0,0:0:0:0:
64,192,65261,1,0,0:0:0:0:
448,192,65300,1,0,0:0:0:0:
320,192,65339,1,0,0:0:0:0:
64,192,65378,1,0,0:0:0:0:
448,192,65417,1,0,0:0:0:0:
320,192,65456,1,0,0:0:0:0:
192,192,65495,1,0,0:0:0:0:
64,192,65534,1,0,0:0:0:0:
448,192,65573,1,0,0:0:0:0:
64,192,65612,1,0,0:0:0:0:
448,192,65671,1,0,0:0:0:0:
320,192,65671,1,0,0:0:0:0:
192,192,65671,1,0,0:0:0:0:
192,192,65730,1,0,0:0:0:0:
448,192,65788,1,0,0:0:0:0:
64,192,65788,1,0,0:0:0:0:
320,192,65788,1,0,0:0:0:0:
320,192,65847,1,0,0:0:0:0:
192,192,65905,1,0,0:0:0:0:
64,192,65905,1,0,0:0:0:0:
192,192,65964,1,0,0:0:0:0:
320,192,65964,1,0,0:0:0:0:
320,192,66023,1,0,0:0:0:0:
448,192,66023,1,0,0:0:0:0:
64,192,66023,1,0,0:0:0:0:
64,192,66081,1,0,0:0:0:0:
320,192,66140,1,0,0:0:0:0:
448,192,66140,1,0,0:0:0:0:
320,192,66198,1,0,0:0:0:0:
64,192,66257,1,0,0:0:0:0:
320,192,66257,1,0,0:0:0:0:
64,192,66316,1,0,0:0:0:0:
448,192,66374,1,0,0:0:0:0:
64,192,66374,1,0,0:0:0:0:
448,192,66433,1,0,0:0:0:0:
448,192,66491,1,0,0:0:0:0:
192,192,66491,1,0,0:0:0:0:
192,192,66550,1,0,0:0:0:0:
448,192,66609,1,0,0:0:0:0:
192,192,66609,1,0,0:0:0:0:
64,192,66609,1,0,0:0:0:0:
320,192,66667,1,0,0:0:0:0:
192,192,66706,1,0,0:0:0:0:
64,192,66745,1,0,0:0:0:0:
320,192,66784,1,0,0:0:0:0:
448,192,66823,1,0,0:0:0:0:
64,192,66862,1,0,0:0:0:0:
320,192,66901,1,0,0:0:0:0:
192,192,66941,1,0,0:0:0:0:
448,192,66980,1,0,0:0:0:0:
192,192,67019,1,0,0:0:0:0:
320,192,67077,1,0,0:0:0:0:
448,192,67077,1,0,0:0:0:0:
64,192,67077,1,0,0:0:0:0:
192,192,67136,1,0,0:0:0:0:
320,192,67175,1,0,0:0:0:0:
448,192,67214,1,0,0:0:0:0:
192,192,67253,1,0,0:0:0:0:
64,192,67292,1,0,0:0:0:0:
448,192,67331,1,0,0:0:0:0:
320,192,67370,1,0,0:0:0:0:
64,192,67409,1,0,0:0:0:0:
448,192,67448,1,0,0:0:0:0:
192,192,67487,1,0,0:0:0:0:
64,192,67546,128,0,68425:0:0:0:0:
320,192,67546,1,0,0:0:0:0:
320,192,67644,1,0,0:0:0:0:
192,192,67780,1,0,0:0:0:0:
192,192,67878,1,0,0:0:0:0:
448,192,68015,1,0,0:0:0:0:
448,192,68112,1,0,0:0:0:0:
448,192,68249,1,0,0:0:0:0:
192,192,68308,128,0,68386:0:0:0:0:
320,192,68327,128,0,68405:0:0:0:0:
448,192,68337,128,0,68425:0:0:0:0:
64,192,68484,1,0,0:0:0:0:
192,192,68484,1,0,0:0:0:0:
320,192,68484,1,0,0:0:0:0:
448,192,68484,1,0,0:0:0:0:
192,192,68542,1,0,0:0:0:0:
64,192,68601,1,0,0:0:0:0:
192,192,68659,1,0,0:0:0:0:
64,192,68718,1,0,0:0:0:0:
192,192,68718,1,0,0:0:0:0:
320,192,68718,1,0,0:0:0:0:
448,192,68718,1,0,0:0:0:0:
320,192,68776,1,0,0:0:0:0:
64,192,68835,1,0,0:0:0:0:
448,192,68894,1,0,0:0:0:0:
448,192,68952,1,0,0:0:0:0:
320,192,68952,1,0,0:0:0:0:
192,192,68952,1,0,0:0:0:0:
64,192,68952,1,0,0:0:0:0:
192,192,69011,1,0,0:0:0:0:
64,192,69069,1,0,0:0:0:0:
320,192,69128,1,0,0:0:0:0:
448,192,69187,1,0,0:0:0:0:
320,192,69187,1,0,0:0:0:0:
192,192,69187,1,0,0:0:0:0:
64,192,69187,1,0,0:0:0:0:
64,192,69245,1,0,0:0:0:0:
192,192,69289,1,0,0:0:0:0:
448,192,69362,1,0,0:0:0:0:
448,192,69421,1,0,0:0:0:0:
320,192,69421,1,0,0:0:0:0:
192,192,69421,1,0,0:0:0:0:
64,192,69421,1,0,0:0:0:0:
320,192,69480,1,0,0:0:0:0:
64,192,69538,1,0,0:0:0:0:
320,192,69597,1,0,0:0:0:0:
448,192,69655,1,0,0:0:0:0:
320,192,69655,1,0,0:0:0:0:
192,192,69655,1,0,0:0:0:0:
64,192,69655,1,0,0:0:0:0:
192,192,69714,1,0,0:0:0:0:
64,192,69773,1,0,0:0:0:0:
448,192,69831,1,0,0:0:0:0:
448,192,69890,1,0,0:0:0:0:
320,192,69890,1,0,0:0:0:0:
192,192,69890,1,0,0:0:0:0:
64,192,69890,1,0,0:0:0:0:
320,192,69948,1,0,0:0:0:0:
448,192,70007,1,0,0:0:0:0:
64,192,70066,1,0,0:0:0:0:
448,192,70124,1,0,0:0:0:0:
320,192,70124,1,0,0:0:0:0:
192,192,70124,1,0,0:0:0:0:
64,192,70124,1,0,0:0:0:0:
192,192,70183,1,0,0:0:0:0:
320,192,70241,1,0,0:0:0:0:
448,192,70300,1,0,0:0:0:0:
448,192,70359,1,0,0:0:0:0:
320,192,70359,1,0,0:0:0:0:
64,192,70359,1,0,0:0:0:0:
192,192,70359,1,0,0:0:0:0:
64,192,70417,1,0,0:0:0:0:
320,192,70476,1,0,0:0:0:0:
64,192,70534,1,0,0:0:0:0:
64,192,70593,1,0,0:0:0:0:
192,192,70593,1,0,0:0:0:0:
320,192,70593,1,0,0:0:0:0:
448,192,70593,1,0,0:0:0:0:
192,192,70666,1,0,0:0:0:0:
320,192,70710,1,0,0:0:0:0:
64,192,70769,1,0,0:0:0:0:
448,192,70827,1,0,0:0:0:0:
320,192,70827,1,0,0:0:0:0:
192,192,70827,1,0,0:0:0:0:
64,192,70827,1,0,0:0:0:0:
448,192,70886,1,0,0:0:0:0:
320,192,70930,1,0,0:0:0:0:
192,192,71003,1,0,0:0:0:0:
448,192,71062,5,0,0:0:0:0:
320,192,71062,1,0,0:0:0:0:
192,192,71062,1,0,0:0:0:0:
64,192,71062,1,0,0:0:0:0:
320,192,71120,1,0,0:0:0:0:
64,192,71179,1,0,0:0:0:0:
448,192,71237,1,0,0:0:0:0:
192,192,71296,1,0,0:0:0:0:
64,192,71296,128,0,71355:0:0:0:0:
320,192,71413,1,0,0:0:0:0:
448,192,71413,128,0,71472:0:0:0:0:
320,192,71530,1,0,0:0:0:0:
192,192,71530,128,0,71589:0:0:0:0:
448,192,71648,1,0,0:0:0:0:
64,192,71648,128,0,71706:0:0:0:0:
448,192,71765,1,0,0:0:0:0:
320,192,71765,128,0,71823:0:0:0:0:
64,192,71882,1,0,0:0:0:0:
192,192,71882,128,0,71941:0:0:0:0:
448,192,71999,1,0,0:0:0:0:
64,192,71999,128,0,72058:0:0:0:0:
320,192,72116,1,0,0:0:0:0:
448,192,72116,128,0,72175:0:0:0:0:
64,192,72234,5,0,0:0:0:0:
192,192,72234,1,0,0:0:0:0:
320,192,72234,1,0,0:0:0:0:
64,192,72292,1,0,0:0:0:0:
192,192,72351,1,0,0:0:0:0:
320,192,72351,1,0,0:0:0:0:
448,192,72351,1,0,0:0:0:0:
320,192,72409,1,0,0:0:0:0:
192,192,72468,1,0,0:0:0:0:
64,192,72468,1,0,0:0:0:0:
448,192,72468,1,0,0:0:0:0:
64,192,72526,1,0,0:0:0:0:
192,192,72585,1,0,0:0:0:0:
320,192,72585,1,0,0:0:0:0:
448,192,72585,1,0,0:0:0:0:
448,192,72644,1,0,0:0:0:0:
320,192,72702,1,0,0:0:0:0:
192,192,72702,1,0,0:0:0:0:
64,192,72702,1,0,0:0:0:0:
320,192,72761,1,0,0:0:0:0:
192,192,72819,1,0,0:0:0:0:
64,192,72819,1,0,0:0:0:0:
448,192,72819,1,0,0:0:0:0:
64,192,72878,1,0,0:0:0:0:
192,192,72937,1,0,0:0:0:0:
320,192,72937,1,0,0:0:0:0:
448,192,72937,1,0,0:0:0:0:
192,192,72995,1,0,0:0:0:0:
320,192,73054,1,0,0:0:0:0:
448,192,73054,1,0,0:0:0:0:
64,192,73054,1,0,0:0:0:0:
320,192,73112,1,0,0:0:0:0:
192,192,73171,1,0,0:0:0:0:
64,192,73171,1,0,0:0:0:0:
448,192,73171,1,0,0:0:0:0:
192,192,73230,1,0,0:0:0:0:
320,192,73288,1,0,0:0:0:0:
448,192,73288,1,0,0:0:0:0:
64,192,73288,1,0,0:0:0:0:
320,192,73347,1,0,0:0:0:0:
192,192,73405,1,0,0:0:0:0:
64,192,73405,1,0,0:0:0:0:
448,192,73405,1,0,0:0:0:0:
64,192,73464,1,0,0:0:0:0:
192,192,73523,1,0,0:0:0:0:
320,192,73523,1,0,0:0:0:0:
448,192,73523,1,0,0:0:0:0:
448,192,73581,1,0,0:0:0:0:
320,192,73640,1,0,0:0:0:0:
192,192,73640,1,0,0:0:0:0:
64,192,73640,1,0,0:0:0:0:
64,192,73698,1,0,0:0:0:0:
192,192,73757,1,0,0:0:0:0:
320,192,73757,1,0,0:0:0:0:
448,192,73757,1,0,0:0:0:0:
320,192,73816,1,0,0:0:0:0:
192,192,73874,1,0,0:0:0:0:
64,192,73874,1,0,0:0:0:0:
448,192,73874,1,0,0:0:0:0:
448,192,73933,1,0,0:0:0:0:
320,192,73991,1,0,0:0:0:0:
192,192,73991,1,0,0:0:0:0:
64,192,73991,1,0,0:0:0:0:
192,192,74050,1,0,0:0:0:0:
320,192,74109,1,0,0:0:0:0:
448,192,74109,1,0,0:0:0:0:
192,192,74148,1,0,0:0:0:0:
64,192,74148,1,0,0:0:0:0:
448,192,74187,1,0,0:0:0:0:
320,192,74187,1,0,0:0:0:0:
192,192,74226,1,0,0:0:0:0:
64,192,74226,1,0,0:0:0:0:
448,192,74265,1,0,0:0:0:0:
320,192,74265,1,0,0:0:0:0:
192,192,74304,1,0,0:0:0:0:
64,192,74304,1,0,0:0:0:0:
448,192,74343,1,0,0:0:0:0:
320,192,74343,1,0,0:0:0:0:
192,192,74382,1,0,0:0:0:0:
64,192,74382,1,0,0:0:0:0:
448,192,74421,1,0,0:0:0:0:
320,192,74421,1,0,0:0:0:0:
192,192,74460,1,0,0:0:0:0:
64,192,74460,1,0,0:0:0:0:
448,192,74499,1,0,0:0:0:0:
320,192,74499,1,0,0:0:0:0:
192,192,74538,1,0,0:0:0:0:
64,192,74538,1,0,0:0:0:0:
448,192,74577,1,0,0:0:0:0:
320,192,74577,1,0,0:0:0:0:
192,192,74616,1,0,0:0:0:0:
64,192,74616,1,0,0:0:0:0:
448,192,74655,1,0,0:0:0:0:
320,192,74655,1,0,0:0:0:0:
192,192,74694,1,0,0:0:0:0:
64,192,74694,1,0,0:0:0:0:
448,192,74734,1,0,0:0:0:0:
320,192,74734,1,0,0:0:0:0:
192,192,74773,1,0,0:0:0:0:
64,192,74773,1,0,0:0:0:0:
448,192,74812,1,0,0:0:0:0:
320,192,74812,1,0,0:0:0:0:
192,192,74851,1,0,0:0:0:0:
64,192,74851,1,0,0:0:0:0:
448,192,74890,1,0,0:0:0:0:
320,192,74890,1,0,0:0:0:0:
192,192,74929,1,0,0:0:0:0:
64,192,74929,1,0,0:0:0:0:
448,192,74968,1,0,0:0:0:0:
320,192,74968,1,0,0:0:0:0:
192,192,75007,1,0,0:0:0:0:
64,192,75007,1,0,0:0:0:0:
448,192,75046,128,0,75280:0:0:0:0:
320,192,75046,128,0,75163:0:0:0:0:
64,192,75398,128,0,75691:0:0:0:0:
192,192,75398,128,0,75691:0:0:0:0:
320,192,75515,128,0,75808:0:0:0:0:
448,192,75515,128,0,75808:0:0:0:0:
64,192,75749,128,0,75925:0:0:0:0:
192,192,75749,128,0,75925:0:0:0:0:
320,192,75866,128,0,75925:0:0:0:0:
448,192,75866,128,0,75925:0:0:0:0:
64,192,75984,5,0,0:0:0:0:
192,192,75984,1,0,0:0:0:0:
448,192,75984,1,0,0:0:0:0:
64,192,76042,1,0,0:0:0:0:
320,192,76042,1,0,0:0:0:0:
192,192,76101,1,0,0:0:0:0:
448,192,76101,1,0,0:0:0:0:
320,192,76159,1,0,0:0:0:0:
192,192,76159,1,0,0:0:0:0:
448,192,76218,1,0,0:0:0:0:
64,192,76218,1,0,0:0:0:0:
320,192,76247,1,0,0:0:0:0:
192,192,76276,1,0,0:0:0:0:
64,192,76276,1,0,0:0:0:0:
320,192,76335,1,0,0:0:0:0:
448,192,76335,1,0,0:0:0:0:
448,192,76394,1,0,0:0:0:0:
64,192,76394,1,0,0:0:0:0:
320,192,76452,1,0,0:0:0:0:
192,192,76452,1,0,0:0:0:0:
192,192,76511,1,0,0:0:0:0:
64,192,76511,1,0,0:0:0:0:
320,192,76569,1,0,0:0:0:0:
448,192,76569,1,0,0:0:0:0:
192,192,76599,1,0,0:0:0:0:
64,192,76628,1,0,0:0:0:0:
448,192,76628,1,0,0:0:0:0:
320,192,76687,1,0,0:0:0:0:
192,192,76687,1,0,0:0:0:0:
448,192,76716,1,0,0:0:0:0:
64,192,76745,1,0,0:0:0:0:
320,192,76745,1,0,0:0:0:0:
192,192,76804,1,0,0:0:0:0:
448,192,76804,1,0,0:0:0:0:
320,192,76833,1,0,0:0:0:0:
192,192,76862,1,0,0:0:0:0:
64,192,76862,1,0,0:0:0:0:
448,192,76921,1,0,0:0:0:0:
320,192,76921,1,0,0:0:0:0:
448,192,76980,1,0,0:0:0:0:
192,192,76980,1,0,0:0:0:0:
320,192,77038,1,0,0:0:0:0:
64,192,77038,1,0,0:0:0:0:
192,192,77097,1,0,0:0:0:0:
64,192,77097,1,0,0:0:0:0:
320,192,77155,1,0,0:0:0:0:
448,192,77155,1,0,0:0:0:0:
64,192,77185,1,0,0:0:0:0:
192,192,77214,1,0,0:0:0:0:
320,192,77214,1,0,0:0:0:0:
448,192,77273,1,0,0:0:0:0:
64,192,77273,1,0,0:0:0:0:
320,192,77331,1,0,0:0:0:0:
448,192,77331,1,0,0:0:0:0:
192,192,77390,1,0,0:0:0:0:
64,192,77390,1,0,0:0:0:0:
320,192,77419,1,0,0:0:0:0:
448,192,77448,1,0,0:0:0:0:
192,192,77448,1,0,0:0:0:0:
320,192,77507,1,0,0:0:0:0:
64,192,77507,1,0,0:0:0:0:
192,192,77566,1,0,0:0:0:0:
64,192,77566,1,0,0:0:0:0:
320,192,77624,1,0,0:0:0:0:
448,192,77624,1,0,0:0:0:0:
192,192,77653,1,0,0:0:0:0:
448,192,77683,1,0,0:0:0:0:
64,192,77683,1,0,0:0:0:0:
192,192,77741,1,0,0:0:0:0:
320,192,77741,1,0,0:0:0:0:
320,192,77800,1,0,0:0:0:0:
448,192,77800,1,0,0:0:0:0:
192,192,77859,1,0,0:0:0:0:
64,192,77859,1,0,0:0:0:0:
448,192,77888,1,0,0:0:0:0:
320,192,77917,1,0,0:0:0:0:
192,192,77917,1,0,0:0:0:0:
448,192,77976,1,0,0:0:0:0:
64,192,77976,1,0,0:0:0:0:
320,192,78034,1,0,0:0:0:0:
448,192,78034,1,0,0:0:0:0:
192,192,78093,1,0,0:0:0:0:
64,192,78093,1,0,0:0:0:0:
192,192,78151,1,0,0:0:0:0:
320,192,78151,1,0,0:0:0:0:
448,192,78210,1,0,0:0:0:0:
64,192,78210,1,0,0:0:0:0:
192,192,78269,1,0,0:0:0:0:
64,192,78269,1,0,0:0:0:0:
320,192,78327,1,0,0:0:0:0:
448,192,78327,1,0,0:0:0:0:
64,192,78357,1,0,0:0:0:0:
192,192,78386,1,0,0:0:0:0:
320,192,78386,1,0,0:0:0:0:
448,192,78444,1,0,0:0:0:0:
64,192,78444,1,0,0:0:0:0:
448,192,78503,1,0,0:0:0:0:
192,192,78503,1,0,0:0:0:0:
64,192,78562,1,0,0:0:0:0:
320,192,78562,1,0,0:0:0:0:
192,192,78591,1,0,0:0:0:0:
448,192,78620,1,0,0:0:0:0:
320,192,78620,1,0,0:0:0:0:
192,192,78679,1,0,0:0:0:0:
64,192,78679,1,0,0:0:0:0:
320,192,78737,1,0,0:0:0:0:
192,192,78737,1,0,0:0:0:0:
64,192,78796,1,0,0:0:0:0:
448,192,78796,1,0,0:0:0:0:
64,192,78855,1,0,0:0:0:0:
448,192,78855,1,0,0:0:0:0:
320,192,78913,1,0,0:0:0:0:
192,192,78913,1,0,0:0:0:0:
192,192,78972,1,0,0:0:0:0:
448,192,78972,1,0,0:0:0:0:
320,192,79030,1,0,0:0:0:0:
64,192,79030,1,0,0:0:0:0:
192,192,79089,1,0,0:0:0:0:
320,192,79089,1,0,0:0:0:0:
64,192,79148,1,0,0:0:0:0:
448,192,79148,1,0,0:0:0:0:
192,192,79177,1,0,0:0:0:0:
448,192,79206,1,0,0:0:0:0:
320,192,79265,1,0,0:0:0:0:
192,192,79265,1,0,0:0:0:0:
320,192,79323,1,0,0:0:0:0:
64,192,79323,1,0,0:0:0:0:
192,192,79382,1,0,0:0:0:0:
448,192,79382,1,0,0:0:0:0:
320,192,79441,1,0,0:0:0:0:
192,192,79441,1,0,0:0:0:0:
448,192,79499,1,0,0:0:0:0:
64,192,79499,1,0,0:0:0:0:
192,192,79528,1,0,0:0:0:0:
320,192,79558,1,0,0:0:0:0:
448,192,79558,1,0,0:0:0:0:
64,192,79616,1,0,0:0:0:0:
192,192,79616,1,0,0:0:0:0:
64,192,79675,1,0,0:0:0:0:
320,192,79675,1,0,0:0:0:0:
448,192,79734,1,0,0:0:0:0:
192,192,79734,1,0,0:0:0:0:
320,192,79763,1,0,0:0:0:0:
448,192,79792,1,0,0:0:0:0:
64,192,79792,1,0,0:0:0:0:
192,192,79851,1,0,0:0:0:0:
320,192,79851,1,0,0:0:0:0:
192,192,79909,1,0,0:0:0:0:
64,192,79909,1,0,0:0:0:0:
448,192,79968,1,0,0:0:0:0:
320,192,79968,1,0,0:0:0:0:
64,192,79997,1,0,0:0:0:0:
192,192,80026,1,0,0:0:0:0:
320,192,80026,1,0,0:0:0:0:
448,192,80085,1,0,0:0:0:0:
64,192,80085,1,0,0:0:0:0:
192,192,80144,1,0,0:0:0:0:
64,192,80144,1,0,0:0:0:0:
320,192,80202,1,0,0:0:0:0:
448,192,80202,1,0,0:0:0:0:
448,192,80261,1,0,0:0:0:0:
64,192,80261,1,0,0:0:0:0:
320,192,80319,1,0,0:0:0:0:
192,192,80319,1,0,0:0:0:0:
320,192,80378,1,0,0:0:0:0:
64,192,80378,1,0,0:0:0:0:
192,192,80437,1,0,0:0:0:0:
448,192,80437,1,0,0:0:0:0:
64,192,80466,1,0,0:0:0:0:
320,192,80495,1,0,0:0:0:0:
192,192,80495,1,0,0:0:0:0:
448,192,80554,1,0,0:0:0:0:
64,192,80554,1,0,0:0:0:0:
192,192,80612,1,0,0:0:0:0:
64,192,80612,1,0,0:0:0:0:
320,192,80671,1,0,0:0:0:0:
448,192,80671,1,0,0:0:0:0:
448,192,80730,1,0,0:0:0:0:
192,192,80730,1,0,0:0:0:0:
320,192,80788,1,0,0:0:0:0:
64,192,80788,1,0,0:0:0:0:
192,192,80847,1,0,0:0:0:0:
320,192,80847,1,0,0:0:0:0:
448,192,80905,1,0,0:0:0:0:
64,192,80905,1,0,0:0:0:0:
320,192,80935,1,0,0:0:0:0:
192,192,80964,1,0,0:0:0:0:
64,192,80964,1,0,0:0:0:0:
320,192,81023,1,0,0:0:0:0:
448,192,81023,1,0,0:0:0:0:
448,192,81081,1,0,0:0:0:0:
192,192,81081,1,0,0:0:0:0:
320,192,81140,1,0,0:0:0:0:
64,192,81140,1,0,0:0:0:0:
192,192,81169,1,0,0:0:0:0:
448,192,81198,1,0,0:0:0:0:
64,192,81198,1,0,0:0:0:0:
320,192,81257,1,0,0:0:0:0:
192,192,81257,1,0,0:0:0:0:
448,192,81286,1,0,0:0:0:0:
192,192,81316,1,0,0:0:0:0:
64,192,81316,1,0,0:0:0:0:
320,192,81374,1,0,0:0:0:0:
448,192,81374,1,0,0:0:0:0:
192,192,81403,1,0,0:0:0:0:
64,192,81433,1,0,0:0:0:0:
320,192,81433,1,0,0:0:0:0:
448,192,81491,1,0,0:0:0:0:
192,192,81491,1,0,0:0:0:0:
320,192,81550,1,0,0:0:0:0:
192,192,81550,1,0,0:0:0:0:
448,192,81609,1,0,0:0:0:0:
64,192,81609,1,0,0:0:0:0:
320,192,81638,1,0,0:0:0:0:
192,192,81667,1,0,0:0:0:0:
64,192,81667,1,0,0:0:0:0:
448,192,81726,1,0,0:0:0:0:
320,192,81726,1,0,0:0:0:0:
448,192,81784,1,0,0:0:0:0:
64,192,81784,1,0,0:0:0:0:
192,192,81843,1,0,0:0:0:0:
320,192,81843,1,0,0:0:0:0:
192,192,81901,1,0,0:0:0:0:
448,192,81960,1,0,0:0:0:0:
64,192,81960,1,0,0:0:0:0:
320,192,82019,1,0,0:0:0:0:
448,192,82019,1,0,0:0:0:0:
192,192,82077,1,0,0:0:0:0:
64,192,82077,1,0,0:0:0:0:
64,192,82136,1,0,0:0:0:0:
320,192,82194,1,0,0:0:0:0:
192,192,82194,1,0,0:0:0:0:
448,192,82253,1,0,0:0:0:0:
192,192,82253,1,0,0:0:0:0:
64,192,82312,1,0,0:0:0:0:
320,192,82312,1,0,0:0:0:0:
320,192,82370,1,0,0:0:0:0:
192,192,82429,1,0,0:0:0:0:
448,192,82429,1,0,0:0:0:0:
448,192,82487,1,0,0:0:0:0:
320,192,82487,1,0,0:0:0:0:
64,192,82546,1,0,0:0:0:0:
192,192,82546,1,0,0:0:0:0:
192,192,82605,1,0,0:0:0:0:
64,192,82605,1,0,0:0:0:0:
448,192,82663,1,0,0:0:0:0:
320,192,82663,1,0,0:0:0:0:
448,192,82722,1,0,0:0:0:0:
320,192,82722,1,0,0:0:0:0:
64,192,82780,1,0,0:0:0:0:
192,192,82780,1,0,0:0:0:0:
320,192,82819,1,0,0:0:0:0:
448,192,82819,1,0,0:0:0:0:
192,192,82859,1,0,0:0:0:0:
64,192,82859,1,0,0:0:0:0:
320,192,82898,1,0,0:0:0:0:
448,192,82898,1,0,0:0:0:0:
192,192,82937,1,0,0:0:0:0:
64,192,82937,1,0,0:0:0:0:
448,192,82976,1,0,0:0:0:0:
320,192,82976,1,0,0:0:0:0:
192,192,83015,1,0,0:0:0:0:
64,192,83015,1,0,0:0:0:0:
320,192,83073,1,0,0:0:0:0:
448,192,83073,1,0,0:0:0:0:
64,192,83132,1,0,0:0:0:0:
448,192,83132,1,0,0:0:0:0:
64,192,83191,1,0,0:0:0:0:
320,192,83191,1,0,0:0:0:0:
192,192,83249,1,0,0:0:0:0:
448,192,83249,1,0,0:0:0:0:
320,192,83278,1,0,0:0:0:0:
64,192,83308,1,0,0:0:0:0:
192,192,83337,1,0,0:0:0:0:
448,192,83366,1,0,0:0:0:0:
320,192,83396,1,0,0:0:0:0:
64,192,83425,1,0,0:0:0:0:
192,192,83454,1,0,0:0:0:0:
448,192,83484,1,0,0:0:0:0:
320,192,83484,1,0,0:0:0:0:
64,192,83513,1,0,0:0:0:0:
192,192,83542,1,0,0:0:0:0:
320,192,83571,1,0,0:0:0:0:
448,192,83601,1,0,0:0:0:0:
192,192,83630,1,0,0:0:0:0:
64,192,83659,1,0,0:0:0:0:
320,192,83689,1,0,0:0:0:0:
448,192,83718,1,0,0:0:0:0:
192,192,83718,1,0,0:0:0:0:
64,192,83747,1,0,0:0:0:0:
448,192,83776,1,0,0:0:0:0:
320,192,83776,1,0,0:0:0:0:
192,192,83835,1,0,0:0:0:0:
64,192,83835,1,0,0:0:0:0:
448,192,83864,1,0,0:0:0:0:
192,192,83894,1,0,0:0:0:0:
320,192,83894,1,0,0:0:0:0:
448,192,83952,1,0,0:0:0:0:
64,192,83952,1,0,0:0:0:0:
320,192,83982,1,0,0:0:0:0:
192,192,84011,1,0,0:0:0:0:
64,192,84011,1,0,0:0:0:0:
320,192,84069,1,0,0:0:0:0:
448,192,84069,1,0,0:0:0:0:
448,192,84128,1,0,0:0:0:0:
192,192,84128,1,0,0:0:0:0:
320,192,84187,1,0,0:0:0:0:
64,192,84187,1,0,0:0:0:0:
192,192,84245,1,0,0:0:0:0:
64,192,84245,1,0,0:0:0:0:
448,192,84275,1,0,0:0:0:0:
320,192,84304,1,0,0:0:0:0:
64,192,84333,1,0,0:0:0:0:
448,192,84362,1,0,0:0:0:0:
192,192,84392,1,0,0:0:0:0:
320,192,84421,1,0,0:0:0:0:
64,192,84450,1,0,0:0:0:0:
448,192,84480,1,0,0:0:0:0:
320,192,84509,1,0,0:0:0:0:
64,192,84538,1,0,0:0:0:0:
448,192,84567,1,0,0:0:0:0:
192,192,84597,1,0,0:0:0:0:
320,192,84626,1,0,0:0:0:0:
64,192,84655,1,0,0:0:0:0:
448,192,84655,1,0,0:0:0:0:
64,192,84714,1,0,0:0:0:0:
192,192,84714,1,0,0:0:0:0:
320,192,84773,1,0,0:0:0:0:
448,192,84773,1,0,0:0:0:0:
448,192,84831,1,0,0:0:0:0:
64,192,84831,1,0,0:0:0:0:
320,192,84890,1,0,0:0:0:0:
192,192,84890,1,0,0:0:0:0:
192,192,84948,1,0,0:0:0:0:
448,192,84948,1,0,0:0:0:0:
320,192,85007,1,0,0:0:0:0:
64,192,85007,1,0,0:0:0:0:
192,192,85066,1,0,0:0:0:0:
320,192,85066,1,0,0:0:0:0:
64,192,85124,1,0,0:0:0:0:
448,192,85124,1,0,0:0:0:0:
320,192,85183,1,0,0:0:0:0:
448,192,85183,1,0,0:0:0:0:
192,192,85241,1,0,0:0:0:0:
64,192,85241,1,0,0:0:0:0:
64,192,85300,1,0,0:0:0:0:
448,192,85300,1,0,0:0:0:0:
320,192,85359,1,0,0:0:0:0:
192,192,85359,1,0,0:0:0:0:
320,192,85417,1,0,0:0:0:0:
448,192,85417,1,0,0:0:0:0:
192,192,85476,1,0,0:0:0:0:
64,192,85476,1,0,0:0:0:0:
64,192,85534,1,0,0:0:0:0:
448,192,85534,1,0,0:0:0:0:
320,192,85593,1,0,0:0:0:0:
192,192,85593,1,0,0:0:0:0:
448,192,85622,1,0,0:0:0:0:
64,192,85651,1,0,0:0:0:0:
320,192,85651,1,0,0:0:0:0:
192,192,85710,1,0,0:0:0:0:
448,192,85710,1,0,0:0:0:0:
64,192,85739,1,0,0:0:0:0:
320,192,85769,1,0,0:0:0:0:
192,192,85769,1,0,0:0:0:0:
448,192,85827,1,0,0:0:0:0:
64,192,85827,1,0,0:0:0:0:
320,192,85857,1,0,0:0:0:0:
192,192,85886,1,0,0:0:0:0:
64,192,85886,1,0,0:0:0:0:
320,192,85944,1,0,0:0:0:0:
448,192,85944,1,0,0:0:0:0:
448,192,86003,1,0,0:0:0:0:
64,192,86003,1,0,0:0:0:0:
320,192,86062,1,0,0:0:0:0:
192,192,86062,1,0,0:0:0:0:
192,192,86120,1,0,0:0:0:0:
64,192,86120,1,0,0:0:0:0:
448,192,86179,1,0,0:0:0:0:
320,192,86208,1,0,0:0:0:0:
192,192,86237,1,0,0:0:0:0:
64,192,86267,1,0,0:0:0:0:
448,192,86296,1,0,0:0:0:0:
320,192,86325,1,0,0:0:0:0:
192,192,86355,1,0,0:0:0:0:
448,192,86384,1,0,0:0:0:0:
320,192,86413,1,0,0:0:0:0:
64,192,86442,1,0,0:0:0:0:
192,192,86472,1,0,0:0:0:0:
448,192,86501,1,0,0:0:0:0:
320,192,86530,1,0,0:0:0:0:
64,192,86530,1,0,0:0:0:0:
320,192,86589,1,0,0:0:0:0:
448,192,86589,1,0,0:0:0:0:
64,192,86648,1,0,0:0:0:0:
192,192,86648,1,0,0:0:0:0:
192,192,86706,1,0,0:0:0:0:
448,192,86706,1,0,0:0:0:0:
320,192,86765,1,0,0:0:0:0:
64,192,86765,1,0,0:0:0:0:
64,192,86823,1,0,0:0:0:0:
448,192,86823,1,0,0:0:0:0:
192,192,86882,1,0,0:0:0:0:
320,192,86882,1,0,0:0:0:0:
64,192,86941,1,0,0:0:0:0:
320,192,86941,1,0,0:0:0:0:
192,192,86999,1,0,0:0:0:0:
448,192,86999,1,0,0:0:0:0:
448,192,87058,1,0,0:0:0:0:
64,192,87058,1,0,0:0:0:0:
192,192,87116,1,0,0:0:0:0:
320,192,87116,1,0,0:0:0:0:
192,192,87175,1,0,0:0:0:0:
448,192,87175,1,0,0:0:0:0:
320,192,87234,1,0,0:0:0:0:
64,192,87234,1,0,0:0:0:0:
192,192,87292,1,0,0:0:0:0:
64,192,87292,1,0,0:0:0:0:
320,192,87351,1,0,0:0:0:0:
448,192,87351,1,0,0:0:0:0:
448,192,87409,1,0,0:0:0:0:
192,192,87409,1,0,0:0:0:0:
320,192,87468,1,0,0:0:0:0:
64,192,87468,1,0,0:0:0:0:
192,192,87497,1,0,0:0:0:0:
448,192,87526,1,0,0:0:0:0:
64,192,87526,1,0,0:0:0:0:
320,192,87585,1,0,0:0:0:0:
192,192,87585,1,0,0:0:0:0:
448,192,87614,1,0,0:0:0:0:
320,192,87644,1,0,0:0:0:0:
64,192,87644,1,0,0:0:0:0:
192,192,87702,1,0,0:0:0:0:
448,192,87702,1,0,0:0:0:0:
320,192,87732,1,0,0:0:0:0:
448,192,87761,1,0,0:0:0:0:
64,192,87761,1,0,0:0:0:0:
192,192,87819,1,0,0:0:0:0:
320,192,87819,1,0,0:0:0:0:
192,192,87878,1,0,0:0:0:0:
64,192,87878,1,0,0:0:0:0:
320,192,87937,1,0,0:0:0:0:
448,192,87937,1,0,0:0:0:0:
192,192,87966,1,0,0:0:0:0:
448,192,87995,1,0,0:0:0:0:
64,192,87995,1,0,0:0:0:0:
320,192,88054,1,0,0:0:0:0:
192,192,88054,1,0,0:0:0:0:
448,192,88083,1,0,0:0:0:0:
192,192,88112,1,0,0:0:0:0:
64,192,88112,1,0,0:0:0:0:
320,192,88171,1,0,0:0:0:0:
448,192,88171,1,0,0:0:0:0:
448,192,88230,1,0,0:0:0:0:
192,192,88230,1,0,0:0:0:0:
320,192,88288,1,0,0:0:0:0:
64,192,88288,1,0,0:0:0:0:
192,192,88347,1,0,0:0:0:0:
320,192,88347,1,0,0:0:0:0:
448,192,88405,1,0,0:0:0:0:
192,192,88405,1,0,0:0:0:0:
448,192,88464,1,0,0:0:0:0:
64,192,88464,1,0,0:0:0:0:
320,192,88523,1,0,0:0:0:0:
192,192,88523,1,0,0:0:0:0:
192,192,88581,1,0,0:0:0:0:
64,192,88581,1,0,0:0:0:0:
320,192,88640,1,0,0:0:0:0:
448,192,88640,1,0,0:0:0:0:
320,192,88698,1,0,0:0:0:0:
192,192,88698,1,0,0:0:0:0:
64,192,88757,1,0,0:0:0:0:
448,192,88757,1,0,0:0:0:0:
192,192,88816,1,0,0:0:0:0:
64,192,88816,1,0,0:0:0:0:
320,192,88874,1,0,0:0:0:0:
448,192,88874,1,0,0:0:0:0:
448,192,88933,1,0,0:0:0:0:
64,192,88933,1,0,0:0:0:0:
320,192,88991,1,0,0:0:0:0:
192,192,88991,1,0,0:0:0:0:
192,192,89050,1,0,0:0:0:0:
448,192,89050,1,0,0:0:0:0:
320,192,89109,1,0,0:0:0:0:
64,192,89109,1,0,0:0:0:0:
448,192,89109,1,0,0:0:0:0:
320,192,89167,1,0,0:0:0:0:
192,192,89167,1,0,0:0:0:0:
192,192,89226,1,0,0:0:0:0:
64,192,89226,1,0,0:0:0:0:
448,192,89226,1,0,0:0:0:0:
320,192,89284,1,0,0:0:0:0:
448,192,89284,1,0,0:0:0:0:
64,192,89343,1,0,0:0:0:0:
192,192,89343,1,0,0:0:0:0:
320,192,89372,1,0,0:0:0:0:
64,192,89401,1,0,0:0:0:0:
448,192,89401,1,0,0:0:0:0:
320,192,89460,1,0,0:0:0:0:
192,192,89460,1,0,0:0:0:0:
64,192,89489,1,0,0:0:0:0:
448,192,89519,1,0,0:0:0:0:
320,192,89519,1,0,0:0:0:0:
192,192,89577,1,0,0:0:0:0:
64,192,89577,1,0,0:0:0:0:
320,192,89607,1,0,0:0:0:0:
192,192,89636,1,0,0:0:0:0:
448,192,89636,1,0,0:0:0:0:
320,192,89694,1,0,0:0:0:0:
64,192,89694,1,0,0:0:0:0:
192,192,89724,1,0,0:0:0:0:
448,192,89753,1,0,0:0:0:0:
320,192,89753,1,0,0:0:0:0:
192,192,89812,5,0,0:0:0:0:
64,192,89812,1,0,0:0:0:0:
320,192,89841,1,0,0:0:0:0:
448,192,89870,1,0,0:0:0:0:
64,192,89870,1,0,0:0:0:0:
192,192,89929,1,0,0:0:0:0:
320,192,89929,1,0,0:0:0:0:
64,192,89958,1,0,0:0:0:0:
448,192,89987,1,0,0:0:0:0:
320,192,89987,1,0,0:0:0:0:
64,192,90046,5,0,0:0:0:0:
192,192,90046,1,0,0:0:0:0:
64,192,90105,1,0,0:0:0:0:
192,192,90105,1,0,0:0:0:0:
448,192,90163,1,0,0:0:0:0:
320,192,90163,1,0,0:0:0:0:
448,192,90222,1,0,0:0:0:0:
320,192,90222,1,0,0:0:0:0:
64,192,90280,1,0,0:0:0:0:
192,192,90280,1,0,0:0:0:0:
448,192,90339,1,0,0:0:0:0:
320,192,90339,1,0,0:0:0:0:
64,192,90398,1,0,0:0:0:0:
192,192,90398,1,0,0:0:0:0:
64,192,90456,1,0,0:0:0:0:
192,192,90456,1,0,0:0:0:0:
448,192,90515,1,0,0:0:0:0:
320,192,90515,1,0,0:0:0:0:
192,192,90554,1,0,0:0:0:0:
64,192,90554,1,0,0:0:0:0:
320,192,90593,1,0,0:0:0:0:
448,192,90593,1,0,0:0:0:0:
192,192,90632,1,0,0:0:0:0:
64,192,90632,1,0,0:0:0:0:
320,192,90671,1,0,0:0:0:0:
448,192,90671,1,0,0:0:0:0:
192,192,90710,1,0,0:0:0:0:
64,192,90710,1,0,0:0:0:0:
448,192,90749,1,0,0:0:0:0:
320,192,90749,1,0,0:0:0:0:
192,192,90788,1,0,0:0:0:0:
64,192,90788,1,0,0:0:0:0:
320,192,90827,1,0,0:0:0:0:
448,192,90827,1,0,0:0:0:0:
192,192,90866,1,0,0:0:0:0:
64,192,90866,1,0,0:0:0:0:
448,192,90905,1,0,0:0:0:0:
320,192,90905,1,0,0:0:0:0:
192,192,90944,1,0,0:0:0:0:
64,192,90944,1,0,0:0:0:0:
64,192,91218,1,0,0:0:0:0:
320,192,91218,1,0,0:0:0:0:
192,192,91218,1,0,0:0:0:0:
64,192,91276,1,0,0:0:0:0:
448,192,91276,1,0,0:0:0:0:
192,192,91335,1,0,0:0:0:0:
320,192,91335,1,0,0:0:0:0:
192,192,91394,1,0,0:0:0:0:
448,192,91394,1,0,0:0:0:0:
320,192,91452,1,0,0:0:0:0:
64,192,91452,1,0,0:0:0:0:
448,192,91482,1,0,0:0:0:0:
192,192,91511,1,0,0:0:0:0:
64,192,91511,1,0,0:0:0:0:
320,192,91569,1,0,0:0:0:0:
448,192,91569,1,0,0:0:0:0:
448,192,91628,1,0,0:0:0:0:
64,192,91628,1,0,0:0:0:0:
320,192,91687,1,0,0:0:0:0:
192,192,91687,1,0,0:0:0:0:
320,192,91745,1,0,0:0:0:0:
64,192,91745,1,0,0:0:0:0:
192,192,91804,1,0,0:0:0:0:
448,192,91804,1,0,0:0:0:0:
64,192,91833,1,0,0:0:0:0:
320,192,91862,1,0,0:0:0:0:
192,192,91862,1,0,0:0:0:0:
64,192,91921,1,0,0:0:0:0:
448,192,91921,1,0,0:0:0:0:
192,192,91950,1,0,0:0:0:0:
320,192,91980,1,0,0:0:0:0:
64,192,91980,1,0,0:0:0:0:
192,192,92038,1,0,0:0:0:0:
448,192,92038,1,0,0:0:0:0:
448,192,92097,1,0,0:0:0:0:
64,192,92097,1,0,0:0:0:0:
192,192,92155,1,0,0:0:0:0:
320,192,92155,1,0,0:0:0:0:
448,192,92185,1,0,0:0:0:0:
64,192,92214,1,0,0:0:0:0:
320,192,92214,1,0,0:0:0:0:
192,192,92273,1,0,0:0:0:0:
448,192,92273,1,0,0:0:0:0:
320,192,92331,1,0,0:0:0:0:
192,192,92331,1,0,0:0:0:0:
448,192,92390,1,0,0:0:0:0:
64,192,92390,1,0,0:0:0:0:
320,192,92419,1,0,0:0:0:0:
64,192,92448,1,0,0:0:0:0:
192,192,92448,1,0,0:0:0:0:
320,192,92507,1,0,0:0:0:0:
448,192,92507,1,0,0:0:0:0:
448,192,92566,1,0,0:0:0:0:
192,192,92566,1,0,0:0:0:0:
320,192,92624,1,0,0:0:0:0:
64,192,92624,1,0,0:0:0:0:
448,192,92653,1,0,0:0:0:0:
192,192,92683,1,0,0:0:0:0:
64,192,92683,1,0,0:0:0:0:
320,192,92741,1,0,0:0:0:0:
448,192,92741,1,0,0:0:0:0:
320,192,92800,1,0,0:0:0:0:
192,192,92800,1,0,0:0:0:0:
448,192,92859,1,0,0:0:0:0:
64,192,92859,1,0,0:0:0:0:
64,192,92917,1,0,0:0:0:0:
448,192,92917,1,0,0:0:0:0:
320,192,92976,1,0,0:0:0:0:
192,192,92976,1,0,0:0:0:0:
192,192,93034,1,0,0:0:0:0:
64,192,93034,1,0,0:0:0:0:
320,192,93093,1,0,0:0:0:0:
448,192,93093,1,0,0:0:0:0:
448,192,93151,1,0,0:0:0:0:
64,192,93151,1,0,0:0:0:0:
320,192,93210,1,0,0:0:0:0:
192,192,93210,1,0,0:0:0:0:
448,192,93239,1,0,0:0:0:0:
192,192,93269,1,0,0:0:0:0:
320,192,93327,1,0,0:0:0:0:
64,192,93327,1,0,0:0:0:0:
192,192,93386,1,0,0:0:0:0:
64,192,93386,1,0,0:0:0:0:
320,192,93444,1,0,0:0:0:0:
448,192,93444,1,0,0:0:0:0:
448,192,93503,1,0,0:0:0:0:
192,192,93503,1,0,0:0:0:0:
320,192,93562,1,0,0:0:0:0:
64,192,93562,1,0,0:0:0:0:
192,192,93620,1,0,0:0:0:0:
64,192,93620,1,0,0:0:0:0:
320,192,93679,1,0,0:0:0:0:
448,192,93679,1,0,0:0:0:0:
320,192,93737,1,0,0:0:0:0:
64,192,93737,1,0,0:0:0:0:
192,192,93796,1,0,0:0:0:0:
448,192,93796,1,0,0:0:0:0:
320,192,93825,1,0,0:0:0:0:
192,192,93855,1,0,0:0:0:0:
64,192,93855,1,0,0:0:0:0:
320,192,93913,1,0,0:0:0:0:
448,192,93913,1,0,0:0:0:0:
192,192,93972,1,0,0:0:0:0:
448,192,93972,1,0,0:0:0:0:
64,192,94030,1,0,0:0:0:0:
320,192,94030,1,0,0:0:0:0:
448,192,94060,1,0,0:0:0:0:
192,192,94089,1,0,0:0:0:0:
64,192,94089,1,0,0:0:0:0:
320,192,94148,1,0,0:0:0:0:
448,192,94148,1,0,0:0:0:0:
192,192,94206,1,0,0:0:0:0:
320,192,94206,1,0,0:0:0:0:
448,192,94265,1,0,0:0:0:0:
64,192,94265,1,0,0:0:0:0:
320,192,94323,1,0,0:0:0:0:
448,192,94323,1,0,0:0:0:0:
320,192,94382,1,0,0:0:0:0:
192,192,94382,1,0,0:0:0:0:
192,192,94441,1,0,0:0:0:0:
64,192,94441,1,0,0:0:0:0:
64,192,94499,1,0,0:0:0:0:
448,192,94499,1,0,0:0:0:0:
192,192,94558,1,0,0:0:0:0:
320,192,94558,1,0,0:0:0:0:
64,192,94616,1,0,0:0:0:0:
448,192,94616,1,0,0:0:0:0:
448,192,94675,1,0,0:0:0:0:
320,192,94675,1,0,0:0:0:0:
320,192,94734,1,0,0:0:0:0:
192,192,94734,1,0,0:0:0:0:
64,192,94792,1,0,0:0:0:0:
448,192,94792,1,0,0:0:0:0:
320,192,94851,1,0,0:0:0:0:
192,192,94851,1,0,0:0:0:0:
192,192,94909,1,0,0:0:0:0:
64,192,94909,1,0,0:0:0:0:
320,192,94968,1,0,0:0:0:0:
448,192,94968,1,0,0:0:0:0:
64,192,94997,1,0,0:0:0:0:
192,192,95026,1,0,0:0:0:0:
448,192,95026,1,0,0:0:0:0:
320,192,95085,1,0,0:0:0:0:
64,192,95085,1,0,0:0:0:0:
192,192,95144,1,0,0:0:0:0:
320,192,95144,1,0,0:0:0:0:
448,192,95202,1,0,0:0:0:0:
64,192,95202,1,0,0:0:0:0:
192,192,95261,1,0,0:0:0:0:
64,192,95261,1,0,0:0:0:0:
320,192,95319,1,0,0:0:0:0:
448,192,95319,1,0,0:0:0:0:
192,192,95378,1,0,0:0:0:0:
448,192,95378,1,0,0:0:0:0:
320,192,95437,1,0,0:0:0:0:
64,192,95437,1,0,0:0:0:0:
192,192,95495,1,0,0:0:0:0:
320,192,95495,1,0,0:0:0:0:
64,192,95554,1,0,0:0:0:0:
448,192,95554,1,0,0:0:0:0:
192,192,95583,1,0,0:0:0:0:
320,192,95612,1,0,0:0:0:0:
448,192,95642,1,0,0:0:0:0:
64,192,95671,1,0,0:0:0:0:
192,192,95700,1,0,0:0:0:0:
320,192,95730,1,0,0:0:0:0:
64,192,95759,1,0,0:0:0:0:
192,192,95788,1,0,0:0:0:0:
448,192,95788,1,0,0:0:0:0:
320,192,95847,1,0,0:0:0:0:
448,192,95847,1,0,0:0:0:0:
192,192,95905,1,0,0:0:0:0:
64,192,95905,1,0,0:0:0:0:
448,192,95935,1,0,0:0:0:0:
64,192,95964,1,0,0:0:0:0:
320,192,95964,1,0,0:0:0:0:
192,192,96023,1,0,0:0:0:0:
448,192,96023,1,0,0:0:0:0:
320,192,96081,1,0,0:0:0:0:
192,192,96081,1,0,0:0:0:0:
448,192,96140,1,0,0:0:0:0:
64,192,96140,1,0,0:0:0:0:
192,192,96169,1,0,0:0:0:0:
320,192,96198,1,0,0:0:0:0:
448,192,96198,1,0,0:0:0:0:
192,192,96257,1,0,0:0:0:0:
64,192,96257,1,0,0:0:0:0:
64,192,96316,1,0,0:0:0:0:
448,192,96316,1,0,0:0:0:0:
320,192,96374,1,0,0:0:0:0:
192,192,96374,1,0,0:0:0:0:
448,192,96403,1,0,0:0:0:0:
320,192,96433,1,0,0:0:0:0:
64,192,96433,1,0,0:0:0:0:
192,192,96491,1,0,0:0:0:0:
448,192,96491,1,0,0:0:0:0:
192,192,96550,1,0,0:0:0:0:
64,192,96550,1,0,0:0:0:0:
320,192,96550,1,0,0:0:0:0:
64,192,96726,5,0,0:0:0:0:
192,192,96726,1,0,0:0:0:0:
320,192,96726,1,0,0:0:0:0:
448,192,96726,1,0,0:0:0:0:
448,192,96784,1,0,0:0:0:0:
64,192,96843,1,0,0:0:0:0:
192,192,96843,1,0,0:0:0:0:
320,192,96843,1,0,0:0:0:0:
320,192,96901,1,0,0:0:0:0:
64,192,96960,1,0,0:0:0:0:
192,192,96960,1,0,0:0:0:0:
448,192,96960,1,0,0:0:0:0:
192,192,97019,1,0,0:0:0:0:
64,192,97077,1,0,0:0:0:0:
320,192,97077,1,0,0:0:0:0:
448,192,97077,1,0,0:0:0:0:
448,192,97136,1,0,0:0:0:0:
64,192,97194,1,0,0:0:0:0:
320,192,97194,1,0,0:0:0:0:
192,192,97194,1,0,0:0:0:0:
320,192,97253,1,0,0:0:0:0:
64,192,97312,1,0,0:0:0:0:
192,192,97312,1,0,0:0:0:0:
448,192,97312,1,0,0:0:0:0:
192,192,97370,1,0,0:0:0:0:
64,192,97429,1,0,0:0:0:0:
320,192,97429,1,0,0:0:0:0:
448,192,97429,1,0,0:0:0:0:
448,192,97487,1,0,0:0:0:0:
64,192,97546,1,0,0:0:0:0:
192,192,97546,1,0,0:0:0:0:
320,192,97605,1,0,0:0:0:0:
448,192,97605,1,0,0:0:0:0:
64,192,97663,1,0,0:0:0:0:
192,192,97663,1,0,0:0:0:0:
448,192,97722,1,0,0:0:0:0:
320,192,97722,1,0,0:0:0:0:
192,192,97780,1,0,0:0:0:0:
64,192,97780,1,0,0:0:0:0:
448,192,97839,1,0,0:0:0:0:
320,192,97839,1,0,0:0:0:0:
192,192,97898,1,0,0:0:0:0:
64,192,97898,1,0,0:0:0:0:
448,192,97956,1,0,0:0:0:0:
320,192,97956,1,0,0:0:0:0:
64,192,98015,1,0,0:0:0:0:
192,192,98015,1,0,0:0:0:0:
320,192,98054,1,0,0:0:0:0:
448,192,98054,1,0,0:0:0:0:
192,192,98093,1,0,0:0:0:0:
64,192,98093,1,0,0:0:0:0:
448,192,98132,1,0,0:0:0:0:
320,192,98132,1,0,0:0:0:0:
192,192,98171,1,0,0:0:0:0:
64,192,98171,1,0,0:0:0:0:
320,192,98210,1,0,0:0:0:0:
448,192,98210,1,0,0:0:0:0:
192,192,98249,1,0,0:0:0:0:
64,192,98288,1,0,0:0:0:0:
448,192,98327,1,0,0:0:0:0:
192,192,98366,1,0,0:0:0:0:
320,192,98405,1,0,0:0:0:0:
64,192,98444,1,0,0:0:0:0:
192,192,98484,128,0,98601:0:0:0:0:
448,192,98484,128,0,98659:0:0:0:0:
64,192,98718,128,0,98894:0:0:0:0:
192,192,98776,128,0,98952:0:0:0:0:
320,192,98835,128,0,99011:0:0:0:0:
448,192,98894,128,0,99187:0:0:0:0:
64,192,98952,128,0,99128:0:0:0:0:
192,192,99011,128,0,99187:0:0:0:0:
320,192,99069,128,0,99480:0:0:0:0:
64,192,99245,128,0,99480:0:0:0:0:
448,192,99245,128,0,99480:0:0:0:0:
192,192,99245,128,0,99480:0:0:0:0:
448,192,99538,128,0,99597:0:0:0:0:
192,192,99538,128,0,99597:0:0:0:0:
64,192,99538,128,0,99597:0:0:0:0:
320,192,99655,128,0,99773:0:0:0:0:
448,192,99655,128,0,99773:0:0:0:0:
64,192,99655,128,0,99773:0:0:0:0:
64,192,99890,128,0,100066:0:0:0:0:
192,192,99890,128,0,100066:0:0:0:0:
320,192,99890,128,0,100066:0:0:0:0:
448,192,100124,128,0,100300:0:0:0:0:
320,192,100124,128,0,100300:0:0:0:0:
192,192,100124,128,0,100300:0:0:0:0:
64,192,100359,128,0,100534:0:0:0:0:
448,192,100359,128,0,100476:0:0:0:0:
448,192,100593,128,0,100769:0:0:0:0:
320,192,100651,128,0,100827:0:0:0:0:
192,192,100710,128,0,100886:0:0:0:0:
64,192,100769,128,0,101120:0:0:0:0:
448,192,100886,128,0,101062:0:0:0:0:
320,192,100944,128,0,101120:0:0:0:0:
192,192,101003,128,0,101355:0:0:0:0:
64,192,101179,128,0,101355:0:0:0:0:
320,192,101179,128,0,101355:0:0:0:0:
448,192,101179,128,0,101355:0:0:0:0:
448,192,101413,128,0,101472:0:0:0:0:
320,192,101413,128,0,101472:0:0:0:0:
64,192,101413,128,0,101472:0:0:0:0:
64,192,101530,128,0,101589:0:0:0:0:
192,192,101530,128,0,101589:0:0:0:0:
448,192,101530,128,0,101589:0:0:0:0:
320,192,101648,128,0,101706:0:0:0:0:
192,192,101648,128,0,101706:0:0:0:0:
64,192,101648,128,0,101706:0:0:0:0:
448,192,101765,1,0,0:0:0:0:
64,192,101765,1,0,0:0:0:0:
64,192,101882,1,0,0:0:0:0:
448,192,101882,1,0,0:0:0:0:
192,192,101999,128,0,102175:0:0:0:0:
320,192,102028,128,0,102175:0:0:0:0:
64,192,102058,128,0,102175:0:0:0:0:
448,192,102087,128,0,102175:0:0:0:0:
448,192,102234,1,0,0:0:0:0:
320,192,102234,1,0,0:0:0:0:
64,192,102234,1,0,0:0:0:0:
320,192,102292,1,0,0:0:0:0:
192,192,102292,1,0,0:0:0:0:
448,192,102351,1,0,0:0:0:0:
64,192,102351,1,0,0:0:0:0:
64,192,102409,1,0,0:0:0:0:
192,192,102409,1,0,0:0:0:0:
320,192,102468,1,0,0:0:0:0:
448,192,102468,1,0,0:0:0:0:
320,192,102526,1,0,0:0:0:0:
192,192,102526,1,0,0:0:0:0:
448,192,102585,1,0,0:0:0:0:
64,192,102585,1,0,0:0:0:0:
320,192,102644,1,0,0:0:0:0:
448,192,102644,1,0,0:0:0:0:
64,192,102702,1,0,0:0:0:0:
192,192,102732,1,0,0:0:0:0:
448,192,102761,1,0,0:0:0:0:
64,192,102790,1,0,0:0:0:0:
320,192,102819,1,0,0:0:0:0:
448,192,102849,1,0,0:0:0:0:
192,192,102878,1,0,0:0:0:0:
320,192,102907,1,0,0:0:0:0:
448,192,102937,1,0,0:0:0:0:
64,192,102966,1,0,0:0:0:0:
192,192,102995,1,0,0:0:0:0:
320,192,103025,1,0,0:0:0:0:
448,192,103054,1,0,0:0:0:0:
64,192,103083,1,0,0:0:0:0:
192,192,103112,1,0,0:0:0:0:
320,192,103142,1,0,0:0:0:0:
64,192,103171,1,0,0:0:0:0:
448,192,103200,1,0,0:0:0:0:
192,192,103230,1,0,0:0:0:0:
320,192,103259,1,0,0:0:0:0:
448,192,103288,1,0,0:0:0:0:
64,192,103317,1,0,0:0:0:0:
192,192,103347,1,0,0:0:0:0:
448,192,103376,1,0,0:0:0:0:
320,192,103405,1,0,0:0:0:0:
64,192,103435,1,0,0:0:0:0:
448,192,103464,1,0,0:0:0:0:
192,192,103493,1,0,0:0:0:0:
64,192,103523,1,0,0:0:0:0:
320,192,103552,1,0,0:0:0:0:
192,192,103581,1,0,0:0:0:0:
64,192,103610,1,0,0:0:0:0:
448,192,103640,1,0,0:0:0:0:
320,192,103669,1,0,0:0:0:0:
192,192,103698,1,0,0:0:0:0:
64,192,103728,1,0,0:0:0:0:
448,192,103757,1,0,0:0:0:0:
320,192,103786,1,0,0:0:0:0:
64,192,103816,1,0,0:0:0:0:
448,192,103845,1,0,0:0:0:0:
192,192,103874,1,0,0:0:0:0:
64,192,103903,1,0,0:0:0:0:
320,192,103933,1,0,0:0:0:0:
192,192,103962,1,0,0:0:0:0:
64,192,103991,1,0,0:0:0:0:
448,192,104021,1,0,0:0:0:0:
320,192,104050,1,0,0:0:0:0:
192,192,104079,1,0,0:0:0:0:
448,192,104109,1,0,0:0:0:0:
64,192,104109,1,0,0:0:0:0:
320,192,104138,1,0,0:0:0:0:
192,192,104167,1,0,0:0:0:0:
448,192,104196,1,0,0:0:0:0:
64,192,104226,1,0,0:0:0:0:
192,192,104255,1,0,0:0:0:0:
320,192,104284,1,0,0:0:0:0:
448,192,104314,1,0,0:0:0:0:
64,192,104343,1,0,0:0:0:0:
192,192,104372,1,0,0:0:0:0:
448,192,104401,1,0,0:0:0:0:
64,192,104431,1,0,0:0:0:0:
320,192,104460,1,0,0:0:0:0:
448,192,104489,1,0,0:0:0:0:
192,192,104519,1,0,0:0:0:0:
320,192,104548,1,0,0:0:0:0:
448,192,104577,1,0,0:0:0:0:
64,192,104607,1,0,0:0:0:0:
192,192,104636,1,0,0:0:0:0:
320,192,104665,1,0,0:0:0:0:
448,192,104694,1,0,0:0:0:0:
64,192,104724,1,0,0:0:0:0:
192,192,104753,1,0,0:0:0:0:
320,192,104782,1,0,0:0:0:0:
64,192,104812,5,0,0:0:0:0:
448,192,104841,1,0,0:0:0:0:
192,192,104870,1,0,0:0:0:0:
320,192,104900,1,0,0:0:0:0:
448,192,104929,1,0,0:0:0:0:
64,192,104958,1,0,0:0:0:0:
192,192,104987,1,0,0:0:0:0:
320,192,105017,1,0,0:0:0:0:
64,192,105046,128,0,105222:0:0:0:0:
448,192,105046,128,0,105222:0:0:0:0:
192,192,105280,128,0,105339:0:0:0:0:
320,192,105280,128,0,105339:0:0:0:0:
448,192,105280,128,0,105339:0:0:0:0:
64,192,105398,128,0,105573:0:0:0:0:
192,192,105398,128,0,105573:0:0:0:0:
320,192,105398,128,0,105573:0:0:0:0:
64,192,105632,128,0,105691:0:0:0:0:
320,192,105632,128,0,105691:0:0:0:0:
448,192,105632,128,0,105691:0:0:0:0:
448,192,105749,1,0,0:0:0:0:
64,192,105749,1,0,0:0:0:0:
192,192,105749,1,0,0:0:0:0:
320,192,105749,1,0,0:0:0:0:
64,192,105984,5,0,0:0:0:0:
192,192,105984,1,0,0:0:0:0:
192,192,106042,1,0,0:0:0:0:
320,192,106042,1,0,0:0:0:0:
320,192,106101,1,0,0:0:0:0:
448,192,106101,1,0,0:0:0:0:
192,192,106159,1,0,0:0:0:0:
64,192,106159,1,0,0:0:0:0:
448,192,106218,1,0,0:0:0:0:
64,192,106218,1,0,0:0:0:0:
320,192,106276,1,0,0:0:0:0:
448,192,106276,1,0,0:0:0:0:
192,192,106335,1,0,0:0:0:0:
64,192,106335,1,0,0:0:0:0:
64,192,106394,1,0,0:0:0:0:
320,192,106394,1,0,0:0:0:0:
320,192,106452,1,0,0:0:0:0:
192,192,106452,1,0,0:0:0:0:
448,192,106511,1,0,0:0:0:0:
64,192,106511,1,0,0:0:0:0:
448,192,106569,1,0,0:0:0:0:
192,192,106569,1,0,0:0:0:0:
192,192,106628,1,0,0:0:0:0:
320,192,106628,1,0,0:0:0:0:
448,192,106687,1,0,0:0:0:0:
64,192,106687,1,0,0:0:0:0:
192,192,106716,1,0,0:0:0:0:
320,192,106745,1,0,0:0:0:0:
448,192,106775,1,0,0:0:0:0:
64,192,106804,1,0,0:0:0:0:
192,192,106833,1,0,0:0:0:0:
320,192,106862,1,0,0:0:0:0:
448,192,106892,1,0,0:0:0:0:
192,192,106921,1,0,0:0:0:0:
64,192,106921,1,0,0:0:0:0:
320,192,106980,1,0,0:0:0:0:
64,192,106980,1,0,0:0:0:0:
192,192,107038,1,0,0:0:0:0:
448,192,107038,1,0,0:0:0:0:
320,192,107097,1,0,0:0:0:0:
192,192,107097,1,0,0:0:0:0:
320,192,107155,1,0,0:0:0:0:
64,192,107155,1,0,0:0:0:0:
192,192,107214,1,0,0:0:0:0:
448,192,107214,1,0,0:0:0:0:
448,192,107273,1,0,0:0:0:0:
320,192,107273,1,0,0:0:0:0:
320,192,107331,1,0,0:0:0:0:
64,192,107331,1,0,0:0:0:0:
192,192,107390,1,0,0:0:0:0:
448,192,107390,1,0,0:0:0:0:
320,192,107448,1,0,0:0:0:0:
192,192,107448,1,0,0:0:0:0:
320,192,107507,1,0,0:0:0:0:
448,192,107507,1,0,0:0:0:0:
192,192,107566,1,0,0:0:0:0:
64,192,107566,1,0,0:0:0:0:
192,192,107624,1,0,0:0:0:0:
320,192,107624,1,0,0:0:0:0:
320,192,107683,1,0,0:0:0:0:
448,192,107683,1,0,0:0:0:0:
192,192,107741,1,0,0:0:0:0:
64,192,107741,1,0,0:0:0:0:
448,192,107800,1,0,0:0:0:0:
64,192,107800,1,0,0:0:0:0:
448,192,107859,1,0,0:0:0:0:
320,192,107888,1,0,0:0:0:0:
192,192,107917,1,0,0:0:0:0:
64,192,107946,1,0,0:0:0:0:
448,192,107976,1,0,0:0:0:0:
320,192,108005,1,0,0:0:0:0:
192,192,108034,1,0,0:0:0:0:
448,192,108064,1,0,0:0:0:0:
64,192,108093,1,0,0:0:0:0:
320,192,108122,1,0,0:0:0:0:
192,192,108151,1,0,0:0:0:0:
64,192,108181,1,0,0:0:0:0:
448,192,108210,1,0,0:0:0:0:
320,192,108239,1,0,0:0:0:0:
192,192,108269,1,0,0:0:0:0:
64,192,108298,1,0,0:0:0:0:
320,192,108327,1,0,0:0:0:0:
448,192,108327,1,0,0:0:0:0:
192,192,108386,1,0,0:0:0:0:
448,192,108386,1,0,0:0:0:0:
320,192,108444,1,0,0:0:0:0:
64,192,108444,1,0,0:0:0:0:
320,192,108503,1,0,0:0:0:0:
192,192,108503,1,0,0:0:0:0:
448,192,108562,1,0,0:0:0:0:
64,192,108562,1,0,0:0:0:0:
192,192,108620,1,0,0:0:0:0:
320,192,108620,1,0,0:0:0:0:
192,192,108679,1,0,0:0:0:0:
64,192,108679,1,0,0:0:0:0:
64,192,108737,1,0,0:0:0:0:
448,192,108737,1,0,0:0:0:0:
320,192,108767,1,0,0:0:0:0:
192,192,108796,1,0,0:0:0:0:
448,192,108825,1,0,0:0:0:0:
64,192,108855,1,0,0:0:0:0:
192,192,108884,1,0,0:0:0:0:
320,192,108913,1,0,0:0:0:0:
64,192,108942,1,0,0:0:0:0:
448,192,108972,1,0,0:0:0:0:
320,192,109001,1,0,0:0:0:0:
192,192,109030,1,0,0:0:0:0:
448,192,109060,1,0,0:0:0:0:
320,192,109089,1,0,0:0:0:0:
64,192,109118,1,0,0:0:0:0:
192,192,109148,1,0,0:0:0:0:
320,192,109177,1,0,0:0:0:0:
64,192,109206,1,0,0:0:0:0:
192,192,109235,1,0,0:0:0:0:
320,192,109265,1,0,0:0:0:0:
448,192,109265,1,0,0:0:0:0:
448,192,109323,1,0,0:0:0:0:
64,192,109323,1,0,0:0:0:0:
192,192,109382,1,0,0:0:0:0:
64,192,109382,1,0,0:0:0:0:
192,192,109441,1,0,0:0:0:0:
320,192,109441,1,0,0:0:0:0:
320,192,109499,1,0,0:0:0:0:
448,192,109499,1,0,0:0:0:0:
448,192,109558,1,0,0:0:0:0:
64,192,109558,1,0,0:0:0:0:
192,192,109616,1,0,0:0:0:0:
64,192,109616,1,0,0:0:0:0:
320,192,109675,1,0,0:0:0:0:
448,192,109675,1,0,0:0:0:0:
192,192,109734,5,0,0:0:0:0:
64,192,109734,1,0,0:0:0:0:
320,192,109773,1,0,0:0:0:0:
448,192,109773,1,0,0:0:0:0:
192,192,109812,1,0,0:0:0:0:
64,192,109812,1,0,0:0:0:0:
320,192,109851,1,0,0:0:0:0:
448,192,109851,1,0,0:0:0:0:
192,192,109890,1,0,0:0:0:0:
64,192,109890,1,0,0:0:0:0:
320,192,109929,1,0,0:0:0:0:
448,192,109929,1,0,0:0:0:0:
192,192,109968,1,0,0:0:0:0:
64,192,109968,1,0,0:0:0:0:
320,192,110007,1,0,0:0:0:0:
448,192,110007,1,0,0:0:0:0:
192,192,110046,1,0,0:0:0:0:
64,192,110046,1,0,0:0:0:0:
320,192,110085,1,0,0:0:0:0:
448,192,110085,1,0,0:0:0:0:
192,192,110124,1,0,0:0:0:0:
64,192,110124,1,0,0:0:0:0:
320,192,110163,1,0,0:0:0:0:
448,192,110163,1,0,0:0:0:0:
192,192,110202,1,0,0:0:0:0:
64,192,110202,1,0,0:0:0:0:
320,192,110241,1,0,0:0:0:0:
448,192,110241,1,0,0:0:0:0:
192,192,110280,1,0,0:0:0:0:
64,192,110280,1,0,0:0:0:0:
320,192,110319,1,0,0:0:0:0:
448,192,110319,1,0,0:0:0:0:
192,192,110359,1,0,0:0:0:0:
64,192,110359,1,0,0:0:0:0:
320,192,110398,1,0,0:0:0:0:
448,192,110398,1,0,0:0:0:0:
192,192,110437,5,0,0:0:0:0:
64,192,110437,1,0,0:0:0:0:
320,192,110476,1,0,0:0:0:0:
448,192,110476,1,0,0:0:0:0:
192,192,110515,1,0,0:0:0:0:
64,192,110515,1,0,0:0:0:0:
448,192,110554,1,0,0:0:0:0:
320,192,110554,1,0,0:0:0:0:
192,192,110593,1,0,0:0:0:0:
64,192,110593,1,0,0:0:0:0:
448,192,110632,1,0,0:0:0:0:
320,192,110632,1,0,0:0:0:0:
192,192,110671,1,0,0:0:0:0:
64,192,110671,1,0,0:0:0:0:
448,192,110710,1,0,0:0:0:0:
320,192,110710,1,0,0:0:0:0:
192,192,110749,1,0,0:0:0:0:
64,192,110749,1,0,0:0:0:0:
448,192,110788,1,0,0:0:0:0:
320,192,110788,1,0,0:0:0:0:
192,192,110827,1,0,0:0:0:0:
64,192,110827,1,0,0:0:0:0:
448,192,110866,1,0,0:0:0:0:
320,192,110866,1,0,0:0:0:0:
192,192,110905,1,0,0:0:0:0:
64,192,110905,1,0,0:0:0:0:
448,192,110944,1,0,0:0:0:0:
320,192,110944,1,0,0:0:0:0:
192,192,110984,1,0,0:0:0:0:
64,192,110984,1,0,0:0:0:0:
448,192,111023,1,0,0:0:0:0:
320,192,111023,1,0,0:0:0:0:
192,192,111062,1,0,0:0:0:0:
64,192,111062,1,0,0:0:0:0:
448,192,111101,1,0,0:0:0:0:
320,192,111101,1,0,0:0:0:0:
192,192,111140,1,0,0:0:0:0:
64,192,111140,1,0,0:0:0:0:
448,192,111179,1,0,0:0:0:0:
320,192,111179,1,0,0:0:0:0:
192,192,111218,1,0,0:0:0:0:
64,192,111218,1,0,0:0:0:0:
448,192,111257,1,0,0:0:0:0:
320,192,111257,1,0,0:0:0:0:
192,192,111296,1,0,0:0:0:0:
64,192,111296,1,0,0:0:0:0:
448,192,111335,1,0,0:0:0:0:
320,192,111335,1,0,0:0:0:0:
192,192,111374,1,0,0:0:0:0:
64,192,111374,1,0,0:0:0:0:
448,192,111413,1,0,0:0:0:0:
320,192,111413,1,0,0:0:0:0:
192,192,111452,1,0,0:0:0:0:
64,192,111452,1,0,0:0:0:0:
448,192,111491,1,0,0:0:0:0:
320,192,111491,1,0,0:0:0:0:
192,192,111530,1,0,0:0:0:0:
64,192,111530,1,0,0:0:0:0:
320,192,111569,1,0,0:0:0:0:
64,192,111609,5,0,0:0:0:0:
448,192,111638,1,0,0:0:0:0:
64,192,111667,1,0,0:0:0:0:
448,192,111696,1,0,0:0:0:0:
192,192,111726,1,0,0:0:0:0:
320,192,111755,1,0,0:0:0:0:
192,192,111784,1,0,0:0:0:0:
320,192,111814,1,0,0:0:0:0:
448,192,111843,1,0,0:0:0:0:
64,192,111872,1,0,0:0:0:0:
448,192,111901,1,0,0:0:0:0:
64,192,111931,1,0,0:0:0:0:
320,192,111960,1,0,0:0:0:0:
192,192,111989,1,0,0:0:0:0:
320,192,112019,1,0,0:0:0:0:
192,192,112048,1,0,0:0:0:0:
64,192,112077,1,0,0:0:0:0:
448,192,112107,1,0,0:0:0:0:
64,192,112136,1,0,0:0:0:0:
448,192,112165,1,0,0:0:0:0:
192,192,112194,1,0,0:0:0:0:
320,192,112224,1,0,0:0:0:0:
192,192,112253,1,0,0:0:0:0:
320,192,112282,1,0,0:0:0:0:
448,192,112312,1,0,0:0:0:0:
64,192,112341,1,0,0:0:0:0:
448,192,112370,1,0,0:0:0:0:
64,192,112400,1,0,0:0:0:0:
320,192,112429,1,0,0:0:0:0:
192,192,112458,1,0,0:0:0:0:
320,192,112487,1,0,0:0:0:0:
192,192,112517,1,0,0:0:0:0:
448,192,112546,128,0,112663:0:0:0:0:
64,192,112546,128,0,113425:0:0:0:0:
320,192,112663,128,0,112956:0:0:0:0:
192,192,112780,128,0,112839:0:0:0:0:
448,192,112780,128,0,112839:0:0:0:0:
192,192,112898,128,0,113073:0:0:0:0:
448,192,112898,128,0,113073:0:0:0:0:
320,192,113015,128,0,113425:0:0:0:0:
192,192,113132,128,0,113191:0:0:0:0:
448,192,113132,128,0,113191:0:0:0:0:
192,192,113249,128,0,113308:0:0:0:0:
448,192,113249,128,0,113308:0:0:0:0:
192,192,113366,128,0,113425:0:0:0:0:
448,192,113366,128,0,113425:0:0:0:0:
64,192,113484,1,0,0:0:0:0:
448,192,113484,1,0,0:0:0:0:
320,192,113484,1,0,0:0:0:0:
320,192,113542,1,0,0:0:0:0:
192,192,113542,1,0,0:0:0:0:
448,192,113601,1,0,0:0:0:0:
64,192,113601,1,0,0:0:0:0:
320,192,113630,1,0,0:0:0:0:
64,192,113659,1,0,0:0:0:0:
192,192,113659,1,0,0:0:0:0:
320,192,113718,1,0,0:0:0:0:
448,192,113718,1,0,0:0:0:0:
320,192,113776,1,0,0:0:0:0:
192,192,113776,1,0,0:0:0:0:
448,192,113835,1,0,0:0:0:0:
64,192,113835,1,0,0:0:0:0:
192,192,113864,1,0,0:0:0:0:
64,192,113894,1,0,0:0:0:0:
320,192,113894,1,0,0:0:0:0:
192,192,113952,1,0,0:0:0:0:
448,192,113952,1,0,0:0:0:0:
192,192,114011,1,0,0:0:0:0:
64,192,114011,1,0,0:0:0:0:
320,192,114069,1,0,0:0:0:0:
448,192,114069,1,0,0:0:0:0:
64,192,114099,1,0,0:0:0:0:
192,192,114128,1,0,0:0:0:0:
320,192,114128,1,0,0:0:0:0:
448,192,114187,1,0,0:0:0:0:
64,192,114187,1,0,0:0:0:0:
320,192,114245,1,0,0:0:0:0:
448,192,114245,1,0,0:0:0:0:
192,192,114304,1,0,0:0:0:0:
64,192,114304,1,0,0:0:0:0:
320,192,114333,1,0,0:0:0:0:
64,192,114362,1,0,0:0:0:0:
448,192,114362,1,0,0:0:0:0:
192,192,114421,1,0,0:0:0:0:
320,192,114421,1,0,0:0:0:0:
448,192,114421,1,0,0:0:0:0:
192,192,114480,1,0,0:0:0:0:
64,192,114480,1,0,0:0:0:0:
320,192,114538,1,0,0:0:0:0:
448,192,114538,1,0,0:0:0:0:
64,192,114567,1,0,0:0:0:0:
320,192,114597,1,0,0:0:0:0:
192,192,114597,1,0,0:0:0:0:
64,192,114655,1,0,0:0:0:0:
448,192,114655,1,0,0:0:0:0:
64,192,114714,1,0,0:0:0:0:
320,192,114714,1,0,0:0:0:0:
192,192,114773,1,0,0:0:0:0:
448,192,114773,1,0,0:0:0:0:
320,192,114802,1,0,0:0:0:0:
448,192,114831,1,0,0:0:0:0:
64,192,114831,1,0,0:0:0:0:
192,192,114890,1,0,0:0:0:0:
320,192,114890,1,0,0:0:0:0:
192,192,114948,1,0,0:0:0:0:
448,192,114948,1,0,0:0:0:0:
320,192,115007,1,0,0:0:0:0:
64,192,115007,1,0,0:0:0:0:
192,192,115036,1,0,0:0:0:0:
64,192,115066,1,0,0:0:0:0:
448,192,115066,1,0,0:0:0:0:
320,192,115124,1,0,0:0:0:0:
192,192,115124,1,0,0:0:0:0:
320,192,115183,1,0,0:0:0:0:
448,192,115183,1,0,0:0:0:0:
192,192,115241,1,0,0:0:0:0:
64,192,115241,1,0,0:0:0:0:
448,192,115271,1,0,0:0:0:0:
320,192,115300,1,0,0:0:0:0:
192,192,115300,1,0,0:0:0:0:
64,192,115359,1,0,0:0:0:0:
448,192,115359,1,0,0:0:0:0:
320,192,115359,1,0,0:0:0:0:
192,192,115417,1,0,0:0:0:0:
64,192,115417,1,0,0:0:0:0:
320,192,115476,1,0,0:0:0:0:
448,192,115476,1,0,0:0:0:0:
192,192,115505,1,0,0:0:0:0:
448,192,115534,1,0,0:0:0:0:
64,192,115534,1,0,0:0:0:0:
320,192,115593,1,0,0:0:0:0:
192,192,115593,1,0,0:0:0:0:
448,192,115651,1,0,0:0:0:0:
192,192,115651,1,0,0:0:0:0:
320,192,115710,1,0,0:0:0:0:
64,192,115710,1,0,0:0:0:0:
448,192,115739,1,0,0:0:0:0:
192,192,115769,1,0,0:0:0:0:
64,192,115769,1,0,0:0:0:0:
448,192,115827,1,0,0:0:0:0:
320,192,115857,1,0,0:0:0:0:
64,192,115886,1,0,0:0:0:0:
448,192,115915,1,0,0:0:0:0:
192,192,115944,1,0,0:0:0:0:
64,192,115974,1,0,0:0:0:0:
320,192,116003,1,0,0:0:0:0:
448,192,116032,1,0,0:0:0:0:
192,192,116062,5,0,0:0:0:0:
64,192,116091,1,0,0:0:0:0:
320,192,116120,1,0,0:0:0:0:
448,192,116150,1,0,0:0:0:0:
64,192,116179,1,0,0:0:0:0:
192,192,116208,1,0,0:0:0:0:
320,192,116237,1,0,0:0:0:0:
192,192,116296,1,0,0:0:0:0:
64,192,116296,1,0,0:0:0:0:
448,192,116296,1,0,0:0:0:0:
320,192,116355,1,0,0:0:0:0:
192,192,116355,1,0,0:0:0:0:
448,192,116413,1,0,0:0:0:0:
64,192,116413,1,0,0:0:0:0:
320,192,116442,1,0,0:0:0:0:
192,192,116472,1,0,0:0:0:0:
64,192,116472,1,0,0:0:0:0:
448,192,116530,1,0,0:0:0:0:
320,192,116530,1,0,0:0:0:0:
320,192,116589,1,0,0:0:0:0:
192,192,116589,1,0,0:0:0:0:
448,192,116648,1,0,0:0:0:0:
64,192,116648,1,0,0:0:0:0:
192,192,116677,1,0,0:0:0:0:
320,192,116706,1,0,0:0:0:0:
448,192,116706,1,0,0:0:0:0:
192,192,116765,1,0,0:0:0:0:
64,192,116765,1,0,0:0:0:0:
64,192,116823,1,0,0:0:0:0:
320,192,116823,1,0,0:0:0:0:
192,192,116882,1,0,0:0:0:0:
448,192,116882,1,0,0:0:0:0:
320,192,116911,1,0,0:0:0:0:
448,192,116941,1,0,0:0:0:0:
64,192,116941,1,0,0:0:0:0:
192,192,116999,1,0,0:0:0:0:
320,192,116999,1,0,0:0:0:0:
192,192,117058,1,0,0:0:0:0:
448,192,117058,1,0,0:0:0:0:
320,192,117116,1,0,0:0:0:0:
64,192,117116,1,0,0:0:0:0:
448,192,117146,1,0,0:0:0:0:
320,192,117175,1,0,0:0:0:0:
192,192,117175,1,0,0:0:0:0:
64,192,117234,5,0,0:0:0:0:
448,192,117234,1,0,0:0:0:0:
192,192,117292,1,0,0:0:0:0:
64,192,117292,1,0,0:0:0:0:
192,192,117351,1,0,0:0:0:0:
320,192,117351,1,0,0:0:0:0:
448,192,117409,1,0,0:0:0:0:
320,192,117409,1,0,0:0:0:0:
448,192,117468,1,0,0:0:0:0:
64,192,117468,1,0,0:0:0:0:
192,192,117526,1,0,0:0:0:0:
64,192,117526,1,0,0:0:0:0:
320,192,117585,1,0,0:0:0:0:
192,192,117585,1,0,0:0:0:0:
448,192,117644,1,0,0:0:0:0:
192,192,117702,1,0,0:0:0:0:
64,192,117702,1,0,0:0:0:0:
320,192,117741,1,0,0:0:0:0:
448,192,117741,1,0,0:0:0:0:
64,192,117780,1,0,0:0:0:0:
320,192,117819,1,0,0:0:0:0:
448,192,117819,1,0,0:0:0:0:
192,192,117859,1,0,0:0:0:0:
64,192,117859,1,0,0:0:0:0:
448,192,117898,1,0,0:0:0:0:
192,192,117937,1,0,0:0:0:0:
64,192,117937,1,0,0:0:0:0:
448,192,117976,1,0,0:0:0:0:
320,192,117976,1,0,0:0:0:0:
192,192,118015,1,0,0:0:0:0:
448,192,118054,1,0,0:0:0:0:
320,192,118054,1,0,0:0:0:0:
192,192,118093,1,0,0:0:0:0:
64,192,118093,1,0,0:0:0:0:
320,192,118132,1,0,0:0:0:0:
448,192,118132,1,0,0:0:0:0:
64,192,118171,1,0,0:0:0:0:
192,192,118200,1,0,0:0:0:0:
320,192,118230,1,0,0:0:0:0:
448,192,118259,1,0,0:0:0:0:
192,192,118288,1,0,0:0:0:0:
64,192,118317,1,0,0:0:0:0:
320,192,118347,1,0,0:0:0:0:
448,192,118376,1,0,0:0:0:0:
64,192,118405,1,0,0:0:0:0:
192,192,118435,1,0,0:0:0:0:
448,192,118464,1,0,0:0:0:0:
320,192,118493,1,0,0:0:0:0:
64,192,118523,1,0,0:0:0:0:
448,192,118552,1,0,0:0:0:0:
320,192,118581,1,0,0:0:0:0:
192,192,118610,1,0,0:0:0:0:
448,192,118640,1,0,0:0:0:0:
64,192,118669,1,0,0:0:0:0:
192,192,118698,1,0,0:0:0:0:
320,192,118728,1,0,0:0:0:0:
448,192,118757,1,0,0:0:0:0:
192,192,118786,1,0,0:0:0:0:
64,192,118816,1,0,0:0:0:0:
320,192,118845,1,0,0:0:0:0:
448,192,118874,1,0,0:0:0:0:
64,192,118903,1,0,0:0:0:0:
192,192,118933,1,0,0:0:0:0:
448,192,118962,1,0,0:0:0:0:
320,192,118991,1,0,0:0:0:0:
192,192,119021,1,0,0:0:0:0:
64,192,119050,1,0,0:0:0:0:
192,192,119109,1,0,0:0:0:0:
448,192,119109,1,0,0:0:0:0:
320,192,119109,1,0,0:0:0:0:
448,192,119167,1,0,0:0:0:0:
64,192,119167,1,0,0:0:0:0:
320,192,119226,1,0,0:0:0:0:
192,192,119226,1,0,0:0:0:0:
64,192,119226,1,0,0:0:0:0:
320,192,119401,1,0,0:0:0:0:
192,192,119401,1,0,0:0:0:0:
64,192,119401,1,0,0:0:0:0:
448,192,119460,1,0,0:0:0:0:
64,192,119460,1,0,0:0:0:0:
192,192,119519,1,0,0:0:0:0:
320,192,119519,1,0,0:0:0:0:
448,192,119577,1,0,0:0:0:0:
64,192,119577,1,0,0:0:0:0:
320,192,119607,1,0,0:0:0:0:
192,192,119636,1,0,0:0:0:0:
448,192,119665,1,0,0:0:0:0:
320,192,119694,1,0,0:0:0:0:
64,192,119724,1,0,0:0:0:0:
448,192,119753,1,0,0:0:0:0:
192,192,119782,1,0,0:0:0:0:
64,192,119812,1,0,0:0:0:0:
448,192,119841,1,0,0:0:0:0:
320,192,119870,1,0,0:0:0:0:
192,192,119900,1,0,0:0:0:0:
448,192,119929,1,0,0:0:0:0:
64,192,119958,1,0,0:0:0:0:
320,192,119987,1,0,0:0:0:0:
448,192,120017,1,0,0:0:0:0:
64,192,120046,1,0,0:0:0:0:
192,192,120046,1,0,0:0:0:0:
320,192,120085,1,0,0:0:0:0:
448,192,120085,1,0,0:0:0:0:
64,192,120124,1,0,0:0:0:0:
192,192,120124,1,0,0:0:0:0:
320,192,120163,1,0,0:0:0:0:
448,192,120163,1,0,0:0:0:0:
64,192,120202,1,0,0:0:0:0:
192,192,120202,1,0,0:0:0:0:
320,192,120241,1,0,0:0:0:0:
448,192,120241,1,0,0:0:0:0:
320,192,120359,1,0,0:0:0:0:
448,192,120359,1,0,0:0:0:0:
192,192,120398,1,0,0:0:0:0:
64,192,120398,1,0,0:0:0:0:
448,192,120437,1,0,0:0:0:0:
320,192,120437,1,0,0:0:0:0:
192,192,120476,1,0,0:0:0:0:
64,192,120476,1,0,0:0:0:0:
448,192,120515,1,0,0:0:0:0:
320,192,120515,1,0,0:0:0:0:
192,192,120554,1,0,0:0:0:0:
64,192,120554,1,0,0:0:0:0:
448,192,120593,1,0,0:0:0:0:
320,192,120593,1,0,0:0:0:0:
192,192,120632,1,0,0:0:0:0:
64,192,120632,1,0,0:0:0:0:
448,192,120691,1,0,0:0:0:0:
320,192,120691,1,0,0:0:0:0:
192,192,120730,1,0,0:0:0:0:
64,192,120730,1,0,0:0:0:0:
448,192,120769,1,0,0:0:0:0:
320,192,120769,1,0,0:0:0:0:
192,192,120808,1,0,0:0:0:0:
64,192,120808,1,0,0:0:0:0:
448,192,120847,1,0,0:0:0:0:
320,192,120847,1,0,0:0:0:0:
192,192,120886,1,0,0:0:0:0:
64,192,120886,1,0,0:0:0:0:
448,192,120984,1,0,0:0:0:0:
320,192,120984,1,0,0:0:0:0:
192,192,120984,1,0,0:0:0:0:
64,192,120984,1,0,0:0:0:0:
192,192,121101,1,0,0:0:0:0:
64,192,121101,1,0,0:0:0:0:
448,192,121101,1,0,0:0:0:0:
448,192,121218,1,0,0:0:0:0:
320,192,121218,1,0,0:0:0:0:
192,192,121218,1,0,0:0:0:0:
64,192,121218,1,0,0:0:0:0:
320,192,121335,1,0,0:0:0:0:
448,192,121335,1,0,0:0:0:0:
64,192,121335,1,0,0:0:0:0:
448,192,121452,1,0,0:0:0:0:
320,192,121452,1,0,0:0:0:0:
192,192,121452,1,0,0:0:0:0:
64,192,121452,1,0,0:0:0:0:
448,192,121569,1,0,0:0:0:0:
64,192,121569,1,0,0:0:0:0:
192,192,121569,1,0,0:0:0:0:
448,192,121687,1,0,0:0:0:0:
320,192,121687,1,0,0:0:0:0:
192,192,121687,1,0,0:0:0:0:
64,192,121687,1,0,0:0:0:0:
448,192,121804,1,0,0:0:0:0:
320,192,121818,1,0,0:0:0:0:
64,192,121833,1,0,0:0:0:0:
192,192,121848,1,0,0:0:0:0:
64,192,121921,5,0,0:0:0:0:
448,192,121921,1,0,0:0:0:0:
192,192,121980,1,0,0:0:0:0:
64,192,121980,1,0,0:0:0:0:
320,192,122038,1,0,0:0:0:0:
448,192,122038,1,0,0:0:0:0:
64,192,122067,1,0,0:0:0:0:
448,192,122097,1,0,0:0:0:0:
192,192,122097,1,0,0:0:0:0:
320,192,122155,1,0,0:0:0:0:
64,192,122155,1,0,0:0:0:0:
192,192,122214,1,0,0:0:0:0:
320,192,122214,1,0,0:0:0:0:
64,192,122273,1,0,0:0:0:0:
448,192,122273,1,0,0:0:0:0:
320,192,122302,1,0,0:0:0:0:
192,192,122331,1,0,0:0:0:0:
64,192,122331,1,0,0:0:0:0:
320,192,122390,1,0,0:0:0:0:
448,192,122390,1,0,0:0:0:0:
192,192,122419,1,0,0:0:0:0:
64,192,122448,1,0,0:0:0:0:
448,192,122448,1,0,0:0:0:0:
320,192,122507,1,0,0:0:0:0:
192,192,122507,1,0,0:0:0:0:
448,192,122536,1,0,0:0:0:0:
192,192,122566,1,0,0:0:0:0:
64,192,122566,1,0,0:0:0:0:
320,192,122624,1,0,0:0:0:0:
448,192,122624,1,0,0:0:0:0:
320,192,122683,1,0,0:0:0:0:
192,192,122683,1,0,0:0:0:0:
448,192,122741,1,0,0:0:0:0:
64,192,122741,1,0,0:0:0:0:
320,192,122771,1,0,0:0:0:0:
192,192,122800,1,0,0:0:0:0:
64,192,122800,1,0,0:0:0:0:
320,192,122859,1,0,0:0:0:0:
448,192,122859,1,0,0:0:0:0:
64,192,122888,1,0,0:0:0:0:
192,192,122917,1,0,0:0:0:0:
320,192,122917,1,0,0:0:0:0:
64,192,122976,1,0,0:0:0:0:
448,192,122976,1,0,0:0:0:0:
192,192,123005,1,0,0:0:0:0:
64,192,123034,1,0,0:0:0:0:
320,192,123034,1,0,0:0:0:0:
192,192,123093,1,0,0:0:0:0:
448,192,123093,1,0,0:0:0:0:
320,192,123151,1,0,0:0:0:0:
192,192,123151,1,0,0:0:0:0:
448,192,123181,1,0,0:0:0:0:
64,192,123210,1,0,0:0:0:0:
192,192,123239,1,0,0:0:0:0:
320,192,123269,1,0,0:0:0:0:
64,192,123327,1,0,0:0:0:0:
448,192,123327,1,0,0:0:0:0:
192,192,123386,1,0,0:0:0:0:
64,192,123415,1,0,0:0:0:0:
320,192,123444,1,0,0:0:0:0:
192,192,123474,1,0,0:0:0:0:
64,192,123503,1,0,0:0:0:0:
320,192,123532,1,0,0:0:0:0:
448,192,123562,1,0,0:0:0:0:
192,192,123591,1,0,0:0:0:0:
320,192,123620,1,0,0:0:0:0:
448,192,123650,1,0,0:0:0:0:
192,192,123679,1,0,0:0:0:0:
64,192,123708,1,0,0:0:0:0:
320,192,123737,1,0,0:0:0:0:
192,192,123767,1,0,0:0:0:0:
64,192,123796,1,0,0:0:0:0:
448,192,123796,1,0,0:0:0:0:
320,192,123855,1,0,0:0:0:0:
448,192,123855,1,0,0:0:0:0:
192,192,123913,1,0,0:0:0:0:
64,192,123913,1,0,0:0:0:0:
448,192,123942,1,0,0:0:0:0:
192,192,123972,1,0,0:0:0:0:
320,192,123972,1,0,0:0:0:0:
64,192,124016,1,0,0:0:0:0:
448,192,124030,1,0,0:0:0:0:
192,192,124089,1,0,0:0:0:0:
64,192,124089,1,0,0:0:0:0:
320,192,124148,1,0,0:0:0:0:
448,192,124148,1,0,0:0:0:0:
192,192,124177,1,0,0:0:0:0:
448,192,124206,1,0,0:0:0:0:
64,192,124206,1,0,0:0:0:0:
192,192,124265,1,0,0:0:0:0:
320,192,124265,1,0,0:0:0:0:
64,192,124294,1,0,0:0:0:0:
192,192,124323,1,0,0:0:0:0:
448,192,124323,1,0,0:0:0:0:
320,192,124382,1,0,0:0:0:0:
64,192,124382,1,0,0:0:0:0:
192,192,124411,1,0,0:0:0:0:
64,192,124441,1,0,0:0:0:0:
448,192,124441,1,0,0:0:0:0:
320,192,124499,1,0,0:0:0:0:
192,192,124499,1,0,0:0:0:0:
448,192,124558,1,0,0:0:0:0:
320,192,124558,1,0,0:0:0:0:
192,192,124616,1,0,0:0:0:0:
64,192,124616,1,0,0:0:0:0:
320,192,124646,1,0,0:0:0:0:
448,192,124675,1,0,0:0:0:0:
192,192,124675,1,0,0:0:0:0:
64,192,124734,1,0,0:0:0:0:
320,192,124734,1,0,0:0:0:0:
192,192,124792,1,0,0:0:0:0:
320,192,124792,1,0,0:0:0:0:
192,192,124851,1,0,0:0:0:0:
448,192,124851,1,0,0:0:0:0:
448,192,124909,1,0,0:0:0:0:
320,192,124909,1,0,0:0:0:0:
320,192,124968,1,0,0:0:0:0:
192,192,124968,1,0,0:0:0:0:
64,192,124997,1,0,0:0:0:0:
448,192,125026,1,0,0:0:0:0:
192,192,125056,1,0,0:0:0:0:
320,192,125085,1,0,0:0:0:0:
64,192,125114,1,0,0:0:0:0:
448,192,125144,1,0,0:0:0:0:
192,192,125173,1,0,0:0:0:0:
320,192,125202,1,0,0:0:0:0:
64,192,125232,1,0,0:0:0:0:
448,192,125261,1,0,0:0:0:0:
192,192,125290,1,0,0:0:0:0:
320,192,125319,1,0,0:0:0:0:
64,192,125349,1,0,0:0:0:0:
448,192,125378,1,0,0:0:0:0:
192,192,125407,1,0,0:0:0:0:
320,192,125437,1,0,0:0:0:0:
64,192,125466,1,0,0:0:0:0:
448,192,125495,1,0,0:0:0:0:
192,192,125525,1,0,0:0:0:0:
320,192,125554,1,0,0:0:0:0:
64,192,125583,1,0,0:0:0:0:
448,192,125612,1,0,0:0:0:0:
192,192,125642,1,0,0:0:0:0:
320,192,125671,1,0,0:0:0:0:
64,192,125671,1,0,0:0:0:0:
448,192,125700,1,0,0:0:0:0:
192,192,125730,1,0,0:0:0:0:
320,192,125759,1,0,0:0:0:0:
448,192,125788,1,0,0:0:0:0:
64,192,125817,1,0,0:0:0:0:
192,192,125847,1,0,0:0:0:0:
64,192,125905,1,0,0:0:0:0:
448,192,125905,1,0,0:0:0:0:
320,192,125935,1,0,0:0:0:0:
192,192,125964,1,0,0:0:0:0:
64,192,125993,1,0,0:0:0:0:
320,192,126023,1,0,0:0:0:0:
192,192,126052,1,0,0:0:0:0:
64,192,126081,1,0,0:0:0:0:
320,192,126110,1,0,0:0:0:0:
192,192,126140,1,0,0:0:0:0:
448,192,126140,1,0,0:0:0:0:
64,192,126169,1,0,0:0:0:0:
320,192,126198,1,0,0:0:0:0:
448,192,126228,1,0,0:0:0:0:
192,192,126257,1,0,0:0:0:0:
64,192,126286,1,0,0:0:0:0:
320,192,126316,1,0,0:0:0:0:
448,192,126345,1,0,0:0:0:0:
192,192,126374,1,0,0:0:0:0:
64,192,126374,1,0,0:0:0:0:
320,192,126403,1,0,0:0:0:0:
448,192,126433,1,0,0:0:0:0:
64,192,126462,1,0,0:0:0:0:
192,192,126491,1,0,0:0:0:0:
448,192,126521,1,0,0:0:0:0:
320,192,126550,1,0,0:0:0:0:
64,192,126579,1,0,0:0:0:0:
192,192,126609,1,0,0:0:0:0:
448,192,126609,1,0,0:0:0:0:
192,192,126667,1,0,0:0:0:0:
320,192,126726,1,0,0:0:0:0:
448,192,126726,1,0,0:0:0:0:
64,192,126726,1,0,0:0:0:0:
320,192,126784,1,0,0:0:0:0:
192,192,126843,1,0,0:0:0:0:
64,192,126843,1,0,0:0:0:0:
192,192,126901,1,0,0:0:0:0:
64,192,126960,1,0,0:0:0:0:
320,192,126960,1,0,0:0:0:0:
448,192,126960,1,0,0:0:0:0:
448,192,127019,1,0,0:0:0:0:
192,192,127077,1,0,0:0:0:0:
320,192,127077,1,0,0:0:0:0:
320,192,127136,1,0,0:0:0:0:
64,192,127194,1,0,0:0:0:0:
192,192,127194,1,0,0:0:0:0:
448,192,127194,1,0,0:0:0:0:
192,192,127253,1,0,0:0:0:0:
64,192,127312,1,0,0:0:0:0:
320,192,127312,1,0,0:0:0:0:
448,192,127312,1,0,0:0:0:0:
192,192,127370,1,0,0:0:0:0:
320,192,127370,1,0,0:0:0:0:
448,192,127429,1,0,0:0:0:0:
64,192,127429,1,0,0:0:0:0:
192,192,127487,1,0,0:0:0:0:
64,192,127487,1,0,0:0:0:0:
320,192,127546,1,0,0:0:0:0:
448,192,127546,1,0,0:0:0:0:
192,192,127585,1,0,0:0:0:0:
64,192,127585,1,0,0:0:0:0:
448,192,127624,1,0,0:0:0:0:
320,192,127624,1,0,0:0:0:0:
64,192,127663,1,0,0:0:0:0:
192,192,127663,1,0,0:0:0:0:
448,192,127702,1,0,0:0:0:0:
320,192,127702,1,0,0:0:0:0:
192,192,127741,1,0,0:0:0:0:
64,192,127741,1,0,0:0:0:0:
448,192,127780,1,0,0:0:0:0:
320,192,127780,1,0,0:0:0:0:
64,192,127898,1,0,0:0:0:0:
192,192,127898,1,0,0:0:0:0:
448,192,127937,1,0,0:0:0:0:
320,192,127937,1,0,0:0:0:0:
192,192,127976,1,0,0:0:0:0:
64,192,127976,1,0,0:0:0:0:
448,192,128015,1,0,0:0:0:0:
320,192,128015,1,0,0:0:0:0:
192,192,128054,1,0,0:0:0:0:
64,192,128054,1,0,0:0:0:0:
448,192,128093,1,0,0:0:0:0:
320,192,128093,1,0,0:0:0:0:
64,192,128132,1,0,0:0:0:0:
192,192,128132,1,0,0:0:0:0:
448,192,128249,1,0,0:0:0:0:
320,192,128249,1,0,0:0:0:0:
192,192,128288,1,0,0:0:0:0:
64,192,128288,1,0,0:0:0:0:
448,192,128327,1,0,0:0:0:0:
320,192,128327,1,0,0:0:0:0:
64,192,128366,1,0,0:0:0:0:
192,192,128366,1,0,0:0:0:0:
448,192,128405,1,0,0:0:0:0:
320,192,128405,1,0,0:0:0:0:
192,192,128444,1,0,0:0:0:0:
64,192,128444,1,0,0:0:0:0:
320,192,128484,128,0,128601:0:0:0:0:
448,192,128484,128,0,128718:0:0:0:0:
64,192,128718,128,0,128894:0:0:0:0:
192,192,128776,128,0,128952:0:0:0:0:
320,192,128835,128,0,129011:0:0:0:0:
448,192,128894,128,0,129069:0:0:0:0:
64,192,129011,128,0,129245:0:0:0:0:
192,192,129069,128,0,129304:0:0:0:0:
320,192,129128,128,0,129362:0:0:0:0:
448,192,129187,128,0,129421:0:0:0:0:
64,192,129304,128,0,129538:0:0:0:0:
320,192,129538,128,0,129714:0:0:0:0:
448,192,129538,128,0,129773:0:0:0:0:
192,192,129773,128,0,129831:0:0:0:0:
64,192,129773,128,0,129831:0:0:0:0:
320,192,129831,128,0,129948:0:0:0:0:
448,192,129831,128,0,129948:0:0:0:0:
192,192,129890,128,0,130124:0:0:0:0:
64,192,129890,128,0,130124:0:0:0:0:
320,192,130007,128,0,130300:0:0:0:0:
448,192,130007,128,0,130300:0:0:0:0:
192,192,130183,128,0,130300:0:0:0:0:
64,192,130183,128,0,130300:0:0:0:0:
64,192,130359,128,0,130476:0:0:0:0:
448,192,130359,128,0,130534:0:0:0:0:
192,192,130593,128,0,130769:0:0:0:0:
64,192,130651,128,0,130827:0:0:0:0:
320,192,130710,128,0,130886:0:0:0:0:
448,192,130769,128,0,130944:0:0:0:0:
192,192,130827,128,0,131003:0:0:0:0:
64,192,130886,128,0,131062:0:0:0:0:
320,192,130944,128,0,131120:0:0:0:0:
448,192,131003,128,0,131179:0:0:0:0:
64,192,131179,128,0,131355:0:0:0:0:
192,192,131179,128,0,131355:0:0:0:0:
64,192,131413,128,0,131472:0:0:0:0:
192,192,131413,128,0,131472:0:0:0:0:
64,192,131530,128,0,131706:0:0:0:0:
448,192,131530,128,0,131706:0:0:0:0:
320,192,131530,128,0,131706:0:0:0:0:
448,192,131765,128,0,131941:0:0:0:0:
192,192,131765,128,0,131941:0:0:0:0:
64,192,131999,128,0,132116:0:0:0:0:
320,192,131999,128,0,132058:0:0:0:0:
192,192,132058,128,0,132175:0:0:0:0:
448,192,132058,128,0,132116:0:0:0:0:
320,192,132116,128,0,132234:0:0:0:0:
448,192,132175,128,0,132292:0:0:0:0:
64,192,132234,128,0,132409:0:0:0:0:
192,192,132468,128,0,132644:0:0:0:0:
448,192,132526,128,0,132702:0:0:0:0:
320,192,132585,128,0,132761:0:0:0:0:
64,192,132644,128,0,132819:0:0:0:0:
192,192,132702,128,0,132878:0:0:0:0:
448,192,132761,128,0,132937:0:0:0:0:
320,192,132819,128,0,132995:0:0:0:0:
64,192,132878,128,0,133054:0:0:0:0:
192,192,132937,128,0,133230:0:0:0:0:
64,192,133230,128,0,133405:0:0:0:0:
448,192,133230,128,0,133405:0:0:0:0:
448,192,133484,128,0,133562:0:0:0:0:
320,192,133484,128,0,133562:0:0:0:0:
192,192,133562,128,0,133737:0:0:0:0:
64,192,133562,128,0,133737:0:0:0:0:
320,192,133640,128,0,133894:0:0:0:0:
448,192,133640,128,0,133894:0:0:0:0:
192,192,133796,128,0,134050:0:0:0:0:
64,192,133796,128,0,134050:0:0:0:0:
320,192,133952,128,0,134109:0:0:0:0:
448,192,133952,128,0,134109:0:0:0:0:
64,192,134109,1,0,0:0:0:0:
192,192,134109,1,0,0:0:0:0:
448,192,134148,1,0,0:0:0:0:
320,192,134148,1,0,0:0:0:0:
192,192,134187,1,0,0:0:0:0:
64,192,134187,1,0,0:0:0:0:
320,192,134226,1,0,0:0:0:0:
448,192,134226,1,0,0:0:0:0:
192,192,134265,1,0,0:0:0:0:
64,192,134265,1,0,0:0:0:0:
448,192,134304,1,0,0:0:0:0:
320,192,134304,1,0,0:0:0:0:
192,192,134343,1,0,0:0:0:0:
64,192,134343,1,0,0:0:0:0:
448,192,134382,1,0,0:0:0:0:
320,192,134382,1,0,0:0:0:0:
192,192,134421,1,0,0:0:0:0:
64,192,134421,1,0,0:0:0:0:
448,192,134460,1,0,0:0:0:0:
320,192,134460,1,0,0:0:0:0:
192,192,134499,1,0,0:0:0:0:
64,192,134499,1,0,0:0:0:0:
448,192,134538,1,0,0:0:0:0:
320,192,134538,1,0,0:0:0:0:
192,192,134577,1,0,0:0:0:0:
64,192,134577,1,0,0:0:0:0:
448,192,134616,1,0,0:0:0:0:
320,192,134616,1,0,0:0:0:0:
192,192,134655,1,0,0:0:0:0:
64,192,134655,1,0,0:0:0:0:
448,192,134694,1,0,0:0:0:0:
320,192,134694,1,0,0:0:0:0:
192,192,134734,1,0,0:0:0:0:
64,192,134734,1,0,0:0:0:0:
448,192,134773,1,0,0:0:0:0:
320,192,134773,1,0,0:0:0:0:
192,192,134812,1,0,0:0:0:0:
64,192,134812,1,0,0:0:0:0:
320,192,134851,1,0,0:0:0:0:
448,192,134851,1,0,0:0:0:0:
192,192,134890,1,0,0:0:0:0:
64,192,134890,1,0,0:0:0:0:
448,192,134929,1,0,0:0:0:0:
320,192,134929,1,0,0:0:0:0:
192,192,134968,1,0,0:0:0:0:
64,192,134968,1,0,0:0:0:0:
448,192,135007,1,0,0:0:0:0:
320,192,135007,1,0,0:0:0:0:
64,192,135046,128,0,135925:0:0:0:0:
192,192,135241,128,0,135925:0:0:0:0:
320,192,135476,128,0,135925:0:0:0:0:
448,192,135749,128,0,135925:0:0:0:0:
320,192,135984,1,0,0:0:0:0:
64,192,135984,128,0,136042:0:0:0:0:
192,192,135984,1,0,0:0:0:0:
448,192,135984,1,0,0:0:0:0:
192,192,136101,128,0,136159:0:0:0:0:
64,192,136218,128,0,136276:0:0:0:0:
448,192,136335,128,0,136394:0:0:0:0:
192,192,136452,128,0,136511:0:0:0:0:
320,192,136569,128,0,136628:0:0:0:0:
64,192,136687,128,0,136745:0:0:0:0:
192,192,136804,128,0,136862:0:0:0:0:
320,192,136921,128,0,136980:0:0:0:0:
448,192,137038,128,0,137097:0:0:0:0:
320,192,137155,128,0,137214:0:0:0:0:
192,192,137273,128,0,137331:0:0:0:0:
64,192,137390,128,0,137448:0:0:0:0:
192,192,137507,128,0,137566:0:0:0:0:
64,192,137624,128,0,137683:0:0:0:0:
448,192,137741,128,0,137800:0:0:0:0:
192,192,137859,128,0,137917:0:0:0:0:
320,192,137976,128,0,138034:0:0:0:0:
64,192,138093,128,0,138151:0:0:0:0:
448,192,138210,128,0,138269:0:0:0:0:
192,192,138327,128,0,138386:0:0:0:0:
320,192,138444,128,0,138503:0:0:0:0:
64,192,138562,128,0,138620:0:0:0:0:
192,192,138679,128,0,138737:0:0:0:0:
448,192,138796,128,0,138855:0:0:0:0:
320,192,138913,128,0,138972:0:0:0:0:
64,192,139030,128,0,139089:0:0:0:0:
448,192,139148,128,0,139206:0:0:0:0:
192,192,139265,128,0,139323:0:0:0:0:
320,192,139382,128,0,139441:0:0:0:0:
448,192,139616,128,0,139675:0:0:0:0:
192,192,139734,128,0,139792:0:0:0:0:
320,192,139851,128,0,139909:0:0:0:0:
192,192,139968,128,0,140026:0:0:0:0:
448,192,140085,128,0,140144:0:0:0:0:
64,192,140202,128,0,140261:0:0:0:0:
320,192,140319,128,0,140378:0:0:0:0:
64,192,140437,128,0,140495:0:0:0:0:
192,192,140554,128,0,140612:0:0:0:0:
448,192,140671,128,0,140730:0:0:0:0:
320,192,140788,128,0,140847:0:0:0:0:
192,192,140905,128,0,140964:0:0:0:0:
64,192,141023,128,0,141081:0:0:0:0:
192,192,141140,128,0,141198:0:0:0:0:
320,192,141257,128,0,141316:0:0:0:0:
192,192,141374,128,0,141433:0:0:0:0:
448,192,141491,128,0,141550:0:0:0:0:
64,192,141609,128,0,141667:0:0:0:0:
192,192,141726,128,0,141784:0:0:0:0:
64,192,141843,128,0,141901:0:0:0:0:
448,192,141960,128,0,142019:0:0:0:0:
192,192,142077,128,0,142136:0:0:0:0:
320,192,142194,128,0,142253:0:0:0:0:
64,192,142312,128,0,142370:0:0:0:0:
192,192,142429,128,0,142487:0:0:0:0:
64,192,142546,128,0,142956:0:0:0:0:
448,192,142546,128,0,143308:0:0:0:0:
192,192,142663,128,0,143191:0:0:0:0:
320,192,142898,128,0,143073:0:0:0:0:
64,192,143015,128,0,143484:0:0:0:0:
320,192,143132,128,0,143484:0:0:0:0:
192,192,143249,128,0,143484:0:0:0:0:
448,192,143366,128,0,143484:0:0:0:0:
