osu file format v14

[General]
AudioFilename: Yuki Onna.mp3
AudioLeadIn: 0
PreviewTime: 76827
Countdown: 0
SampleSet: Soft
StackLeniency: 0.7
Mode: 2
LetterboxInBreaks: 0
WidescreenStoryboard: 0

[Editor]
DistanceSpacing: 0.9
BeatDivisor: 4
GridSize: 16
TimelineZoom: 2.2

[Metadata]
Title:Yuki Onna
TitleUnicode:雪女
Artist:Kaneko Chiharu
ArtistUnicode:かねこちはる
Creator:Shinzo-
Version:Salad
Source:SOUND VOLTEX II -infinite infection-
Tags:SDVX KONAMI BEMANI FLOOR 夏だ!休みだ!自由研究オリジナル楽曲コンテスト It's Summer! It's Holiday! Independent Research Original Song Contest
BeatmapID:995864
BeatmapSetID:465179

[Difficulty]
HPDrainRate:5
CircleSize:3
OverallDifficulty:7
ApproachRate:7
SliderMultiplier:1.4
SliderTickRate:1

[Events]
//Background and Video events
0,0,"BG.jpg",0,0
//Break Periods
2,41027,49527
//Storyboard Layer 0 (Background)
//Storyboard Layer 1 (Fail)
//Storyboard Layer 2 (Pass)
//Storyboard Layer 3 (Foreground)
//Storyboard Sound Samples

[TimingPoints]
27,300,4,2,1,35,1,0
21627,-100,4,2,1,40,0,1
40827,-100,4,2,1,30,0,0
50427,-100,4,2,1,35,0,1
57627,-100,4,2,1,30,0,0
64827,-100,4,2,1,35,0,0
79227,-100,4,2,1,40,0,1
97227,-100,4,2,1,40,0,0
98427,-100,4,2,1,40,0,1
107427,-100,4,2,1,35,0,0

[Colours]
Combo1 : 128,0,255
Combo2 : 0,255,255
Combo3 : 0,0,255
Combo4 : 0,128,192

[HitObjects]
256,192,1227,12,0,2127,0:0:0:0:
400,176,2427,5,0,0:0:0:0:
256,176,2727,1,0,0:0:0:0:
224,176,2877,1,0,0:0:0:0:
64,80,3177,1,0,0:0:0:0:
96,80,3327,1,0,0:0:0:0:
272,80,3627,1,0,0:0:0:0:
304,80,3777,1,0,0:0:0:0:
480,224,4077,5,0,0:0:0:0:
448,224,4227,2,0,L|288:224,2,140
272,112,5127,1,0,0:0:0:0:
240,112,5277,1,0,0:0:0:0:
80,160,5577,1,0,0:0:0:0:
112,160,5727,1,0,0:0:0:0:
224,256,6027,1,0,0:0:0:0:
256,256,6177,1,0,0:0:0:0:
384,80,6477,5,0,0:0:0:0:
352,80,6627,2,0,L|208:80,1,140
112,176,7227,5,0,0:0:0:0:
256,176,7527,1,0,0:0:0:0:
288,176,7677,1,0,0:0:0:0:
448,80,7977,1,0,0:0:0:0:
416,80,8127,1,0,0:0:0:0:
240,80,8427,1,0,0:0:0:0:
208,80,8577,1,0,0:0:0:0:
32,224,8877,5,0,0:0:0:0:
64,224,9027,2,0,L|224:224,2,140
240,112,9927,1,0,0:0:0:0:
272,112,10077,1,0,0:0:0:0:
432,160,10377,1,0,0:0:0:0:
400,160,10527,1,0,0:0:0:0:
288,256,10827,1,0,0:0:0:0:
256,256,10977,1,0,0:0:0:0:
128,80,11277,5,0,0:0:0:0:
160,80,11427,2,0,L|304:80,1,140
112,192,12027,5,0,0:0:0:0:
272,192,12327,5,0,0:0:0:0:
304,192,12477,1,0,0:0:0:0:
160,80,12777,1,0,0:0:0:0:
128,80,12927,1,0,0:0:0:0:
288,288,13227,1,0,0:0:0:0:
256,288,13377,1,0,0:0:0:0:
416,112,13677,5,0,0:0:0:0:
384,112,13827,2,0,L|224:112,2,140
208,208,14727,1,0,0:0:0:0:
176,208,14877,1,0,0:0:0:0:
80,64,15177,5,0,0:0:0:0:
112,64,15327,1,0,0:0:0:0:
272,144,15627,1,0,0:0:0:0:
240,144,15777,1,0,0:0:0:0:
400,288,16077,1,0,0:0:0:0:
368,288,16227,2,0,L|224:288,1,140
384,192,16827,5,0,0:0:0:0:
192,192,17127,5,0,0:0:0:0:
160,192,17277,1,0,0:0:0:0:
352,80,17577,1,0,0:0:0:0:
384,80,17727,1,0,0:0:0:0:
224,288,18027,1,0,0:0:0:0:
256,288,18177,1,0,0:0:0:0:
96,112,18477,5,0,0:0:0:0:
128,112,18627,2,0,L|288:112,2,140
304,208,19527,1,0,0:0:0:0:
336,208,19677,1,0,0:0:0:0:
432,64,19977,5,0,0:0:0:0:
400,64,20127,1,0,0:0:0:0:
224,144,20427,1,0,0:0:0:0:
256,144,20577,1,0,0:0:0:0:
80,288,20877,1,0,0:0:0:0:
112,288,21027,2,0,L|272:288,1,140
464,96,21627,6,0,L|320:96,1,140
240,96,22077,2,0,L|96:96,1,140
16,96,22527,1,0,0:0:0:0:
192,192,22827,2,0,L|352:192,1,140
416,192,23277,1,0,0:0:0:0:
336,304,23427,2,0,L|176:304,1,140
16,144,24027,6,0,L|160:144,1,140
240,144,24477,2,0,L|400:144,1,140
464,144,24927,1,0,0:0:0:0:
288,240,25227,2,0,L|144:240,1,140
64,240,25677,1,0,0:0:0:0:
144,144,25827,2,0,L|304:144,1,140
384,224,26427,2,0,L|240:224,1,140
128,96,26877,6,0,L|352:96,1,210
416,96,27477,1,0,0:0:0:0:
352,48,27627,1,0,0:0:0:0:
241,125,27927,1,0,0:0:0:0:
234,260,28227,1,0,0:0:0:0:
337,347,28527,1,0,0:0:0:0:
96,272,28827,2,0,L|384:272,1,280
208,96,29727,1,0,0:0:0:0:
400,176,30027,6,0,L|256:176,3,140
48,96,31227,6,0,L|192:96,1,140
272,96,31677,2,0,L|416:96,1,140
496,96,32127,1,0,0:0:0:0:
320,192,32427,2,0,L|160:192,1,140
96,192,32877,1,0,0:0:0:0:
176,304,33027,2,0,L|336:304,1,140
496,144,33627,6,0,L|352:144,1,140
272,144,34077,2,0,L|112:144,1,140
48,144,34527,1,0,0:0:0:0:
224,240,34827,2,0,L|368:240,1,140
448,240,35277,1,0,0:0:0:0:
368,144,35427,2,0,L|208:144,2,140
176,224,36327,6,0,L|464:224,1,280
368,96,37077,1,0,0:0:0:0:
304,48,37227,1,0,0:0:0:0:
193,125,37527,1,0,0:0:0:0:
186,260,37827,1,0,0:0:0:0:
289,347,38127,1,0,0:0:0:0:
48,272,38427,2,0,L|336:272,1,280
240,64,39327,1,0,0:0:0:0:
128,176,39627,6,0,L|272:176,3,140
416,176,40827,1,0,0:0:0:0:
64,64,50427,5,0,0:0:0:0:
192,176,50727,2,0,L|272:176,1,70
368,304,51177,2,0,L|448:304,1,70
406,224,51477,2,0,L|336:224,1,70
304,144,51777,1,0,0:0:0:0:
80,80,52077,6,0,L|176:80,1,70
160,176,52527,2,0,L|304:176,1,140
320,224,53127,2,0,L|240:224,1,70
144,304,53577,2,0,L|64:304,1,70
106,224,53877,2,0,L|176:224,1,70
208,144,54177,1,0,0:0:0:0:
432,80,54477,6,0,L|336:80,1,70
352,176,54927,2,0,L|208:176,1,140
48,64,55527,6,0,L|128:64,1,70
240,288,55977,2,0,L|144:288,1,70
192,208,56277,2,0,L|272:208,1,70
288,128,56577,1,0,0:0:0:0:
64,80,56877,2,0,L|144:80,1,70
224,176,57327,2,0,L|368:176,1,140
160,96,60027,5,0,0:0:0:0:
256,192,60327,12,0,61827,0:0:0:0:
112,80,62427,5,0,0:0:0:0:
256,192,62727,12,0,64227,0:0:0:0:
352,96,64827,5,0,0:0:0:0:
224,96,65127,2,0,L|80:96,2,140
224,192,66027,1,0,0:0:0:0:
352,192,66327,1,0,0:0:0:0:
192,192,66627,1,0,0:0:0:0:
320,192,66927,1,0,0:0:0:0:
160,96,67227,5,0,0:0:0:0:
288,96,67527,2,0,L|432:96,2,140
224,96,68727,2,0,L|80:96,2,140
320,224,69627,6,0,L|400:224,1,70
352,144,69927,2,0,L|256:144,1,70
160,224,70377,2,0,L|80:224,1,70
128,144,70677,2,0,L|208:144,1,70
224,64,70977,1,0,0:0:0:0:
384,160,71277,6,0,L|480:160,1,70
448,240,71727,2,0,L|304:240,1,140
240,240,72177,1,0,0:0:0:0:
208,160,72327,2,0,L|288:160,1,70
80,64,72777,6,0,L|160:64,1,70
128,144,73077,2,0,L|48:144,1,70
32,224,73377,1,0,0:0:0:0:
256,112,73677,6,0,L|326:112,1,70
288,192,73977,2,0,L|218:192,1,70
192,272,74277,1,0,0:0:0:0:
256,192,74427,12,0,76827,0:0:0:0:
48,96,79227,6,0,L|192:96,1,140
272,96,79677,2,0,L|416:96,1,140
496,96,80127,1,0,0:0:0:0:
320,192,80427,2,0,L|160:192,1,140
96,192,80877,1,0,0:0:0:0:
176,304,81027,2,0,L|336:304,1,140
496,144,81627,6,0,L|352:144,1,140
272,144,82077,2,0,L|112:144,1,140
48,144,82527,1,0,0:0:0:0:
224,240,82827,2,0,L|368:240,1,140
448,240,83277,1,0,0:0:0:0:
368,144,83427,2,0,L|208:144,1,140
128,224,84027,2,0,L|272:224,1,140
384,96,84477,6,0,L|160:96,1,210
96,96,85077,1,0,0:0:0:0:
160,48,85227,1,0,0:0:0:0:
270,125,85527,1,0,0:0:0:0:
277,260,85827,1,0,0:0:0:0:
174,347,86127,1,0,0:0:0:0:
416,272,86427,2,0,L|128:272,1,280
304,96,87327,1,0,0:0:0:0:
112,176,87627,6,0,L|256:176,3,140
464,96,88827,6,0,L|320:96,1,140
240,96,89277,2,0,L|96:96,1,140
16,96,89727,1,0,0:0:0:0:
192,192,90027,2,0,L|352:192,1,140
416,192,90477,1,0,0:0:0:0:
336,304,90627,2,0,L|176:304,1,140
16,144,91227,6,0,L|160:144,1,140
240,144,91677,2,0,L|400:144,1,140
464,144,92127,1,0,0:0:0:0:
288,240,92427,2,0,L|144:240,1,140
64,240,92877,1,0,0:0:0:0:
144,144,93027,2,0,L|304:144,2,140
336,224,93927,6,0,L|48:224,1,280
144,96,94677,1,0,0:0:0:0:
208,48,94827,1,0,0:0:0:0:
319,125,95127,1,0,0:0:0:0:
326,260,95427,1,0,0:0:0:0:
223,347,95727,1,0,0:0:0:0:
464,272,96027,2,0,L|176:272,1,280
272,64,96927,1,0,0:0:0:0:
384,176,97227,6,0,L|240:176,3,140
96,176,98427,5,0,0:0:0:0:
176,176,98577,1,0,0:0:0:0:
256,288,98727,2,0,L|400:288,2,140
80,176,99627,1,0,0:0:0:0:
256,176,99927,1,0,0:0:0:0:
432,176,100227,1,0,0:0:0:0:
256,176,100527,1,0,0:0:0:0:
432,176,100827,5,0,0:0:0:0:
352,176,100977,1,0,0:0:0:0:
272,288,101127,2,0,L|128:288,2,140
448,176,102027,1,0,0:0:0:0:
272,80,102327,1,0,0:0:0:0:
96,176,102627,1,0,0:0:0:0:
176,176,102777,1,0,0:0:0:0:
256,176,102927,1,0,0:0:0:0:
336,176,103077,1,0,0:0:0:0:
432,176,103227,5,0,0:0:0:0:
352,96,103377,1,0,0:0:0:0:
272,288,103527,2,0,L|128:288,2,140
448,176,104427,1,0,0:0:0:0:
272,176,104727,1,0,0:0:0:0:
96,176,105027,1,0,0:0:0:0:
272,176,105327,1,0,0:0:0:0:
96,176,105627,5,0,0:0:0:0:
176,176,105777,1,0,0:0:0:0:
256,288,105927,2,0,L|400:288,2,140
80,176,106827,1,0,0:0:0:0:
256,176,107127,2,0,L|400:176,2,140
80,64,108027,2,0,L|80:224,1,140
256,208,108627,5,0,0:0:0:0:
384,208,108852,1,0,0:0:0:0:
512,208,109077,1,0,0:0:0:0:
432,96,109227,1,0,0:0:0:0:
336,96,109377,2,0,L|256:96,1,70
176,288,109677,2,0,L|256:288,1,70
336,288,109977,1,0,0:0:0:0:
432,288,110127,1,0,0:0:0:0:
336,176,110277,2,0,L|256:176,1,70
176,176,110577,2,0,L|96:176,1,70
16,80,110877,1,0,0:0:0:0:
112,80,111027,2,0,L|192:80,2,70
256,192,111477,12,0,115227,0:0:0:0:
