osu file format v14

[General]
AudioFilename: Yuki Onna.mp3
AudioLeadIn: 0
PreviewTime: 76827
Countdown: 0
SampleSet: Soft
StackLeniency: 0.7
Mode: 2
LetterboxInBreaks: 0
WidescreenStoryboard: 0

[Editor]
DistanceSpacing: 0.9
BeatDivisor: 4
GridSize: 16
TimelineZoom: 2.2

[Metadata]
Title:Yuki Onna
TitleUnicode:雪女
Artist:Kaneko Chiharu
ArtistUnicode:かねこちはる
Creator:Shinzo-
Version:Platter
Source:SOUND VOLTEX II -infinite infection-
Tags:SDVX KONAMI BEMANI FLOOR 夏だ!休みだ!自由研究オリジナル楽曲コンテスト It's Summer! It's Holiday! Independent Research Original Song Contest
BeatmapID:995862
BeatmapSetID:465179

[Difficulty]
HPDrainRate:5
CircleSize:3.5
OverallDifficulty:8
ApproachRate:8
SliderMultiplier:1.4
SliderTickRate:1

[Events]
//Background and Video events
0,0,"BG.jpg",0,0
//Break Periods
2,41027,49677
//Storyboard Layer 0 (Background)
//Storyboard Layer 1 (Fail)
//Storyboard Layer 2 (Pass)
//Storyboard Layer 3 (Foreground)
//Storyboard Sound Samples

[TimingPoints]
27,300,4,2,1,35,1,0
21627,-100,4,2,1,40,0,1
40827,-100,4,2,1,30,0,0
50427,-100,4,2,1,35,0,1
57627,-100,4,2,1,30,0,0
64827,-100,4,2,1,35,0,0
79227,-100,4,2,1,40,0,1
97227,-100,4,2,1,40,0,0
98427,-100,4,2,1,40,0,1
107427,-100,4,2,1,35,0,0

[Colours]
Combo1 : 128,0,255
Combo2 : 0,255,255
Combo3 : 0,0,255
Combo4 : 0,128,192

[HitObjects]
256,192,927,12,0,2127,0:0:0:0:
128,64,2427,5,0,0:0:0:0:
304,64,2727,5,0,0:0:0:0:
208,64,2877,1,0,0:0:0:0:
144,128,3177,1,0,0:0:0:0:
240,128,3327,1,0,0:0:0:0:
176,208,3627,1,0,0:0:0:0:
80,208,3777,1,0,0:0:0:0:
112,304,4077,5,0,0:0:0:0:
208,304,4227,2,0,L|352:304,2,140
352,224,5127,5,0,0:0:0:0:
256,224,5277,1,0,0:0:0:0:
288,144,5577,1,0,0:0:0:0:
384,144,5727,1,0,0:0:0:0:
416,80,6027,1,0,0:0:0:0:
320,80,6177,1,0,0:0:0:0:
352,0,6477,5,0,0:0:0:0:
256,0,6627,2,0,P|144:0|96:0,2,140
256,80,7377,5,0,0:0:0:0:
256,160,7527,1,0,0:0:0:0:
352,272,7677,1,0,0:0:0:0:
352,192,7827,1,0,0:0:0:0:
352,112,7977,1,0,0:0:0:0:
448,224,8127,5,0,0:0:0:0:
448,144,8277,1,0,0:0:0:0:
448,64,8427,1,0,0:0:0:0:
352,64,8577,1,0,0:0:0:0:
352,144,8727,1,0,0:0:0:0:
352,224,8877,1,0,0:0:0:0:
256,224,9027,6,0,L|96:224,2,140
256,144,9777,1,0,0:0:0:0:
256,64,9927,1,0,0:0:0:0:
160,64,10077,1,0,0:0:0:0:
160,144,10227,1,0,0:0:0:0:
160,224,10377,1,0,0:0:0:0:
64,304,10527,5,0,0:0:0:0:
64,224,10677,1,0,0:0:0:0:
64,144,10827,1,0,0:0:0:0:
160,48,10977,1,0,0:0:0:0:
160,128,11127,1,0,0:0:0:0:
160,208,11277,1,0,0:0:0:0:
256,208,11427,6,0,L|400:208,1,140
432,208,11877,1,0,0:0:0:0:
128,208,12027,5,0,0:0:0:0:
208,64,12327,5,0,0:0:0:0:
304,64,12477,1,0,0:0:0:0:
368,128,12777,1,0,0:0:0:0:
272,128,12927,1,0,0:0:0:0:
272,128,13077,1,0,0:0:0:0:
336,208,13227,1,0,0:0:0:0:
432,208,13377,1,0,0:0:0:0:
400,304,13677,5,0,0:0:0:0:
304,304,13827,2,0,L|160:304,2,140
160,224,14727,5,0,0:0:0:0:
256,224,14877,1,0,0:0:0:0:
224,144,15177,1,0,0:0:0:0:
128,144,15327,1,0,0:0:0:0:
176,144,15477,1,0,0:0:0:0:
128,64,15627,1,0,0:0:0:0:
176,64,15777,1,0,0:0:0:0:
160,0,16077,5,0,0:0:0:0:
256,0,16227,2,0,P|368:0|416:0,2,140
304,64,17127,5,0,0:0:0:0:
208,64,17277,1,0,0:0:0:0:
144,128,17577,1,0,0:0:0:0:
240,128,17727,1,0,0:0:0:0:
240,128,17877,1,0,0:0:0:0:
176,208,18027,1,0,0:0:0:0:
80,208,18177,1,0,0:0:0:0:
112,304,18477,5,0,0:0:0:0:
208,304,18627,2,0,L|352:304,2,140
352,224,19527,5,0,0:0:0:0:
256,224,19677,1,0,0:0:0:0:
288,144,19977,1,0,0:0:0:0:
384,144,20127,1,0,0:0:0:0:
336,144,20277,1,0,0:0:0:0:
384,64,20427,1,0,0:0:0:0:
336,64,20577,1,0,0:0:0:0:
400,0,20877,5,0,0:0:0:0:
304,0,21027,2,0,P|192:0|144:0,1,140
128,128,21477,1,0,0:0:0:0:
272,176,21627,1,0,0:0:0:0:
304,0,21777,1,0,0:0:0:0:
304,64,21927,5,0,0:0:0:0:
160,64,22077,1,0,0:0:0:0:
160,64,22227,1,0,0:0:0:0:
96,128,22377,1,0,0:0:0:0:
240,128,22527,1,0,0:0:0:0:
240,128,22677,5,0,0:0:0:0:
176,208,22827,1,0,0:0:0:0:
32,208,22977,1,0,0:0:0:0:
32,208,23127,1,0,0:0:0:0:
64,288,23277,5,0,0:0:0:0:
208,288,23427,2,0,L|352:288,2,140
208,288,24177,1,0,0:0:0:0:
208,208,24327,5,0,0:0:0:0:
352,208,24477,1,0,0:0:0:0:
352,208,24627,1,0,0:0:0:0:
384,128,24777,1,0,0:0:0:0:
240,128,24927,1,0,0:0:0:0:
240,128,25077,5,0,0:0:0:0:
272,48,25227,1,0,0:0:0:0:
416,48,25377,1,0,0:0:0:0:
416,48,25527,1,0,0:0:0:0:
384,128,25677,1,0,0:0:0:0:
240,128,25827,6,0,L|96:128,2,140
480,128,26877,6,0,P|176:128|176:128,1,280
192,128,27552,1,0,0:0:0:0:
176,128,27627,1,0,0:0:0:0:
128,224,27727,5,0,0:0:0:0:
80,224,27827,1,0,0:0:0:0:
128,224,27927,1,0,0:0:0:0:
176,224,28027,1,0,0:0:0:0:
224,224,28127,1,0,0:0:0:0:
272,224,28227,6,0,L|432:224,1,140
240,144,28827,2,0,L|528:144,2,280
240,144,30177,1,0,0:0:0:0:
144,144,30327,5,0,0:0:0:0:
144,144,30477,1,0,0:0:0:0:
48,240,30627,1,0,0:0:0:0:
48,240,30702,1,0,0:0:0:0:
48,240,30777,1,0,0:0:0:0:
96,240,30852,5,0,0:0:0:0:
96,240,30927,1,0,0:0:0:0:
96,240,31002,1,0,0:0:0:0:
160,240,31077,5,0,0:0:0:0:
384,240,31227,1,0,0:0:0:0:
368,96,31377,5,0,0:0:0:0:
368,96,31527,1,0,0:0:0:0:
224,96,31677,1,0,0:0:0:0:
224,96,31827,1,0,0:0:0:0:
256,176,31977,5,0,0:0:0:0:
112,176,32127,1,0,0:0:0:0:
112,176,32277,1,0,0:0:0:0:
144,256,32427,1,0,0:0:0:0:
288,256,32577,1,0,0:0:0:0:
288,256,32727,5,0,0:0:0:0:
320,176,32877,1,0,0:0:0:0:
176,176,33027,2,0,L|32:176,2,140
176,176,33777,1,0,0:0:0:0:
176,256,33927,5,0,0:0:0:0:
320,256,34077,1,0,0:0:0:0:
320,256,34227,1,0,0:0:0:0:
352,176,34377,1,0,0:0:0:0:
208,176,34527,5,0,0:0:0:0:
208,176,34677,1,0,0:0:0:0:
240,96,34827,1,0,0:0:0:0:
384,96,34977,1,0,0:0:0:0:
240,192,35277,6,0,L|144:192,1,70
336,96,35652,1,0,0:0:0:0:
160,96,35877,2,0,L|240:96,1,70
480,96,36327,6,0,L|432:96,2,46.6666666666667
432,176,36627,2,0,L|384:176,2,46.6666666666667
384,256,36927,2,0,L|336:256,2,46.6666666666667
336,80,37227,6,0,L|240:80,1,70
112,80,37527,1,0,0:0:0:0:
80,80,37602,1,0,0:0:0:0:
224,160,37752,2,0,L|432:160,1,175
224,240,38427,6,0,L|-80:240,2,280
48,80,39927,6,0,L|208:80,2,140
464,80,40827,1,0,0:0:0:0:
304,224,50427,5,0,0:0:0:0:
304,144,50577,1,0,0:0:0:0:
304,64,50727,5,0,0:0:0:0:
160,64,50877,1,0,0:0:0:0:
160,64,51027,1,0,0:0:0:0:
96,128,51177,1,0,0:0:0:0:
240,128,51327,1,0,0:0:0:0:
192,128,51477,5,0,0:0:0:0:
240,128,51627,1,0,0:0:0:0:
192,128,51777,1,0,0:0:0:0:
160,208,51927,1,0,0:0:0:0:
128,288,52077,5,0,0:0:0:0:
272,288,52227,2,0,L|416:288,2,140
208,288,52977,1,0,0:0:0:0:
208,208,53127,5,0,0:0:0:0:
352,208,53277,1,0,0:0:0:0:
352,208,53427,1,0,0:0:0:0:
384,128,53577,1,0,0:0:0:0:
240,128,53727,1,0,0:0:0:0:
288,128,53877,5,0,0:0:0:0:
240,128,54027,1,0,0:0:0:0:
288,128,54177,1,0,0:0:0:0:
320,208,54327,1,0,0:0:0:0:
352,208,54477,1,0,0:0:0:0:
208,208,54627,6,0,L|64:208,1,140
496,208,55227,5,0,0:0:0:0:
432,208,55377,1,0,0:0:0:0:
384,128,55527,1,0,0:0:0:0:
448,128,55677,1,0,0:0:0:0:
400,48,55827,5,0,0:0:0:0:
336,48,55977,1,0,0:0:0:0:
336,288,56127,1,0,0:0:0:0:
400,288,56277,1,0,0:0:0:0:
320,208,56427,6,0,L|384:208,6,35
304,208,56952,1,0,0:0:0:0:
272,112,57027,6,0,L|208:112,8,35
432,192,60027,5,0,0:0:0:0:
80,192,62427,5,0,0:0:0:0:
416,80,64227,6,0,L|304:80,1,105
192,80,64677,2,0,L|112:80,1,70
288,192,65127,6,0,L|432:192,2,140
224,192,66027,2,0,L|80:192,1,140
256,112,66627,2,0,L|96:112,1,140
400,112,67227,1,0,0:0:0:0:
224,192,67527,6,0,L|80:192,2,140
288,192,68427,1,0,0:0:0:0:
288,192,68727,6,0,L|432:192,2,140
96,192,69627,5,0,0:0:0:0:
48,192,69777,1,0,0:0:0:0:
0,192,69927,1,0,0:0:0:0:
192,112,70077,1,0,0:0:0:0:
192,112,70227,5,0,0:0:0:0:
192,192,70377,5,0,0:0:0:0:
240,192,70527,1,0,0:0:0:0:
192,192,70677,1,0,0:0:0:0:
240,192,70827,1,0,0:0:0:0:
384,288,70977,1,0,0:0:0:0:
384,288,71127,1,0,0:0:0:0:
384,192,71277,5,0,0:0:0:0:
432,192,71427,1,0,0:0:0:0:
384,192,71577,1,0,0:0:0:0:
336,192,71727,1,0,0:0:0:0:
288,96,71877,5,0,0:0:0:0:
336,96,72027,1,0,0:0:0:0:
384,96,72177,1,0,0:0:0:0:
432,96,72327,1,0,0:0:0:0:
240,96,72477,1,0,0:0:0:0:
240,96,72627,5,0,0:0:0:0:
224,208,72777,1,0,0:0:0:0:
176,208,72927,1,0,0:0:0:0:
128,208,73077,1,0,0:0:0:0:
176,208,73227,1,0,0:0:0:0:
272,288,73377,1,0,0:0:0:0:
272,288,73527,5,0,0:0:0:0:
272,208,73677,1,0,0:0:0:0:
320,208,73827,1,0,0:0:0:0:
368,208,73977,1,0,0:0:0:0:
320,208,74127,1,0,0:0:0:0:
272,208,74277,1,0,0:0:0:0:
144,208,74427,5,0,0:0:0:0:
96,208,74577,1,0,0:0:0:0:
48,208,74727,1,0,0:0:0:0:
240,128,74877,1,0,0:0:0:0:
240,128,75027,5,0,0:0:0:0:
240,208,75177,5,0,0:0:0:0:
288,208,75327,1,0,0:0:0:0:
240,208,75477,1,0,0:0:0:0:
288,208,75627,1,0,0:0:0:0:
432,288,75777,1,0,0:0:0:0:
432,288,75927,1,0,0:0:0:0:
432,208,76077,5,0,0:0:0:0:
480,208,76227,1,0,0:0:0:0:
432,208,76377,1,0,0:0:0:0:
384,208,76527,1,0,0:0:0:0:
336,112,76677,5,0,0:0:0:0:
384,112,76827,1,0,0:0:0:0:
240,176,79227,5,0,0:0:0:0:
208,0,79377,1,0,0:0:0:0:
208,64,79527,5,0,0:0:0:0:
352,64,79677,1,0,0:0:0:0:
352,64,79827,1,0,0:0:0:0:
416,128,79977,1,0,0:0:0:0:
272,128,80127,1,0,0:0:0:0:
272,128,80277,5,0,0:0:0:0:
336,208,80427,1,0,0:0:0:0:
480,208,80577,1,0,0:0:0:0:
480,208,80727,1,0,0:0:0:0:
448,288,80877,5,0,0:0:0:0:
304,288,81027,2,0,L|160:288,2,140
304,288,81777,1,0,0:0:0:0:
304,208,81927,5,0,0:0:0:0:
160,208,82077,1,0,0:0:0:0:
160,208,82227,1,0,0:0:0:0:
128,128,82377,1,0,0:0:0:0:
272,128,82527,1,0,0:0:0:0:
272,128,82677,5,0,0:0:0:0:
240,48,82827,1,0,0:0:0:0:
96,48,82977,1,0,0:0:0:0:
96,48,83127,1,0,0:0:0:0:
128,128,83277,1,0,0:0:0:0:
272,128,83427,6,0,L|416:128,2,140
32,128,84477,6,0,P|336:128|336:128,1,280
320,128,85152,1,0,0:0:0:0:
336,128,85227,1,0,0:0:0:0:
384,224,85327,5,0,0:0:0:0:
432,224,85427,1,0,0:0:0:0:
384,224,85527,1,0,0:0:0:0:
336,224,85627,1,0,0:0:0:0:
288,224,85727,1,0,0:0:0:0:
240,224,85827,6,0,L|80:224,1,140
272,144,86427,2,0,L|-16:144,2,280
272,144,87777,1,0,0:0:0:0:
368,144,87927,5,0,0:0:0:0:
368,144,88077,1,0,0:0:0:0:
464,240,88227,1,0,0:0:0:0:
464,240,88302,1,0,0:0:0:0:
464,240,88377,1,0,0:0:0:0:
416,240,88452,5,0,0:0:0:0:
416,240,88527,1,0,0:0:0:0:
416,240,88602,1,0,0:0:0:0:
352,240,88677,5,0,0:0:0:0:
128,240,88827,1,0,0:0:0:0:
144,96,88977,5,0,0:0:0:0:
144,96,89127,1,0,0:0:0:0:
288,96,89277,1,0,0:0:0:0:
288,96,89427,1,0,0:0:0:0:
256,176,89577,5,0,0:0:0:0:
400,176,89727,1,0,0:0:0:0:
400,176,89877,1,0,0:0:0:0:
368,256,90027,1,0,0:0:0:0:
224,256,90177,1,0,0:0:0:0:
224,256,90327,5,0,0:0:0:0:
192,176,90477,1,0,0:0:0:0:
336,176,90627,2,0,L|480:176,2,140
336,176,91377,1,0,0:0:0:0:
336,256,91527,5,0,0:0:0:0:
192,256,91677,1,0,0:0:0:0:
192,256,91827,1,0,0:0:0:0:
160,176,91977,1,0,0:0:0:0:
304,176,92127,5,0,0:0:0:0:
304,176,92277,1,0,0:0:0:0:
272,96,92427,1,0,0:0:0:0:
128,96,92577,1,0,0:0:0:0:
272,192,92877,6,0,L|368:192,1,70
176,96,93252,1,0,0:0:0:0:
352,96,93477,2,0,L|272:96,1,70
32,96,93927,6,0,L|80:96,2,46.6666666666667
80,176,94227,2,0,L|128:176,2,46.6666666666667
128,256,94527,2,0,L|176:256,2,46.6666666666667
176,80,94827,6,0,L|272:80,1,70
400,80,95127,1,0,0:0:0:0:
432,80,95202,1,0,0:0:0:0:
288,160,95352,2,0,L|80:160,1,175
288,240,96027,6,0,L|592:240,2,280
464,80,97527,6,0,L|304:80,2,140
48,80,98427,5,0,0:0:0:0:
102,80,98577,1,0,0:0:0:0:
48,80,98727,1,0,0:0:0:0:
128,80,98877,1,0,0:0:0:0:
102,80,98952,1,0,0:0:0:0:
208,80,99102,5,0,0:0:0:0:
240,80,99177,2,0,L|320:80,2,70
336,192,99627,2,0,L|416:192,2,70
256,192,100077,1,0,0:0:0:0:
224,192,100152,1,0,0:0:0:0:
64,192,100302,6,0,L|160:192,1,70
160,288,100527,1,0,0:0:0:0:
192,112,100677,1,0,0:0:0:0:
224,32,100827,6,0,L|304:32,1,70
336,32,101127,1,0,0:0:0:0:
368,32,101277,1,0,0:0:0:0:
336,32,101352,1,0,0:0:0:0:
416,112,101502,5,0,0:0:0:0:
448,112,101577,1,0,0:0:0:0:
352,176,101727,6,0,L|256:176,1,70
192,176,102027,1,0,0:0:0:0:
288,96,102177,1,0,0:0:0:0:
192,288,102327,1,0,0:0:0:0:
288,96,102477,5,0,0:0:0:0:
336,288,102552,1,0,0:0:0:0:
480,288,102702,5,0,0:0:0:0:
464,288,102852,1,0,0:0:0:0:
352,288,103002,1,0,0:0:0:0:
368,288,103152,1,0,0:0:0:0:
480,80,103227,6,0,L|384:80,2,70
384,80,103677,1,0,0:0:0:0:
410,80,103752,1,0,0:0:0:0:
304,80,103902,5,0,0:0:0:0:
272,80,103977,2,0,L|192:80,2,70
176,192,104427,2,0,L|96:192,2,70
256,192,104877,1,0,0:0:0:0:
288,192,104952,1,0,0:0:0:0:
448,192,105102,6,0,L|352:192,1,70
352,288,105327,1,0,0:0:0:0:
320,112,105477,1,0,0:0:0:0:
288,32,105627,6,0,L|208:32,1,70
176,32,105927,1,0,0:0:0:0:
144,32,106077,1,0,0:0:0:0:
176,32,106152,1,0,0:0:0:0:
96,112,106302,5,0,0:0:0:0:
64,112,106377,1,0,0:0:0:0:
160,176,106527,6,0,L|256:176,2,70
304,176,106977,1,0,0:0:0:0:
224,176,107127,1,0,0:0:0:0:
304,176,107277,5,0,0:0:0:0:
336,176,107352,1,0,0:0:0:0:
368,176,107427,2,0,L|368:320,1,140
368,176,108027,6,0,L|272:64,1,140
288,240,108627,6,0,L|400:240,1,105
192,144,109077,1,0,0:0:0:0:
368,144,109227,2,0,L|288:144,1,70
160,144,109527,5,0,0:0:0:0:
32,240,109677,6,0,L|112:240,1,70
240,240,109977,1,0,0:0:0:0:
352,320,110127,6,0,L|256:320,1,70
144,320,110427,1,0,0:0:0:0:
32,240,110577,6,0,L|112:240,1,70
240,240,110877,1,0,0:0:0:0:
352,144,111027,6,0,L|272:144,1,70
128,144,111327,1,0,0:0:0:0:
256,192,111477,12,0,115227,0:0:0:0:
