osu file format v14

[General]
AudioFilename: audio.mp3
AudioLeadIn: 0
PreviewTime: 96899
Countdown: 0
SampleSet: Normal
StackLeniency: 0.7
Mode: 1
LetterboxInBreaks: 0
WidescreenStoryboard: 0

[Editor]
Bookmarks: 950,10646,20343,30040,39737,54283,63980,88222
DistanceSpacing: 0.8
BeatDivisor: 4
GridSize: 32
TimelineZoom: 2.7

[Metadata]
Title:WHITEOUT
TitleUnicode:WHITEOUT
Artist:Kaneko Chiharu
ArtistUnicode:かねこちはる
Creator:_DUSK_
Version:Oni
Source:SOUND VOLTEX IV HEAVENLY HAVEN
Tags:Ω Dimension The 6th KAC受賞者の書き下ろし新曲 Genjuro instrumental rhythm video game sdvx
BeatmapID:2270372
BeatmapSetID:1084474

[Difficulty]
HPDrainRate:5
CircleSize:5
OverallDifficulty:6
ApproachRate:9
SliderMultiplier:1.4
SliderTickRate:1

[Events]
//Background and Video events
0,0,"bg.jpg",0,120
//Break Periods
//Storyboard Layer 0 (Background)
//Storyboard Layer 1 (Fail)
//Storyboard Layer 2 (Pass)
//Storyboard Layer 3 (Foreground)
//Storyboard Layer 4 (Overlay)
//Storyboard Sound Samples

[TimingPoints]
2405,303.030303030303,4,1,0,80,1,0
2405,-125,4,1,0,80,0,0
9677,-123.456790123457,4,1,0,80,0,0
9980,-121.951219512195,4,1,0,80,0,0
10182,-120.481927710843,4,1,0,80,0,0
10283,-119.047619047619,4,1,0,80,0,0
10586,-117.647058823529,4,1,0,80,0,0
10889,-116.279069767442,4,1,0,100,0,0
10965,-114.942528735632,4,1,0,100,0,0
11041,-113.636363636364,4,1,0,100,0,0
11117,-112.359550561798,4,1,0,100,0,0
11192,-111.111111111111,4,1,0,100,0,0
11344,-109.89010989011,4,1,0,100,0,0
11420,-108.695652173913,4,1,0,100,0,0
11495,-107.52688172043,4,1,0,100,0,0
12404,-142.857142857143,4,1,0,100,0,0
16950,-129.87012987013,4,1,0,100,0,0
17253,-128.205128205128,4,1,0,100,0,0
17404,-126.582278481013,4,1,0,100,0,0
17556,-125,4,1,0,100,0,0
17708,-123.456790123457,4,1,0,100,0,0
17859,-121.951219512195,4,1,0,100,0,0
18162,-119.047619047619,4,1,0,100,0,0
18314,-117.647058823529,4,1,0,100,0,0
18465,-116.279069767442,4,1,0,100,0,0
18617,-114.942528735632,4,1,0,100,0,0
18768,-113.636363636364,4,1,0,100,0,0
19071,-111.111111111111,4,1,0,100,0,0
19223,-109.89010989011,4,1,0,100,0,0
19374,-108.695652173913,4,1,0,100,0,0
19450,-107.52688172043,4,1,0,100,0,0
19526,-106.382978723404,4,1,0,100,0,0
19601,-105.263157894737,4,1,0,100,0,0
19677,-104.166666666667,4,1,0,100,0,0
19829,-103.092783505155,4,1,0,100,0,0
19980,-102.040816326531,4,1,0,100,0,0
20056,-101.010101010101,4,1,0,100,0,0
20132,-100,4,1,0,100,0,0
20283,-99.009900990099,4,1,0,100,0,0
20359,-98.0392156862745,4,1,0,100,0,0
20435,-97.0873786407767,4,1,0,100,0,0
20511,-96.1538461538461,4,1,0,100,0,0
21192,-108.695652173913,4,1,0,100,0,0
21268,-107.52688172043,4,1,0,100,0,0
21344,-106.382978723404,4,1,0,100,0,0
21420,-105.263157894737,4,1,0,100,0,0
21495,-104.166666666667,4,1,0,100,0,0
21647,-102.040816326531,4,1,0,100,0,0
21798,-100,4,1,0,100,0,0
29677,-99.009900990099,4,1,0,100,0,0
29753,-98.0392156862745,4,1,0,100,0,0
29829,-97.0873786407767,4,1,0,100,0,0
29980,-96.1538461538461,4,1,0,100,0,0
30132,-95.2380952380952,4,1,0,100,0,0
30283,-94.3396226415094,4,1,0,100,0,0
30359,-93.4579439252336,4,1,0,100,0,0
30435,-92.5925925925926,4,1,0,100,0,0
30511,-91.743119266055,4,1,0,100,0,0
30586,-90.9090909090909,4,1,0,100,0,0
31798,-125,4,1,0,100,0,0
35586,-123.456790123457,4,1,0,100,0,0
35738,-121.951219512195,4,1,0,100,0,0
35889,-120.481927710843,4,1,0,100,0,0
36192,-119.047619047619,4,1,0,100,0,0
36344,-117.647058823529,4,1,0,100,0,0
36647,-116.279069767442,4,1,0,100,0,0
36798,-114.942528735632,4,1,0,100,0,0
36950,-113.636363636364,4,1,0,100,0,0
37101,-112.359550561798,4,1,0,100,0,0
37253,-111.111111111111,4,1,0,100,0,0
37556,-109.89010989011,4,1,0,100,0,0
37708,-108.695652173913,4,1,0,100,0,0
37859,-107.52688172043,4,1,0,100,0,0
38011,-106.382978723404,4,1,0,100,0,0
38162,-105.263157894737,4,1,0,100,0,0
38314,-104.166666666667,4,1,0,100,0,0
38465,-103.092783505155,4,1,0,100,0,0
38617,-102.040816326531,4,1,0,100,0,0
38768,-101.010101010101,4,1,0,100,0,0
41495,-103.092783505155,4,1,0,90,0,0
41798,-105.263157894737,4,1,0,85,0,0
42101,-107.52688172043,4,1,0,80,0,0
42405,-109.89010989011,4,1,0,75,0,0
42708,-112.359550561798,4,1,0,70,0,0
43011,-114.942528735632,4,1,0,65,0,0
43314,-117.647058823529,4,1,0,60,0,0
43617,-123.456790123457,4,1,0,55,0,0
43920,-126.582278481013,4,1,0,50,0,0
44223,-129.87012987013,4,1,0,45,0,0
44526,-133.333333333333,4,1,0,40,0,0
44829,-136.986301369863,4,1,0,35,0,0
45132,-140.845070422535,4,1,0,30,0,0
45435,-144.927536231884,4,1,0,25,0,0
45662,-144.927536231884,4,1,0,50,0,0
45738,-147.058823529412,4,1,0,60,0,0
45814,-149.253731343284,4,1,0,60,0,0
45889,-151.515151515152,4,1,0,60,0,0
45965,-153.846153846154,4,1,0,60,0,0
46041,-156.25,4,1,0,60,0,0
55435,-142.857142857143,4,1,0,70,0,0
55511,-136.986301369863,4,1,0,70,0,0
55586,-131.578947368421,4,1,0,70,0,0
55738,-121.951219512195,4,1,0,100,0,0
60132,-119.047619047619,4,1,0,100,0,0
60283,-116.279069767442,4,1,0,100,0,0
60359,-114.942528735632,4,1,0,100,0,0
60435,-113.636363636364,4,1,0,100,0,0
60511,-112.359550561798,4,1,0,100,0,0
60586,-111.111111111111,4,1,0,100,0,0
65435,-105.263157894737,4,1,0,100,0,0
73920,-104.166666666667,4,1,0,100,0,0
73995,-103.092783505155,4,1,0,100,0,0
74071,-102.040816326531,4,1,0,100,0,0
74147,-101.010101010101,4,1,0,100,0,0
74223,-100,4,1,0,100,0,0
74374,-99.009900990099,4,1,0,100,0,0
74526,-98.0392156862745,4,1,0,100,0,0
74601,-97.0873786407767,4,1,0,100,0,0
74677,-96.1538461538461,4,1,0,100,0,0
74753,-95.2380952380952,4,1,0,100,0,0
74829,-94.3396226415094,4,1,0,100,0,0
75132,-105.263157894737,4,1,0,100,0,0
82404,-104.166666666667,4,1,0,100,0,0
82480,-103.092783505155,4,1,0,100,0,0
82556,-102.040816326531,4,1,0,100,0,0
82708,-101.010101010101,4,1,0,100,0,0
82859,-100,4,1,0,100,0,0
83011,-99.009900990099,4,1,0,100,0,0
83086,-98.0392156862745,4,1,0,100,0,0
83162,-97.0873786407767,4,1,0,100,0,0
83238,-96.1538461538461,4,1,0,100,0,0
83314,-95.2380952380952,4,1,0,100,0,0
83465,-94.3396226415094,4,1,0,100,0,0
83617,-93.4579439252336,4,1,0,100,0,0
83768,-92.5925925925926,4,1,0,100,0,0
83844,-91.743119266055,4,1,0,100,0,0
83920,-90.9090909090909,4,1,0,100,0,0
84071,-90.0900900900901,4,1,0,100,0,0
84223,-89.2857142857143,4,1,0,100,0,0
84374,-88.4955752212389,4,1,0,100,0,0
84450,-87.719298245614,4,1,0,100,0,0
84526,-86.9565217391304,4,1,0,100,0,0
84677,-86.2068965517241,4,1,0,100,0,0
84829,-85.4700854700855,4,1,0,100,0,0
84904,-142.857142857143,4,1,0,70,0,0
88465,-200,4,1,0,70,0,0
89601,-200,4,1,0,100,0,0
89677,-105.263157894737,4,1,0,100,0,0
92101,-104.166666666667,4,1,0,100,0,0
92253,-102.040816326531,4,1,0,100,0,0
92329,-101.010101010101,4,1,0,100,0,0
92404,-100,4,1,0,100,0,0
92708,-99.009900990099,4,1,0,100,0,0
93011,-98.0392156862745,4,1,0,100,0,0
93314,-97.0873786407767,4,1,0,100,0,0
93465,-96.1538461538461,4,1,0,100,0,0
93768,-95.2380952380952,4,1,0,100,0,0
94071,-94.3396226415094,4,1,0,100,0,0
94526,-93.4579439252336,4,1,0,100,0,0
94829,-92.5925925925926,4,1,0,100,0,0
95132,-91.743119266055,4,1,0,100,0,0
95435,-90.9090909090909,4,1,0,100,0,0
95738,-90.0900900900901,4,1,0,100,0,0
96041,-89.2857142857143,4,1,0,100,0,0
96344,-88.4955752212389,4,1,0,100,0,0
96647,-87.719298245614,4,1,0,100,0,0
96950,-86.9565217391304,4,1,0,100,0,0
97253,-100,4,1,0,100,0,1
112708,-99.009900990099,4,1,0,100,0,1
112859,-98.0392156862745,4,1,0,100,0,1
113011,-97.0873786407767,4,1,0,100,0,1
113162,-95.2380952380952,4,1,0,100,0,1
113314,-94.3396226415094,4,1,0,100,0,1
113465,-93.4579439252336,4,1,0,100,0,1
113541,-92.5925925925926,4,1,0,100,0,1
113617,-91.743119266055,4,1,0,100,0,1
113768,-90.9090909090909,4,1,0,100,0,1
113920,-83.3333333333333,4,1,0,100,0,0
114223,-100,4,1,0,100,0,1
118768,-100,4,1,0,100,0,0
119071,-90.9090909090909,4,1,0,100,0,1
122404,-89.2857142857143,4,1,0,100,0,1
122480,-88.4955752212389,4,1,0,100,0,1
122556,-87.719298245614,4,1,0,100,0,1
122632,-86.9565217391304,4,1,0,100,0,1
122708,-86.2068965517241,4,1,0,100,0,1
122859,-85.4700854700855,4,1,0,100,0,1
123011,-84.7457627118644,4,1,0,100,0,1
123086,-84.0336134453781,4,1,0,100,0,1
123162,-83.3333333333333,4,1,0,100,0,1
123238,-82.6446280991736,4,1,0,100,0,1
123314,-81.9672131147541,4,1,0,100,0,1
123617,-76.9230769230769,4,1,0,100,0,0
124829,-80,4,1,0,90,0,0
126041,-86.9565217391304,4,1,0,80,0,0
127253,-95.2380952380952,4,1,0,70,0,0

[HitObjects]
256,192,2405,5,4,0:0:0:0:
256,192,5435,1,0,0:0:0:0:
256,192,6041,1,8,0:0:0:0:
256,192,6647,1,8,0:0:0:0:
256,192,7253,1,12,0:0:0:0:
256,192,7556,1,8,0:0:0:0:
256,192,7708,1,0,0:0:0:0:
256,192,8011,1,0,0:0:0:0:
256,192,8314,1,0,0:0:0:0:
256,192,9677,1,0,0:0:0:0:
256,192,9980,1,8,0:0:0:0:
256,192,10182,1,8,0:0:0:0:
256,192,10283,1,0,0:0:0:0:
256,192,10586,1,8,0:0:0:0:
256,192,10889,1,0,0:0:0:0:
256,192,10965,1,0,0:0:0:0:
256,192,11041,1,0,0:0:0:0:
256,192,11117,1,0,0:0:0:0:
256,192,11192,1,8,0:0:0:0:
256,192,11344,1,0,0:0:0:0:
256,192,11420,1,0,0:0:0:0:
256,192,11495,1,8,0:0:0:0:
256,192,12101,1,4,0:0:0:0:
256,192,12556,1,0,0:0:0:0:
256,192,12632,1,0,0:0:0:0:
256,192,12708,1,8,0:0:0:0:
256,192,12859,1,0,0:0:0:0:
256,192,13768,1,0,0:0:0:0:
256,192,13844,1,0,0:0:0:0:
256,192,13920,1,8,0:0:0:0:
256,192,14526,1,0,0:0:0:0:
256,192,14980,1,0,0:0:0:0:
256,192,15056,1,0,0:0:0:0:
256,192,15132,1,8,0:0:0:0:
256,192,15738,1,8,0:0:0:0:
256,192,16950,1,12,0:0:0:0:
256,192,17253,1,8,0:0:0:0:
256,192,17404,1,8,0:0:0:0:
256,192,17556,1,0,0:0:0:0:
256,192,17708,1,0,0:0:0:0:
256,192,17859,1,8,0:0:0:0:
256,192,18162,1,0,0:0:0:0:
256,192,18314,1,8,0:0:0:0:
256,192,18465,1,8,0:0:0:0:
256,192,18617,1,8,0:0:0:0:
256,192,18768,1,0,0:0:0:0:
256,192,19071,1,8,0:0:0:0:
256,192,19223,1,8,0:0:0:0:
256,192,19374,1,0,0:0:0:0:
256,192,19450,1,0,0:0:0:0:
256,192,19526,1,8,0:0:0:0:
256,192,19601,1,8,0:0:0:0:
256,192,19677,1,0,0:0:0:0:
256,192,19829,1,8,0:0:0:0:
256,192,19980,1,0,0:0:0:0:
256,192,20056,1,0,0:0:0:0:
256,192,20132,1,8,0:0:0:0:
256,192,20283,1,0,0:0:0:0:
256,192,20359,1,0,0:0:0:0:
256,192,20435,1,8,0:0:0:0:
256,192,20511,1,8,0:0:0:0:
256,192,21192,1,0,0:0:0:0:
256,192,21268,1,0,0:0:0:0:
256,192,21344,1,0,0:0:0:0:
256,192,21420,1,0,0:0:0:0:
256,192,21495,1,8,0:0:0:0:
256,192,21647,1,8,0:0:0:0:
256,192,21798,1,4,0:0:0:0:
256,192,22101,1,8,0:0:0:0:
256,192,22253,1,0,0:0:0:0:
256,192,22556,1,8,0:0:0:0:
256,192,22708,1,0,0:0:0:0:
256,192,22859,1,8,0:0:0:0:
256,192,23011,1,0,0:0:0:0:
256,192,23314,1,0,0:0:0:0:
256,192,23465,1,8,0:0:0:0:
256,192,23768,1,8,0:0:0:0:
256,192,23920,1,0,0:0:0:0:
256,192,24071,1,8,0:0:0:0:
256,192,24223,1,0,0:0:0:0:
256,192,24374,1,0,0:0:0:0:
256,192,24526,1,8,0:0:0:0:
256,192,24677,1,0,0:0:0:0:
256,192,24980,1,8,0:0:0:0:
256,192,25132,1,0,0:0:0:0:
256,192,25283,1,8,0:0:0:0:
256,192,25586,1,8,0:0:0:0:
256,192,25738,1,0,0:0:0:0:
256,192,25889,1,8,0:0:0:0:
256,192,26041,1,0,0:0:0:0:
256,192,26268,1,8,0:0:0:0:
256,192,26344,1,0,0:0:0:0:
256,192,26495,1,8,0:0:0:0:
256,192,26647,1,0,0:0:0:0:
256,192,26798,1,8,0:0:0:0:
256,192,26874,1,8,0:0:0:0:
256,192,26950,1,0,0:0:0:0:
256,192,27101,1,8,0:0:0:0:
256,192,27253,1,0,0:0:0:0:
256,192,27329,1,0,0:0:0:0:
256,192,27404,1,8,0:0:0:0:
256,192,27480,1,8,0:0:0:0:
256,192,27556,1,0,0:0:0:0:
256,192,27708,1,8,0:0:0:0:
256,192,27859,1,0,0:0:0:0:
256,192,28086,1,8,0:0:0:0:
256,192,28162,1,0,0:0:0:0:
256,192,28314,1,8,0:0:0:0:
256,192,28465,1,0,0:0:0:0:
256,192,28541,1,0,0:0:0:0:
256,192,28617,1,8,0:0:0:0:
256,192,28768,1,0,0:0:0:0:
256,192,28920,1,8,0:0:0:0:
256,192,29071,1,4,0:0:0:0:
256,192,29374,1,8,0:0:0:0:
256,192,29526,1,8,0:0:0:0:
256,192,29677,1,0,0:0:0:0:
256,192,29753,1,0,0:0:0:0:
256,192,29829,1,0,0:0:0:0:
256,192,29980,1,8,0:0:0:0:
256,192,30132,1,8,0:0:0:0:
256,192,30283,1,0,0:0:0:0:
256,192,30359,1,0,0:0:0:0:
256,192,30435,1,0,0:0:0:0:
256,192,30511,1,0,0:0:0:0:
256,192,30586,1,8,0:0:0:0:
256,192,30889,1,8,0:0:0:0:
256,192,31117,1,8,0:0:0:0:
256,192,31344,1,8,0:0:0:0:
256,192,31495,1,4,0:0:0:0:
256,192,32101,1,8,0:0:0:0:
256,192,32708,1,0,0:0:0:0:
256,192,33162,1,0,0:0:0:0:
256,192,33314,1,8,0:0:0:0:
256,192,33465,1,0,0:0:0:0:
256,192,33920,1,0,0:0:0:0:
256,192,34374,1,0,0:0:0:0:
256,192,34526,1,8,0:0:0:0:
256,192,35132,1,0,0:0:0:0:
256,192,35586,1,0,0:0:0:0:
256,192,35738,1,8,0:0:0:0:
256,192,35889,1,0,0:0:0:0:
256,192,36192,1,8,0:0:0:0:
256,192,36344,1,4,0:0:0:0:
256,192,36647,1,8,0:0:0:0:
256,192,36798,1,8,0:0:0:0:
256,192,36950,1,0,0:0:0:0:
256,192,37101,1,0,0:0:0:0:
256,192,37253,1,8,0:0:0:0:
256,192,37556,1,0,0:0:0:0:
256,192,37708,1,8,0:0:0:0:
256,192,37859,1,8,0:0:0:0:
256,192,38011,1,0,0:0:0:0:
256,192,38162,1,8,0:0:0:0:
256,192,38314,1,8,0:0:0:0:
256,192,38465,1,0,0:0:0:0:
256,192,38617,1,8,0:0:0:0:
256,192,38768,1,0,0:0:0:0:
256,192,38844,1,0,0:0:0:0:
256,192,38920,1,0,0:0:0:0:
256,192,39071,1,8,0:0:0:0:
256,192,39223,1,8,0:0:0:0:
256,192,39374,1,0,0:0:0:0:
256,192,39450,1,0,0:0:0:0:
256,192,39526,1,0,0:0:0:0:
256,192,39601,1,0,0:0:0:0:
256,192,39677,1,8,0:0:0:0:
256,192,39829,1,8,0:0:0:0:
256,192,39980,1,0,0:0:0:0:
256,192,40056,1,0,0:0:0:0:
256,192,40132,1,8,0:0:0:0:
256,192,40208,1,8,0:0:0:0:
256,192,40283,1,0,0:0:0:0:
256,192,40435,1,8,0:0:0:0:
256,192,40586,1,8,0:0:0:0:
256,192,40662,1,8,0:0:0:0:
256,192,40738,1,0,0:0:0:0:
256,192,40814,1,0,0:0:0:0:
256,192,40889,1,8,0:0:0:0:
256,192,41041,1,8,0:0:0:0:
256,192,41117,1,8,0:0:0:0:
256,192,41192,1,0,0:0:0:0:
256,192,41495,1,0,0:0:0:0:
256,192,41798,1,0,0:0:0:0:
256,192,42101,1,0,0:0:0:0:
256,192,42405,1,0,0:0:0:0:
256,192,42708,1,0,0:0:0:0:
256,192,43011,1,0,0:0:0:0:
256,192,43314,1,0,0:0:0:0:
256,192,43617,1,0,0:0:0:0:
256,192,43920,1,0,0:0:0:0:
256,192,44223,1,0,0:0:0:0:
256,192,44526,1,0,0:0:0:0:
256,192,44829,1,0,0:0:0:0:
256,192,45132,1,0,0:0:0:0:
256,192,45435,1,0,0:0:0:0:
256,192,45738,1,0,0:0:0:0:
256,192,45814,1,0,0:0:0:0:
256,192,45889,1,0,0:0:0:0:
256,192,45965,1,0,0:0:0:0:
256,192,46041,1,8,0:0:0:0:
256,192,47253,1,8,0:0:0:0:
256,192,47708,1,8,0:0:0:0:
256,192,48465,1,8,0:0:0:0:
256,192,49677,1,8,0:0:0:0:
256,192,50132,1,8,0:0:0:0:
256,192,50889,1,8,0:0:0:0:
256,192,51798,1,8,0:0:0:0:
256,192,52708,1,8,0:0:0:0:
256,192,53162,1,8,0:0:0:0:
256,192,53920,1,8,0:0:0:0:
256,192,54526,1,8,0:0:0:0:
256,192,54753,1,8,0:0:0:0:
256,192,54980,1,8,0:0:0:0:
256,192,55132,1,8,0:0:0:0:
256,192,55435,1,8,0:0:0:0:
256,192,55511,1,8,0:0:0:0:
256,192,55586,1,0,0:0:0:0:
256,192,55738,1,4,0:0:0:0:
256,192,56041,1,8,0:0:0:0:
256,192,56192,1,0,0:0:0:0:
256,192,56495,1,0,0:0:0:0:
256,192,56647,1,8,0:0:0:0:
256,192,56798,1,8,0:0:0:0:
256,192,56950,1,0,0:0:0:0:
256,192,57253,1,0,0:0:0:0:
256,192,57405,1,8,0:0:0:0:
256,192,57556,1,0,0:0:0:0:
256,192,57708,1,8,0:0:0:0:
256,192,58011,1,8,0:0:0:0:
256,192,58162,1,0,0:0:0:0:
256,192,58314,1,8,0:0:0:0:
256,192,58465,1,0,0:0:0:0:
256,192,58541,1,8,0:0:0:0:
256,192,58617,1,8,0:0:0:0:
256,192,58768,1,0,0:0:0:0:
256,192,58920,1,8,0:0:0:0:
256,192,59223,1,8,0:0:0:0:
256,192,59298,1,8,0:0:0:0:
256,192,59374,1,0,0:0:0:0:
256,192,59526,1,0,0:0:0:0:
256,192,59677,1,8,0:0:0:0:
256,192,59829,1,8,0:0:0:0:
256,192,59905,1,0,0:0:0:0:
256,192,59980,1,8,0:0:0:0:
256,192,60132,1,0,0:0:0:0:
256,192,60283,1,0,0:0:0:0:
256,192,60359,1,0,0:0:0:0:
256,192,60435,1,8,0:0:0:0:
256,192,60511,1,8,0:0:0:0:
256,192,60586,1,0,0:0:0:0:
256,192,60738,1,0,0:0:0:0:
256,192,61041,1,12,0:0:0:0:
256,192,61495,1,0,0:0:0:0:
256,192,61647,1,0,0:0:0:0:
256,192,61950,1,12,0:0:0:0:
256,192,62405,1,0,0:0:0:0:
256,192,62556,1,0,0:0:0:0:
256,192,62859,1,12,0:0:0:0:
256,192,63162,1,8,0:0:0:0:
256,192,63314,1,8,0:0:0:0:
256,192,63465,1,0,0:0:0:0:
256,192,63541,1,0,0:0:0:0:
256,192,63617,1,8,0:0:0:0:
256,192,63844,1,8,0:0:0:0:
256,192,63920,1,0,0:0:0:0:
256,192,63995,1,0,0:0:0:0:
256,192,64071,1,8,0:0:0:0:
256,192,64223,1,8,0:0:0:0:
256,192,64450,1,8,0:0:0:0:
256,192,64526,1,0,0:0:0:0:
256,192,64677,1,8,0:0:0:0:
256,192,64753,1,0,0:0:0:0:
256,192,64829,1,8,0:0:0:0:
256,192,65435,1,4,0:0:0:0:
256,192,65586,1,8,0:0:0:0:
256,192,65738,1,0,0:0:0:0:
256,192,65814,1,0,0:0:0:0:
256,192,65889,1,8,0:0:0:0:
256,192,65965,1,8,0:0:0:0:
256,192,66041,1,0,0:0:0:0:
256,192,66192,1,8,0:0:0:0:
256,192,66344,1,0,0:0:0:0:
256,192,66495,1,8,0:0:0:0:
256,192,66571,1,8,0:0:0:0:
256,192,66647,1,0,0:0:0:0:
256,192,66798,1,8,0:0:0:0:
256,192,66950,1,0,0:0:0:0:
256,192,67026,1,0,0:0:0:0:
256,192,67101,1,8,0:0:0:0:
256,192,67253,1,0,0:0:0:0:
256,192,67404,1,8,0:0:0:0:
256,192,67556,1,0,0:0:0:0:
256,192,67859,1,8,0:0:0:0:
256,192,68011,1,0,0:0:0:0:
256,192,68162,1,8,0:0:0:0:
256,192,68238,1,0,0:0:0:0:
256,192,68314,1,0,0:0:0:0:
256,192,68389,1,0,0:0:0:0:
256,192,68465,1,8,0:0:0:0:
256,192,68617,1,0,0:0:0:0:
256,192,68768,1,8,0:0:0:0:
256,192,68844,1,8,0:0:0:0:
256,192,68920,1,0,0:0:0:0:
256,192,69071,1,8,0:0:0:0:
256,192,69223,1,0,0:0:0:0:
256,192,69374,1,8,0:0:0:0:
256,192,69450,1,0,0:0:0:0:
256,192,69526,1,0,0:0:0:0:
256,192,69677,1,8,0:0:0:0:
256,192,69753,1,8,0:0:0:0:
256,192,69829,1,0,0:0:0:0:
256,192,69904,1,0,0:0:0:0:
256,192,69980,1,8,0:0:0:0:
256,192,70283,1,12,0:0:0:0:
256,192,70435,1,0,0:0:0:0:
256,192,70586,1,8,0:0:0:0:
256,192,70738,1,0,0:0:0:0:
256,192,70814,1,0,0:0:0:0:
256,192,70889,1,8,0:0:0:0:
256,192,71041,1,8,0:0:0:0:
256,192,71192,1,0,0:0:0:0:
256,192,71344,1,8,0:0:0:0:
256,192,71420,1,0,0:0:0:0:
256,192,71495,1,0,0:0:0:0:
256,192,71647,1,8,0:0:0:0:
256,192,71798,1,0,0:0:0:0:
256,192,71874,1,0,0:0:0:0:
256,192,71950,1,8,0:0:0:0:
256,192,72026,1,8,0:0:0:0:
256,192,72101,1,0,0:0:0:0:
256,192,72253,1,8,0:0:0:0:
256,192,72404,1,0,0:0:0:0:
256,192,72708,1,0,0:0:0:0:
256,192,72859,1,0,0:0:0:0:
256,192,73011,1,8,0:0:0:0:
256,192,73162,1,8,0:0:0:0:
256,192,73314,1,0,0:0:0:0:
256,192,73465,1,8,0:0:0:0:
256,192,73617,1,0,0:0:0:0:
256,192,73768,1,8,0:0:0:0:
256,192,73920,1,0,0:0:0:0:
256,192,73995,1,0,0:0:0:0:
256,192,74071,1,0,0:0:0:0:
256,192,74147,1,0,0:0:0:0:
256,192,74223,1,8,0:0:0:0:
256,192,74374,1,0,0:0:0:0:
256,192,74526,1,8,0:0:0:0:
256,192,74601,1,8,0:0:0:0:
256,192,74677,1,0,0:0:0:0:
256,192,74753,1,0,0:0:0:0:
256,192,74829,1,8,0:0:0:0:
256,192,75132,1,4,0:0:0:0:
256,192,75283,1,8,0:0:0:0:
256,192,75359,1,8,0:0:0:0:
256,192,75435,1,0,0:0:0:0:
256,192,75586,1,8,0:0:0:0:
256,192,75738,1,0,0:0:0:0:
256,192,75889,1,0,0:0:0:0:
256,192,76041,1,8,0:0:0:0:
256,192,76344,1,0,0:0:0:0:
256,192,76495,1,0,0:0:0:0:
256,192,76571,1,8,0:0:0:0:
256,192,76647,1,0,0:0:0:0:
256,192,76798,1,8,0:0:0:0:
256,192,76950,1,0,0:0:0:0:
256,192,77101,1,0,0:0:0:0:
256,192,77253,1,8,0:0:0:0:
256,192,77404,1,8,0:0:0:0:
256,192,77556,1,0,0:0:0:0:
256,192,77859,1,0,0:0:0:0:
256,192,78011,1,0,0:0:0:0:
256,192,78086,1,0,0:0:0:0:
256,192,78162,1,8,0:0:0:0:
256,192,78314,1,0,0:0:0:0:
256,192,78465,1,8,0:0:0:0:
256,192,78617,1,0,0:0:0:0:
256,192,78768,1,8,0:0:0:0:
256,192,78844,1,8,0:0:0:0:
256,192,78920,1,0,0:0:0:0:
256,192,78995,1,0,0:0:0:0:
256,192,79071,1,8,0:0:0:0:
256,192,79223,1,0,0:0:0:0:
256,192,79374,1,8,0:0:0:0:
256,192,79677,1,8,0:0:0:0:
256,192,79980,1,12,0:0:0:0:
256,192,80132,1,0,0:0:0:0:
256,192,80283,1,8,0:0:0:0:
256,192,80435,1,8,0:0:0:0:
256,192,80586,1,0,0:0:0:0:
256,192,80738,1,8,0:0:0:0:
256,192,80889,1,0,0:0:0:0:
256,192,81041,1,8,0:0:0:0:
256,192,81192,1,0,0:0:0:0:
256,192,81344,1,0,0:0:0:0:
256,192,81495,1,8,0:0:0:0:
256,192,81647,1,0,0:0:0:0:
256,192,81798,1,8,0:0:0:0:
256,192,81950,1,8,0:0:0:0:
256,192,82101,1,0,0:0:0:0:
256,192,82253,1,8,0:0:0:0:
256,192,82404,1,0,0:0:0:0:
256,192,82480,1,0,0:0:0:0:
256,192,82556,1,0,0:0:0:0:
256,192,82708,1,8,0:0:0:0:
256,192,82859,1,0,0:0:0:0:
256,192,83011,1,0,0:0:0:0:
256,192,83086,1,0,0:0:0:0:
256,192,83162,1,0,0:0:0:0:
256,192,83238,1,0,0:0:0:0:
256,192,83314,1,8,0:0:0:0:
256,192,83465,1,0,0:0:0:0:
256,192,83617,1,0,0:0:0:0:
256,192,83692,1,0,0:0:0:0:
256,192,83768,1,8,0:0:0:0:
256,192,83844,1,8,0:0:0:0:
256,192,83920,1,0,0:0:0:0:
256,192,84071,1,8,0:0:0:0:
256,192,84223,1,8,0:0:0:0:
256,192,84298,1,8,0:0:0:0:
256,192,84374,1,0,0:0:0:0:
256,192,84450,1,0,0:0:0:0:
256,192,84526,1,8,0:0:0:0:
256,192,84677,1,8,0:0:0:0:
256,192,84753,1,8,0:0:0:0:
256,192,84829,1,0,0:0:0:0:
256,192,86041,1,0,0:0:0:0:
256,192,87253,1,0,0:0:0:0:
256,192,88465,1,8,0:0:0:0:
256,192,89677,1,4,0:0:0:0:
256,192,89980,1,8,0:0:0:0:
256,192,90132,1,0,0:0:0:0:
256,192,90435,1,0,0:0:0:0:
256,192,90586,1,8,0:0:0:0:
256,192,90738,1,8,0:0:0:0:
256,192,90889,1,0,0:0:0:0:
256,192,91041,1,8,0:0:0:0:
256,192,91344,1,8,0:0:0:0:
256,192,91495,1,0,0:0:0:0:
256,192,91571,1,0,0:0:0:0:
256,192,91647,1,0,0:0:0:0:
256,192,91798,1,8,0:0:0:0:
256,192,92101,1,4,0:0:0:0:
256,192,92253,1,0,0:0:0:0:
256,192,92329,1,0,0:0:0:0:
256,192,92404,1,8,0:0:0:0:
256,192,92556,1,0,0:0:0:0:
256,192,92708,1,8,0:0:0:0:
256,192,92783,1,8,0:0:0:0:
256,192,92859,1,0,0:0:0:0:
256,192,92935,1,0,0:0:0:0:
256,192,93011,1,8,0:0:0:0:
256,192,93162,1,0,0:0:0:0:
256,192,93314,1,8,0:0:0:0:
256,192,93465,1,0,0:0:0:0:
256,192,93541,1,0,0:0:0:0:
256,192,93617,1,8,0:0:0:0:
256,192,93768,1,0,0:0:0:0:
256,192,93920,1,8,0:0:0:0:
256,192,93995,1,8,0:0:0:0:
256,192,94071,1,0,0:0:0:0:
256,192,94223,1,8,0:0:0:0:
256,192,94526,1,0,0:0:0:0:
256,192,94677,1,0,0:0:0:0:
256,192,94753,1,0,0:0:0:0:
256,192,94829,1,8,0:0:0:0:
256,192,94980,1,0,0:0:0:0:
256,192,95132,1,8,0:0:0:0:
256,192,95208,1,8,0:0:0:0:
256,192,95283,1,0,0:0:0:0:
256,192,95435,1,8,0:0:0:0:
256,192,95511,1,0,0:0:0:0:
256,192,95586,1,8,0:0:0:0:
256,192,95738,1,0,0:0:0:0:
256,192,95889,1,0,0:0:0:0:
256,192,95965,1,0,0:0:0:0:
256,192,96041,1,8,0:0:0:0:
256,192,96117,1,8,0:0:0:0:
256,192,96192,1,0,0:0:0:0:
256,192,96344,1,8,0:0:0:0:
256,192,96420,1,8,0:0:0:0:
256,192,96495,1,0,0:0:0:0:
256,192,96647,1,8,0:0:0:0:
256,192,96798,1,8,0:0:0:0:
256,192,97253,5,4,0:0:0:0:
256,192,97404,1,8,0:0:0:0:
256,192,97480,1,8,0:0:0:0:
256,192,97556,1,8,0:0:0:0:
256,192,97783,1,8,0:0:0:0:
256,192,97859,1,0,0:0:0:0:
256,192,98011,1,8,0:0:0:0:
256,192,98162,1,0,0:0:0:0:
256,192,98465,1,8,0:0:0:0:
256,192,98617,1,0,0:0:0:0:
256,192,98768,1,8,0:0:0:0:
256,192,98844,1,8,0:0:0:0:
256,192,98920,1,0,0:0:0:0:
256,192,98995,1,0,0:0:0:0:
256,192,99071,1,8,0:0:0:0:
256,192,99223,1,0,0:0:0:0:
256,192,99298,1,0,0:0:0:0:
256,192,99374,1,8,0:0:0:0:
256,192,99677,1,0,0:0:0:0:
256,192,99829,1,8,0:0:0:0:
256,192,99904,1,8,0:0:0:0:
256,192,99980,1,8,0:0:0:0:
256,192,100208,1,8,0:0:0:0:
256,192,100283,1,0,0:0:0:0:
256,192,100435,1,8,0:0:0:0:
256,192,100586,1,0,0:0:0:0:
256,192,100738,1,0,0:0:0:0:
256,192,100814,1,0,0:0:0:0:
256,192,100889,1,8,0:0:0:0:
256,192,101192,1,0,0:0:0:0:
256,192,101344,1,0,0:0:0:0:
256,192,101420,1,0,0:0:0:0:
256,192,101495,1,8,0:0:0:0:
256,192,101798,1,0,0:0:0:0:
256,192,102101,1,8,0:0:0:0:
256,192,102253,1,8,0:0:0:0:
256,192,102329,1,8,0:0:0:0:
256,192,102404,1,8,0:0:0:0:
256,192,102556,1,0,0:0:0:0:
256,192,102632,1,8,0:0:0:0:
256,192,102859,1,8,0:0:0:0:
256,192,102935,1,8,0:0:0:0:
256,192,103011,1,0,0:0:0:0:
256,192,103314,1,8,0:0:0:0:
256,192,103465,1,0,0:0:0:0:
256,192,103768,1,0,0:0:0:0:
256,192,103920,1,8,0:0:0:0:
256,192,104071,1,8,0:0:0:0:
256,192,104223,1,0,0:0:0:0:
256,192,104526,1,8,0:0:0:0:
256,192,104677,1,0,0:0:0:0:
256,192,104980,1,0,0:0:0:0:
256,192,105132,1,8,0:0:0:0:
256,192,105283,1,8,0:0:0:0:
256,192,105435,1,0,0:0:0:0:
256,192,105511,1,0,0:0:0:0:
256,192,105586,1,0,0:0:0:0:
256,192,105662,1,0,0:0:0:0:
256,192,105738,1,8,0:0:0:0:
256,192,105889,1,0,0:0:0:0:
256,192,106041,1,8,0:0:0:0:
256,192,106117,1,8,0:0:0:0:
256,192,106192,1,0,0:0:0:0:
256,192,106268,1,0,0:0:0:0:
256,192,106344,1,8,0:0:0:0:
256,192,106495,1,8,0:0:0:0:
256,192,106647,1,4,0:0:0:0:
256,192,106950,1,0,0:0:0:0:
256,192,107101,1,8,0:0:0:0:
256,192,107177,1,8,0:0:0:0:
256,192,107253,1,8,0:0:0:0:
256,192,107480,1,8,0:0:0:0:
256,192,107556,1,0,0:0:0:0:
256,192,107708,1,8,0:0:0:0:
256,192,107859,1,0,0:0:0:0:
256,192,108162,1,8,0:0:0:0:
256,192,108314,1,0,0:0:0:0:
256,192,108465,1,8,0:0:0:0:
256,192,108541,1,0,0:0:0:0:
256,192,108617,1,8,0:0:0:0:
256,192,108692,1,0,0:0:0:0:
256,192,108768,1,8,0:0:0:0:
256,192,108920,1,8,0:0:0:0:
256,192,109071,1,0,0:0:0:0:
256,192,109374,1,8,0:0:0:0:
256,192,109526,1,8,0:0:0:0:
256,192,109601,1,8,0:0:0:0:
256,192,109677,1,8,0:0:0:0:
256,192,109904,1,8,0:0:0:0:
256,192,109980,1,0,0:0:0:0:
256,192,110132,1,8,0:0:0:0:
256,192,110283,1,0,0:0:0:0:
256,192,110435,1,0,0:0:0:0:
256,192,110511,1,0,0:0:0:0:
256,192,110586,1,8,0:0:0:0:
256,192,110889,1,0,0:0:0:0:
256,192,111041,1,0,0:0:0:0:
256,192,111117,1,0,0:0:0:0:
256,192,111192,1,8,0:0:0:0:
256,192,111344,1,8,0:0:0:0:
256,192,111495,1,4,0:0:0:0:
256,192,111647,1,8,0:0:0:0:
256,192,111723,1,8,0:0:0:0:
256,192,111798,1,0,0:0:0:0:
256,192,111950,1,8,0:0:0:0:
256,192,112101,1,0,0:0:0:0:
256,192,112253,1,0,0:0:0:0:
256,192,112404,1,8,0:0:0:0:
256,192,112708,1,0,0:0:0:0:
256,192,112859,1,0,0:0:0:0:
256,192,113011,1,8,0:0:0:0:
256,192,113162,1,8,0:0:0:0:
256,192,113314,1,0,0:0:0:0:
256,192,113389,1,0,0:0:0:0:
256,192,113465,1,0,0:0:0:0:
256,192,113541,1,0,0:0:0:0:
256,192,113617,1,8,0:0:0:0:
256,192,113768,1,8,0:0:0:0:
256,192,114223,1,4,0:0:0:0:
256,192,114374,1,8,0:0:0:0:
256,192,114450,1,8,0:0:0:0:
256,192,114829,1,8,0:0:0:0:
256,192,114980,1,8,0:0:0:0:
256,192,115056,1,8,0:0:0:0:
256,192,115283,1,8,0:0:0:0:
256,192,115435,1,0,0:0:0:0:
256,192,115586,1,8,0:0:0:0:
256,192,115662,1,0,0:0:0:0:
256,192,115889,1,0,0:0:0:0:
256,192,116041,1,8,0:0:0:0:
256,192,116192,1,8,0:0:0:0:
256,192,116344,1,0,0:0:0:0:
256,192,116647,1,8,0:0:0:0:
256,192,116798,1,8,0:0:0:0:
256,192,116874,1,8,0:0:0:0:
256,192,117101,1,0,0:0:0:0:
256,192,117253,1,8,0:0:0:0:
256,192,117404,1,8,0:0:0:0:
256,192,117556,1,0,0:0:0:0:
256,192,117632,1,0,0:0:0:0:
256,192,117783,1,0,0:0:0:0:
256,192,117935,1,0,0:0:0:0:
256,192,118086,1,0,0:0:0:0:
256,192,118162,1,0,0:0:0:0:
256,192,118238,1,0,0:0:0:0:
256,192,118314,1,0,0:0:0:0:
256,192,118465,1,8,0:0:0:0:
256,192,118617,1,8,0:0:0:0:
256,192,118692,1,8,0:0:0:0:
256,192,119071,1,12,0:0:0:0:
256,192,119223,1,0,0:0:0:0:
256,192,119298,1,0,0:0:0:0:
256,192,119374,1,8,0:0:0:0:
256,192,119526,1,0,0:0:0:0:
256,192,119677,1,8,0:0:0:0:
256,192,119753,1,8,0:0:0:0:
256,192,119829,1,0,0:0:0:0:
256,192,119904,1,0,0:0:0:0:
256,192,119980,1,8,0:0:0:0:
256,192,120132,1,0,0:0:0:0:
256,192,120283,1,8,0:0:0:0:
256,192,120359,1,0,0:0:0:0:
256,192,120435,1,0,0:0:0:0:
256,192,120586,1,8,0:0:0:0:
256,192,120738,1,0,0:0:0:0:
256,192,120889,1,8,0:0:0:0:
256,192,121192,1,0,0:0:0:0:
256,192,121344,1,0,0:0:0:0:
256,192,121495,1,8,0:0:0:0:
256,192,121647,1,8,0:0:0:0:
256,192,121798,1,0,0:0:0:0:
256,192,121874,1,0,0:0:0:0:
256,192,121950,1,8,0:0:0:0:
256,192,122026,1,0,0:0:0:0:
256,192,122101,1,0,0:0:0:0:
256,192,122253,1,8,0:0:0:0:
256,192,122404,1,0,0:0:0:0:
256,192,122480,1,0,0:0:0:0:
256,192,122556,1,8,0:0:0:0:
256,192,122632,1,8,0:0:0:0:
256,192,122708,1,0,0:0:0:0:
256,192,122859,1,8,0:0:0:0:
256,192,123011,1,8,0:0:0:0:
256,192,123086,1,8,0:0:0:0:
256,192,123162,1,0,0:0:0:0:
256,192,123238,1,0,0:0:0:0:
256,192,123314,1,8,0:0:0:0:
256,192,123617,1,4,0:0:0:0:
256,192,123768,12,0,128389,0:0:0:0:
