osu file format v14

[General]
AudioFilename: audio.mp3
AudioLeadIn: 0
PreviewTime: 96899
Countdown: 0
SampleSet: Normal
StackLeniency: 0.2
Mode: 1
LetterboxInBreaks: 0
WidescreenStoryboard: 0

[Editor]
DistanceSpacing: 0.8
BeatDivisor: 6
GridSize: 32
TimelineZoom: 2.7

[Metadata]
Title:WHITEOUT
TitleUnicode:WHITEOUT
Artist:Kaneko Chiharu
ArtistUnicode:かねこちはる
Creator:_DUSK_
Version:Genjuro's Inner Oni
Source:SOUND VOLTEX IV HEAVENLY HAVEN
Tags:Ω Dimension The 6th KAC受賞者の書き下ろし新曲 Genjuro instrumental rhythm video game sdvx
BeatmapID:2271916
BeatmapSetID:1084474

[Difficulty]
HPDrainRate:5.5
CircleSize:2
OverallDifficulty:6.5
ApproachRate:10
SliderMultiplier:1.4
SliderTickRate:1

[Events]
//Background and Video events
0,0,"bg.jpg",0,120
//Break Periods
//Storyboard Layer 0 (Background)
//Storyboard Layer 1 (Fail)
//Storyboard Layer 2 (Pass)
//Storyboard Layer 3 (Foreground)
//Storyboard Layer 4 (Overlay)
//Storyboard Sound Samples

[TimingPoints]
2405,303.030303030303,4,1,0,80,1,0
2556,-142.857142857143,4,1,0,40,0,0
10814,-117.647058823529,4,1,0,80,0,0
11495,-100,4,1,0,80,0,0
12101,-125,4,1,0,80,0,0
15738,-142.857142857143,4,1,0,80,0,0
16950,-125,4,1,0,80,0,0
17101,-123.076923076923,4,1,0,80,0,0
17253,-121.212121212121,4,1,0,80,0,0
17404,-119.402985074627,4,1,0,80,0,0
17556,-117.647058823529,4,1,0,80,0,0
17708,-115.942028985507,4,1,0,80,0,0
17859,-114.285714285714,4,1,0,80,0,0
18011,-112.676056338028,4,1,0,80,0,0
18162,-111.111111111111,4,1,0,80,0,0
18314,-109.58904109589,4,1,0,80,0,0
18465,-108.108108108108,4,1,0,80,0,0
18617,-106.666666666667,4,1,0,80,0,0
18768,-105.263157894737,4,1,0,80,0,0
18920,-103.896103896104,4,1,0,80,0,0
19071,-102.564102564103,4,1,0,80,0,0
19223,-101.26582278481,4,1,0,80,0,0
19374,-100,4,1,0,80,0,0
19450,-98.7654320987654,4,1,0,80,0,0
19526,-97.5609756097561,4,1,0,80,0,0
19601,-96.3855421686747,4,1,0,80,0,0
19677,-95.2380952380952,4,1,0,80,0,0
19753,-94.1176470588235,4,1,0,80,0,0
19829,-93.0232558139535,4,1,0,80,0,0
19905,-91.9540229885058,4,1,0,80,0,0
19980,-90.9090909090909,4,1,0,80,0,0
20056,-89.3854748603352,4,1,0,80,0,0
20132,-87.9120879120879,4,1,0,80,0,0
20208,-86.4864864864865,4,1,0,80,0,0
20283,-85.1063829787234,4,1,0,80,0,0
20359,-83.7696335078534,4,1,0,80,0,0
20435,-82.4742268041237,4,1,0,80,0,0
20511,-81.2182741116751,4,1,0,80,0,0
20586,-80,4,1,0,80,0,0
21192,-117.647058823529,4,1,0,80,0,0
21723,-100,4,1,0,100,0,0
29223,-97.5609756097561,4,1,0,100,0,0
29374,-95.2380952380952,4,1,0,100,0,0
29526,-93.0232558139535,4,1,0,100,0,0
29677,-90.9090909090909,4,1,0,100,0,0
29753,-89.8876404494382,4,1,0,100,0,0
29829,-88.8888888888889,4,1,0,100,0,0
29904,-87.9120879120879,4,1,0,100,0,0
29980,-86.9565217391304,4,1,0,100,0,0
30056,-86.0215053763441,4,1,0,100,0,0
30132,-85.1063829787234,4,1,0,100,0,0
30208,-84.2105263157895,4,1,0,100,0,0
30283,-83.3333333333333,4,1,0,100,0,0
30334,-82.1917583036279,4,1,0,100,0,0
30384,-81.0811029948927,4,1,0,100,0,0
30435,-80,4,1,0,100,0,0
30485,-78.9473476454348,4,1,0,100,0,0
30536,-77.9220981615839,4,1,0,100,0,0
30586,-76.9230769230769,4,1,0,100,0,0
30889,-83.3333333333333,4,1,0,100,0,0
31117,-88.8888888888889,4,1,0,100,0,0
31344,-95.2380952380952,4,1,0,100,0,0
31495,-100,4,1,0,100,0,0
31647,-125,4,1,0,80,0,0
36268,-100,4,1,0,100,0,0
38844,-99.3788819875776,4,1,0,100,0,0
38920,-98.7654320987654,4,1,0,100,0,0
38995,-98.159509202454,4,1,0,100,0,0
39071,-97.5609756097561,4,1,0,100,0,0
39147,-96.969696969697,4,1,0,100,0,0
39223,-96.3855421686747,4,1,0,100,0,0
39298,-95.8083832335329,4,1,0,100,0,0
39374,-95.2380952380952,4,1,0,100,0,0
39526,-94.1176470588235,4,1,0,100,0,0
39601,-93.5672514619883,4,1,0,100,0,0
39677,-93.0232558139535,4,1,0,100,0,0
39829,-91.9540229885058,4,1,0,100,0,0
39980,-90.9090909090909,4,1,0,100,0,0
40056,-89.8876404494382,4,1,0,100,0,0
40132,-88.8888888888889,4,1,0,100,0,0
40208,-87.9120879120879,4,1,0,100,0,0
40283,-86.9565217391304,4,1,0,100,0,0
40359,-86.0215053763441,4,1,0,100,0,0
40435,-85.1063829787234,4,1,0,100,0,0
40511,-84.2105263157895,4,1,0,100,0,0
40586,-83.3333333333333,4,1,0,100,0,0
40662,-82.4742268041237,4,1,0,100,0,0
40738,-81.6326530612245,4,1,0,100,0,0
40814,-80.8080808080808,4,1,0,100,0,0
40889,-80,4,1,0,100,0,0
40965,-79.2079207920792,4,1,0,100,0,0
41041,-78.4313725490196,4,1,0,100,0,0
41117,-77.6699029126214,4,1,0,100,0,0
41192,-76.9230769230769,4,1,0,100,0,0
41495,-79.2048467029795,4,1,0,98,0,0
41798,-81.6261229713868,4,1,0,96,0,0
42101,-84.2001741259601,4,1,0,94,0,0
42405,-86.9417794373997,4,1,0,92,0,0
42708,-89.8679300899398,4,1,0,89,0,0
43011,-92.9979084770384,4,1,0,87,0,0
43314,-96.3538730884596,4,1,0,85,0,0
43617,-99.9610152040704,4,1,0,83,0,0
43920,-103.848738082059,4,1,0,81,0,0
44223,-108.051103850077,4,1,0,79,0,0
44526,-112.608047421501,4,1,0,77,0,0
44829,-117.566145652698,4,1,0,75,0,0
45132,-122.980960087759,4,1,0,73,0,0
45435,-128.918643311765,4,1,0,71,0,0
45738,-135.458955259262,4,1,0,68,0,0
45814,-137.198865639779,4,1,0,66,0,0
45889,-138.984247525385,4,1,0,64,0,0
45965,-140.816708747393,4,1,0,62,0,0
46041,-142.698136362339,4,1,0,60,0,0
55283,-117.647058823529,4,1,0,100,0,0
55511,-112.676056338028,4,1,0,100,0,0
55586,-108.108108108108,4,1,0,100,0,0
55662,-103.896103896104,4,1,0,100,0,0
55738,-100,4,1,0,100,0,0
63970,-98.3606234883202,4,1,0,100,0,0
64021,-96.774224765879,4,1,0,100,0,0
64071,-95.2380952380952,4,1,0,100,0,0
64122,-93.7499707031342,4,1,0,100,0,0
64172,-92.3077207100679,4,1,0,100,0,0
64223,-90.9090909090909,4,1,0,100,0,0
64450,-94.1176470588235,4,1,0,100,0,0
64677,-97.5609756097561,4,1,0,100,0,0
64829,-100,4,1,0,100,0,0
72859,-98.7654320987654,4,1,0,100,0,0
73011,-97.5609756097561,4,1,0,100,0,0
73162,-96.3855421686747,4,1,0,100,0,0
73314,-95.2380952380952,4,1,0,100,0,0
73465,-94.1176470588235,4,1,0,100,0,0
73617,-93.0232558139535,4,1,0,100,0,0
73768,-91.9540229885058,4,1,0,100,0,0
73920,-90.9090909090909,4,1,0,100,0,0
73995,-89.8876404494382,4,1,0,100,0,0
74071,-88.8888888888889,4,1,0,100,0,0
74147,-87.9120879120879,4,1,0,100,0,0
74223,-86.9565217391304,4,1,0,100,0,0
74273,-86.3309600952403,4,1,0,100,0,0
74324,-85.7142612244968,4,1,0,100,0,0
74374,-85.1063829787234,4,1,0,100,0,0
74526,-83.3333333333333,4,1,0,100,0,0
74576,-82.7586435196258,4,1,0,100,0,0
74627,-82.1917583036279,4,1,0,100,0,0
74677,-81.6326530612245,4,1,0,100,0,0
74728,-81.0811029948927,4,1,0,100,0,0
74778,-80.5368911310359,4,1,0,100,0,0
74829,-80,4,1,0,100,0,0
75132,-100,4,1,0,100,0,0
82480,-99.3820424599838,4,1,0,100,0,0
82556,-98.7717730027113,4,1,0,100,0,0
82632,-98.1688563230069,4,1,0,100,0,0
82708,-97.5733507664387,4,1,0,100,0,0
82783,-96.9849324208991,4,1,0,100,0,0
82859,-96.4035684744906,4,1,0,100,0,0
82935,-95.8292246553262,4,1,0,100,0,0
83011,-95.261593097726,4,1,0,100,0,0
83086,-94.7006465213138,4,1,0,100,0,0
83162,-94.1463561594312,4,1,0,100,0,0
83238,-93.5984290439669,4,1,0,100,0,0
83314,-93.0569294377221,4,1,0,100,0,0
83389,-92.5215737179517,4,1,0,100,0,0
83465,-91.9923425574055,4,1,0,100,0,0
83541,-91.4692151209589,4,1,0,100,0,0
83617,-90.9090909090909,4,1,0,100,0,0
83667,-90.2255910452905,4,1,0,100,0,0
83718,-89.5522120739665,4,1,0,100,0,0
83768,-88.8888888888889,4,1,0,100,0,0
83920,-86.9565217391304,4,1,0,100,0,0
83970,-86.3309600952403,4,1,0,100,0,0
84021,-85.7142612244968,4,1,0,100,0,0
84071,-85.1063829787234,4,1,0,100,0,0
84223,-83.3333333333333,4,1,0,100,0,0
84273,-82.7586435196258,4,1,0,100,0,0
84324,-82.1917583036279,4,1,0,100,0,0
84374,-81.6326530612245,4,1,0,100,0,0
84526,-80,4,1,0,100,0,0
84576,-79.4702197272105,4,1,0,100,0,0
84627,-78.9473476454348,4,1,0,100,0,0
84677,-78.4313725490196,4,1,0,100,0,0
84728,-77.9220981615839,4,1,0,100,0,0
84778,-77.4193348595265,4,1,0,100,0,0
84829,-76.9230769230769,4,1,0,100,0,0
84980,-80,4,1,0,40,0,0
85283,-81.6326530612245,4,1,0,40,0,0
85586,-85.1063829787234,4,1,0,40,0,0
85889,-88.8888888888889,4,1,0,40,0,0
85965,-89.8876404494382,4,1,0,40,0,0
86041,-90.9090909090909,4,1,0,40,0,0
86344,-95.2380952380952,4,1,0,40,0,0
86495,-97.5609756097561,4,1,0,40,0,0
86798,-102.564102564103,4,1,0,40,0,0
87101,-108.108108108108,4,1,0,40,0,0
87253,-111.111111111111,4,1,0,40,0,0
87556,-117.647058823529,4,1,0,40,0,0
87708,-121.212121212121,4,1,0,40,0,0
88011,-129.032258064516,4,1,0,40,0,0
88314,-137.931034482759,4,1,0,40,0,0
88389,-140.350877192982,4,1,0,40,0,0
88465,-142.857142857143,4,1,0,40,0,0
89526,-100,4,1,0,100,0,0
92177,-99.5346753925399,4,1,0,100,0,0
92253,-99.0735631113458,4,1,0,100,0,0
92329,-98.6168007526434,4,1,0,100,0,0
92404,-98.1642307212813,4,1,0,100,0,0
92480,-97.7157000792474,4,1,0,100,0,0
92556,-97.271344251069,4,1,0,100,0,0
92708,-96.3945544788284,4,1,0,100,0,0
92783,-95.9621064833918,4,1,0,100,0,0
92859,-95.5335212796142,4,1,0,100,0,0
92935,-95.1086568850583,4,1,0,100,0,0
93011,-94.6876443986577,4,1,0,100,0,0
93086,-94.2703428329558,4,1,0,100,0,0
93162,-93.8566152488843,4,1,0,100,0,0
93314,-93.0401328613097,4,1,0,100,0,0
93389,-92.6371098703914,4,1,0,100,0,0
93465,-92.2376484564952,4,1,0,100,0,0
93541,-91.8416172941439,4,1,0,100,0,0
93617,-91.4489723878973,4,1,0,100,0,0
93692,-91.059587572916,4,1,0,100,0,0
93768,-90.6735868748169,4,1,0,100,0,0
93844,-90.2908448694936,4,1,0,100,0,0
93920,-89.9112396242429,4,1,0,100,0,0
93995,-89.5348930908609,4,1,0,100,0,0
94071,-89.1616840145583,4,1,0,100,0,0
94147,-88.7914944851603,4,1,0,100,0,0
94223,-88.4244444071097,4,1,0,100,0,0
94298,-88.0604164905458,4,1,0,100,0,0
94374,-87.6992966516409,4,1,0,100,0,0
94526,-86.9565217391304,4,1,0,100,0,0
94576,-86.4864864864865,4,1,0,100,0,0
94627,-86.0215053763441,4,1,0,100,0,0
94677,-85.5614973262032,4,1,0,100,0,0
94829,-84.2105263157895,4,1,0,100,0,0
94879,-83.7696335078534,4,1,0,100,0,0
94930,-83.3333333333333,4,1,0,100,0,0
94980,-82.9015544041451,4,1,0,100,0,0
95132,-81.6326530612245,4,1,0,100,0,0
95182,-81.2182741116751,4,1,0,100,0,0
95233,-80.8080808080808,4,1,0,100,0,0
95283,-80.4020100502513,4,1,0,100,0,0
95435,-79.2079207920792,4,1,0,100,0,0
95485,-78.8177339901478,4,1,0,100,0,0
95536,-78.4313725490196,4,1,0,100,0,0
95586,-78.0487804878049,4,1,0,100,0,0
95738,-76.9230769230769,4,1,0,100,0,0
96950,-125,4,1,0,100,0,0
97253,-100,4,1,0,100,0,1
112783,-99.0712074303406,4,1,0,100,0,1
112859,-98.159509202454,4,1,0,100,0,1
112935,-97.2644376899696,4,1,0,100,0,1
113011,-96.3855421686747,4,1,0,100,0,1
113086,-95.5223880597015,4,1,0,100,0,1
113162,-94.6745562130178,4,1,0,100,0,1
113238,-93.841642228739,4,1,0,100,0,1
113314,-93.0232558139535,4,1,0,100,0,1
113364,-91.9540229885058,4,1,0,100,0,1
113415,-90.9090909090909,4,1,0,100,0,1
113465,-89.8876404494382,4,1,0,100,0,1
113617,-86.9565217391304,4,1,0,100,0,1
113667,-86.0215053763441,4,1,0,100,0,1
113718,-85.1063829787234,4,1,0,100,0,1
113768,-84.2105263157895,4,1,0,100,0,1
113920,-81.6326530612245,4,1,0,100,0,0
114223,-100,4,1,0,100,0,1
118768,-100,4,1,0,100,0,0
119071,-100,4,1,0,100,0,1
121268,-99.3788819875776,4,1,0,100,0,1
121344,-98.7654320987654,4,1,0,100,0,1
121420,-98.159509202454,4,1,0,100,0,1
121495,-97.5609756097561,4,1,0,100,0,1
121571,-96.969696969697,4,1,0,100,0,1
121647,-96.3855421686747,4,1,0,100,0,1
121723,-95.8083832335329,4,1,0,100,0,1
121798,-95.2380952380952,4,1,0,100,0,1
121874,-94.6745562130178,4,1,0,100,0,1
121950,-94.1176470588235,4,1,0,100,0,1
122026,-93.5672514619883,4,1,0,100,0,1
122101,-93.0232558139535,4,1,0,100,0,1
122177,-92.485549132948,4,1,0,100,0,1
122253,-91.9540229885058,4,1,0,100,0,1
122329,-91.4285714285714,4,1,0,100,0,1
122404,-90.9090909090909,4,1,0,100,0,1
122455,-90.2290916637342,4,1,0,100,0,1
122506,-89.5591896684519,4,1,0,100,0,1
122556,-88.8991616809054,4,1,0,100,0,1
122708,-86.9761102717917,4,1,0,100,0,1
122758,-86.3534741297944,4,1,0,100,0,1
122809,-85.7396891593309,4,1,0,100,0,1
122859,-85.1345679548378,4,1,0,100,0,1
123011,-83.3693210902706,4,1,0,100,0,1
123061,-82.7970842178822,4,1,0,100,0,1
123112,-82.2326493221563,4,1,0,100,0,1
123162,-81.6758579232116,4,1,0,100,0,1
123314,-80.049758930151,4,1,0,100,0,1
123364,-79.5220407264179,4,1,0,100,0,1
123415,-79.0012347892998,4,1,0,100,0,1
123465,-78.4872061929545,4,1,0,100,0,1
123617,-76.9230769230769,4,1,0,100,0,0
124829,-86.9565217391304,4,1,0,100,0,0
126041,-100,4,1,0,100,0,0
127253,-117.647058823529,4,1,0,100,0,0
128465,-142.857142857143,4,1,0,100,0,0

[HitObjects]
256,192,2405,5,4,0:0:0:0:
256,192,5435,1,0,0:0:0:0:
256,192,6041,1,0,0:0:0:0:
256,192,6647,1,8,0:0:0:0:
256,192,7253,1,0,0:0:0:0:
256,192,8238,1,8,0:0:0:0:
256,192,8314,1,8,0:0:0:0:
256,192,8389,1,8,0:0:0:0:
256,192,9677,1,0,0:0:0:0:
256,192,9980,1,8,0:0:0:0:
256,192,10283,1,0,0:0:0:0:
256,192,10435,1,8,0:0:0:0:
256,192,10738,1,0,0:0:0:0:
256,192,10889,2,0,L|288:192,6,29.7500005674362
256,192,11495,1,8,0:0:0:0:
256,192,11533,1,8,0:0:0:0:
256,192,12101,1,4,0:0:0:0:
256,192,12556,1,0,0:0:0:0:
256,192,12632,1,0,0:0:0:0:
256,192,12708,1,8,0:0:0:0:
256,192,12859,1,0,0:0:0:0:
256,192,13768,1,0,0:0:0:0:
256,192,13819,1,0,0:0:0:0:
256,192,13869,1,0,0:0:0:0:
256,192,13920,1,8,0:0:0:0:
256,192,14526,1,0,0:0:0:0:
256,192,14980,1,0,0:0:0:0:
256,192,15056,1,0,0:0:0:0:
256,192,15132,1,8,0:0:0:0:
256,192,15738,8,0,16647,0:0:0:0:
256,192,16950,5,12,0:0:0:0:
256,192,17101,1,0,0:0:0:0:
256,192,17253,1,0,0:0:0:0:
256,192,17405,1,0,0:0:0:0:
256,192,17556,1,0,0:0:0:0:
256,192,17708,1,0,0:0:0:0:
256,192,17859,1,0,0:0:0:0:
256,192,18011,1,0,0:0:0:0:
256,192,18162,1,0,0:0:0:0:
256,192,18314,1,0,0:0:0:0:
256,192,18465,1,0,0:0:0:0:
256,192,18617,1,0,0:0:0:0:
256,192,18768,1,0,0:0:0:0:
256,192,18920,1,0,0:0:0:0:
256,192,19071,1,0,0:0:0:0:
256,192,19223,1,0,0:0:0:0:
256,192,19374,1,0,0:0:0:0:
256,192,19450,1,0,0:0:0:0:
256,192,19526,1,0,0:0:0:0:
256,192,19601,1,0,0:0:0:0:
256,192,19677,1,8,0:0:0:0:
256,192,19753,1,8,0:0:0:0:
256,192,19829,1,8,0:0:0:0:
256,192,19905,1,8,0:0:0:0:
256,192,19980,1,0,0:0:0:0:
256,192,20056,1,0,0:0:0:0:
256,192,20132,1,8,0:0:0:0:
256,192,20208,1,8,0:0:0:0:
256,192,20283,1,0,0:0:0:0:
256,192,20359,1,0,0:0:0:0:
256,192,20435,1,8,0:0:0:0:
256,192,20511,1,8,0:0:0:0:
256,192,21192,8,0,21647,0:0:0:0:
256,192,21798,5,4,0:0:0:0:
256,192,21950,1,8,0:0:0:0:
256,192,22101,1,8,0:0:0:0:
256,192,22253,1,0,0:0:0:0:
256,192,22556,1,8,0:0:0:0:
256,192,22859,1,0,0:0:0:0:
256,192,23314,1,0,0:0:0:0:
256,192,23465,1,8,0:0:0:0:
256,192,23768,1,8,0:0:0:0:
256,192,23920,1,8,0:0:0:0:
256,192,24071,1,8,0:0:0:0:
256,192,24223,1,0,0:0:0:0:
256,192,24374,1,8,0:0:0:0:
256,192,24526,1,8,0:0:0:0:
256,192,24677,1,0,0:0:0:0:
256,192,24980,1,8,0:0:0:0:
256,192,25283,1,0,0:0:0:0:
256,192,25586,1,8,0:0:0:0:
256,192,25889,1,8,0:0:0:0:
256,192,26041,1,0,0:0:0:0:
256,192,26268,1,0,0:0:0:0:
256,192,26495,1,0,0:0:0:0:
256,192,26647,1,8,0:0:0:0:
256,192,26798,1,0,0:0:0:0:
256,192,26950,1,8,0:0:0:0:
256,192,27026,1,8,0:0:0:0:
256,192,27101,1,0,0:0:0:0:
256,192,27177,1,0,0:0:0:0:
256,192,27253,1,8,0:0:0:0:
256,192,27404,1,0,0:0:0:0:
256,192,27556,1,8,0:0:0:0:
256,192,27632,1,0,0:0:0:0:
256,192,27708,1,8,0:0:0:0:
256,192,27859,1,0,0:0:0:0:
256,192,28011,1,8,0:0:0:0:
256,192,28086,1,8,0:0:0:0:
256,192,28162,1,0,0:0:0:0:
256,192,28238,1,8,0:0:0:0:
256,192,28314,1,0,0:0:0:0:
256,192,28389,1,0,0:0:0:0:
256,192,28465,1,8,0:0:0:0:
256,192,28617,1,0,0:0:0:0:
256,192,28768,1,8,0:0:0:0:
256,192,28844,1,8,0:0:0:0:
256,192,28920,1,0,0:0:0:0:
256,192,29071,1,12,0:0:0:0:
256,192,29223,1,0,0:0:0:0:
256,192,29374,1,0,0:0:0:0:
256,192,29526,1,0,0:0:0:0:
256,192,29677,1,0,0:0:0:0:
256,192,29753,1,0,0:0:0:0:
256,192,29829,1,0,0:0:0:0:
256,192,29904,1,0,0:0:0:0:
256,192,29980,1,0,0:0:0:0:
256,192,30056,1,0,0:0:0:0:
256,192,30132,1,0,0:0:0:0:
256,192,30208,1,0,0:0:0:0:
256,192,30283,1,8,0:0:0:0:
256,192,30334,1,8,0:0:0:0:
256,192,30384,1,8,0:0:0:0:
256,192,30435,1,8,0:0:0:0:
256,192,30485,1,8,0:0:0:0:
256,192,30536,1,8,0:0:0:0:
256,192,30586,1,0,0:0:0:0:
256,192,30889,1,8,0:0:0:0:
256,192,31117,1,8,0:0:0:0:
256,192,31344,1,8,0:0:0:0:
256,192,31495,1,4,0:0:0:0:
256,192,32101,1,8,0:0:0:0:
256,192,32708,1,0,0:0:0:0:
256,192,33162,1,0,0:0:0:0:
256,192,33314,1,8,0:0:0:0:
256,192,33465,1,0,0:0:0:0:
256,192,33920,1,0,0:0:0:0:
256,192,34526,1,8,0:0:0:0:
256,192,35132,1,0,0:0:0:0:
256,192,35586,1,0,0:0:0:0:
256,192,35738,1,8,0:0:0:0:
256,192,35889,1,0,0:0:0:0:
256,192,36192,1,8,0:0:0:0:
256,192,36344,1,4,0:0:0:0:
256,192,36495,1,8,0:0:0:0:
256,192,36647,1,0,0:0:0:0:
256,192,36723,1,0,0:0:0:0:
256,192,36798,1,0,0:0:0:0:
256,192,36874,1,0,0:0:0:0:
256,192,36950,1,8,0:0:0:0:
256,192,37101,1,0,0:0:0:0:
256,192,37253,1,8,0:0:0:0:
256,192,37329,1,8,0:0:0:0:
256,192,37405,1,0,0:0:0:0:
256,192,37556,1,8,0:0:0:0:
256,192,37708,1,0,0:0:0:0:
256,192,37859,1,8,0:0:0:0:
256,192,37935,1,0,0:0:0:0:
256,192,38011,1,8,0:0:0:0:
256,192,38162,1,8,0:0:0:0:
256,192,38238,1,8,0:0:0:0:
256,192,38314,1,0,0:0:0:0:
256,192,38389,1,0,0:0:0:0:
256,192,38465,1,8,0:0:0:0:
256,192,38617,1,0,0:0:0:0:
256,192,38768,1,8,0:0:0:0:
256,192,38844,1,8,0:0:0:0:
256,192,38920,1,8,0:0:0:0:
256,192,38995,1,8,0:0:0:0:
256,192,39071,1,0,0:0:0:0:
256,192,39147,1,0,0:0:0:0:
256,192,39223,1,0,0:0:0:0:
256,192,39298,1,0,0:0:0:0:
256,192,39374,1,8,0:0:0:0:
256,192,39526,1,8,0:0:0:0:
256,192,39601,1,8,0:0:0:0:
256,192,39677,1,0,0:0:0:0:
256,192,39829,1,0,0:0:0:0:
256,192,39980,1,8,0:0:0:0:
256,192,40056,1,0,0:0:0:0:
256,192,40132,1,8,0:0:0:0:
256,192,40208,1,0,0:0:0:0:
256,192,40283,1,8,0:0:0:0:
256,192,40359,1,8,0:0:0:0:
256,192,40435,1,0,0:0:0:0:
256,192,40511,1,0,0:0:0:0:
256,192,40586,1,8,0:0:0:0:
256,192,40662,1,0,0:0:0:0:
256,192,40738,1,8,0:0:0:0:
256,192,40814,1,0,0:0:0:0:
256,192,40889,1,8,0:0:0:0:
256,192,40965,1,8,0:0:0:0:
256,192,41041,1,0,0:0:0:0:
256,192,41117,1,0,0:0:0:0:
256,192,41192,1,12,0:0:0:0:
256,192,41495,1,0,0:0:0:0:
256,192,41798,1,0,0:0:0:0:
256,192,42101,1,0,0:0:0:0:
256,192,42405,1,0,0:0:0:0:
256,192,42708,1,0,0:0:0:0:
256,192,43011,1,0,0:0:0:0:
256,192,43314,1,0,0:0:0:0:
256,192,43617,1,0,0:0:0:0:
256,192,43920,1,0,0:0:0:0:
256,192,44223,1,0,0:0:0:0:
256,192,44526,1,0,0:0:0:0:
256,192,44829,1,0,0:0:0:0:
256,192,45132,1,0,0:0:0:0:
256,192,45435,1,0,0:0:0:0:
256,192,45738,1,8,0:0:0:0:
256,192,45814,1,8,0:0:0:0:
256,192,45889,1,8,0:0:0:0:
256,192,45965,1,8,0:0:0:0:
256,192,46041,1,0,0:0:0:0:
256,192,47177,1,0,0:0:0:0:
256,192,47253,1,8,0:0:0:0:
256,192,47556,1,8,0:0:0:0:
256,192,47708,1,0,0:0:0:0:
256,192,48011,1,8,0:0:0:0:
256,192,48314,1,8,0:0:0:0:
256,192,49526,1,0,0:0:0:0:
256,192,49601,1,0,0:0:0:0:
256,192,49677,1,8,0:0:0:0:
256,192,49980,1,8,0:0:0:0:
256,192,50132,1,0,0:0:0:0:
256,192,50435,1,8,0:0:0:0:
256,192,50738,1,8,0:0:0:0:
256,192,50889,1,0,0:0:0:0:
256,192,51041,1,0,0:0:0:0:
256,192,51344,1,8,0:0:0:0:
256,192,51798,1,0,0:0:0:0:
256,192,51950,1,0,0:0:0:0:
256,192,52253,1,8,0:0:0:0:
256,192,52708,1,0,0:0:0:0:
256,192,52859,1,0,0:0:0:0:
256,192,53162,1,8,0:0:0:0:
256,192,53465,1,8,0:0:0:0:
256,192,53617,1,8,0:0:0:0:
256,192,53768,1,8,0:0:0:0:
256,192,53920,1,0,0:0:0:0:
256,192,54147,1,8,0:0:0:0:
256,192,54374,1,8,0:0:0:0:
256,192,54526,1,0,0:0:0:0:
256,192,54753,1,0,0:0:0:0:
256,192,54980,1,8,0:0:0:0:
256,192,55132,1,0,0:0:0:0:
256,192,55435,1,0,0:0:0:0:
256,192,55511,1,0,0:0:0:0:
256,192,55586,1,0,0:0:0:0:
256,192,55662,1,0,0:0:0:0:
256,192,55738,1,12,0:0:0:0:
256,192,56041,1,0,0:0:0:0:
256,192,56192,1,8,0:0:0:0:
256,192,56344,1,0,0:0:0:0:
256,192,56495,1,0,0:0:0:0:
256,192,56647,1,8,0:0:0:0:
256,192,56950,1,0,0:0:0:0:
256,192,57253,1,8,0:0:0:0:
256,192,57404,1,8,0:0:0:0:
256,192,57708,1,8,0:0:0:0:
256,192,57859,1,0,0:0:0:0:
256,192,58011,1,8,0:0:0:0:
256,192,58162,1,0,0:0:0:0:
256,192,58465,1,0,0:0:0:0:
256,192,58579,1,8,0:0:0:0:
256,192,58617,1,8,0:0:0:0:
256,192,58920,1,8,0:0:0:0:
256,192,59223,1,0,0:0:0:0:
256,192,59374,1,8,0:0:0:0:
256,192,59450,1,8,0:0:0:0:
256,192,59526,1,0,0:0:0:0:
256,192,59601,1,0,0:0:0:0:
256,192,59677,1,8,0:0:0:0:
256,192,59753,1,0,0:0:0:0:
256,192,59829,1,0,0:0:0:0:
256,192,59904,1,0,0:0:0:0:
256,192,59980,1,8,0:0:0:0:
256,192,60056,1,0,0:0:0:0:
256,192,60132,1,8,0:0:0:0:
256,192,60208,1,0,0:0:0:0:
256,192,60283,1,8,0:0:0:0:
256,192,60359,1,8,0:0:0:0:
256,192,60435,1,8,0:0:0:0:
256,192,60511,1,8,0:0:0:0:
256,192,60586,1,0,0:0:0:0:
256,192,60738,1,0,0:0:0:0:
256,192,61041,1,12,0:0:0:0:
256,192,61344,1,8,0:0:0:0:
256,192,61420,1,8,0:0:0:0:
256,192,61495,1,0,0:0:0:0:
256,192,61647,1,0,0:0:0:0:
256,192,61950,1,12,0:0:0:0:
256,192,62253,1,8,0:0:0:0:
256,192,62329,1,8,0:0:0:0:
256,192,62404,1,0,0:0:0:0:
256,192,62556,1,0,0:0:0:0:
256,192,62859,1,12,0:0:0:0:
256,192,63162,1,8,0:0:0:0:
256,192,63314,1,8,0:0:0:0:
256,192,63465,1,0,0:0:0:0:
256,192,63541,1,0,0:0:0:0:
256,192,63617,1,8,0:0:0:0:
256,192,63692,1,8,0:0:0:0:
256,192,63768,1,0,0:0:0:0:
256,192,63844,1,0,0:0:0:0:
256,192,63920,1,8,0:0:0:0:
256,192,63970,1,8,0:0:0:0:
256,192,64021,1,8,0:0:0:0:
256,192,64071,1,8,0:0:0:0:
256,192,64122,1,8,0:0:0:0:
256,192,64172,1,8,0:0:0:0:
256,192,64223,1,0,0:0:0:0:
256,192,64450,1,8,0:0:0:0:
256,192,64677,1,8,0:0:0:0:
256,192,64829,1,4,0:0:0:0:
256,192,65435,1,12,0:0:0:0:
256,192,65586,1,0,0:0:0:0:
256,192,65738,1,8,0:0:0:0:
256,192,65814,1,0,0:0:0:0:
256,192,65889,1,8,0:0:0:0:
256,192,66041,1,0,0:0:0:0:
256,192,66192,1,0,0:0:0:0:
256,192,66344,1,8,0:0:0:0:
256,192,66420,1,8,0:0:0:0:
256,192,66495,1,0,0:0:0:0:
256,192,66571,1,8,0:0:0:0:
256,192,66647,1,0,0:0:0:0:
256,192,66798,1,0,0:0:0:0:
256,192,66950,1,8,0:0:0:0:
256,192,67026,1,0,0:0:0:0:
256,192,67101,1,8,0:0:0:0:
256,192,67253,1,0,0:0:0:0:
256,192,67329,1,0,0:0:0:0:
256,192,67404,1,8,0:0:0:0:
256,192,67556,1,8,0:0:0:0:
256,192,67632,1,8,0:0:0:0:
256,192,67708,1,0,0:0:0:0:
256,192,67859,1,8,0:0:0:0:
256,192,68011,1,0,0:0:0:0:
256,192,68162,1,8,0:0:0:0:
256,192,68238,1,8,0:0:0:0:
256,192,68314,1,0,0:0:0:0:
256,192,68389,1,8,0:0:0:0:
256,192,68465,1,0,0:0:0:0:
256,192,68541,1,0,0:0:0:0:
256,192,68617,1,8,0:0:0:0:
256,192,68768,1,8,0:0:0:0:
256,192,68844,1,8,0:0:0:0:
256,192,68920,1,0,0:0:0:0:
256,192,69071,1,8,0:0:0:0:
256,192,69223,1,0,0:0:0:0:
256,192,69374,1,8,0:0:0:0:
256,192,69450,1,0,0:0:0:0:
256,192,69526,1,0,0:0:0:0:
256,192,69601,1,8,0:0:0:0:
256,192,69677,1,8,0:0:0:0:
256,192,69829,1,0,0:0:0:0:
256,192,69980,1,8,0:0:0:0:
256,192,70056,1,8,0:0:0:0:
256,192,70132,1,0,0:0:0:0:
256,192,70283,1,12,0:0:0:0:
256,192,70435,1,0,0:0:0:0:
256,192,70586,1,8,0:0:0:0:
256,192,70662,1,0,0:0:0:0:
256,192,70738,1,8,0:0:0:0:
256,192,70889,1,0,0:0:0:0:
256,192,71041,1,8,0:0:0:0:
256,192,71192,1,0,0:0:0:0:
256,192,71268,1,8,0:0:0:0:
256,192,71344,1,0,0:0:0:0:
256,192,71420,1,8,0:0:0:0:
256,192,71495,1,8,0:0:0:0:
256,192,71647,1,0,0:0:0:0:
256,192,71798,1,8,0:0:0:0:
256,192,71874,1,8,0:0:0:0:
256,192,71950,1,0,0:0:0:0:
256,192,72101,1,8,0:0:0:0:
256,192,72253,1,0,0:0:0:0:
256,192,72329,1,0,0:0:0:0:
256,192,72404,1,8,0:0:0:0:
256,192,72480,1,0,0:0:0:0:
256,192,72556,1,8,0:0:0:0:
256,192,72708,1,0,0:0:0:0:
256,192,72859,1,0,0:0:0:0:
256,192,73011,1,0,0:0:0:0:
256,192,73162,1,0,0:0:0:0:
256,192,73314,1,8,0:0:0:0:
256,192,73465,1,8,0:0:0:0:
256,192,73617,1,8,0:0:0:0:
256,192,73768,1,8,0:0:0:0:
256,192,73920,1,0,0:0:0:0:
256,192,73995,1,0,0:0:0:0:
256,192,74071,1,0,0:0:0:0:
256,192,74147,1,0,0:0:0:0:
256,192,74223,1,8,0:0:0:0:
256,192,74273,1,8,0:0:0:0:
256,192,74324,1,8,0:0:0:0:
256,192,74374,1,0,0:0:0:0:
256,192,74526,1,8,0:0:0:0:
256,192,74576,1,8,0:0:0:0:
256,192,74627,1,8,0:0:0:0:
256,192,74677,1,0,0:0:0:0:
256,192,74728,1,0,0:0:0:0:
256,192,74778,1,0,0:0:0:0:
256,192,74829,1,8,0:0:0:0:
256,192,75132,1,4,0:0:0:0:
256,192,75283,1,8,0:0:0:0:
256,192,75435,1,8,0:0:0:0:
256,192,75511,1,8,0:0:0:0:
256,192,75586,1,0,0:0:0:0:
256,192,75662,1,8,0:0:0:0:
256,192,75738,1,0,0:0:0:0:
256,192,75889,1,8,0:0:0:0:
256,192,76041,1,8,0:0:0:0:
256,192,76117,1,8,0:0:0:0:
256,192,76192,1,8,0:0:0:0:
256,192,76268,1,0,0:0:0:0:
256,192,76344,1,0,0:0:0:0:
256,192,76495,1,8,0:0:0:0:
256,192,76647,1,8,0:0:0:0:
256,192,76723,1,0,0:0:0:0:
256,192,76798,1,8,0:0:0:0:
256,192,76874,1,8,0:0:0:0:
256,192,76950,1,0,0:0:0:0:
256,192,77101,1,0,0:0:0:0:
256,192,77177,1,8,0:0:0:0:
256,192,77253,1,8,0:0:0:0:
256,192,77329,1,8,0:0:0:0:
256,192,77404,1,0,0:0:0:0:
256,192,77556,1,8,0:0:0:0:
256,192,77708,1,0,0:0:0:0:
256,192,77859,1,8,0:0:0:0:
256,192,77935,1,0,0:0:0:0:
256,192,78011,1,8,0:0:0:0:
256,192,78086,1,8,0:0:0:0:
256,192,78162,1,0,0:0:0:0:
256,192,78238,1,0,0:0:0:0:
256,192,78314,1,0,0:0:0:0:
256,192,78389,1,8,0:0:0:0:
256,192,78465,1,0,0:0:0:0:
256,192,78617,1,8,0:0:0:0:
256,192,78692,1,8,0:0:0:0:
256,192,78768,1,0,0:0:0:0:
256,192,78844,1,0,0:0:0:0:
256,192,78920,1,0,0:0:0:0:
256,192,78995,1,8,0:0:0:0:
256,192,79071,1,0,0:0:0:0:
256,192,79223,1,8,0:0:0:0:
256,192,79374,1,8,0:0:0:0:
256,192,79450,1,8,0:0:0:0:
256,192,79526,1,8,0:0:0:0:
256,192,79601,1,0,0:0:0:0:
256,192,79677,1,8,0:0:0:0:
256,192,79753,1,8,0:0:0:0:
256,192,79829,1,0,0:0:0:0:
256,192,79980,1,12,0:0:0:0:
256,192,80132,1,0,0:0:0:0:
256,192,80283,1,8,0:0:0:0:
256,192,80435,1,8,0:0:0:0:
256,192,80586,1,0,0:0:0:0:
256,192,80738,1,0,0:0:0:0:
256,192,80889,1,8,0:0:0:0:
256,192,81041,1,8,0:0:0:0:
256,192,81192,1,0,0:0:0:0:
256,192,81344,1,8,0:0:0:0:
256,192,81495,1,8,0:0:0:0:
256,192,81647,1,8,0:0:0:0:
256,192,81798,1,0,0:0:0:0:
256,192,81950,1,8,0:0:0:0:
256,192,82026,1,0,0:0:0:0:
256,192,82101,1,8,0:0:0:0:
256,192,82177,1,8,0:0:0:0:
256,192,82253,1,0,0:0:0:0:
256,192,82404,1,8,0:0:0:0:
256,192,82480,1,8,0:0:0:0:
256,192,82556,1,0,0:0:0:0:
256,192,82632,1,0,0:0:0:0:
256,192,82708,1,8,0:0:0:0:
256,192,82783,1,0,0:0:0:0:
256,192,82859,1,8,0:0:0:0:
256,192,82935,1,8,0:0:0:0:
256,192,83011,1,0,0:0:0:0:
256,192,83086,1,0,0:0:0:0:
256,192,83162,1,8,0:0:0:0:
256,192,83238,1,0,0:0:0:0:
256,192,83314,1,0,0:0:0:0:
256,192,83389,1,0,0:0:0:0:
256,192,83465,1,8,0:0:0:0:
256,192,83541,1,8,0:0:0:0:
256,192,83617,1,0,0:0:0:0:
256,192,83667,1,0,0:0:0:0:
256,192,83718,1,0,0:0:0:0:
256,192,83768,1,8,0:0:0:0:
256,192,83920,1,0,0:0:0:0:
256,192,83970,1,0,0:0:0:0:
256,192,84021,1,8,0:0:0:0:
256,192,84071,1,8,0:0:0:0:
256,192,84223,1,0,0:0:0:0:
256,192,84273,1,8,0:0:0:0:
256,192,84324,1,8,0:0:0:0:
256,192,84374,1,8,0:0:0:0:
256,192,84526,1,8,0:0:0:0:
256,192,84576,1,8,0:0:0:0:
256,192,84627,1,8,0:0:0:0:
256,192,84677,1,0,0:0:0:0:
256,192,84728,1,0,0:0:0:0:
256,192,84778,1,0,0:0:0:0:
256,192,84829,1,8,0:0:0:0:
256,192,85132,1,0,0:0:0:0:
256,192,85283,1,0,0:0:0:0:
256,192,85586,1,8,0:0:0:0:
256,192,85889,1,0,0:0:0:0:
256,192,85965,1,0,0:0:0:0:
256,192,86041,1,8,0:0:0:0:
256,192,86344,1,8,0:0:0:0:
256,192,86495,1,8,0:0:0:0:
256,192,86798,1,0,0:0:0:0:
256,192,87101,1,8,0:0:0:0:
256,192,87253,1,0,0:0:0:0:
256,192,87556,1,0,0:0:0:0:
256,192,87708,1,8,0:0:0:0:
256,192,88011,1,0,0:0:0:0:
256,192,88314,1,0,0:0:0:0:
256,192,88389,1,0,0:0:0:0:
256,192,88465,1,8,0:0:0:0:
256,192,89677,1,4,0:0:0:0:
256,192,89829,1,8,0:0:0:0:
256,192,89980,1,0,0:0:0:0:
256,192,90132,1,8,0:0:0:0:
256,192,90283,1,0,0:0:0:0:
256,192,90586,1,0,0:0:0:0:
256,192,90738,1,0,0:0:0:0:
256,192,90889,1,0,0:0:0:0:
256,192,91041,1,8,0:0:0:0:
256,192,91192,1,0,0:0:0:0:
256,192,91495,1,8,0:0:0:0:
256,192,91571,1,8,0:0:0:0:
256,192,91647,1,0,0:0:0:0:
256,192,91798,1,12,0:0:0:0:
256,192,92101,1,0,0:0:0:0:
256,192,92177,1,0,0:0:0:0:
256,192,92253,1,8,0:0:0:0:
256,192,92329,1,0,0:0:0:0:
256,192,92404,1,8,0:0:0:0:
256,192,92480,1,8,0:0:0:0:
256,192,92556,1,0,0:0:0:0:
256,192,92708,1,8,0:0:0:0:
256,192,92783,1,8,0:0:0:0:
256,192,92859,1,0,0:0:0:0:
256,192,92935,1,8,0:0:0:0:
256,192,93011,1,0,0:0:0:0:
256,192,93086,1,0,0:0:0:0:
256,192,93162,1,8,0:0:0:0:
256,192,93314,1,8,0:0:0:0:
256,192,93389,1,8,0:0:0:0:
256,192,93465,1,0,0:0:0:0:
256,192,93541,1,0,0:0:0:0:
256,192,93617,1,8,0:0:0:0:
256,192,93692,1,8,0:0:0:0:
256,192,93768,1,8,0:0:0:0:
256,192,93844,1,0,0:0:0:0:
256,192,93920,1,8,0:0:0:0:
256,192,93995,1,8,0:0:0:0:
256,192,94071,1,0,0:0:0:0:
256,192,94147,1,0,0:0:0:0:
256,192,94223,1,8,0:0:0:0:
256,192,94298,1,0,0:0:0:0:
256,192,94374,1,8,0:0:0:0:
256,192,94526,1,0,0:0:0:0:
256,192,94576,1,0,0:0:0:0:
256,192,94627,1,0,0:0:0:0:
256,192,94677,1,8,0:0:0:0:
256,192,94829,1,0,0:0:0:0:
256,192,94879,1,0,0:0:0:0:
256,192,94930,1,8,0:0:0:0:
256,192,94980,1,8,0:0:0:0:
256,192,95132,1,8,0:0:0:0:
256,192,95182,1,8,0:0:0:0:
256,192,95233,1,0,0:0:0:0:
256,192,95283,1,0,0:0:0:0:
256,192,95435,1,8,0:0:0:0:
256,192,95485,1,0,0:0:0:0:
256,192,95536,1,0,0:0:0:0:
256,192,95586,1,0,0:0:0:0:
256,192,95738,12,0,96647,0:0:0:0:
256,192,96950,5,8,0:0:0:0:
256,192,97253,1,4,0:0:0:0:
256,192,97404,1,8,0:0:0:0:
256,192,97480,1,8,0:0:0:0:
256,192,97556,1,8,0:0:0:0:
256,192,97783,1,8,0:0:0:0:
256,192,98011,1,8,0:0:0:0:
256,192,98086,1,8,0:0:0:0:
256,192,98162,1,0,0:0:0:0:
256,192,98314,1,0,0:0:0:0:
256,192,98465,1,8,0:0:0:0:
256,192,98617,1,0,0:0:0:0:
256,192,98768,1,8,0:0:0:0:
256,192,98844,1,8,0:0:0:0:
256,192,98920,1,0,0:0:0:0:
256,192,98995,1,0,0:0:0:0:
256,192,99071,1,8,0:0:0:0:
256,192,99147,1,0,0:0:0:0:
256,192,99223,1,8,0:0:0:0:
256,192,99298,1,8,0:0:0:0:
256,192,99374,1,0,0:0:0:0:
256,192,99677,1,8,0:0:0:0:
256,192,99829,1,0,0:0:0:0:
256,192,99904,1,0,0:0:0:0:
256,192,99980,1,8,0:0:0:0:
256,192,100208,1,8,0:0:0:0:
256,192,100435,1,8,0:0:0:0:
256,192,100586,1,0,0:0:0:0:
256,192,100738,1,0,0:0:0:0:
256,192,100788,1,0,0:0:0:0:
256,192,100839,1,0,0:0:0:0:
256,192,100889,1,8,0:0:0:0:
256,192,101192,1,8,0:0:0:0:
256,192,101344,1,0,0:0:0:0:
256,192,101394,1,0,0:0:0:0:
256,192,101445,1,8,0:0:0:0:
256,192,101495,1,8,0:0:0:0:
256,192,101798,1,0,0:0:0:0:
256,192,102101,1,8,0:0:0:0:
256,192,102253,1,0,0:0:0:0:
256,192,102329,1,8,0:0:0:0:
256,192,102404,1,8,0:0:0:0:
256,192,102556,1,0,0:0:0:0:
256,192,102632,1,8,0:0:0:0:
256,192,102783,1,0,0:0:0:0:
256,192,102859,1,8,0:0:0:0:
256,192,103011,1,0,0:0:0:0:
256,192,103314,1,8,0:0:0:0:
256,192,103465,1,0,0:0:0:0:
256,192,103768,1,0,0:0:0:0:
256,192,103920,1,8,0:0:0:0:
256,192,104071,1,8,0:0:0:0:
256,192,104223,1,0,0:0:0:0:
256,192,104526,1,8,0:0:0:0:
256,192,104677,1,0,0:0:0:0:
256,192,104980,1,0,0:0:0:0:
256,192,105132,1,8,0:0:0:0:
256,192,105283,1,0,0:0:0:0:
256,192,105586,1,8,0:0:0:0:
256,192,105889,1,0,0:0:0:0:
256,192,106041,1,8,0:0:0:0:
256,192,106117,1,8,0:0:0:0:
256,192,106192,1,0,0:0:0:0:
256,192,106344,1,8,0:0:0:0:
256,192,106420,1,0,0:0:0:0:
256,192,106495,1,8,0:0:0:0:
256,192,106647,1,4,0:0:0:0:
256,192,106950,1,8,0:0:0:0:
256,192,107101,1,8,0:0:0:0:
256,192,107177,1,8,0:0:0:0:
256,192,107253,1,8,0:0:0:0:
256,192,107480,1,8,0:0:0:0:
256,192,107708,1,8,0:0:0:0:
256,192,107783,1,8,0:0:0:0:
256,192,107859,1,0,0:0:0:0:
256,192,108162,1,8,0:0:0:0:
256,192,108314,1,0,0:0:0:0:
256,192,108465,1,8,0:0:0:0:
256,192,108541,1,8,0:0:0:0:
256,192,108617,1,8,0:0:0:0:
256,192,108692,1,0,0:0:0:0:
256,192,108768,1,8,0:0:0:0:
256,192,108844,1,0,0:0:0:0:
256,192,108920,1,8,0:0:0:0:
256,192,108995,1,8,0:0:0:0:
256,192,109071,1,0,0:0:0:0:
256,192,109374,1,8,0:0:0:0:
256,192,109526,1,0,0:0:0:0:
256,192,109601,1,0,0:0:0:0:
256,192,109677,1,8,0:0:0:0:
256,192,109904,1,8,0:0:0:0:
256,192,110132,1,8,0:0:0:0:
256,192,110283,1,0,0:0:0:0:
256,192,110435,1,0,0:0:0:0:
256,192,110485,1,8,0:0:0:0:
256,192,110536,1,8,0:0:0:0:
256,192,110586,1,8,0:0:0:0:
256,192,110889,1,0,0:0:0:0:
256,192,110965,1,0,0:0:0:0:
256,192,111041,1,8,0:0:0:0:
256,192,111117,1,0,0:0:0:0:
256,192,111192,1,8,0:0:0:0:
256,192,111268,1,8,0:0:0:0:
256,192,111344,1,0,0:0:0:0:
256,192,111495,1,12,0:0:0:0:
256,192,111647,1,0,0:0:0:0:
256,192,111798,1,8,0:0:0:0:
256,192,111950,1,8,0:0:0:0:
256,192,112026,1,8,0:0:0:0:
256,192,112101,1,0,0:0:0:0:
256,192,112253,1,0,0:0:0:0:
256,192,112404,1,8,0:0:0:0:
256,192,112556,1,0,0:0:0:0:
256,192,112708,1,8,0:0:0:0:
256,192,112783,1,8,0:0:0:0:
256,192,112859,1,0,0:0:0:0:
256,192,112935,1,8,0:0:0:0:
256,192,113011,1,0,0:0:0:0:
256,192,113086,1,0,0:0:0:0:
256,192,113162,1,8,0:0:0:0:
256,192,113238,1,0,0:0:0:0:
256,192,113314,1,8,0:0:0:0:
256,192,113364,1,0,0:0:0:0:
256,192,113415,1,0,0:0:0:0:
256,192,113465,1,8,0:0:0:0:
256,192,113617,1,0,0:0:0:0:
256,192,113667,1,8,0:0:0:0:
256,192,113718,1,8,0:0:0:0:
256,192,113768,1,0,0:0:0:0:
256,192,113920,1,8,0:0:0:0:
256,192,114223,1,4,0:0:0:0:
256,192,114374,1,8,0:0:0:0:
256,192,114450,1,0,0:0:0:0:
256,192,114677,1,8,0:0:0:0:
256,192,114829,1,0,0:0:0:0:
256,192,114980,1,8,0:0:0:0:
256,192,115056,1,8,0:0:0:0:
256,192,115283,1,0,0:0:0:0:
256,192,115435,1,8,0:0:0:0:
256,192,115586,1,8,0:0:0:0:
256,192,115662,1,0,0:0:0:0:
256,192,115889,1,8,0:0:0:0:
256,192,116041,1,0,0:0:0:0:
256,192,116192,1,8,0:0:0:0:
256,192,116268,1,8,0:0:0:0:
256,192,116495,1,0,0:0:0:0:
256,192,116647,1,8,0:0:0:0:
256,192,116798,1,8,0:0:0:0:
256,192,116874,1,0,0:0:0:0:
256,192,117101,1,8,0:0:0:0:
256,192,117253,1,8,0:0:0:0:
256,192,117404,1,0,0:0:0:0:
256,192,117556,1,8,0:0:0:0:
256,192,117632,1,0,0:0:0:0:
256,192,117783,1,8,0:0:0:0:
256,192,117935,1,0,0:0:0:0:
256,192,118086,1,8,0:0:0:0:
256,192,118162,1,0,0:0:0:0:
256,192,118238,1,0,0:0:0:0:
256,192,118314,1,8,0:0:0:0:
256,192,118465,1,0,0:0:0:0:
256,192,118617,1,8,0:0:0:0:
256,192,118692,1,8,0:0:0:0:
256,192,119071,1,12,0:0:0:0:
256,192,119223,1,0,0:0:0:0:
256,192,119374,1,8,0:0:0:0:
256,192,119450,1,0,0:0:0:0:
256,192,119526,1,8,0:0:0:0:
256,192,119601,1,8,0:0:0:0:
256,192,119677,1,8,0:0:0:0:
256,192,119829,1,8,0:0:0:0:
256,192,119904,1,0,0:0:0:0:
256,192,119980,1,0,0:0:0:0:
256,192,120056,1,8,0:0:0:0:
256,192,120132,1,0,0:0:0:0:
256,192,120208,1,8,0:0:0:0:
256,192,120283,1,8,0:0:0:0:
256,192,120435,1,0,0:0:0:0:
256,192,120511,1,8,0:0:0:0:
256,192,120586,1,0,0:0:0:0:
256,192,120738,1,8,0:0:0:0:
256,192,120889,1,8,0:0:0:0:
256,192,121041,1,8,0:0:0:0:
256,192,121117,1,8,0:0:0:0:
256,192,121192,1,0,0:0:0:0:
256,192,121268,1,0,0:0:0:0:
256,192,121344,1,0,0:0:0:0:
256,192,121420,1,0,0:0:0:0:
256,192,121495,1,8,0:0:0:0:
256,192,121571,1,0,0:0:0:0:
256,192,121647,1,0,0:0:0:0:
256,192,121723,1,0,0:0:0:0:
256,192,121798,1,8,0:0:0:0:
256,192,121874,1,8,0:0:0:0:
256,192,121950,1,0,0:0:0:0:
256,192,122026,1,0,0:0:0:0:
256,192,122101,1,8,0:0:0:0:
256,192,122177,1,8,0:0:0:0:
256,192,122253,1,8,0:0:0:0:
256,192,122329,1,0,0:0:0:0:
256,192,122404,1,8,0:0:0:0:
256,192,122455,1,8,0:0:0:0:
256,192,122506,1,8,0:0:0:0:
256,192,122556,1,0,0:0:0:0:
256,192,122708,1,8,0:0:0:0:
256,192,122758,1,0,0:0:0:0:
256,192,122809,1,0,0:0:0:0:
256,192,122859,1,8,0:0:0:0:
256,192,123011,1,8,0:0:0:0:
256,192,123061,1,8,0:0:0:0:
256,192,123112,1,8,0:0:0:0:
256,192,123162,1,0,0:0:0:0:
256,192,123314,1,8,0:0:0:0:
256,192,123364,1,8,0:0:0:0:
256,192,123415,1,0,0:0:0:0:
256,192,123465,1,8,0:0:0:0:
256,192,123617,1,4,0:0:0:0:
256,192,123768,12,0,128465,0:0:0:0:
