osu file format v14

[General]
AudioFilename: audio.mp3
AudioLeadIn: 0
PreviewTime: 95343
Countdown: 0
SampleSet: Soft
StackLeniency: 0.7
Mode: 3
LetterboxInBreaks: 0
SpecialStyle: 0
WidescreenStoryboard: 0

[Editor]
DistanceSpacing: 0.8
BeatDivisor: 1
GridSize: 32
TimelineZoom: 0.6999987

[Metadata]
Title:WHITEOUT
TitleUnicode:WHITEOUT
Artist:Kaneko Chiharu
ArtistUnicode:かねこちはる
Creator:Tofu1222
Version:Makii's BASIC
Source:SOUND VOLTEX IV HEAVENLY HAVEN
Tags:Ω Dimension The 6th KAC受賞者の書き下ろし新曲 Fresh Chicken Virtue- Amiichii Crz Sword Makii
BeatmapID:1398477
BeatmapSetID:653740

[Difficulty]
HPDrainRate:7
CircleSize:4
OverallDifficulty:7
ApproachRate:5
SliderMultiplier:1.4
SliderTickRate:1

[Events]
//Background and Video events
0,0,"bg.jpg",0,0
//Break Periods
//Storyboard Layer 0 (Background)
//Storyboard Layer 1 (Fail)
//Storyboard Layer 2 (Pass)
//Storyboard Layer 3 (Foreground)
//Storyboard Sound Samples

[TimingPoints]
950,303.030303030303,4,2,1,50,1,0
95798,-100,4,2,1,50,0,1
122162,-100,4,2,1,50,0,0

[HitObjects]
64,192,950,5,2,0:0:0:0:
192,192,950,1,4,0:0:0:0:
448,192,1253,1,0,0:0:0:0:
320,192,1556,1,0,0:0:0:0:
192,192,1859,1,0,0:0:0:0:
64,192,2162,1,0,0:0:0:0:
192,192,2465,1,0,0:0:0:0:
320,192,2768,1,0,0:0:0:0:
448,192,3071,1,0,0:0:0:0:
64,192,3374,1,0,0:0:0:0:
320,192,3677,1,0,0:0:0:0:
192,192,3980,1,0,0:0:0:0:
448,192,4283,1,0,0:0:0:0:
320,192,4586,1,0,0:0:0:0:
64,192,4889,1,0,0:0:0:0:
448,192,5192,1,0,0:0:0:0:
192,192,5495,1,0,0:0:0:0:
64,192,5798,1,2,0:0:0:0:
448,192,5798,1,4,0:0:0:0:
320,192,6101,1,0,0:0:0:0:
192,192,6404,1,0,0:0:0:0:
64,192,6707,1,0,0:0:0:0:
192,192,7010,1,0,0:0:0:0:
320,192,7313,1,0,0:0:0:0:
448,192,7616,1,0,0:0:0:0:
320,192,7919,1,0,0:0:0:0:
192,192,8222,1,0,0:0:0:0:
448,192,8525,1,0,0:0:0:0:
64,192,8828,1,0,0:0:0:0:
320,192,9131,1,0,0:0:0:0:
192,192,9434,1,2,0:0:0:0:
448,192,9434,128,0,10040:0:0:0:0:
64,192,10040,128,6,10646:0:0:0:0:
320,192,10646,1,4,0:0:0:0:
448,192,10646,1,2,0:0:0:0:
192,192,11253,128,6,11859:0:0:0:0:
320,192,12465,1,6,0:0:0:0:
64,192,13071,128,2,13677:0:0:0:0:
448,192,13677,1,6,0:0:0:0:
320,192,14283,128,0,14889:0:0:0:0:
64,192,15495,128,14,16101:0:0:0:0:
320,192,16101,1,2,0:0:0:0:
448,192,16707,128,8,17313:0:0:0:0:
192,192,17313,1,2,0:0:0:0:
64,192,17919,128,2,19056:0:0:0:0:
320,192,20343,1,2,0:0:0:0:
448,192,20343,1,4,0:0:0:0:
192,192,20646,1,8,0:0:0:0:
64,192,20949,1,2,0:0:0:0:
448,192,21253,1,8,0:0:0:0:
320,192,21556,1,2,0:0:0:0:
192,192,21556,1,0,0:0:0:0:
64,192,21859,1,8,0:0:0:0:
448,192,22162,1,2,0:0:0:0:
320,192,22465,1,8,0:0:0:0:
64,192,22768,1,2,0:0:0:0:
192,192,22768,1,0,0:0:0:0:
448,192,23071,1,8,0:0:0:0:
320,192,23374,1,2,0:0:0:0:
64,192,23677,1,8,0:0:0:0:
192,192,23980,1,2,0:0:0:0:
448,192,23980,1,0,0:0:0:0:
320,192,24283,1,8,0:0:0:0:
64,192,24586,128,2,25192:0:0:0:0:
448,192,25192,1,2,0:0:0:0:
320,192,25495,1,8,0:0:0:0:
64,192,25798,1,8,0:0:0:0:
192,192,26101,1,2,0:0:0:0:
448,192,26404,1,2,0:0:0:0:
320,192,26707,1,8,0:0:0:0:
192,192,27010,1,2,0:0:0:0:
64,192,27313,1,8,0:0:0:0:
320,192,27616,1,4,0:0:0:0:
448,192,27616,1,2,0:0:0:0:
192,192,27919,1,2,0:0:0:0:
64,192,28222,1,2,0:0:0:0:
320,192,28525,1,2,0:0:0:0:
64,192,28828,1,2,0:0:0:0:
448,192,28828,1,0,0:0:0:0:
192,192,29131,1,6,0:0:0:0:
320,192,29434,128,2,30040:0:0:0:0:
192,192,30040,1,2,0:0:0:0:
448,192,30040,128,4,30646:0:0:0:0:
64,192,30646,1,8,0:0:0:0:
192,192,31253,128,2,31859:0:0:0:0:
320,192,31859,1,8,0:0:0:0:
448,192,32465,128,2,33071:0:0:0:0:
192,192,33071,1,8,0:0:0:0:
64,192,33677,128,2,34283:0:0:0:0:
320,192,34283,1,8,0:0:0:0:
192,192,34889,1,2,0:0:0:0:
448,192,34889,1,4,0:0:0:0:
320,192,35192,1,2,0:0:0:0:
64,192,35495,1,2,0:0:0:0:
192,192,35798,1,2,0:0:0:0:
320,192,36101,1,2,0:0:0:0:
448,192,36404,1,2,0:0:0:0:
320,192,36707,1,2,0:0:0:0:
192,192,37010,1,2,0:0:0:0:
64,192,37313,128,2,38525:0:0:0:0:
320,192,37919,1,2,0:0:0:0:
448,192,38525,128,2,39737:0:0:0:0:
192,192,39131,1,2,0:0:0:0:
64,192,39737,1,4,0:0:0:0:
320,192,39737,1,2,0:0:0:0:
192,192,40040,1,2,0:0:0:0:
320,192,40343,1,2,0:0:0:0:
192,192,40646,1,2,0:0:0:0:
448,192,40950,1,2,0:0:0:0:
64,192,41253,1,2,0:0:0:0:
448,192,41556,1,2,0:0:0:0:
64,192,41859,1,2,0:0:0:0:
320,192,42162,1,8,0:0:0:0:
192,192,42465,1,8,0:0:0:0:
448,192,42768,1,8,0:0:0:0:
64,192,43071,1,8,0:0:0:0:
320,192,43374,1,8,0:0:0:0:
448,192,43677,1,8,0:0:0:0:
64,192,43980,1,8,0:0:0:0:
192,192,44283,1,8,0:0:0:0:
448,192,44586,128,4,45798:0:0:0:0:
192,192,45798,128,0,47010:0:0:0:0:
64,192,47010,128,0,48222:0:0:0:0:
320,192,48222,128,0,49434:0:0:0:0:
64,192,49434,128,0,49889:0:0:0:0:
448,192,49889,1,0,0:0:0:0:
320,192,50343,128,0,50798:0:0:0:0:
192,192,50798,1,0,0:0:0:0:
448,192,51253,128,0,51707:0:0:0:0:
64,192,51707,1,0,0:0:0:0:
192,192,52010,128,0,52465:0:0:0:0:
320,192,52465,1,0,0:0:0:0:
64,192,52768,1,0,0:0:0:0:
448,192,53071,1,0,0:0:0:0:
320,192,53374,1,0,0:0:0:0:
64,192,53677,128,0,54283:0:0:0:0:
320,192,54283,1,2,0:0:0:0:
448,192,54283,128,4,54889:0:0:0:0:
64,192,54889,1,2,0:0:0:0:
320,192,55192,1,8,0:0:0:0:
64,192,55495,128,2,56101:0:0:0:0:
192,192,55495,1,0,0:0:0:0:
448,192,56101,1,2,0:0:0:0:
192,192,56404,1,8,0:0:0:0:
64,192,56707,1,2,0:0:0:0:
448,192,56707,128,0,57313:0:0:0:0:
320,192,57313,1,2,0:0:0:0:
192,192,57616,1,8,0:0:0:0:
64,192,57919,128,2,58525:0:0:0:0:
320,192,57919,1,0,0:0:0:0:
448,192,58525,1,2,0:0:0:0:
192,192,58828,1,8,0:0:0:0:
64,192,59131,1,2,0:0:0:0:
448,192,59131,128,4,59586:0:0:0:0:
192,192,59586,1,6,0:0:0:0:
64,192,60040,128,2,60495:0:0:0:0:
448,192,60040,1,4,0:0:0:0:
320,192,60495,1,6,0:0:0:0:
192,192,60950,1,4,0:0:0:0:
448,192,60950,128,2,61404:0:0:0:0:
64,192,61404,1,6,0:0:0:0:
192,192,61707,1,2,0:0:0:0:
320,192,61859,128,2,62162:0:0:0:0:
448,192,62162,1,2,0:0:0:0:
192,192,62465,1,2,0:0:0:0:
64,192,62768,1,0,0:0:0:0:
192,192,62995,1,0,0:0:0:0:
320,192,63222,1,0,0:0:0:0:
448,192,63374,128,0,63980:0:0:0:0:
192,192,63980,1,6,0:0:0:0:
64,192,64283,1,2,0:0:0:0:
192,192,64586,1,2,0:0:0:0:
320,192,64889,1,2,0:0:0:0:
448,192,65192,1,2,0:0:0:0:
320,192,65495,1,2,0:0:0:0:
192,192,65798,1,2,0:0:0:0:
64,192,66101,1,2,0:0:0:0:
320,192,66404,1,2,0:0:0:0:
192,192,66707,1,2,0:0:0:0:
448,192,67010,1,2,0:0:0:0:
64,192,67313,1,2,0:0:0:0:
320,192,67616,1,2,0:0:0:0:
448,192,67919,1,2,0:0:0:0:
192,192,68222,1,2,0:0:0:0:
64,192,68525,1,2,0:0:0:0:
320,192,68828,1,6,0:0:0:0:
448,192,68828,1,0,0:0:0:0:
64,192,69131,1,2,0:0:0:0:
192,192,69434,1,2,0:0:0:0:
320,192,69737,1,2,0:0:0:0:
448,192,70040,1,2,0:0:0:0:
192,192,70343,1,2,0:0:0:0:
320,192,70646,1,2,0:0:0:0:
64,192,70949,1,2,0:0:0:0:
448,192,71253,1,2,0:0:0:0:
320,192,71556,1,2,0:0:0:0:
192,192,71859,1,2,0:0:0:0:
64,192,72162,1,2,0:0:0:0:
448,192,72465,128,2,73374:0:0:0:0:
192,192,72768,1,2,0:0:0:0:
320,192,73071,1,2,0:0:0:0:
64,192,73374,1,6,0:0:0:0:
320,192,73677,1,2,0:0:0:0:
192,192,73677,1,4,0:0:0:0:
64,192,73980,1,8,0:0:0:0:
192,192,74283,1,2,0:0:0:0:
320,192,74586,1,8,0:0:0:0:
448,192,74889,1,2,0:0:0:0:
320,192,75192,1,8,0:0:0:0:
192,192,75495,1,2,0:0:0:0:
64,192,75798,1,8,0:0:0:0:
448,192,76101,1,2,0:0:0:0:
192,192,76404,1,8,0:0:0:0:
320,192,76707,1,2,0:0:0:0:
64,192,77010,1,8,0:0:0:0:
448,192,77313,1,2,0:0:0:0:
192,192,77616,1,8,0:0:0:0:
320,192,77919,1,2,0:0:0:0:
192,192,78222,1,8,0:0:0:0:
64,192,78525,128,4,78828:0:0:0:0:
448,192,78525,1,2,0:0:0:0:
320,192,78828,1,8,0:0:0:0:
448,192,79131,128,2,79434:0:0:0:0:
192,192,79434,1,8,0:0:0:0:
320,192,79737,128,2,80040:0:0:0:0:
64,192,80040,1,8,0:0:0:0:
192,192,80343,128,2,80646:0:0:0:0:
448,192,80646,1,8,0:0:0:0:
64,192,80949,128,2,82162:0:0:0:0:
320,192,80949,1,0,0:0:0:0:
448,192,82162,128,0,83374:0:0:0:0:
192,192,82162,1,0,0:0:0:0:
64,192,83374,128,4,84586:0:0:0:0:
320,192,84586,128,0,85798:0:0:0:0:
192,192,85798,128,0,87010:0:0:0:0:
448,192,87010,128,0,88222:0:0:0:0:
64,192,88222,1,4,0:0:0:0:
192,192,88222,1,2,0:0:0:0:
320,192,88525,1,2,0:0:0:0:
448,192,88828,1,2,0:0:0:0:
192,192,89131,1,2,0:0:0:0:
64,192,89434,1,2,0:0:0:0:
448,192,89737,1,2,0:0:0:0:
320,192,90040,1,2,0:0:0:0:
192,192,90343,1,6,0:0:0:0:
64,192,90646,1,2,0:0:0:0:
448,192,90646,128,0,91859:0:0:0:0:
192,192,91253,1,2,0:0:0:0:
64,192,91859,128,2,93071:0:0:0:0:
320,192,91859,1,0,0:0:0:0:
192,192,92465,1,2,0:0:0:0:
320,192,93071,1,2,0:0:0:0:
448,192,93071,128,0,94283:0:0:0:0:
192,192,93677,1,2,0:0:0:0:
64,192,94283,128,2,95495:0:0:0:0:
320,192,94283,1,0,0:0:0:0:
448,192,94889,1,2,0:0:0:0:
192,192,95495,1,4,0:0:0:0:
320,192,95798,1,4,0:0:0:0:
448,192,95798,1,2,0:0:0:0:
192,192,96101,1,2,0:0:0:0:
64,192,96404,1,8,0:0:0:0:
448,192,96707,1,2,0:0:0:0:
192,192,97010,1,8,0:0:0:0:
320,192,97313,1,2,0:0:0:0:
64,192,97616,1,8,0:0:0:0:
192,192,97919,1,2,0:0:0:0:
448,192,97919,1,0,0:0:0:0:
320,192,98222,1,8,0:0:0:0:
64,192,98525,1,2,0:0:0:0:
192,192,98828,1,8,0:0:0:0:
448,192,99131,1,2,0:0:0:0:
320,192,99131,1,0,0:0:0:0:
64,192,99434,1,8,0:0:0:0:
320,192,99737,1,2,0:0:0:0:
192,192,100040,1,8,0:0:0:0:
64,192,100343,1,2,0:0:0:0:
448,192,100343,1,0,0:0:0:0:
320,192,100646,1,8,0:0:0:0:
192,192,100949,1,2,0:0:0:0:
448,192,101253,1,8,0:0:0:0:
192,192,101556,1,2,0:0:0:0:
64,192,101556,1,0,0:0:0:0:
320,192,101859,1,8,0:0:0:0:
64,192,102162,1,2,0:0:0:0:
448,192,102465,1,8,0:0:0:0:
192,192,102768,1,2,0:0:0:0:
320,192,102768,1,0,0:0:0:0:
64,192,103071,1,8,0:0:0:0:
448,192,103374,1,2,0:0:0:0:
192,192,103677,1,8,0:0:0:0:
448,192,103980,1,2,0:0:0:0:
320,192,103980,1,0,0:0:0:0:
64,192,104283,1,8,0:0:0:0:
192,192,104586,1,2,0:0:0:0:
448,192,104889,1,8,0:0:0:0:
192,192,105192,1,2,0:0:0:0:
320,192,105192,1,4,0:0:0:0:
64,192,105495,1,8,0:0:0:0:
320,192,105798,1,2,0:0:0:0:
192,192,106101,1,8,0:0:0:0:
64,192,106404,1,2,0:0:0:0:
448,192,106404,1,0,0:0:0:0:
320,192,106707,1,8,0:0:0:0:
192,192,107010,1,2,0:0:0:0:
448,192,107313,1,8,0:0:0:0:
64,192,107616,1,2,0:0:0:0:
192,192,107616,1,0,0:0:0:0:
448,192,107919,1,8,0:0:0:0:
192,192,108222,1,2,0:0:0:0:
320,192,108525,1,8,0:0:0:0:
448,192,108828,1,2,0:0:0:0:
64,192,108828,1,0,0:0:0:0:
192,192,109131,1,8,0:0:0:0:
320,192,109434,1,2,0:0:0:0:
192,192,109737,1,8,0:0:0:0:
64,192,110040,1,2,0:0:0:0:
448,192,110040,1,0,0:0:0:0:
320,192,110343,1,2,0:0:0:0:
192,192,110646,1,2,0:0:0:0:
448,192,110949,1,2,0:0:0:0:
64,192,111253,1,2,0:0:0:0:
320,192,111556,1,2,0:0:0:0:
192,192,111859,1,2,0:0:0:0:
448,192,112162,1,2,0:0:0:0:
64,192,112465,128,4,112768:0:0:0:0:
320,192,112465,1,0,0:0:0:0:
192,192,112768,1,6,0:0:0:0:
448,192,113071,128,2,113374:0:0:0:0:
320,192,113374,1,8,0:0:0:0:
192,192,113677,128,2,113980:0:0:0:0:
448,192,113980,1,8,0:0:0:0:
320,192,114283,128,2,114586:0:0:0:0:
64,192,114586,1,8,0:0:0:0:
192,192,114889,128,2,115192:0:0:0:0:
320,192,115192,1,8,0:0:0:0:
448,192,115495,128,2,115798:0:0:0:0:
192,192,115798,1,8,0:0:0:0:
64,192,116101,128,2,116404:0:0:0:0:
320,192,116404,1,0,0:0:0:0:
448,192,116707,128,2,117010:0:0:0:0:
64,192,117010,1,2,0:0:0:0:
320,192,117313,1,0,0:0:0:0:
448,192,117616,1,0,0:0:0:0:
192,192,117616,128,6,117919:0:0:0:0:
320,192,117919,1,2,0:0:0:0:
64,192,118222,128,2,118525:0:0:0:0:
448,192,118525,1,2,0:0:0:0:
320,192,118828,128,2,119131:0:0:0:0:
192,192,119131,1,2,0:0:0:0:
448,192,119434,128,2,119737:0:0:0:0:
64,192,119737,128,6,120040:0:0:0:0:
320,192,120040,128,2,120343:0:0:0:0:
192,192,120343,128,2,120646:0:0:0:0:
448,192,120646,128,2,120949:0:0:0:0:
64,192,120949,128,2,121253:0:0:0:0:
192,192,121253,128,2,121556:0:0:0:0:
320,192,121556,128,2,121859:0:0:0:0:
448,192,121859,128,2,122162:0:0:0:0:
64,192,122162,1,4,0:0:0:0:
320,192,122162,1,2,0:0:0:0:
192,192,122465,1,0,0:0:0:0:
320,192,122768,1,0,0:0:0:0:
64,192,123071,1,0,0:0:0:0:
448,192,123374,1,0,0:0:0:0:
192,192,123677,1,0,0:0:0:0:
320,192,123980,1,0,0:0:0:0:
64,192,124283,1,0,0:0:0:0:
192,192,124586,1,0,0:0:0:0:
448,192,124889,1,0,0:0:0:0:
64,192,125192,1,0,0:0:0:0:
320,192,125495,1,0,0:0:0:0:
192,192,125798,1,0,0:0:0:0:
448,192,126101,1,0,0:0:0:0:
64,192,126404,1,0,0:0:0:0:
320,192,126707,1,0,0:0:0:0:
