osu file format v14

[General]
AudioFilename: audio.mp3
AudioLeadIn: 0
PreviewTime: 95343
Countdown: 0
SampleSet: None
StackLeniency: 0.7
Mode: 3
LetterboxInBreaks: 0
SpecialStyle: 0
WidescreenStoryboard: 1

[Editor]
DistanceSpacing: 0.8
BeatDivisor: 4
GridSize: 32
TimelineZoom: 2.4

[Metadata]
Title:WHITEOUT
TitleUnicode:WHITEOUT
Artist:Kaneko Chiharu
ArtistUnicode:かねこちはる
Creator:Tofu1222
Version:Amii's ADVANCED
Source:SOUND VOLTEX IV HEAVENLY HAVEN
Tags:Ω Dimension The 6th KAC受賞者の書き下ろし新曲 Fresh Chicken Virtue- Amiichii Crz Sword Makii
BeatmapID:1492001
BeatmapSetID:653740

[Difficulty]
HPDrainRate:8
CircleSize:4
OverallDifficulty:7.5
ApproachRate:5
SliderMultiplier:1.4
SliderTickRate:1

[Events]
//Background and Video events
0,0,"bg.jpg",0,0
//Break Periods
//Storyboard Layer 0 (Background)
//Storyboard Layer 1 (Fail)
//Storyboard Layer 2 (Pass)
//Storyboard Layer 3 (Foreground)
//Storyboard Sound Samples

[TimingPoints]
950,303.030303030303,4,2,1,50,1,0
95798,-100,4,2,1,50,0,1
122162,-100,4,2,1,50,0,0

[HitObjects]
64,192,950,5,2,0:0:0:0:
320,192,950,1,4,0:0:0:0:
448,192,950,1,0,0:0:0:0:
192,192,1051,1,0,0:0:0:0:
320,192,1152,1,0,0:0:0:0:
448,192,1253,1,0,0:0:0:0:
64,192,1354,1,0,0:0:0:0:
192,192,1455,1,0,0:0:0:0:
448,192,1556,1,0,0:0:0:0:
320,192,1657,1,0,0:0:0:0:
64,192,1758,1,0,0:0:0:0:
448,192,1859,1,0,0:0:0:0:
320,192,1960,1,0,0:0:0:0:
192,192,2061,1,0,0:0:0:0:
64,192,2162,1,0,0:0:0:0:
320,192,2263,1,0,0:0:0:0:
192,192,2364,1,0,0:0:0:0:
448,192,2465,1,0,0:0:0:0:
320,192,2566,1,0,0:0:0:0:
192,192,2667,1,0,0:0:0:0:
64,192,2768,1,0,0:0:0:0:
192,192,2869,1,0,0:0:0:0:
320,192,2970,1,0,0:0:0:0:
448,192,3071,1,0,0:0:0:0:
64,192,3172,1,0,0:0:0:0:
448,192,3273,1,0,0:0:0:0:
192,192,3374,1,0,0:0:0:0:
320,192,3475,1,0,0:0:0:0:
64,192,3576,1,0,0:0:0:0:
448,192,3677,1,0,0:0:0:0:
320,192,3778,1,0,0:0:0:0:
64,192,3879,1,0,0:0:0:0:
192,192,3980,1,0,0:0:0:0:
320,192,4081,1,0,0:0:0:0:
192,192,4182,1,0,0:0:0:0:
448,192,4283,1,0,0:0:0:0:
320,192,4384,1,0,0:0:0:0:
192,192,4485,1,0,0:0:0:0:
64,192,4586,1,0,0:0:0:0:
192,192,4687,1,0,0:0:0:0:
448,192,4788,1,0,0:0:0:0:
320,192,4889,1,0,0:0:0:0:
64,192,4990,1,0,0:0:0:0:
448,192,5091,1,0,0:0:0:0:
192,192,5192,1,0,0:0:0:0:
320,192,5293,1,0,0:0:0:0:
192,192,5394,1,0,0:0:0:0:
64,192,5495,1,0,0:0:0:0:
448,192,5596,1,0,0:0:0:0:
320,192,5697,1,0,0:0:0:0:
64,192,5798,1,2,0:0:0:0:
192,192,5798,1,4,0:0:0:0:
320,192,5899,1,0,0:0:0:0:
448,192,6000,1,0,0:0:0:0:
64,192,6101,1,0,0:0:0:0:
192,192,6202,1,0,0:0:0:0:
448,192,6303,1,0,0:0:0:0:
64,192,6404,1,0,0:0:0:0:
320,192,6505,1,0,0:0:0:0:
192,192,6606,1,0,0:0:0:0:
448,192,6707,1,0,0:0:0:0:
320,192,6808,1,0,0:0:0:0:
64,192,6909,1,0,0:0:0:0:
192,192,7010,1,0,0:0:0:0:
448,192,7111,1,0,0:0:0:0:
64,192,7212,1,0,0:0:0:0:
320,192,7313,1,0,0:0:0:0:
192,192,7414,1,0,0:0:0:0:
448,192,7515,1,0,0:0:0:0:
64,192,7616,1,0,0:0:0:0:
192,192,7717,1,0,0:0:0:0:
320,192,7818,1,0,0:0:0:0:
448,192,7919,1,0,0:0:0:0:
64,192,8020,1,0,0:0:0:0:
320,192,8121,1,0,0:0:0:0:
192,192,8222,1,0,0:0:0:0:
64,192,8323,1,0,0:0:0:0:
320,192,8424,1,0,0:0:0:0:
448,192,8525,1,0,0:0:0:0:
192,192,8626,1,0,0:0:0:0:
320,192,8727,1,0,0:0:0:0:
64,192,8828,1,0,0:0:0:0:
192,192,8929,1,0,0:0:0:0:
448,192,9030,1,0,0:0:0:0:
320,192,9131,1,0,0:0:0:0:
64,192,9232,1,0,0:0:0:0:
192,192,9333,1,0,0:0:0:0:
320,192,9434,1,2,0:0:0:0:
448,192,9434,128,0,10040:0:0:0:0:
64,192,9535,1,2,0:0:0:0:
320,192,9636,1,2,0:0:0:0:
192,192,9737,1,2,0:0:0:0:
64,192,9838,1,2,0:0:0:0:
320,192,9939,1,2,0:0:0:0:
64,192,10040,1,2,0:0:0:0:
192,192,10040,1,4,0:0:0:0:
320,192,10141,1,0,0:0:0:0:
448,192,10242,1,0,0:0:0:0:
64,192,10343,1,0,0:0:0:0:
320,192,10444,1,0,0:0:0:0:
192,192,10545,1,0,0:0:0:0:
64,192,10646,1,4,0:0:0:0:
320,192,10646,1,2,0:0:0:0:
448,192,10646,1,0,0:0:0:0:
192,192,11101,1,2,0:0:0:0:
320,192,11177,1,2,0:0:0:0:
64,192,11253,1,2,0:0:0:0:
192,192,11253,1,4,0:0:0:0:
448,192,11404,1,2,0:0:0:0:
448,192,12313,1,2,0:0:0:0:
320,192,12364,1,2,0:0:0:0:
192,192,12414,1,2,0:0:0:0:
64,192,12465,1,2,0:0:0:0:
448,192,12465,1,4,0:0:0:0:
192,192,13071,1,2,0:0:0:0:
320,192,13071,1,0,0:0:0:0:
192,192,13525,1,2,0:0:0:0:
448,192,13601,1,2,0:0:0:0:
64,192,13677,1,2,0:0:0:0:
320,192,13677,1,4,0:0:0:0:
64,192,14207,1,0,0:0:0:0:
192,192,14245,1,0,0:0:0:0:
320,192,14283,1,0,0:0:0:0:
448,192,14321,1,0,0:0:0:0:
64,192,14586,1,0,0:0:0:0:
448,192,14737,1,0,0:0:0:0:
64,192,14889,1,0,0:0:0:0:
448,192,15040,1,0,0:0:0:0:
64,192,15192,1,0,0:0:0:0:
448,192,15343,1,0,0:0:0:0:
64,192,15495,1,14,0:0:0:0:
320,192,15646,1,2,0:0:0:0:
192,192,15798,1,2,0:0:0:0:
448,192,15949,1,2,0:0:0:0:
320,192,16101,1,2,0:0:0:0:
64,192,16253,1,2,0:0:0:0:
192,192,16404,1,2,0:0:0:0:
320,192,16556,1,2,0:0:0:0:
64,192,16707,1,2,0:0:0:0:
448,192,16859,1,2,0:0:0:0:
320,192,17010,1,2,0:0:0:0:
192,192,17162,1,2,0:0:0:0:
448,192,17313,1,2,0:0:0:0:
64,192,17465,1,2,0:0:0:0:
192,192,17616,1,2,0:0:0:0:
320,192,17768,1,2,0:0:0:0:
448,192,17919,1,2,0:0:0:0:
320,192,17995,1,2,0:0:0:0:
192,192,18071,1,2,0:0:0:0:
448,192,18146,1,2,0:0:0:0:
64,192,18222,1,2,0:0:0:0:
192,192,18298,1,2,0:0:0:0:
320,192,18374,1,2,0:0:0:0:
64,192,18450,1,2,0:0:0:0:
448,192,18525,1,2,0:0:0:0:
320,192,18601,1,2,0:0:0:0:
192,192,18677,1,2,0:0:0:0:
448,192,18753,1,2,0:0:0:0:
64,192,18828,1,2,0:0:0:0:
192,192,18904,1,2,0:0:0:0:
320,192,18980,1,2,0:0:0:0:
64,192,19056,1,2,0:0:0:0:
64,192,19737,1,0,0:0:0:0:
192,192,19813,1,0,0:0:0:0:
320,192,19889,1,0,0:0:0:0:
448,192,19965,1,0,0:0:0:0:
64,192,20040,1,0,0:0:0:0:
192,192,20116,1,0,0:0:0:0:
320,192,20192,1,0,0:0:0:0:
448,192,20268,1,0,0:0:0:0:
64,192,20343,1,2,0:0:0:0:
192,192,20343,1,4,0:0:0:0:
320,192,20343,1,0,0:0:0:0:
448,192,20495,1,0,0:0:0:0:
64,192,20646,1,8,0:0:0:0:
192,192,20646,1,0,0:0:0:0:
320,192,20798,1,0,0:0:0:0:
64,192,20949,1,2,0:0:0:0:
448,192,20949,1,0,0:0:0:0:
192,192,21101,1,0,0:0:0:0:
320,192,21253,1,8,0:0:0:0:
448,192,21253,1,0,0:0:0:0:
192,192,21404,1,0,0:0:0:0:
64,192,21556,1,2,0:0:0:0:
320,192,21556,1,0,0:0:0:0:
448,192,21707,1,0,0:0:0:0:
64,192,21859,1,8,0:0:0:0:
192,192,21859,1,0,0:0:0:0:
320,192,22010,1,0,0:0:0:0:
192,192,22162,1,2,0:0:0:0:
448,192,22162,1,0,0:0:0:0:
64,192,22313,1,0,0:0:0:0:
192,192,22465,1,8,0:0:0:0:
320,192,22465,1,0,0:0:0:0:
448,192,22616,1,0,0:0:0:0:
64,192,22768,1,2,0:0:0:0:
192,192,22768,1,0,0:0:0:0:
320,192,22919,1,0,0:0:0:0:
64,192,23071,1,8,0:0:0:0:
448,192,23071,1,0,0:0:0:0:
192,192,23222,1,0,0:0:0:0:
64,192,23374,1,2,0:0:0:0:
320,192,23374,1,0,0:0:0:0:
448,192,23525,1,0,0:0:0:0:
192,192,23677,1,8,0:0:0:0:
320,192,23677,1,0,0:0:0:0:
64,192,23828,1,0,0:0:0:0:
192,192,23980,1,2,0:0:0:0:
448,192,23980,1,0,0:0:0:0:
64,192,24131,1,0,0:0:0:0:
320,192,24283,1,8,0:0:0:0:
448,192,24283,1,0,0:0:0:0:
192,192,24434,1,0,0:0:0:0:
64,192,24586,128,2,24813:0:0:0:0:
320,192,24586,1,0,0:0:0:0:
448,192,24737,1,0,0:0:0:0:
192,192,24813,128,0,25040:0:0:0:0:
320,192,24889,1,8,0:0:0:0:
448,192,24889,1,0,0:0:0:0:
64,192,25040,128,0,25192:0:0:0:0:
320,192,25192,1,2,0:0:0:0:
448,192,25192,128,0,26101:0:0:0:0:
192,192,25343,1,0,0:0:0:0:
64,192,25495,1,8,0:0:0:0:
320,192,25495,1,0,0:0:0:0:
192,192,25646,1,0,0:0:0:0:
64,192,25798,1,2,0:0:0:0:
320,192,25798,1,0,0:0:0:0:
192,192,25949,1,0,0:0:0:0:
64,192,26101,1,8,0:0:0:0:
320,192,26101,128,0,26404:0:0:0:0:
192,192,26253,1,0,0:0:0:0:
64,192,26404,128,2,27010:0:0:0:0:
448,192,26404,1,0,0:0:0:0:
192,192,26556,1,0,0:0:0:0:
320,192,26707,1,8,0:0:0:0:
448,192,26707,1,0,0:0:0:0:
192,192,26859,1,0,0:0:0:0:
320,192,27010,128,2,27616:0:0:0:0:
448,192,27010,1,0,0:0:0:0:
64,192,27162,1,0,0:0:0:0:
192,192,27313,1,8,0:0:0:0:
448,192,27313,1,0,0:0:0:0:
64,192,27465,1,0,0:0:0:0:
192,192,27616,1,4,0:0:0:0:
448,192,27616,1,2,0:0:0:0:
64,192,27768,1,2,0:0:0:0:
320,192,27768,1,0,0:0:0:0:
64,192,27919,1,2,0:0:0:0:
448,192,27919,1,0,0:0:0:0:
192,192,28071,1,2,0:0:0:0:
448,192,28071,1,0,0:0:0:0:
64,192,28222,1,2,0:0:0:0:
320,192,28222,1,0,0:0:0:0:
192,192,28298,1,2,0:0:0:0:
448,192,28374,1,2,0:0:0:0:
320,192,28449,1,2,0:0:0:0:
64,192,28525,1,2,0:0:0:0:
192,192,28601,1,2,0:0:0:0:
448,192,28677,1,2,0:0:0:0:
320,192,28753,1,2,0:0:0:0:
64,192,28828,128,2,29131:0:0:0:0:
192,192,29131,1,2,0:0:0:0:
320,192,29131,1,4,0:0:0:0:
448,192,29131,1,0,0:0:0:0:
192,192,29434,1,2,0:0:0:0:
320,192,29434,1,0,0:0:0:0:
64,192,29662,1,2,0:0:0:0:
320,192,29662,1,0,0:0:0:0:
64,192,29889,1,2,0:0:0:0:
192,192,29889,1,0,0:0:0:0:
192,192,30040,1,2,0:0:0:0:
320,192,30040,1,4,0:0:0:0:
448,192,30040,128,0,33677:0:0:0:0:
64,192,30192,1,0,0:0:0:0:
320,192,30343,1,0,0:0:0:0:
192,192,30495,1,0,0:0:0:0:
320,192,30798,1,0,0:0:0:0:
64,192,30949,1,0,0:0:0:0:
320,192,31101,1,0,0:0:0:0:
192,192,31253,1,2,0:0:0:0:
320,192,31404,1,0,0:0:0:0:
64,192,31556,1,0,0:0:0:0:
192,192,31707,1,2,0:0:0:0:
64,192,32010,1,2,0:0:0:0:
320,192,32162,1,0,0:0:0:0:
192,192,32313,1,0,0:0:0:0:
64,192,32465,1,2,0:0:0:0:
64,192,32692,1,0,0:0:0:0:
64,192,32919,1,0,0:0:0:0:
64,192,33071,1,8,0:0:0:0:
320,192,33071,1,4,0:0:0:0:
192,192,33298,1,0,0:0:0:0:
64,192,33525,1,0,0:0:0:0:
320,192,33677,1,2,0:0:0:0:
192,192,33753,1,0,0:0:0:0:
64,192,33828,1,0,0:0:0:0:
320,192,33980,1,0,0:0:0:0:
448,192,34081,1,0,0:0:0:0:
64,192,34182,1,0,0:0:0:0:
192,192,34283,1,8,0:0:0:0:
320,192,34384,1,0,0:0:0:0:
448,192,34485,1,0,0:0:0:0:
64,192,34586,1,0,0:0:0:0:
192,192,34687,1,0,0:0:0:0:
320,192,34788,1,0,0:0:0:0:
64,192,34889,1,2,0:0:0:0:
448,192,34889,1,4,0:0:0:0:
192,192,35040,1,2,0:0:0:0:
320,192,35040,1,0,0:0:0:0:
64,192,35192,1,2,0:0:0:0:
448,192,35192,1,0,0:0:0:0:
192,192,35343,1,2,0:0:0:0:
320,192,35343,1,0,0:0:0:0:
64,192,35495,1,2,0:0:0:0:
448,192,35495,1,0,0:0:0:0:
192,192,35646,1,2,0:0:0:0:
320,192,35646,1,0,0:0:0:0:
64,192,35798,1,2,0:0:0:0:
448,192,35798,1,0,0:0:0:0:
192,192,35950,1,2,0:0:0:0:
320,192,35950,1,0,0:0:0:0:
320,192,36101,1,2,0:0:0:0:
448,192,36101,1,0,0:0:0:0:
64,192,36253,1,2,0:0:0:0:
192,192,36253,1,0,0:0:0:0:
320,192,36404,1,2,0:0:0:0:
448,192,36404,1,0,0:0:0:0:
64,192,36556,1,2,0:0:0:0:
192,192,36556,1,0,0:0:0:0:
320,192,36707,1,2,0:0:0:0:
448,192,36707,1,0,0:0:0:0:
64,192,36859,1,2,0:0:0:0:
192,192,36859,1,0,0:0:0:0:
320,192,37010,1,2,0:0:0:0:
448,192,37010,1,0,0:0:0:0:
64,192,37162,1,2,0:0:0:0:
192,192,37162,1,0,0:0:0:0:
448,192,37313,1,2,0:0:0:0:
320,192,37389,1,2,0:0:0:0:
64,192,37465,1,2,0:0:0:0:
192,192,37540,1,2,0:0:0:0:
448,192,37616,1,2,0:0:0:0:
320,192,37692,1,2,0:0:0:0:
64,192,37768,1,2,0:0:0:0:
192,192,37843,1,2,0:0:0:0:
320,192,37919,1,2,0:0:0:0:
448,192,37995,1,2,0:0:0:0:
192,192,38071,1,2,0:0:0:0:
64,192,38146,1,2,0:0:0:0:
320,192,38222,1,2,0:0:0:0:
448,192,38298,1,2,0:0:0:0:
192,192,38374,1,2,0:0:0:0:
64,192,38450,1,2,0:0:0:0:
448,192,38525,1,2,0:0:0:0:
320,192,38601,1,2,0:0:0:0:
192,192,38677,1,2,0:0:0:0:
448,192,38753,1,2,0:0:0:0:
64,192,38828,1,2,0:0:0:0:
192,192,38904,1,2,0:0:0:0:
320,192,38980,1,2,0:0:0:0:
64,192,39056,1,2,0:0:0:0:
448,192,39131,1,2,0:0:0:0:
320,192,39207,1,2,0:0:0:0:
192,192,39283,1,2,0:0:0:0:
64,192,39359,1,2,0:0:0:0:
448,192,39434,1,2,0:0:0:0:
320,192,39510,1,2,0:0:0:0:
192,192,39586,1,2,0:0:0:0:
64,192,39662,1,2,0:0:0:0:
320,192,39737,1,4,0:0:0:0:
448,192,39737,1,2,0:0:0:0:
192,192,40040,1,2,0:0:0:0:
320,192,40040,1,0,0:0:0:0:
64,192,40343,1,2,0:0:0:0:
448,192,40343,1,0,0:0:0:0:
64,192,40646,1,2,0:0:0:0:
320,192,40646,1,0,0:0:0:0:
192,192,40950,1,2,0:0:0:0:
448,192,40950,1,0,0:0:0:0:
192,192,41253,1,2,0:0:0:0:
320,192,41253,1,0,0:0:0:0:
64,192,41556,1,2,0:0:0:0:
320,192,41556,1,0,0:0:0:0:
192,192,41859,1,2,0:0:0:0:
448,192,41859,1,0,0:0:0:0:
64,192,42162,1,8,0:0:0:0:
192,192,42162,1,0,0:0:0:0:
64,192,42465,1,8,0:0:0:0:
448,192,42465,1,0,0:0:0:0:
192,192,42768,1,8,0:0:0:0:
320,192,42768,1,0,0:0:0:0:
320,192,43071,1,8,0:0:0:0:
448,192,43071,1,0,0:0:0:0:
64,192,43374,1,8,0:0:0:0:
192,192,43374,1,0,0:0:0:0:
192,192,43677,1,8,0:0:0:0:
448,192,43677,1,0,0:0:0:0:
64,192,43980,1,8,0:0:0:0:
320,192,43980,1,0,0:0:0:0:
64,192,44283,1,8,0:0:0:0:
448,192,44283,1,0,0:0:0:0:
192,192,44359,1,0,0:0:0:0:
320,192,44434,1,0,0:0:0:0:
448,192,44510,1,0,0:0:0:0:
64,192,44586,1,4,0:0:0:0:
192,192,44586,1,0,0:0:0:0:
320,192,44889,1,0,0:0:0:0:
448,192,45040,1,0,0:0:0:0:
64,192,45343,1,0,0:0:0:0:
448,192,45722,1,0,0:0:0:0:
64,192,45798,1,0,0:0:0:0:
192,192,45798,1,0,0:0:0:0:
320,192,46101,1,0,0:0:0:0:
448,192,46253,1,0,0:0:0:0:
192,192,46556,1,0,0:0:0:0:
64,192,46859,1,0,0:0:0:0:
320,192,47010,1,0,0:0:0:0:
448,192,47010,1,0,0:0:0:0:
192,192,47313,1,0,0:0:0:0:
320,192,47465,1,0,0:0:0:0:
448,192,47768,1,0,0:0:0:0:
64,192,48071,1,0,0:0:0:0:
192,192,48146,1,0,0:0:0:0:
320,192,48222,1,0,0:0:0:0:
448,192,48222,1,0,0:0:0:0:
64,192,48525,1,0,0:0:0:0:
448,192,48677,1,0,0:0:0:0:
320,192,48980,1,0,0:0:0:0:
64,192,49131,1,0,0:0:0:0:
192,192,49283,1,0,0:0:0:0:
64,192,49434,1,0,0:0:0:0:
448,192,49434,1,0,0:0:0:0:
192,192,49586,1,0,0:0:0:0:
320,192,49737,1,0,0:0:0:0:
448,192,49889,1,0,0:0:0:0:
192,192,50192,1,0,0:0:0:0:
448,192,50343,1,0,0:0:0:0:
320,192,50495,1,0,0:0:0:0:
64,192,50646,1,0,0:0:0:0:
192,192,50646,1,0,0:0:0:0:
448,192,50798,1,0,0:0:0:0:
192,192,50950,1,0,0:0:0:0:
320,192,51101,1,0,0:0:0:0:
448,192,51253,1,0,0:0:0:0:
64,192,51404,1,0,0:0:0:0:
320,192,51556,1,0,0:0:0:0:
192,192,51707,1,0,0:0:0:0:
320,192,51859,1,0,0:0:0:0:
448,192,51859,1,0,0:0:0:0:
64,192,52010,1,0,0:0:0:0:
64,192,52162,1,0,0:0:0:0:
64,192,52313,1,0,0:0:0:0:
448,192,52465,1,0,0:0:0:0:
320,192,52692,1,0,0:0:0:0:
192,192,52919,1,0,0:0:0:0:
64,192,53071,1,0,0:0:0:0:
448,192,53071,1,0,0:0:0:0:
64,192,53298,1,0,0:0:0:0:
320,192,53298,1,0,0:0:0:0:
192,192,53525,1,0,0:0:0:0:
448,192,53525,1,0,0:0:0:0:
64,192,53677,1,0,0:0:0:0:
320,192,53677,1,0,0:0:0:0:
448,192,53980,1,0,0:0:0:0:
320,192,54056,1,0,0:0:0:0:
64,192,54131,1,0,0:0:0:0:
192,192,54207,1,0,0:0:0:0:
320,192,54283,1,2,0:0:0:0:
448,192,54283,128,4,55192:0:0:0:0:
320,192,54434,1,0,0:0:0:0:
64,192,54586,1,8,0:0:0:0:
192,192,54586,1,0,0:0:0:0:
64,192,54737,1,0,0:0:0:0:
192,192,54889,1,2,0:0:0:0:
320,192,54889,1,0,0:0:0:0:
320,192,55040,1,0,0:0:0:0:
192,192,55192,1,8,0:0:0:0:
64,192,55192,1,0,0:0:0:0:
192,192,55343,1,0,0:0:0:0:
320,192,55419,1,0,0:0:0:0:
64,192,55495,1,2,0:0:0:0:
448,192,55495,128,0,55798:0:0:0:0:
64,192,55646,1,0,0:0:0:0:
192,192,55798,1,8,0:0:0:0:
320,192,55798,1,0,0:0:0:0:
192,192,55950,128,0,56101:0:0:0:0:
320,192,56101,1,2,0:0:0:0:
448,192,56101,1,0,0:0:0:0:
320,192,56253,128,0,56404:0:0:0:0:
64,192,56404,1,8,0:0:0:0:
192,192,56404,1,0,0:0:0:0:
448,192,56556,128,0,57616:0:0:0:0:
64,192,56707,1,2,0:0:0:0:
320,192,56707,1,0,0:0:0:0:
64,192,56859,1,0,0:0:0:0:
320,192,57010,1,8,0:0:0:0:
192,192,57010,1,0,0:0:0:0:
64,192,57111,1,0,0:0:0:0:
320,192,57162,1,0,0:0:0:0:
192,192,57313,1,2,0:0:0:0:
64,192,57313,1,0,0:0:0:0:
192,192,57465,1,0,0:0:0:0:
64,192,57616,1,8,0:0:0:0:
320,192,57616,1,0,0:0:0:0:
320,192,57768,1,0,0:0:0:0:
192,192,57843,1,0,0:0:0:0:
64,192,57919,1,2,0:0:0:0:
448,192,57919,1,0,0:0:0:0:
320,192,57995,1,0,0:0:0:0:
192,192,58071,1,0,0:0:0:0:
64,192,58146,1,0,0:0:0:0:
448,192,58222,1,8,0:0:0:0:
320,192,58298,1,0,0:0:0:0:
192,192,58374,1,0,0:0:0:0:
64,192,58450,1,0,0:0:0:0:
448,192,58525,1,2,0:0:0:0:
320,192,58601,1,0,0:0:0:0:
192,192,58677,1,0,0:0:0:0:
320,192,58753,1,0,0:0:0:0:
64,192,58828,1,8,0:0:0:0:
192,192,58904,1,0,0:0:0:0:
320,192,58980,1,0,0:0:0:0:
192,192,59056,1,0,0:0:0:0:
320,192,59131,1,2,0:0:0:0:
448,192,59131,1,4,0:0:0:0:
64,192,59283,1,2,0:0:0:0:
192,192,59283,1,4,0:0:0:0:
320,192,59434,1,0,0:0:0:0:
64,192,59586,128,2,59889:0:0:0:0:
448,192,59586,128,4,59889:0:0:0:0:
192,192,59889,1,2,0:0:0:0:
320,192,59965,1,2,0:0:0:0:
64,192,60040,1,2,0:0:0:0:
192,192,60040,1,4,0:0:0:0:
320,192,60192,1,2,0:0:0:0:
448,192,60192,1,4,0:0:0:0:
192,192,60495,128,2,60798:0:0:0:0:
448,192,60495,128,4,60798:0:0:0:0:
64,192,60798,1,2,0:0:0:0:
320,192,60874,1,2,0:0:0:0:
64,192,60950,1,4,0:0:0:0:
192,192,60950,1,2,0:0:0:0:
320,192,61101,1,2,0:0:0:0:
448,192,61101,1,4,0:0:0:0:
192,192,61253,1,0,0:0:0:0:
320,192,61404,128,2,61707:0:0:0:0:
448,192,61404,128,4,61707:0:0:0:0:
64,192,61707,1,2,0:0:0:0:
192,192,61783,1,0,0:0:0:0:
320,192,61859,1,2,0:0:0:0:
448,192,61859,1,0,0:0:0:0:
448,192,62010,1,2,0:0:0:0:
320,192,62086,1,2,0:0:0:0:
64,192,62162,1,2,0:0:0:0:
192,192,62162,1,0,0:0:0:0:
448,192,62237,1,2,0:0:0:0:
320,192,62313,1,2,0:0:0:0:
192,192,62389,1,2,0:0:0:0:
64,192,62465,128,2,62768:0:0:0:0:
448,192,62465,128,0,62768:0:0:0:0:
192,192,62768,1,2,0:0:0:0:
320,192,62768,1,4,0:0:0:0:
192,192,62995,1,4,0:0:0:0:
448,192,62995,1,2,0:0:0:0:
64,192,63222,1,2,0:0:0:0:
320,192,63222,1,4,0:0:0:0:
64,192,63374,128,8,63828:0:0:0:0:
192,192,63374,128,4,63828:0:0:0:0:
448,192,63374,128,0,63828:0:0:0:0:
64,192,63980,1,4,0:0:0:0:
320,192,63980,1,2,0:0:0:0:
448,192,63980,1,0,0:0:0:0:
192,192,64131,1,0,0:0:0:0:
320,192,64207,1,0,0:0:0:0:
64,192,64283,1,2,0:0:0:0:
192,192,64359,1,0,0:0:0:0:
448,192,64434,1,0,0:0:0:0:
320,192,64510,1,0,0:0:0:0:
192,192,64586,1,2,0:0:0:0:
320,192,64662,1,0,0:0:0:0:
64,192,64737,1,0,0:0:0:0:
192,192,64813,1,0,0:0:0:0:
448,192,64889,1,2,0:0:0:0:
320,192,64965,1,0,0:0:0:0:
192,192,65040,1,0,0:0:0:0:
320,192,65116,1,0,0:0:0:0:
448,192,65192,1,2,0:0:0:0:
64,192,65268,1,0,0:0:0:0:
192,192,65343,1,0,0:0:0:0:
320,192,65419,1,0,0:0:0:0:
192,192,65495,1,2,0:0:0:0:
320,192,65571,1,0,0:0:0:0:
448,192,65646,1,0,0:0:0:0:
64,192,65722,1,0,0:0:0:0:
192,192,65798,1,2,0:0:0:0:
448,192,65874,1,0,0:0:0:0:
320,192,65949,1,0,0:0:0:0:
64,192,66025,1,0,0:0:0:0:
192,192,66101,1,2,0:0:0:0:
320,192,66177,1,0,0:0:0:0:
64,192,66253,1,0,0:0:0:0:
192,192,66328,1,0,0:0:0:0:
448,192,66404,1,2,0:0:0:0:
320,192,66480,1,0,0:0:0:0:
192,192,66556,1,0,0:0:0:0:
320,192,66631,1,0,0:0:0:0:
192,192,66707,1,2,0:0:0:0:
64,192,66783,1,0,0:0:0:0:
448,192,66859,1,0,0:0:0:0:
320,192,66934,1,0,0:0:0:0:
192,192,67010,1,2,0:0:0:0:
320,192,67086,1,0,0:0:0:0:
448,192,67162,1,0,0:0:0:0:
64,192,67237,1,0,0:0:0:0:
192,192,67313,1,2,0:0:0:0:
320,192,67389,1,0,0:0:0:0:
192,192,67465,1,0,0:0:0:0:
448,192,67540,1,0,0:0:0:0:
320,192,67616,1,2,0:0:0:0:
192,192,67692,1,0,0:0:0:0:
320,192,67768,1,0,0:0:0:0:
64,192,67843,1,0,0:0:0:0:
192,192,67919,1,2,0:0:0:0:
320,192,67995,1,0,0:0:0:0:
192,192,68071,1,0,0:0:0:0:
320,192,68146,1,0,0:0:0:0:
448,192,68222,1,2,0:0:0:0:
64,192,68298,1,0,0:0:0:0:
320,192,68374,1,0,0:0:0:0:
192,192,68449,1,0,0:0:0:0:
448,192,68525,1,2,0:0:0:0:
320,192,68601,1,0,0:0:0:0:
192,192,68677,1,0,0:0:0:0:
64,192,68753,1,0,0:0:0:0:
320,192,68828,1,6,0:0:0:0:
192,192,68904,1,0,0:0:0:0:
320,192,68980,1,0,0:0:0:0:
448,192,69056,1,0,0:0:0:0:
64,192,69131,1,2,0:0:0:0:
192,192,69207,1,0,0:0:0:0:
320,192,69283,1,0,0:0:0:0:
192,192,69359,1,0,0:0:0:0:
64,192,69434,1,2,0:0:0:0:
448,192,69510,1,0,0:0:0:0:
320,192,69586,1,0,0:0:0:0:
192,192,69662,1,0,0:0:0:0:
320,192,69737,1,2,0:0:0:0:
64,192,69813,1,0,0:0:0:0:
192,192,69889,1,0,0:0:0:0:
448,192,69965,1,0,0:0:0:0:
320,192,70040,1,2,0:0:0:0:
64,192,70116,1,0,0:0:0:0:
192,192,70192,1,0,0:0:0:0:
320,192,70268,1,0,0:0:0:0:
448,192,70343,1,2,0:0:0:0:
320,192,70419,1,0,0:0:0:0:
192,192,70495,1,0,0:0:0:0:
64,192,70571,1,0,0:0:0:0:
448,192,70646,1,2,0:0:0:0:
320,192,70722,1,0,0:0:0:0:
192,192,70798,1,0,0:0:0:0:
320,192,70874,1,0,0:0:0:0:
64,192,70949,1,2,0:0:0:0:
192,192,71025,1,0,0:0:0:0:
320,192,71101,1,0,0:0:0:0:
448,192,71177,1,0,0:0:0:0:
64,192,71253,1,2,0:0:0:0:
192,192,71253,1,0,0:0:0:0:
320,192,71404,1,2,0:0:0:0:
448,192,71404,1,0,0:0:0:0:
64,192,71556,1,2,0:0:0:0:
192,192,71556,1,0,0:0:0:0:
320,192,71707,1,2,0:0:0:0:
448,192,71707,1,0,0:0:0:0:
64,192,71859,1,2,0:0:0:0:
192,192,71859,1,0,0:0:0:0:
320,192,72010,1,2,0:0:0:0:
448,192,72010,1,0,0:0:0:0:
64,192,72162,1,2,0:0:0:0:
192,192,72162,1,0,0:0:0:0:
320,192,72313,1,2,0:0:0:0:
448,192,72313,1,0,0:0:0:0:
64,192,72465,1,2,0:0:0:0:
192,192,72465,1,0,0:0:0:0:
320,192,72540,1,2,0:0:0:0:
192,192,72616,1,2,0:0:0:0:
320,192,72692,1,2,0:0:0:0:
448,192,72768,128,2,73374:0:0:0:0:
64,192,73071,128,2,73374:0:0:0:0:
192,192,73374,1,4,0:0:0:0:
320,192,73374,1,2,0:0:0:0:
64,192,73677,1,2,0:0:0:0:
192,192,73677,1,4,0:0:0:0:
448,192,73677,1,0,0:0:0:0:
320,192,73753,1,0,0:0:0:0:
448,192,73828,1,0,0:0:0:0:
64,192,73904,1,0,0:0:0:0:
192,192,73980,1,8,0:0:0:0:
320,192,74056,1,0,0:0:0:0:
448,192,74131,1,0,0:0:0:0:
320,192,74207,1,0,0:0:0:0:
64,192,74283,1,2,0:0:0:0:
192,192,74359,1,0,0:0:0:0:
448,192,74434,1,0,0:0:0:0:
320,192,74510,1,0,0:0:0:0:
192,192,74586,1,8,0:0:0:0:
320,192,74662,1,0,0:0:0:0:
448,192,74737,1,0,0:0:0:0:
192,192,74813,1,0,0:0:0:0:
64,192,74889,1,2,0:0:0:0:
448,192,74965,1,0,0:0:0:0:
320,192,75040,1,0,0:0:0:0:
192,192,75116,1,0,0:0:0:0:
64,192,75192,1,8,0:0:0:0:
192,192,75268,1,0,0:0:0:0:
448,192,75343,1,0,0:0:0:0:
320,192,75419,1,0,0:0:0:0:
192,192,75495,1,2,0:0:0:0:
320,192,75571,1,0,0:0:0:0:
192,192,75646,1,0,0:0:0:0:
64,192,75722,1,0,0:0:0:0:
448,192,75798,1,8,0:0:0:0:
320,192,75874,1,0,0:0:0:0:
192,192,75949,1,0,0:0:0:0:
64,192,76025,1,0,0:0:0:0:
192,192,76101,1,2,0:0:0:0:
320,192,76177,1,0,0:0:0:0:
448,192,76253,1,0,0:0:0:0:
192,192,76328,1,0,0:0:0:0:
320,192,76404,1,8,0:0:0:0:
64,192,76480,1,0,0:0:0:0:
192,192,76556,1,0,0:0:0:0:
320,192,76631,1,0,0:0:0:0:
448,192,76707,1,2,0:0:0:0:
320,192,76783,1,0,0:0:0:0:
192,192,76859,1,0,0:0:0:0:
64,192,76934,1,0,0:0:0:0:
448,192,77010,1,8,0:0:0:0:
320,192,77086,1,0,0:0:0:0:
192,192,77162,1,0,0:0:0:0:
320,192,77237,1,0,0:0:0:0:
448,192,77313,1,2,0:0:0:0:
64,192,77389,1,0,0:0:0:0:
192,192,77465,1,0,0:0:0:0:
448,192,77540,1,0,0:0:0:0:
320,192,77616,1,8,0:0:0:0:
64,192,77692,1,0,0:0:0:0:
192,192,77768,1,0,0:0:0:0:
320,192,77843,1,0,0:0:0:0:
448,192,77919,1,2,0:0:0:0:
320,192,77995,1,0,0:0:0:0:
192,192,78071,1,0,0:0:0:0:
64,192,78146,1,0,0:0:0:0:
192,192,78222,1,8,0:0:0:0:
448,192,78298,1,0,0:0:0:0:
320,192,78374,1,0,0:0:0:0:
192,192,78449,1,0,0:0:0:0:
64,192,78525,1,4,0:0:0:0:
320,192,78525,1,2,0:0:0:0:
192,192,78677,1,2,0:0:0:0:
448,192,78677,1,0,0:0:0:0:
64,192,78828,1,8,0:0:0:0:
320,192,78828,1,0,0:0:0:0:
192,192,78980,1,2,0:0:0:0:
448,192,78980,1,0,0:0:0:0:
64,192,79131,1,2,0:0:0:0:
320,192,79131,1,0,0:0:0:0:
192,192,79283,1,2,0:0:0:0:
448,192,79283,1,0,0:0:0:0:
64,192,79434,1,8,0:0:0:0:
320,192,79434,1,0,0:0:0:0:
192,192,79586,1,2,0:0:0:0:
448,192,79586,1,0,0:0:0:0:
64,192,79737,1,2,0:0:0:0:
448,192,79737,1,0,0:0:0:0:
192,192,79889,1,2,0:0:0:0:
320,192,79889,1,0,0:0:0:0:
64,192,80040,1,8,0:0:0:0:
448,192,80040,1,0,0:0:0:0:
192,192,80192,1,2,0:0:0:0:
320,192,80192,1,0,0:0:0:0:
64,192,80343,1,2,0:0:0:0:
448,192,80343,1,0,0:0:0:0:
192,192,80495,1,2,0:0:0:0:
320,192,80495,1,0,0:0:0:0:
64,192,80646,1,8,0:0:0:0:
448,192,80646,1,0,0:0:0:0:
192,192,80798,1,2,0:0:0:0:
320,192,80798,1,0,0:0:0:0:
448,192,80949,1,2,0:0:0:0:
320,192,81025,1,2,0:0:0:0:
64,192,81101,1,2,0:0:0:0:
192,192,81177,1,2,0:0:0:0:
448,192,81253,1,2,0:0:0:0:
320,192,81328,1,2,0:0:0:0:
64,192,81404,1,2,0:0:0:0:
192,192,81480,1,2,0:0:0:0:
448,192,81556,1,2,0:0:0:0:
320,192,81631,1,2,0:0:0:0:
64,192,81707,1,2,0:0:0:0:
192,192,81783,1,2,0:0:0:0:
448,192,81859,1,2,0:0:0:0:
320,192,81934,1,2,0:0:0:0:
64,192,82010,1,2,0:0:0:0:
192,192,82086,1,2,0:0:0:0:
448,192,82162,128,2,83298:0:0:0:0:
64,192,82465,128,2,83298:0:0:0:0:
320,192,82768,128,2,83298:0:0:0:0:
192,192,83071,128,2,83298:0:0:0:0:
64,192,83374,1,4,0:0:0:0:
448,192,83374,1,0,0:0:0:0:
192,192,83677,1,0,0:0:0:0:
320,192,83828,1,0,0:0:0:0:
448,192,84131,1,0,0:0:0:0:
64,192,84434,1,0,0:0:0:0:
192,192,84510,1,0,0:0:0:0:
448,192,84586,1,0,0:0:0:0:
320,192,84889,1,0,0:0:0:0:
448,192,85040,1,0,0:0:0:0:
192,192,85343,1,0,0:0:0:0:
192,192,85646,1,0,0:0:0:0:
64,192,85798,1,0,0:0:0:0:
192,192,86101,1,0,0:0:0:0:
320,192,86253,1,0,0:0:0:0:
448,192,86556,1,0,0:0:0:0:
320,192,86859,1,0,0:0:0:0:
192,192,86934,1,0,0:0:0:0:
64,192,87010,1,0,0:0:0:0:
192,192,87313,1,0,0:0:0:0:
448,192,87465,1,0,0:0:0:0:
320,192,87768,1,0,0:0:0:0:
64,192,88071,1,0,0:0:0:0:
192,192,88222,1,4,0:0:0:0:
320,192,88222,1,2,0:0:0:0:
448,192,88222,1,0,0:0:0:0:
64,192,88374,1,2,0:0:0:0:
448,192,88374,1,0,0:0:0:0:
192,192,88525,1,2,0:0:0:0:
320,192,88525,1,0,0:0:0:0:
64,192,88677,1,2,0:0:0:0:
448,192,88677,1,0,0:0:0:0:
192,192,88828,1,2,0:0:0:0:
320,192,88828,1,0,0:0:0:0:
64,192,88980,1,2,0:0:0:0:
448,192,88980,1,0,0:0:0:0:
192,192,89131,1,2,0:0:0:0:
320,192,89131,1,0,0:0:0:0:
64,192,89283,1,2,0:0:0:0:
448,192,89283,1,0,0:0:0:0:
64,192,89434,1,2,0:0:0:0:
192,192,89434,1,0,0:0:0:0:
320,192,89586,1,2,0:0:0:0:
448,192,89586,1,0,0:0:0:0:
64,192,89737,1,2,0:0:0:0:
192,192,89737,1,0,0:0:0:0:
320,192,89889,1,2,0:0:0:0:
448,192,89889,1,0,0:0:0:0:
64,192,90040,1,2,0:0:0:0:
192,192,90116,1,2,0:0:0:0:
320,192,90192,1,2,0:0:0:0:
448,192,90268,1,2,0:0:0:0:
64,192,90343,1,2,0:0:0:0:
192,192,90343,1,4,0:0:0:0:
320,192,90495,1,0,0:0:0:0:
64,192,90646,1,2,0:0:0:0:
448,192,90646,1,0,0:0:0:0:
192,192,90722,1,2,0:0:0:0:
448,192,90798,1,2,0:0:0:0:
320,192,90874,1,2,0:0:0:0:
64,192,90949,1,2,0:0:0:0:
192,192,91025,1,2,0:0:0:0:
448,192,91101,1,2,0:0:0:0:
320,192,91177,1,2,0:0:0:0:
64,192,91253,1,2,0:0:0:0:
192,192,91328,1,2,0:0:0:0:
448,192,91404,1,2,0:0:0:0:
320,192,91480,1,2,0:0:0:0:
64,192,91556,1,2,0:0:0:0:
192,192,91631,1,2,0:0:0:0:
448,192,91707,1,2,0:0:0:0:
320,192,91783,1,2,0:0:0:0:
192,192,91859,1,2,0:0:0:0:
64,192,91934,1,2,0:0:0:0:
320,192,92010,1,2,0:0:0:0:
448,192,92086,1,2,0:0:0:0:
192,192,92162,1,2,0:0:0:0:
64,192,92237,1,2,0:0:0:0:
320,192,92313,1,2,0:0:0:0:
448,192,92389,1,2,0:0:0:0:
192,192,92465,1,2,0:0:0:0:
64,192,92540,1,2,0:0:0:0:
320,192,92616,1,2,0:0:0:0:
448,192,92692,1,2,0:0:0:0:
192,192,92768,1,2,0:0:0:0:
64,192,92843,1,2,0:0:0:0:
320,192,92919,1,2,0:0:0:0:
448,192,92995,1,2,0:0:0:0:
64,192,93071,128,2,95495:0:0:0:0:
448,192,93222,128,2,93374:0:0:0:0:
320,192,93374,1,2,0:0:0:0:
192,192,93525,128,2,93677:0:0:0:0:
448,192,93677,1,2,0:0:0:0:
320,192,93828,128,2,93980:0:0:0:0:
192,192,93980,1,2,0:0:0:0:
448,192,94131,128,2,94283:0:0:0:0:
320,192,94283,1,2,0:0:0:0:
192,192,94434,128,2,94586:0:0:0:0:
448,192,94586,1,2,0:0:0:0:
320,192,94737,128,2,94889:0:0:0:0:
192,192,94889,1,2,0:0:0:0:
448,192,95040,128,2,95192:0:0:0:0:
320,192,95192,1,2,0:0:0:0:
192,192,95343,128,2,95495:0:0:0:0:
320,192,95495,1,4,0:0:0:0:
448,192,95495,1,0,0:0:0:0:
64,192,95798,1,4,0:0:0:0:
320,192,95798,1,2,0:0:0:0:
448,192,95798,1,0,0:0:0:0:
192,192,95949,1,0,0:0:0:0:
320,192,96025,1,0,0:0:0:0:
64,192,96101,1,2,0:0:0:0:
448,192,96101,1,0,0:0:0:0:
192,192,96328,1,0,0:0:0:0:
64,192,96404,1,8,0:0:0:0:
320,192,96404,1,0,0:0:0:0:
448,192,96556,1,0,0:0:0:0:
320,192,96631,1,0,0:0:0:0:
64,192,96707,1,2,0:0:0:0:
192,192,96707,1,0,0:0:0:0:
320,192,97010,1,8,0:0:0:0:
448,192,97010,1,0,0:0:0:0:
192,192,97162,1,0,0:0:0:0:
64,192,97313,1,2,0:0:0:0:
448,192,97313,1,0,0:0:0:0:
320,192,97389,1,0,0:0:0:0:
192,192,97465,1,0,0:0:0:0:
64,192,97540,1,0,0:0:0:0:
448,192,97616,1,8,0:0:0:0:
320,192,97616,1,0,0:0:0:0:
192,192,97692,1,0,0:0:0:0:
320,192,97768,1,0,0:0:0:0:
192,192,97843,1,0,0:0:0:0:
64,192,97919,1,2,0:0:0:0:
448,192,97919,1,0,0:0:0:0:
192,192,98222,1,8,0:0:0:0:
320,192,98222,1,0,0:0:0:0:
448,192,98374,1,0,0:0:0:0:
320,192,98449,1,0,0:0:0:0:
64,192,98525,1,2,0:0:0:0:
192,192,98525,1,0,0:0:0:0:
320,192,98753,1,0,0:0:0:0:
192,192,98828,1,8,0:0:0:0:
448,192,98828,1,0,0:0:0:0:
64,192,98980,1,0,0:0:0:0:
320,192,99131,1,2,0:0:0:0:
448,192,99131,1,0,0:0:0:0:
64,192,99283,1,0,0:0:0:0:
192,192,99333,1,0,0:0:0:0:
320,192,99384,1,0,0:0:0:0:
64,192,99434,1,8,0:0:0:0:
448,192,99434,1,0,0:0:0:0:
64,192,99737,1,2,0:0:0:0:
320,192,99737,1,0,0:0:0:0:
448,192,99889,1,0,0:0:0:0:
320,192,99939,1,0,0:0:0:0:
192,192,99990,1,0,0:0:0:0:
64,192,100040,1,8,0:0:0:0:
448,192,100040,1,0,0:0:0:0:
192,192,100343,1,2,0:0:0:0:
448,192,100343,1,0,0:0:0:0:
192,192,100646,1,8,0:0:0:0:
320,192,100646,1,0,0:0:0:0:
64,192,100798,1,0,0:0:0:0:
192,192,100874,1,0,0:0:0:0:
320,192,100949,1,2,0:0:0:0:
448,192,100949,1,0,0:0:0:0:
192,192,101101,1,0,0:0:0:0:
320,192,101177,1,0,0:0:0:0:
64,192,101253,1,8,0:0:0:0:
448,192,101253,1,0,0:0:0:0:
192,192,101328,1,0,0:0:0:0:
320,192,101404,1,0,0:0:0:0:
192,192,101480,1,0,0:0:0:0:
64,192,101556,1,2,0:0:0:0:
448,192,101556,128,0,101859:0:0:0:0:
64,192,101859,128,8,102010:0:0:0:0:
320,192,101859,1,0,0:0:0:0:
448,192,102010,128,0,102162:0:0:0:0:
192,192,102162,1,2,0:0:0:0:
320,192,102162,1,0,0:0:0:0:
64,192,102313,128,0,102465:0:0:0:0:
320,192,102465,1,8,0:0:0:0:
448,192,102465,128,0,102616:0:0:0:0:
192,192,102616,128,0,102768:0:0:0:0:
64,192,102768,1,2,0:0:0:0:
448,192,102768,128,0,103071:0:0:0:0:
192,192,103071,1,8,0:0:0:0:
320,192,103071,128,0,103222:0:0:0:0:
64,192,103222,128,0,103374:0:0:0:0:
192,192,103374,1,2,0:0:0:0:
448,192,103374,1,0,0:0:0:0:
320,192,103525,128,0,103677:0:0:0:0:
64,192,103677,128,8,103828:0:0:0:0:
192,192,103677,1,0,0:0:0:0:
448,192,103828,128,0,104131:0:0:0:0:
64,192,103980,1,2,0:0:0:0:
320,192,103980,1,0,0:0:0:0:
192,192,104131,128,0,105192:0:0:0:0:
320,192,104283,1,8,0:0:0:0:
448,192,104283,1,0,0:0:0:0:
320,192,104434,1,0,0:0:0:0:
64,192,104586,1,2,0:0:0:0:
448,192,104586,1,0,0:0:0:0:
448,192,104737,1,0,0:0:0:0:
64,192,104889,1,8,0:0:0:0:
320,192,104889,1,0,0:0:0:0:
320,192,105040,1,0,0:0:0:0:
64,192,105192,1,2,0:0:0:0:
448,192,105192,1,4,0:0:0:0:
192,192,105495,1,8,0:0:0:0:
320,192,105495,1,0,0:0:0:0:
448,192,105646,1,0,0:0:0:0:
320,192,105722,1,0,0:0:0:0:
64,192,105798,1,2,0:0:0:0:
192,192,105798,1,0,0:0:0:0:
320,192,106025,1,0,0:0:0:0:
192,192,106101,1,8,0:0:0:0:
448,192,106101,1,0,0:0:0:0:
64,192,106253,1,0,0:0:0:0:
192,192,106328,1,0,0:0:0:0:
320,192,106404,1,2,0:0:0:0:
448,192,106404,1,0,0:0:0:0:
64,192,106707,1,8,0:0:0:0:
192,192,106707,1,0,0:0:0:0:
320,192,106859,1,0,0:0:0:0:
64,192,107010,1,2,0:0:0:0:
448,192,107010,1,0,0:0:0:0:
320,192,107086,1,0,0:0:0:0:
192,192,107162,1,0,0:0:0:0:
320,192,107237,1,0,0:0:0:0:
64,192,107313,1,8,0:0:0:0:
448,192,107313,1,0,0:0:0:0:
192,192,107389,1,0,0:0:0:0:
320,192,107465,1,0,0:0:0:0:
192,192,107540,1,0,0:0:0:0:
64,192,107616,1,2,0:0:0:0:
448,192,107616,1,0,0:0:0:0:
64,192,107919,1,8,0:0:0:0:
320,192,107919,1,0,0:0:0:0:
192,192,108071,1,0,0:0:0:0:
320,192,108146,1,0,0:0:0:0:
64,192,108222,1,2,0:0:0:0:
448,192,108222,1,0,0:0:0:0:
192,192,108449,1,0,0:0:0:0:
320,192,108525,1,8,0:0:0:0:
448,192,108525,1,0,0:0:0:0:
64,192,108677,1,0,0:0:0:0:
192,192,108828,1,2,0:0:0:0:
448,192,108828,1,0,0:0:0:0:
64,192,108980,1,0,0:0:0:0:
192,192,109030,1,0,0:0:0:0:
320,192,109081,1,0,0:0:0:0:
64,192,109131,1,8,0:0:0:0:
448,192,109131,1,0,0:0:0:0:
320,192,109283,128,0,109586:0:0:0:0:
64,192,109434,1,2,0:0:0:0:
192,192,109434,1,0,0:0:0:0:
448,192,109586,128,0,109737:0:0:0:0:
64,192,109737,128,8,109889:0:0:0:0:
192,192,109737,1,0,0:0:0:0:
320,192,109889,128,0,110040:0:0:0:0:
64,192,110040,1,2,0:0:0:0:
448,192,110040,1,0,0:0:0:0:
192,192,110192,1,2,0:0:0:0:
320,192,110192,1,0,0:0:0:0:
64,192,110343,1,2,0:0:0:0:
448,192,110343,1,0,0:0:0:0:
192,192,110495,1,2,0:0:0:0:
320,192,110495,1,0,0:0:0:0:
64,192,110646,1,2,0:0:0:0:
448,192,110646,1,0,0:0:0:0:
192,192,110798,1,2,0:0:0:0:
320,192,110798,1,0,0:0:0:0:
64,192,110949,1,2,0:0:0:0:
448,192,110949,1,0,0:0:0:0:
192,192,111101,1,2,0:0:0:0:
320,192,111101,1,0,0:0:0:0:
64,192,111253,1,2,0:0:0:0:
192,192,111328,1,2,0:0:0:0:
320,192,111404,1,2,0:0:0:0:
448,192,111480,1,2,0:0:0:0:
64,192,111556,1,2,0:0:0:0:
192,192,111631,1,2,0:0:0:0:
320,192,111707,1,2,0:0:0:0:
448,192,111783,1,2,0:0:0:0:
64,192,111859,128,2,112465:0:0:0:0:
448,192,112162,128,2,112465:0:0:0:0:
192,192,112465,1,4,0:0:0:0:
320,192,112465,1,0,0:0:0:0:
448,192,112616,1,0,0:0:0:0:
64,192,112768,1,4,0:0:0:0:
192,192,112768,1,2,0:0:0:0:
448,192,112768,128,0,112919:0:0:0:0:
320,192,112919,1,0,0:0:0:0:
64,192,112995,1,0,0:0:0:0:
192,192,113071,1,2,0:0:0:0:
320,192,113071,1,0,0:0:0:0:
448,192,113222,128,0,113374:0:0:0:0:
64,192,113374,128,8,113525:0:0:0:0:
320,192,113374,1,0,0:0:0:0:
192,192,113525,1,0,0:0:0:0:
320,192,113601,1,0,0:0:0:0:
64,192,113677,1,2,0:0:0:0:
448,192,113677,1,0,0:0:0:0:
320,192,113828,128,0,113980:0:0:0:0:
64,192,113980,128,8,114131:0:0:0:0:
192,192,113980,1,0,0:0:0:0:
448,192,114131,1,0,0:0:0:0:
320,192,114207,1,0,0:0:0:0:
64,192,114283,1,2,0:0:0:0:
192,192,114283,1,0,0:0:0:0:
320,192,114434,128,0,114586:0:0:0:0:
64,192,114586,1,8,0:0:0:0:
448,192,114586,128,0,114737:0:0:0:0:
192,192,114737,1,0,0:0:0:0:
320,192,114813,1,0,0:0:0:0:
64,192,114889,1,2,0:0:0:0:
192,192,114889,1,0,0:0:0:0:
448,192,115040,1,0,0:0:0:0:
320,192,115192,1,8,0:0:0:0:
448,192,115192,128,0,115343:0:0:0:0:
64,192,115343,1,0,0:0:0:0:
192,192,115419,1,0,0:0:0:0:
64,192,115495,1,2,0:0:0:0:
320,192,115495,1,0,0:0:0:0:
448,192,115646,1,0,0:0:0:0:
192,192,115798,1,8,0:0:0:0:
448,192,115798,128,0,115949:0:0:0:0:
64,192,115949,1,0,0:0:0:0:
192,192,116025,1,0,0:0:0:0:
320,192,116101,1,2,0:0:0:0:
448,192,116101,1,0,0:0:0:0:
64,192,116177,1,2,0:0:0:0:
192,192,116177,1,0,0:0:0:0:
320,192,116328,1,2,0:0:0:0:
448,192,116328,1,0,0:0:0:0:
192,192,116480,1,2,0:0:0:0:
320,192,116480,1,0,0:0:0:0:
64,192,116631,1,2,0:0:0:0:
192,192,116707,1,2,0:0:0:0:
320,192,116783,1,2,0:0:0:0:
448,192,116859,1,2,0:0:0:0:
192,192,117010,1,2,0:0:0:0:
320,192,117010,1,0,0:0:0:0:
64,192,117162,1,2,0:0:0:0:
192,192,117162,1,0,0:0:0:0:
320,192,117237,1,2,0:0:0:0:
448,192,117237,1,0,0:0:0:0:
64,192,117313,128,0,117616:0:0:0:0:
448,192,117616,1,4,0:0:0:0:
320,192,117616,1,2,0:0:0:0:
192,192,117616,1,0,0:0:0:0:
320,192,117768,1,2,0:0:0:0:
448,192,117768,1,0,0:0:0:0:
64,192,117919,1,2,0:0:0:0:
192,192,117919,1,0,0:0:0:0:
320,192,118071,1,2,0:0:0:0:
448,192,118071,1,0,0:0:0:0:
64,192,118222,1,2,0:0:0:0:
192,192,118222,1,0,0:0:0:0:
320,192,118374,1,2,0:0:0:0:
448,192,118374,1,0,0:0:0:0:
64,192,118525,1,2,0:0:0:0:
192,192,118525,1,0,0:0:0:0:
320,192,118677,1,2,0:0:0:0:
448,192,118677,1,0,0:0:0:0:
64,192,118828,1,2,0:0:0:0:
192,192,118828,1,0,0:0:0:0:
320,192,118980,1,2,0:0:0:0:
448,192,118980,1,0,0:0:0:0:
64,192,119131,1,2,0:0:0:0:
448,192,119131,1,0,0:0:0:0:
192,192,119283,1,2,0:0:0:0:
320,192,119283,1,0,0:0:0:0:
64,192,119434,1,2,0:0:0:0:
448,192,119434,1,0,0:0:0:0:
192,192,119586,1,2,0:0:0:0:
320,192,119586,1,0,0:0:0:0:
64,192,119737,1,2,0:0:0:0:
448,192,119737,1,4,0:0:0:0:
320,192,119813,1,2,0:0:0:0:
192,192,119889,1,2,0:0:0:0:
64,192,119965,1,2,0:0:0:0:
448,192,120040,1,2,0:0:0:0:
320,192,120116,1,2,0:0:0:0:
192,192,120192,1,2,0:0:0:0:
64,192,120268,1,2,0:0:0:0:
320,192,120343,1,2,0:0:0:0:
448,192,120419,1,2,0:0:0:0:
64,192,120495,1,2,0:0:0:0:
192,192,120571,1,2,0:0:0:0:
320,192,120646,1,2,0:0:0:0:
448,192,120722,1,2,0:0:0:0:
64,192,120798,1,2,0:0:0:0:
192,192,120874,1,2,0:0:0:0:
448,192,120949,128,2,122162:0:0:0:0:
320,192,120949,1,0,0:0:0:0:
192,192,121101,1,2,0:0:0:0:
64,192,121253,1,2,0:0:0:0:
320,192,121404,1,2,0:0:0:0:
64,192,121556,128,2,122162:0:0:0:0:
320,192,121707,1,2,0:0:0:0:
192,192,121859,1,2,0:0:0:0:
320,192,122010,1,2,0:0:0:0:
192,192,122162,1,4,0:0:0:0:
320,192,122162,1,2,0:0:0:0:
64,192,122263,1,0,0:0:0:0:
192,192,122364,1,0,0:0:0:0:
448,192,122465,1,0,0:0:0:0:
320,192,122566,1,0,0:0:0:0:
192,192,122667,1,0,0:0:0:0:
64,192,122768,1,0,0:0:0:0:
448,192,122869,1,0,0:0:0:0:
192,192,122970,1,0,0:0:0:0:
320,192,123071,1,0,0:0:0:0:
448,192,123172,1,0,0:0:0:0:
64,192,123273,1,0,0:0:0:0:
320,192,123374,1,0,0:0:0:0:
192,192,123475,1,0,0:0:0:0:
64,192,123576,1,0,0:0:0:0:
192,192,123677,1,0,0:0:0:0:
320,192,123778,1,0,0:0:0:0:
448,192,123879,1,0,0:0:0:0:
192,192,123980,1,0,0:0:0:0:
64,192,124081,1,0,0:0:0:0:
320,192,124182,1,0,0:0:0:0:
448,192,124283,1,0,0:0:0:0:
64,192,124384,1,0,0:0:0:0:
192,192,124485,1,0,0:0:0:0:
320,192,124586,1,0,0:0:0:0:
448,192,124687,1,0,0:0:0:0:
320,192,124788,1,0,0:0:0:0:
64,192,124889,1,0,0:0:0:0:
448,192,124990,1,0,0:0:0:0:
192,192,125091,1,0,0:0:0:0:
320,192,125192,1,0,0:0:0:0:
448,192,125293,1,0,0:0:0:0:
64,192,125394,1,0,0:0:0:0:
320,192,125495,1,0,0:0:0:0:
192,192,125596,1,0,0:0:0:0:
448,192,125697,1,0,0:0:0:0:
320,192,125798,1,0,0:0:0:0:
192,192,125899,1,0,0:0:0:0:
64,192,126000,1,0,0:0:0:0:
448,192,126101,1,0,0:0:0:0:
192,192,126202,1,0,0:0:0:0:
320,192,126303,1,0,0:0:0:0:
192,192,126404,1,0,0:0:0:0:
64,192,126505,1,0,0:0:0:0:
448,192,126606,1,0,0:0:0:0:
320,192,126707,1,0,0:0:0:0:
192,192,126808,1,0,0:0:0:0:
448,192,126909,1,0,0:0:0:0:
