osu file format v14

[General]
AudioFilename: audio.ogg
AudioLeadIn: 0
PreviewTime: 37926
Countdown: 0
SampleSet: Soft
StackLeniency: 0.7
Mode: 3
LetterboxInBreaks: 0
SpecialStyle: 0
WidescreenStoryboard: 1

[Editor]
Bookmarks: 10569,19712,28855,37998,47141,56284,68855,80284,89426,107712,117141,128284
DistanceSpacing: 1
BeatDivisor: 4
GridSize: 16
TimelineZoom: 3

[Metadata]
Title:SILENT BLUE
TitleUnicode:SILENT BLUE
Artist:Kaneko Chiharu
ArtistUnicode:かねこちはる
Creator:Shima Rin
Version:ExNeko's MASTER
Source:maimai MiLK PLUS
Tags:Tofu1222 _Stan ExNeko [Sick]Catcat オンゲキ ONGEKI SUMMER 藤沢 柚子 Fujikawa Yuzu ALL PERFECT COLLECTiON Video Game Electronic Instrumental
BeatmapID:3571584
BeatmapSetID:1726774

[Difficulty]
HPDrainRate:8
CircleSize:7
OverallDifficulty:8
ApproachRate:5
SliderMultiplier:1.4
SliderTickRate:1

[Events]
//Background and Video events
0,0,"BG.jpg",0,0
//Break Periods
//Storyboard Layer 0 (Background)
//Storyboard Layer 1 (Fail)
//Storyboard Layer 2 (Pass)
//Storyboard Layer 3 (Foreground)
//Storyboard Layer 4 (Overlay)
//Storyboard Sound Samples

[TimingPoints]
1426,285.714285714286,4,2,1,50,1,0
37711,-66.6666666666667,4,2,1,50,0,0
37854,-200,4,2,1,50,0,0
37997,-100,4,2,1,50,0,1
59426,-100,4,2,1,50,0,0
79997,-66.6666666666667,4,2,1,50,0,0
80140,-200,4,2,1,50,0,0
80283,-100,4,2,1,50,0,1
98568,-100,4,2,1,50,0,0
99426,-100,4,2,1,50,0,1
111140,-100,4,2,1,50,0,0
112283,-100,4,2,1,50,0,1
125997,-100,4,2,1,50,0,0

[HitObjects]
109,192,1140,5,0,0:0:0:0:
182,192,1211,1,0,0:0:0:0:
329,192,1283,1,0,0:0:0:0:
402,192,1354,1,0,0:0:0:0:
475,192,1426,1,0,0:0:0:0:
256,192,1426,1,0,0:0:0:0:
36,192,1426,1,0,0:0:0:0:
182,192,1711,1,0,0:0:0:0:
256,192,1854,1,0,0:0:0:0:
475,192,1854,1,0,0:0:0:0:
109,192,1997,1,0,0:0:0:0:
36,192,2140,1,0,0:0:0:0:
402,192,2283,1,0,0:0:0:0:
182,192,2283,1,0,0:0:0:0:
256,192,2426,1,0,0:0:0:0:
329,192,2568,1,0,0:0:0:0:
109,192,2711,1,0,0:0:0:0:
36,192,2854,1,0,0:0:0:0:
256,192,2854,1,0,0:0:0:0:
182,192,2997,1,0,0:0:0:0:
109,192,3140,1,0,0:0:0:0:
329,192,3140,1,0,0:0:0:0:
256,192,3283,1,0,0:0:0:0:
182,192,3426,1,0,0:0:0:0:
402,192,3426,1,0,0:0:0:0:
36,192,3568,1,0,0:0:0:0:
256,192,3711,1,0,0:0:0:0:
475,192,3711,1,0,0:0:0:0:
182,192,3997,1,0,0:0:0:0:
329,192,4140,1,0,0:0:0:0:
109,192,4140,1,0,0:0:0:0:
402,192,4283,1,0,0:0:0:0:
475,192,4426,1,0,0:0:0:0:
256,192,4568,1,0,0:0:0:0:
36,192,4568,1,0,0:0:0:0:
182,192,4711,1,0,0:0:0:0:
329,192,4854,1,0,0:0:0:0:
182,192,5140,1,0,0:0:0:0:
402,192,5140,1,0,0:0:0:0:
256,192,5283,1,0,0:0:0:0:
329,192,5426,1,0,0:0:0:0:
109,192,5426,1,0,0:0:0:0:
182,192,5568,1,0,0:0:0:0:
256,192,5711,1,0,0:0:0:0:
36,192,5711,1,0,0:0:0:0:
329,192,5854,1,0,0:0:0:0:
182,192,5997,1,0,0:0:0:0:
402,192,5997,1,0,0:0:0:0:
329,192,6283,1,0,0:0:0:0:
475,192,6283,1,0,0:0:0:0:
475,192,6426,1,0,0:0:0:0:
329,192,6426,1,0,0:0:0:0:
182,192,6568,1,0,0:0:0:0:
256,192,6711,1,0,0:0:0:0:
109,192,6854,1,0,0:0:0:0:
329,192,6997,1,0,0:0:0:0:
256,192,7068,1,0,0:0:0:0:
182,192,7140,1,0,0:0:0:0:
402,192,7140,1,0,0:0:0:0:
36,192,7426,1,0,0:0:0:0:
182,192,7568,1,0,0:0:0:0:
36,192,7568,1,0,0:0:0:0:
329,192,7711,1,0,0:0:0:0:
182,192,7854,1,0,0:0:0:0:
182,192,7997,1,0,0:0:0:0:
36,192,7997,1,0,0:0:0:0:
256,192,8140,1,0,0:0:0:0:
329,192,8283,1,0,0:0:0:0:
109,192,8283,128,0,8426:0:0:0:0:
182,192,8426,128,0,8568:0:0:0:0:
256,192,8568,128,0,8711:0:0:0:0:
402,192,8711,128,0,8854:0:0:0:0:
109,192,8854,128,0,9140:0:0:0:0:
182,192,8997,128,0,9283:0:0:0:0:
329,192,9140,128,0,9426:0:0:0:0:
402,192,9283,128,0,9426:0:0:0:0:
256,192,9426,1,0,0:0:0:0:
475,192,9426,128,0,9997:0:0:0:0:
109,192,9568,128,0,9997:0:0:0:0:
402,192,9711,128,0,9997:0:0:0:0:
36,192,9854,128,0,9997:0:0:0:0:
329,192,9997,1,0,0:0:0:0:
182,192,10068,1,0,0:0:0:0:
329,192,10140,1,0,0:0:0:0:
182,192,10211,1,0,0:0:0:0:
475,192,10283,1,0,0:0:0:0:
36,192,10283,1,0,0:0:0:0:
329,192,10354,1,0,0:0:0:0:
182,192,10426,1,0,0:0:0:0:
329,192,10497,1,0,0:0:0:0:
36,192,10568,1,0,0:0:0:0:
182,192,10568,1,0,0:0:0:0:
475,192,10568,1,0,0:0:0:0:
256,192,10711,1,0,0:0:0:0:
329,192,10854,1,0,0:0:0:0:
36,192,10854,1,0,0:0:0:0:
109,192,10854,1,0,0:0:0:0:
402,192,10997,1,0,0:0:0:0:
109,192,10997,1,0,0:0:0:0:
182,192,10997,1,0,0:0:0:0:
256,192,11140,1,0,0:0:0:0:
475,192,11140,1,0,0:0:0:0:
329,192,11283,1,0,0:0:0:0:
402,192,11283,1,0,0:0:0:0:
109,192,11283,1,0,0:0:0:0:
182,192,11426,1,0,0:0:0:0:
256,192,11568,1,0,0:0:0:0:
329,192,11568,1,0,0:0:0:0:
36,192,11568,1,0,0:0:0:0:
109,192,11711,1,0,0:0:0:0:
402,192,11711,1,0,0:0:0:0:
182,192,11854,1,0,0:0:0:0:
256,192,11997,1,0,0:0:0:0:
475,192,11997,1,0,0:0:0:0:
402,192,12140,1,0,0:0:0:0:
182,192,12283,1,0,0:0:0:0:
329,192,12283,1,0,0:0:0:0:
109,192,12426,1,0,0:0:0:0:
475,192,12426,1,0,0:0:0:0:
402,192,12426,1,0,0:0:0:0:
36,192,12568,1,0,0:0:0:0:
256,192,12568,1,0,0:0:0:0:
329,192,12568,1,0,0:0:0:0:
329,192,12711,1,0,0:0:0:0:
402,192,12711,1,0,0:0:0:0:
109,192,12711,1,0,0:0:0:0:
402,192,12854,1,0,0:0:0:0:
475,192,12854,1,0,0:0:0:0:
182,192,12854,1,0,0:0:0:0:
109,192,12997,1,0,0:0:0:0:
36,192,13140,1,0,0:0:0:0:
329,192,13140,1,0,0:0:0:0:
256,192,13140,1,0,0:0:0:0:
329,192,13283,1,0,0:0:0:0:
402,192,13283,1,0,0:0:0:0:
109,192,13283,1,0,0:0:0:0:
182,192,13426,1,0,0:0:0:0:
475,192,13426,1,0,0:0:0:0:
109,192,13568,1,0,0:0:0:0:
329,192,13568,1,0,0:0:0:0:
402,192,13568,1,0,0:0:0:0:
182,192,13711,1,0,0:0:0:0:
475,192,13711,1,0,0:0:0:0:
256,192,13854,1,0,0:0:0:0:
329,192,13854,1,0,0:0:0:0:
36,192,13854,1,0,0:0:0:0:
109,192,13997,1,0,0:0:0:0:
402,192,13997,1,0,0:0:0:0:
182,192,14140,1,0,0:0:0:0:
475,192,14140,1,0,0:0:0:0:
256,192,14283,1,0,0:0:0:0:
329,192,14283,1,0,0:0:0:0:
36,192,14283,1,0,0:0:0:0:
182,192,14426,1,0,0:0:0:0:
256,192,14426,1,0,0:0:0:0:
475,192,14426,1,0,0:0:0:0:
402,192,14568,1,0,0:0:0:0:
109,192,14568,1,0,0:0:0:0:
329,192,14711,1,0,0:0:0:0:
256,192,14711,1,0,0:0:0:0:
36,192,14711,1,0,0:0:0:0:
182,192,14854,1,0,0:0:0:0:
475,192,14854,1,0,0:0:0:0:
402,192,14997,1,0,0:0:0:0:
109,192,14997,1,0,0:0:0:0:
329,192,14997,1,0,0:0:0:0:
256,192,15140,1,0,0:0:0:0:
36,192,15140,1,0,0:0:0:0:
182,192,15283,1,0,0:0:0:0:
402,192,15283,1,0,0:0:0:0:
109,192,15426,1,0,0:0:0:0:
36,192,15426,1,0,0:0:0:0:
329,192,15426,1,0,0:0:0:0:
109,192,15568,1,0,0:0:0:0:
182,192,15568,1,0,0:0:0:0:
402,192,15568,1,0,0:0:0:0:
256,192,15711,1,0,0:0:0:0:
475,192,15711,1,0,0:0:0:0:
329,192,15854,1,0,0:0:0:0:
402,192,15854,1,0,0:0:0:0:
109,192,15854,1,0,0:0:0:0:
182,192,15997,1,0,0:0:0:0:
475,192,15997,1,0,0:0:0:0:
256,192,16140,1,0,0:0:0:0:
329,192,16140,1,0,0:0:0:0:
36,192,16140,1,0,0:0:0:0:
109,192,16283,1,0,0:0:0:0:
402,192,16283,1,0,0:0:0:0:
182,192,16426,1,0,0:0:0:0:
475,192,16426,1,0,0:0:0:0:
256,192,16568,1,0,0:0:0:0:
329,192,16568,1,0,0:0:0:0:
36,192,16568,1,0,0:0:0:0:
329,192,16711,1,0,0:0:0:0:
402,192,16711,1,0,0:0:0:0:
109,192,16711,1,0,0:0:0:0:
182,192,16854,1,0,0:0:0:0:
475,192,16854,1,0,0:0:0:0:
256,192,16997,1,0,0:0:0:0:
329,192,16997,1,0,0:0:0:0:
36,192,16997,1,0,0:0:0:0:
109,192,17140,1,0,0:0:0:0:
402,192,17140,1,0,0:0:0:0:
182,192,17283,1,0,0:0:0:0:
475,192,17283,1,0,0:0:0:0:
402,192,17354,1,0,0:0:0:0:
109,192,17354,1,0,0:0:0:0:
329,192,17426,1,0,0:0:0:0:
36,192,17426,1,0,0:0:0:0:
256,192,17426,1,0,0:0:0:0:
182,192,17568,1,0,0:0:0:0:
475,192,17568,1,0,0:0:0:0:
402,192,17711,1,0,0:0:0:0:
109,192,17711,1,0,0:0:0:0:
329,192,17854,1,0,0:0:0:0:
36,192,17854,1,0,0:0:0:0:
182,192,17997,1,0,0:0:0:0:
475,192,17997,1,0,0:0:0:0:
329,192,18140,1,0,0:0:0:0:
36,192,18140,1,0,0:0:0:0:
109,192,18283,1,0,0:0:0:0:
402,192,18283,1,0,0:0:0:0:
182,192,18426,1,0,0:0:0:0:
475,192,18426,1,0,0:0:0:0:
256,192,18568,1,0,0:0:0:0:
36,192,18568,1,0,0:0:0:0:
182,192,18664,1,0,0:0:0:0:
109,192,18664,1,0,0:0:0:0:
329,192,18759,1,0,0:0:0:0:
402,192,18759,1,0,0:0:0:0:
256,192,18854,1,0,0:0:0:0:
475,192,18854,1,0,0:0:0:0:
182,192,18949,1,0,0:0:0:0:
109,192,18949,1,0,0:0:0:0:
329,192,19045,1,0,0:0:0:0:
402,192,19045,1,0,0:0:0:0:
256,192,19140,1,0,0:0:0:0:
36,192,19140,1,0,0:0:0:0:
109,192,19211,1,0,0:0:0:0:
182,192,19283,1,0,0:0:0:0:
329,192,19283,1,0,0:0:0:0:
402,192,19354,1,0,0:0:0:0:
475,192,19426,1,0,0:0:0:0:
256,192,19426,1,0,0:0:0:0:
36,192,19426,1,0,0:0:0:0:
402,192,19711,1,0,0:0:0:0:
329,192,19711,1,0,0:0:0:0:
109,192,19711,128,0,20568:0:0:0:0:
256,192,19854,1,0,0:0:0:0:
475,192,19997,1,0,0:0:0:0:
402,192,19997,1,0,0:0:0:0:
475,192,20140,128,0,21140:0:0:0:0:
256,192,20283,1,0,0:0:0:0:
182,192,20283,1,0,0:0:0:0:
402,192,20426,1,0,0:0:0:0:
36,192,20568,128,0,21140:0:0:0:0:
182,192,20568,1,0,0:0:0:0:
182,192,20711,1,0,0:0:0:0:
329,192,20854,1,0,0:0:0:0:
402,192,20854,1,0,0:0:0:0:
182,192,20997,1,0,0:0:0:0:
256,192,21140,128,0,21711:0:0:0:0:
402,192,21140,1,0,0:0:0:0:
402,192,21283,1,0,0:0:0:0:
109,192,21426,128,0,21997:0:0:0:0:
329,192,21426,1,0,0:0:0:0:
475,192,21568,1,0,0:0:0:0:
329,192,21711,128,0,21997:0:0:0:0:
182,192,21711,1,0,0:0:0:0:
182,192,21854,1,0,0:0:0:0:
402,192,21997,128,0,22854:0:0:0:0:
475,192,21997,1,0,0:0:0:0:
109,192,22140,1,0,0:0:0:0:
36,192,22283,1,0,0:0:0:0:
256,192,22283,1,0,0:0:0:0:
36,192,22426,128,0,23426:0:0:0:0:
256,192,22568,1,0,0:0:0:0:
182,192,22568,1,0,0:0:0:0:
109,192,22711,1,0,0:0:0:0:
475,192,22854,128,0,23426:0:0:0:0:
329,192,22854,1,0,0:0:0:0:
329,192,22997,1,0,0:0:0:0:
109,192,23140,1,0,0:0:0:0:
182,192,23140,1,0,0:0:0:0:
182,192,23283,1,0,0:0:0:0:
109,192,23283,1,0,0:0:0:0:
329,192,23426,1,0,0:0:0:0:
402,192,23426,1,0,0:0:0:0:
329,192,23568,1,0,0:0:0:0:
402,192,23568,1,0,0:0:0:0:
182,192,23711,1,0,0:0:0:0:
36,192,23711,1,0,0:0:0:0:
256,192,23783,1,0,0:0:0:0:
329,192,23854,1,0,0:0:0:0:
109,192,23854,1,0,0:0:0:0:
402,192,23926,1,0,0:0:0:0:
256,192,23997,1,0,0:0:0:0:
475,192,23997,1,0,0:0:0:0:
182,192,24068,1,0,0:0:0:0:
109,192,24140,1,0,0:0:0:0:
329,192,24140,1,0,0:0:0:0:
36,192,24211,1,0,0:0:0:0:
256,192,24283,1,0,0:0:0:0:
402,192,24283,1,0,0:0:0:0:
475,192,24283,1,0,0:0:0:0:
329,192,24497,1,0,0:0:0:0:
402,192,24497,1,0,0:0:0:0:
182,192,24497,1,0,0:0:0:0:
109,192,24711,1,0,0:0:0:0:
256,192,24711,1,0,0:0:0:0:
329,192,24711,1,0,0:0:0:0:
36,192,25140,1,0,0:0:0:0:
109,192,25140,1,0,0:0:0:0:
329,192,25140,1,0,0:0:0:0:
109,192,25354,1,0,0:0:0:0:
182,192,25354,1,0,0:0:0:0:
402,192,25354,1,0,0:0:0:0:
182,192,25568,1,0,0:0:0:0:
256,192,25568,1,0,0:0:0:0:
475,192,25568,1,0,0:0:0:0:
329,192,25997,1,0,0:0:0:0:
475,192,25997,1,0,0:0:0:0:
182,192,25997,1,0,0:0:0:0:
256,192,26211,1,0,0:0:0:0:
402,192,26211,1,0,0:0:0:0:
109,192,26211,1,0,0:0:0:0:
36,192,26426,1,0,0:0:0:0:
182,192,26426,1,0,0:0:0:0:
329,192,26426,1,0,0:0:0:0:
256,192,26568,1,0,0:0:0:0:
475,192,26568,1,0,0:0:0:0:
402,192,26568,1,0,0:0:0:0:
36,192,26640,1,0,0:0:0:0:
182,192,26711,1,0,0:0:0:0:
329,192,26711,1,0,0:0:0:0:
475,192,26783,1,0,0:0:0:0:
109,192,26854,1,0,0:0:0:0:
256,192,26854,1,0,0:0:0:0:
402,192,26926,1,0,0:0:0:0:
182,192,26997,1,0,0:0:0:0:
36,192,26997,1,0,0:0:0:0:
329,192,27068,1,0,0:0:0:0:
475,192,27140,1,0,0:0:0:0:
109,192,27140,1,0,0:0:0:0:
256,192,27211,1,0,0:0:0:0:
402,192,27283,1,0,0:0:0:0:
36,192,27283,1,0,0:0:0:0:
182,192,27354,1,0,0:0:0:0:
329,192,27426,1,0,0:0:0:0:
475,192,27426,1,0,0:0:0:0:
109,192,27497,1,0,0:0:0:0:
256,192,27568,1,0,0:0:0:0:
402,192,27568,1,0,0:0:0:0:
36,192,27640,1,0,0:0:0:0:
182,192,27711,1,0,0:0:0:0:
475,192,27711,1,0,0:0:0:0:
329,192,27783,1,0,0:0:0:0:
36,192,27854,1,0,0:0:0:0:
182,192,27854,1,0,0:0:0:0:
329,192,27926,1,0,0:0:0:0:
109,192,27997,1,0,0:0:0:0:
475,192,27997,1,0,0:0:0:0:
256,192,28068,1,0,0:0:0:0:
402,192,28140,1,0,0:0:0:0:
109,192,28140,1,0,0:0:0:0:
256,192,28211,1,0,0:0:0:0:
402,192,28283,1,0,0:0:0:0:
36,192,28283,1,0,0:0:0:0:
182,192,28354,1,0,0:0:0:0:
329,192,28426,1,0,0:0:0:0:
36,192,28426,1,0,0:0:0:0:
182,192,28497,1,0,0:0:0:0:
402,192,28568,1,0,0:0:0:0:
475,192,28568,1,0,0:0:0:0:
256,192,28640,1,0,0:0:0:0:
109,192,28711,1,0,0:0:0:0:
402,192,28711,1,0,0:0:0:0:
256,192,28783,1,0,0:0:0:0:
109,192,28854,1,0,0:0:0:0:
36,192,28854,1,0,0:0:0:0:
475,192,28854,1,0,0:0:0:0:
36,192,29140,1,0,0:0:0:0:
256,192,29140,1,0,0:0:0:0:
109,192,29283,1,0,0:0:0:0:
182,192,29426,1,0,0:0:0:0:
402,192,29426,1,0,0:0:0:0:
475,192,29568,1,0,0:0:0:0:
329,192,29711,1,0,0:0:0:0:
109,192,29711,1,0,0:0:0:0:
402,192,29854,1,0,0:0:0:0:
36,192,29997,1,0,0:0:0:0:
256,192,29997,1,0,0:0:0:0:
329,192,30140,1,0,0:0:0:0:
182,192,30283,1,0,0:0:0:0:
402,192,30283,1,0,0:0:0:0:
36,192,30426,1,0,0:0:0:0:
109,192,30568,1,0,0:0:0:0:
329,192,30568,1,0,0:0:0:0:
256,192,30711,1,0,0:0:0:0:
402,192,30783,1,0,0:0:0:0:
182,192,30854,1,0,0:0:0:0:
36,192,30854,1,0,0:0:0:0:
256,192,30997,1,0,0:0:0:0:
329,192,31140,1,0,0:0:0:0:
475,192,31140,1,0,0:0:0:0:
109,192,31426,1,0,0:0:0:0:
256,192,31426,1,0,0:0:0:0:
402,192,31568,1,0,0:0:0:0:
182,192,31711,1,0,0:0:0:0:
36,192,31711,1,0,0:0:0:0:
256,192,31854,1,0,0:0:0:0:
329,192,31997,1,0,0:0:0:0:
109,192,31997,1,0,0:0:0:0:
36,192,32140,1,0,0:0:0:0:
182,192,32211,1,0,0:0:0:0:
329,192,32283,1,0,0:0:0:0:
475,192,32283,1,0,0:0:0:0:
256,192,32568,1,0,0:0:0:0:
36,192,32711,1,0,0:0:0:0:
329,192,32711,1,0,0:0:0:0:
182,192,32854,1,0,0:0:0:0:
402,192,32997,1,0,0:0:0:0:
36,192,33140,1,0,0:0:0:0:
256,192,33140,1,0,0:0:0:0:
182,192,33426,1,0,0:0:0:0:
402,192,33426,1,0,0:0:0:0:
36,192,33711,1,0,0:0:0:0:
329,192,33711,1,0,0:0:0:0:
109,192,33854,1,0,0:0:0:0:
182,192,33997,1,0,0:0:0:0:
402,192,33997,1,0,0:0:0:0:
475,192,34140,1,0,0:0:0:0:
329,192,34283,1,0,0:0:0:0:
109,192,34283,1,0,0:0:0:0:
402,192,34426,1,0,0:0:0:0:
36,192,34568,1,0,0:0:0:0:
256,192,34568,1,0,0:0:0:0:
329,192,34711,1,0,0:0:0:0:
182,192,34854,1,0,0:0:0:0:
402,192,34854,1,0,0:0:0:0:
36,192,34997,1,0,0:0:0:0:
109,192,35140,1,0,0:0:0:0:
329,192,35140,1,0,0:0:0:0:
256,192,35283,1,0,0:0:0:0:
109,192,35354,1,0,0:0:0:0:
329,192,35426,1,0,0:0:0:0:
475,192,35426,1,0,0:0:0:0:
182,192,35568,1,0,0:0:0:0:
402,192,35711,1,0,0:0:0:0:
36,192,35711,1,0,0:0:0:0:
109,192,35997,1,0,0:0:0:0:
256,192,35997,1,0,0:0:0:0:
329,192,36140,1,0,0:0:0:0:
475,192,36140,1,0,0:0:0:0:
109,192,36426,1,0,0:0:0:0:
402,192,36426,1,0,0:0:0:0:
182,192,36711,1,0,0:0:0:0:
256,192,36854,1,0,0:0:0:0:
475,192,36854,1,0,0:0:0:0:
36,192,36854,1,0,0:0:0:0:
182,192,37140,1,0,0:0:0:0:
182,192,37283,1,0,0:0:0:0:
256,192,37354,1,0,0:0:0:0:
329,192,37426,1,0,0:0:0:0:
182,192,37497,1,0,0:0:0:0:
329,192,37568,1,0,0:0:0:0:
182,192,37711,1,0,0:0:0:0:
329,192,37711,1,0,0:0:0:0:
475,192,37711,1,0,0:0:0:0:
182,192,37997,1,0,0:0:0:0:
402,192,37997,1,0,0:0:0:0:
36,192,37997,128,0,38854:0:0:0:0:
256,192,38140,1,0,0:0:0:0:
329,192,38283,1,0,0:0:0:0:
402,192,38283,1,0,0:0:0:0:
109,192,38283,1,0,0:0:0:0:
475,192,38426,128,0,39426:0:0:0:0:
256,192,38568,1,0,0:0:0:0:
182,192,38568,1,0,0:0:0:0:
109,192,38568,1,0,0:0:0:0:
329,192,38711,1,0,0:0:0:0:
109,192,38854,128,0,39426:0:0:0:0:
402,192,38854,1,0,0:0:0:0:
182,192,38854,1,0,0:0:0:0:
256,192,38997,1,0,0:0:0:0:
329,192,39140,1,0,0:0:0:0:
402,192,39140,1,0,0:0:0:0:
36,192,39140,1,0,0:0:0:0:
256,192,39283,1,0,0:0:0:0:
36,192,39426,128,0,40140:0:0:0:0:
182,192,39426,1,0,0:0:0:0:
402,192,39426,1,0,0:0:0:0:
329,192,39568,1,0,0:0:0:0:
182,192,39711,128,0,40140:0:0:0:0:
475,192,39711,1,0,0:0:0:0:
256,192,39711,1,0,0:0:0:0:
402,192,39854,1,0,0:0:0:0:
329,192,39997,128,0,40283:0:0:0:0:
109,192,39997,1,0,0:0:0:0:
256,192,39997,1,0,0:0:0:0:
402,192,40140,1,0,0:0:0:0:
109,192,40283,128,0,41140:0:0:0:0:
475,192,40283,1,0,0:0:0:0:
182,192,40283,1,0,0:0:0:0:
256,192,40426,1,0,0:0:0:0:
329,192,40568,1,0,0:0:0:0:
402,192,40568,1,0,0:0:0:0:
36,192,40568,1,0,0:0:0:0:
475,192,40711,128,0,41711:0:0:0:0:
182,192,40854,1,0,0:0:0:0:
256,192,40854,1,0,0:0:0:0:
402,192,40854,1,0,0:0:0:0:
329,192,40997,1,0,0:0:0:0:
36,192,41140,128,0,41711:0:0:0:0:
182,192,41140,1,0,0:0:0:0:
402,192,41140,1,0,0:0:0:0:
256,192,41283,1,0,0:0:0:0:
329,192,41426,1,0,0:0:0:0:
402,192,41426,1,0,0:0:0:0:
109,192,41426,1,0,0:0:0:0:
256,192,41568,1,0,0:0:0:0:
402,192,41711,128,0,42426:0:0:0:0:
182,192,41711,1,0,0:0:0:0:
109,192,41711,1,0,0:0:0:0:
329,192,41854,1,0,0:0:0:0:
256,192,41997,128,0,42426:0:0:0:0:
182,192,41997,1,0,0:0:0:0:
36,192,41997,1,0,0:0:0:0:
109,192,42283,128,0,42568:0:0:0:0:
329,192,42283,1,0,0:0:0:0:
475,192,42283,1,0,0:0:0:0:
36,192,42283,1,0,0:0:0:0:
182,192,42426,1,0,0:0:0:0:
256,192,42568,1,0,0:0:0:0:
402,192,42568,1,0,0:0:0:0:
475,192,42568,1,0,0:0:0:0:
182,192,42711,1,0,0:0:0:0:
329,192,42711,1,0,0:0:0:0:
256,192,42854,1,0,0:0:0:0:
109,192,42854,1,0,0:0:0:0:
36,192,42854,1,0,0:0:0:0:
329,192,42997,1,0,0:0:0:0:
475,192,42997,1,0,0:0:0:0:
182,192,43068,1,0,0:0:0:0:
256,192,43140,1,0,0:0:0:0:
36,192,43140,1,0,0:0:0:0:
109,192,43140,1,0,0:0:0:0:
329,192,43211,1,0,0:0:0:0:
109,192,43283,1,0,0:0:0:0:
329,192,43354,1,0,0:0:0:0:
182,192,43426,1,0,0:0:0:0:
36,192,43426,1,0,0:0:0:0:
475,192,43426,1,0,0:0:0:0:
402,192,43497,1,0,0:0:0:0:
182,192,43568,1,0,0:0:0:0:
402,192,43640,1,0,0:0:0:0:
256,192,43711,1,0,0:0:0:0:
109,192,43711,1,0,0:0:0:0:
36,192,43711,1,0,0:0:0:0:
182,192,43854,1,0,0:0:0:0:
329,192,43854,1,0,0:0:0:0:
256,192,43997,1,0,0:0:0:0:
402,192,43997,1,0,0:0:0:0:
475,192,43997,1,0,0:0:0:0:
329,192,44140,1,0,0:0:0:0:
182,192,44140,1,0,0:0:0:0:
109,192,44211,1,0,0:0:0:0:
256,192,44283,1,0,0:0:0:0:
36,192,44283,1,0,0:0:0:0:
402,192,44283,1,0,0:0:0:0:
182,192,44354,1,0,0:0:0:0:
402,192,44426,1,0,0:0:0:0:
182,192,44497,1,0,0:0:0:0:
329,192,44568,1,0,0:0:0:0:
475,192,44568,1,0,0:0:0:0:
256,192,44568,1,0,0:0:0:0:
109,192,44640,1,0,0:0:0:0:
329,192,44711,1,0,0:0:0:0:
109,192,44783,1,0,0:0:0:0:
256,192,44854,1,0,0:0:0:0:
36,192,44854,1,0,0:0:0:0:
475,192,44854,1,0,0:0:0:0:
329,192,44997,1,0,0:0:0:0:
402,192,45140,1,0,0:0:0:0:
109,192,45140,1,0,0:0:0:0:
182,192,45140,1,0,0:0:0:0:
182,192,45283,1,0,0:0:0:0:
256,192,45283,1,0,0:0:0:0:
475,192,45283,1,0,0:0:0:0:
329,192,45426,1,0,0:0:0:0:
36,192,45426,1,0,0:0:0:0:
109,192,45568,1,0,0:0:0:0:
182,192,45568,1,0,0:0:0:0:
402,192,45568,1,0,0:0:0:0:
256,192,45711,1,0,0:0:0:0:
475,192,45711,1,0,0:0:0:0:
36,192,45854,1,0,0:0:0:0:
109,192,45854,1,0,0:0:0:0:
329,192,45854,1,0,0:0:0:0:
182,192,45997,1,0,0:0:0:0:
402,192,45997,1,0,0:0:0:0:
109,192,46140,1,0,0:0:0:0:
329,192,46140,1,0,0:0:0:0:
182,192,46283,1,0,0:0:0:0:
256,192,46283,1,0,0:0:0:0:
475,192,46283,1,0,0:0:0:0:
109,192,46426,1,0,0:0:0:0:
182,192,46426,1,0,0:0:0:0:
402,192,46426,1,0,0:0:0:0:
329,192,46568,1,0,0:0:0:0:
36,192,46568,1,0,0:0:0:0:
402,192,46711,1,0,0:0:0:0:
475,192,46711,1,0,0:0:0:0:
182,192,46711,1,0,0:0:0:0:
109,192,46854,1,0,0:0:0:0:
329,192,46854,1,0,0:0:0:0:
36,192,46997,1,0,0:0:0:0:
182,192,46997,1,0,0:0:0:0:
256,192,46997,1,0,0:0:0:0:
256,192,47140,1,0,0:0:0:0:
329,192,47140,1,0,0:0:0:0:
475,192,47140,128,0,47997:0:0:0:0:
182,192,47283,1,0,0:0:0:0:
109,192,47426,1,0,0:0:0:0:
329,192,47426,1,0,0:0:0:0:
402,192,47426,1,0,0:0:0:0:
36,192,47568,128,0,48568:0:0:0:0:
109,192,47711,1,0,0:0:0:0:
182,192,47711,1,0,0:0:0:0:
402,192,47711,1,0,0:0:0:0:
256,192,47854,1,0,0:0:0:0:
402,192,47997,128,0,48568:0:0:0:0:
109,192,47997,1,0,0:0:0:0:
329,192,47997,1,0,0:0:0:0:
256,192,48140,1,0,0:0:0:0:
182,192,48283,1,0,0:0:0:0:
109,192,48283,1,0,0:0:0:0:
475,192,48283,1,0,0:0:0:0:
256,192,48426,1,0,0:0:0:0:
475,192,48568,128,0,49283:0:0:0:0:
329,192,48568,1,0,0:0:0:0:
109,192,48568,1,0,0:0:0:0:
182,192,48711,1,0,0:0:0:0:
329,192,48854,128,0,49283:0:0:0:0:
36,192,48854,1,0,0:0:0:0:
256,192,48854,1,0,0:0:0:0:
109,192,48997,1,0,0:0:0:0:
182,192,49140,128,0,49426:0:0:0:0:
402,192,49140,1,0,0:0:0:0:
256,192,49140,1,0,0:0:0:0:
109,192,49283,1,0,0:0:0:0:
402,192,49426,128,0,50283:0:0:0:0:
36,192,49426,1,0,0:0:0:0:
329,192,49426,1,0,0:0:0:0:
256,192,49568,1,0,0:0:0:0:
182,192,49711,1,0,0:0:0:0:
109,192,49711,1,0,0:0:0:0:
475,192,49711,1,0,0:0:0:0:
36,192,49854,128,0,50854:0:0:0:0:
329,192,49997,1,0,0:0:0:0:
256,192,49997,1,0,0:0:0:0:
109,192,49997,1,0,0:0:0:0:
182,192,50140,1,0,0:0:0:0:
475,192,50283,128,0,50854:0:0:0:0:
329,192,50283,1,0,0:0:0:0:
109,192,50283,1,0,0:0:0:0:
256,192,50426,1,0,0:0:0:0:
182,192,50568,1,0,0:0:0:0:
109,192,50568,1,0,0:0:0:0:
402,192,50568,1,0,0:0:0:0:
256,192,50711,1,0,0:0:0:0:
329,192,50854,1,0,0:0:0:0:
402,192,50854,1,0,0:0:0:0:
182,192,50854,128,0,51140:0:0:0:0:
109,192,50949,128,0,51140:0:0:0:0:
36,192,51045,128,0,51568:0:0:0:0:
256,192,51140,128,0,51568:0:0:0:0:
329,192,51140,1,0,0:0:0:0:
475,192,51140,1,0,0:0:0:0:
402,192,51283,1,0,0:0:0:0:
109,192,51426,1,0,0:0:0:0:
475,192,51426,1,0,0:0:0:0:
182,192,51568,1,0,0:0:0:0:
256,192,51711,1,0,0:0:0:0:
475,192,51711,1,0,0:0:0:0:
36,192,51711,1,0,0:0:0:0:
329,192,51854,1,0,0:0:0:0:
109,192,51854,1,0,0:0:0:0:
182,192,51997,1,0,0:0:0:0:
475,192,51997,1,0,0:0:0:0:
402,192,51997,1,0,0:0:0:0:
329,192,52092,1,0,0:0:0:0:
256,192,52187,1,0,0:0:0:0:
182,192,52283,1,0,0:0:0:0:
36,192,52283,1,0,0:0:0:0:
402,192,52283,1,0,0:0:0:0:
256,192,52378,1,0,0:0:0:0:
329,192,52473,1,0,0:0:0:0:
109,192,52568,1,0,0:0:0:0:
36,192,52568,1,0,0:0:0:0:
402,192,52568,1,0,0:0:0:0:
182,192,52664,1,0,0:0:0:0:
329,192,52759,1,0,0:0:0:0:
402,192,52854,1,0,0:0:0:0:
475,192,52854,1,0,0:0:0:0:
256,192,52854,1,0,0:0:0:0:
182,192,52949,1,0,0:0:0:0:
109,192,53045,1,0,0:0:0:0:
36,192,53140,1,0,0:0:0:0:
256,192,53140,1,0,0:0:0:0:
475,192,53140,1,0,0:0:0:0:
182,192,53235,1,0,0:0:0:0:
329,192,53330,1,0,0:0:0:0:
256,192,53426,1,0,0:0:0:0:
402,192,53426,1,0,0:0:0:0:
36,192,53426,1,0,0:0:0:0:
182,192,53521,1,0,0:0:0:0:
329,192,53616,1,0,0:0:0:0:
475,192,53711,1,0,0:0:0:0:
256,192,53711,1,0,0:0:0:0:
36,192,53711,1,0,0:0:0:0:
109,192,53806,1,0,0:0:0:0:
256,192,53902,1,0,0:0:0:0:
182,192,53997,1,0,0:0:0:0:
329,192,53997,1,0,0:0:0:0:
475,192,53997,1,0,0:0:0:0:
182,192,54140,1,0,0:0:0:0:
329,192,54211,1,0,0:0:0:0:
475,192,54211,1,0,0:0:0:0:
109,192,54283,1,0,0:0:0:0:
329,192,54426,1,0,0:0:0:0:
475,192,54426,1,0,0:0:0:0:
109,192,54426,1,0,0:0:0:0:
182,192,54568,1,0,0:0:0:0:
36,192,54568,1,0,0:0:0:0:
402,192,54568,1,0,0:0:0:0:
402,192,54711,1,0,0:0:0:0:
36,192,54783,1,0,0:0:0:0:
182,192,54783,1,0,0:0:0:0:
329,192,54854,1,0,0:0:0:0:
182,192,54997,1,0,0:0:0:0:
36,192,54997,1,0,0:0:0:0:
329,192,54997,1,0,0:0:0:0:
256,192,55140,1,0,0:0:0:0:
109,192,55140,1,0,0:0:0:0:
329,192,55211,1,0,0:0:0:0:
402,192,55283,1,0,0:0:0:0:
182,192,55283,1,0,0:0:0:0:
475,192,55354,1,0,0:0:0:0:
256,192,55426,1,0,0:0:0:0:
36,192,55426,1,0,0:0:0:0:
182,192,55497,1,0,0:0:0:0:
109,192,55568,1,0,0:0:0:0:
329,192,55568,1,0,0:0:0:0:
36,192,55640,1,0,0:0:0:0:
402,192,55711,1,0,0:0:0:0:
182,192,55711,1,0,0:0:0:0:
329,192,55783,1,0,0:0:0:0:
256,192,55854,1,0,0:0:0:0:
475,192,55854,1,0,0:0:0:0:
182,192,55926,1,0,0:0:0:0:
36,192,55997,1,0,0:0:0:0:
109,192,55997,128,0,56283:0:0:0:0:
402,192,55997,128,0,56283:0:0:0:0:
256,192,56283,128,0,56497:0:0:0:0:
475,192,56283,128,0,56640:0:0:0:0:
36,192,56283,128,0,56926:0:0:0:0:
256,192,56568,128,0,57211:0:0:0:0:
475,192,56711,128,0,57426:0:0:0:0:
36,192,56997,128,0,57426:0:0:0:0:
256,192,57283,128,0,58211:0:0:0:0:
329,192,57426,1,0,0:0:0:0:
109,192,57426,1,0,0:0:0:0:
402,192,57568,128,0,58068:0:0:0:0:
109,192,57711,128,0,58354:0:0:0:0:
402,192,58140,128,0,58568:0:0:0:0:
256,192,58283,128,0,58568:0:0:0:0:
109,192,58426,128,0,58568:0:0:0:0:
36,192,58568,1,0,0:0:0:0:
329,192,58568,1,0,0:0:0:0:
182,192,58568,128,0,58711:0:0:0:0:
182,192,58854,128,0,58926:0:0:0:0:
36,192,58997,1,0,0:0:0:0:
182,192,58997,1,0,0:0:0:0:
329,192,58997,128,0,59140:0:0:0:0:
329,192,59283,128,0,59354:0:0:0:0:
329,192,59426,1,0,0:0:0:0:
182,192,59426,1,0,0:0:0:0:
475,192,59426,128,0,64283:0:0:0:0:
36,192,59711,1,0,0:0:0:0:
109,192,59711,1,0,0:0:0:0:
256,192,59854,1,0,0:0:0:0:
109,192,59997,1,0,0:0:0:0:
182,192,59997,1,0,0:0:0:0:
329,192,60140,1,0,0:0:0:0:
36,192,60283,1,0,0:0:0:0:
109,192,60283,1,0,0:0:0:0:
256,192,60426,1,0,0:0:0:0:
109,192,60568,1,0,0:0:0:0:
182,192,60568,1,0,0:0:0:0:
329,192,60711,1,0,0:0:0:0:
36,192,60854,1,0,0:0:0:0:
109,192,60854,1,0,0:0:0:0:
256,192,60997,1,0,0:0:0:0:
109,192,61140,1,0,0:0:0:0:
182,192,61140,1,0,0:0:0:0:
329,192,61283,1,0,0:0:0:0:
36,192,61426,1,0,0:0:0:0:
109,192,61426,1,0,0:0:0:0:
256,192,61568,1,0,0:0:0:0:
109,192,61711,1,0,0:0:0:0:
182,192,61711,1,0,0:0:0:0:
329,192,61854,1,0,0:0:0:0:
182,192,61997,1,0,0:0:0:0:
256,192,61997,1,0,0:0:0:0:
36,192,62140,1,0,0:0:0:0:
256,192,62283,1,0,0:0:0:0:
329,192,62283,1,0,0:0:0:0:
256,192,62426,1,0,0:0:0:0:
182,192,62426,1,0,0:0:0:0:
109,192,62568,1,0,0:0:0:0:
256,192,62711,1,0,0:0:0:0:
329,192,62711,1,0,0:0:0:0:
36,192,62854,1,0,0:0:0:0:
182,192,62997,1,0,0:0:0:0:
256,192,62997,1,0,0:0:0:0:
109,192,63140,1,0,0:0:0:0:
182,192,63140,1,0,0:0:0:0:
329,192,63283,1,0,0:0:0:0:
109,192,63426,1,0,0:0:0:0:
36,192,63426,1,0,0:0:0:0:
109,192,63568,1,0,0:0:0:0:
182,192,63568,1,0,0:0:0:0:
256,192,63711,1,0,0:0:0:0:
36,192,63854,1,0,0:0:0:0:
109,192,63854,1,0,0:0:0:0:
329,192,63997,1,0,0:0:0:0:
182,192,64140,1,0,0:0:0:0:
109,192,64140,1,0,0:0:0:0:
36,192,64283,128,0,68854:0:0:0:0:
109,192,64283,1,0,0:0:0:0:
256,192,64426,1,0,0:0:0:0:
329,192,64568,1,0,0:0:0:0:
402,192,64568,1,0,0:0:0:0:
402,192,64711,1,0,0:0:0:0:
475,192,64711,1,0,0:0:0:0:
182,192,64854,1,0,0:0:0:0:
256,192,64997,1,0,0:0:0:0:
329,192,64997,1,0,0:0:0:0:
402,192,65140,1,0,0:0:0:0:
182,192,65283,1,0,0:0:0:0:
256,192,65283,1,0,0:0:0:0:
256,192,65426,1,0,0:0:0:0:
329,192,65426,1,0,0:0:0:0:
402,192,65568,1,0,0:0:0:0:
109,192,65711,1,0,0:0:0:0:
182,192,65711,1,0,0:0:0:0:
182,192,65854,1,0,0:0:0:0:
256,192,65854,1,0,0:0:0:0:
329,192,65997,1,0,0:0:0:0:
402,192,66140,1,0,0:0:0:0:
475,192,66140,1,0,0:0:0:0:
329,192,66283,1,0,0:0:0:0:
256,192,66426,1,0,0:0:0:0:
182,192,66426,1,0,0:0:0:0:
256,192,66568,1,0,0:0:0:0:
329,192,66568,1,0,0:0:0:0:
402,192,66711,1,0,0:0:0:0:
109,192,66854,1,0,0:0:0:0:
182,192,66854,1,0,0:0:0:0:
182,192,66997,1,0,0:0:0:0:
256,192,66997,1,0,0:0:0:0:
402,192,67140,1,0,0:0:0:0:
329,192,67283,1,0,0:0:0:0:
256,192,67283,1,0,0:0:0:0:
182,192,67426,1,0,0:0:0:0:
329,192,67568,1,0,0:0:0:0:
402,192,67568,1,0,0:0:0:0:
329,192,67711,1,0,0:0:0:0:
256,192,67711,1,0,0:0:0:0:
182,192,67854,1,0,0:0:0:0:
402,192,67997,1,0,0:0:0:0:
475,192,67997,1,0,0:0:0:0:
402,192,68140,1,0,0:0:0:0:
329,192,68140,1,0,0:0:0:0:
182,192,68283,1,0,0:0:0:0:
256,192,68426,1,0,0:0:0:0:
329,192,68426,1,0,0:0:0:0:
402,192,68568,1,0,0:0:0:0:
182,192,68711,1,0,0:0:0:0:
256,192,68711,1,0,0:0:0:0:
256,192,68854,1,0,0:0:0:0:
329,192,68854,1,0,0:0:0:0:
475,192,68854,1,0,0:0:0:0:
256,192,69140,1,0,0:0:0:0:
475,192,69140,1,0,0:0:0:0:
402,192,69283,1,0,0:0:0:0:
182,192,69283,1,0,0:0:0:0:
329,192,69426,1,0,0:0:0:0:
182,192,69568,1,0,0:0:0:0:
36,192,69568,1,0,0:0:0:0:
256,192,69854,1,0,0:0:0:0:
402,192,69854,1,0,0:0:0:0:
475,192,69997,1,0,0:0:0:0:
329,192,69997,1,0,0:0:0:0:
36,192,69997,1,0,0:0:0:0:
329,192,70568,1,0,0:0:0:0:
109,192,70711,1,0,0:0:0:0:
256,192,70854,1,0,0:0:0:0:
329,192,70997,1,0,0:0:0:0:
182,192,71140,1,0,0:0:0:0:
36,192,71140,1,0,0:0:0:0:
402,192,71140,1,0,0:0:0:0:
475,192,71426,1,0,0:0:0:0:
182,192,71426,1,0,0:0:0:0:
402,192,71568,1,0,0:0:0:0:
109,192,71568,1,0,0:0:0:0:
182,192,71854,1,0,0:0:0:0:
475,192,71854,1,0,0:0:0:0:
329,192,72140,1,0,0:0:0:0:
256,192,72211,1,0,0:0:0:0:
182,192,72283,1,0,0:0:0:0:
36,192,72283,1,0,0:0:0:0:
402,192,72283,1,0,0:0:0:0:
329,192,72854,1,0,0:0:0:0:
182,192,72949,1,0,0:0:0:0:
36,192,73045,1,0,0:0:0:0:
402,192,73140,1,0,0:0:0:0:
256,192,73235,1,0,0:0:0:0:
109,192,73330,1,0,0:0:0:0:
329,192,73426,1,0,0:0:0:0:
475,192,73426,1,0,0:0:0:0:
182,192,73426,1,0,0:0:0:0:
256,192,73568,1,0,0:0:0:0:
329,192,73711,1,0,0:0:0:0:
109,192,73711,1,0,0:0:0:0:
182,192,73854,1,0,0:0:0:0:
109,192,73926,1,0,0:0:0:0:
36,192,73997,1,0,0:0:0:0:
256,192,73997,1,0,0:0:0:0:
329,192,74092,1,0,0:0:0:0:
402,192,74187,1,0,0:0:0:0:
256,192,74283,1,0,0:0:0:0:
36,192,74283,1,0,0:0:0:0:
182,192,74378,1,0,0:0:0:0:
109,192,74473,1,0,0:0:0:0:
256,192,74568,1,0,0:0:0:0:
402,192,74568,1,0,0:0:0:0:
36,192,74664,1,0,0:0:0:0:
109,192,74759,1,0,0:0:0:0:
182,192,74854,1,0,0:0:0:0:
329,192,74854,1,0,0:0:0:0:
402,192,74949,1,0,0:0:0:0:
475,192,75045,1,0,0:0:0:0:
329,192,75140,1,0,0:0:0:0:
109,192,75140,1,0,0:0:0:0:
182,192,75235,1,0,0:0:0:0:
256,192,75330,1,0,0:0:0:0:
402,192,75426,1,0,0:0:0:0:
36,192,75426,1,0,0:0:0:0:
329,192,75521,1,0,0:0:0:0:
256,192,75616,1,0,0:0:0:0:
182,192,75711,1,0,0:0:0:0:
475,192,75711,1,0,0:0:0:0:
329,192,75854,1,0,0:0:0:0:
36,192,75854,1,0,0:0:0:0:
109,192,75997,1,0,0:0:0:0:
402,192,75997,1,0,0:0:0:0:
182,192,76140,1,0,0:0:0:0:
329,192,76211,1,0,0:0:0:0:
475,192,76283,1,0,0:0:0:0:
109,192,76283,1,0,0:0:0:0:
329,192,76354,1,0,0:0:0:0:
182,192,76426,1,0,0:0:0:0:
256,192,76568,1,0,0:0:0:0:
109,192,76711,1,0,0:0:0:0:
329,192,76711,1,0,0:0:0:0:
182,192,76854,1,0,0:0:0:0:
475,192,76997,1,0,0:0:0:0:
256,192,76997,1,0,0:0:0:0:
182,192,77140,1,0,0:0:0:0:
402,192,77140,1,0,0:0:0:0:
109,192,77283,1,0,0:0:0:0:
256,192,77354,1,0,0:0:0:0:
402,192,77426,1,0,0:0:0:0:
36,192,77426,1,0,0:0:0:0:
256,192,77497,1,0,0:0:0:0:
109,192,77568,1,0,0:0:0:0:
329,192,77640,1,0,0:0:0:0:
182,192,77711,1,0,0:0:0:0:
36,192,77711,1,0,0:0:0:0:
402,192,77783,1,0,0:0:0:0:
256,192,77854,1,0,0:0:0:0:
109,192,77854,1,0,0:0:0:0:
475,192,77926,1,0,0:0:0:0:
329,192,77997,1,0,0:0:0:0:
182,192,77997,1,0,0:0:0:0:
329,192,78283,1,0,0:0:0:0:
475,192,78283,1,0,0:0:0:0:
256,192,78426,1,0,0:0:0:0:
402,192,78426,1,0,0:0:0:0:
329,192,78711,1,0,0:0:0:0:
182,192,78711,1,0,0:0:0:0:
256,192,78997,1,0,0:0:0:0:
109,192,78997,1,0,0:0:0:0:
36,192,79092,1,0,0:0:0:0:
182,192,79140,1,0,0:0:0:0:
402,192,79140,1,0,0:0:0:0:
475,192,79140,1,0,0:0:0:0:
329,192,79426,1,0,0:0:0:0:
329,192,79568,1,0,0:0:0:0:
256,192,79640,1,0,0:0:0:0:
182,192,79711,1,0,0:0:0:0:
329,192,79783,1,0,0:0:0:0:
182,192,79854,1,0,0:0:0:0:
182,192,79997,1,0,0:0:0:0:
36,192,79997,1,0,0:0:0:0:
329,192,79997,1,0,0:0:0:0:
329,192,80283,128,0,80854:0:0:0:0:
475,192,80283,128,0,80426:0:0:0:0:
182,192,80283,128,0,81426:0:0:0:0:
109,192,80426,1,0,0:0:0:0:
36,192,80568,1,0,0:0:0:0:
256,192,80568,1,0,0:0:0:0:
402,192,80568,1,0,0:0:0:0:
475,192,80711,128,0,81997:0:0:0:0:
36,192,80854,1,0,0:0:0:0:
109,192,80854,1,0,0:0:0:0:
256,192,80854,1,0,0:0:0:0:
402,192,80997,1,0,0:0:0:0:
329,192,81140,128,0,81711:0:0:0:0:
36,192,81140,1,0,0:0:0:0:
256,192,81140,1,0,0:0:0:0:
109,192,81283,1,0,0:0:0:0:
256,192,81426,1,0,0:0:0:0:
402,192,81426,1,0,0:0:0:0:
36,192,81426,1,0,0:0:0:0:
109,192,81568,1,0,0:0:0:0:
182,192,81711,128,0,82568:0:0:0:0:
256,192,81711,1,0,0:0:0:0:
36,192,81711,1,0,0:0:0:0:
402,192,81854,1,0,0:0:0:0:
329,192,81997,128,0,82568:0:0:0:0:
36,192,81997,1,0,0:0:0:0:
109,192,81997,1,0,0:0:0:0:
256,192,82140,1,0,0:0:0:0:
475,192,82283,128,0,82568:0:0:0:0:
402,192,82283,1,0,0:0:0:0:
109,192,82283,1,0,0:0:0:0:
36,192,82426,1,0,0:0:0:0:
256,192,82568,128,0,82711:0:0:0:0:
402,192,82568,128,0,83711:0:0:0:0:
109,192,82568,128,0,83140:0:0:0:0:
182,192,82711,1,0,0:0:0:0:
329,192,82854,1,0,0:0:0:0:
475,192,82854,1,0,0:0:0:0:
36,192,82854,1,0,0:0:0:0:
256,192,82997,128,0,83997:0:0:0:0:
182,192,83140,1,0,0:0:0:0:
36,192,83140,1,0,0:0:0:0:
329,192,83140,1,0,0:0:0:0:
475,192,83283,1,0,0:0:0:0:
109,192,83426,128,0,84283:0:0:0:0:
329,192,83426,1,0,0:0:0:0:
36,192,83426,1,0,0:0:0:0:
182,192,83568,1,0,0:0:0:0:
329,192,83711,1,0,0:0:0:0:
475,192,83711,1,0,0:0:0:0:
36,192,83711,1,0,0:0:0:0:
182,192,83854,1,0,0:0:0:0:
402,192,83997,128,0,84854:0:0:0:0:
475,192,83997,1,0,0:0:0:0:
329,192,83997,1,0,0:0:0:0:
36,192,84140,1,0,0:0:0:0:
256,192,84283,128,0,84854:0:0:0:0:
182,192,84283,1,0,0:0:0:0:
475,192,84283,1,0,0:0:0:0:
329,192,84426,1,0,0:0:0:0:
109,192,84568,128,0,84854:0:0:0:0:
36,192,84568,1,0,0:0:0:0:
182,192,84568,1,0,0:0:0:0:
475,192,84711,1,0,0:0:0:0:
329,192,84854,1,0,0:0:0:0:
182,192,84854,128,0,85140:0:0:0:0:
36,192,84854,128,0,84997:0:0:0:0:
402,192,84997,1,0,0:0:0:0:
36,192,85140,128,0,87140:0:0:0:0:
475,192,85140,1,0,0:0:0:0:
256,192,85140,1,0,0:0:0:0:
475,192,85283,128,0,87140:0:0:0:0:
109,192,85283,1,0,0:0:0:0:
329,192,85426,1,0,0:0:0:0:
402,192,85426,1,0,0:0:0:0:
182,192,85426,1,0,0:0:0:0:
256,192,85568,1,0,0:0:0:0:
109,192,85711,1,0,0:0:0:0:
182,192,85711,1,0,0:0:0:0:
329,192,85711,1,0,0:0:0:0:
402,192,85854,1,0,0:0:0:0:
329,192,85997,1,0,0:0:0:0:
109,192,85997,1,0,0:0:0:0:
256,192,85997,1,0,0:0:0:0:
182,192,86140,1,0,0:0:0:0:
329,192,86283,1,0,0:0:0:0:
402,192,86283,1,0,0:0:0:0:
109,192,86283,1,0,0:0:0:0:
256,192,86426,1,0,0:0:0:0:
182,192,86568,1,0,0:0:0:0:
109,192,86568,1,0,0:0:0:0:
402,192,86568,1,0,0:0:0:0:
329,192,86711,1,0,0:0:0:0:
402,192,86854,1,0,0:0:0:0:
109,192,86854,1,0,0:0:0:0:
256,192,86854,1,0,0:0:0:0:
182,192,86997,1,0,0:0:0:0:
329,192,87140,1,0,0:0:0:0:
402,192,87140,1,0,0:0:0:0:
109,192,87140,1,0,0:0:0:0:
182,192,87283,1,0,0:0:0:0:
329,192,87354,1,0,0:0:0:0:
256,192,87426,1,0,0:0:0:0:
36,192,87426,1,0,0:0:0:0:
475,192,87426,1,0,0:0:0:0:
402,192,87568,1,0,0:0:0:0:
256,192,87640,1,0,0:0:0:0:
109,192,87711,1,0,0:0:0:0:
36,192,87711,1,0,0:0:0:0:
475,192,87711,1,0,0:0:0:0:
329,192,87783,1,0,0:0:0:0:
182,192,87854,1,0,0:0:0:0:
402,192,87926,1,0,0:0:0:0:
256,192,87997,1,0,0:0:0:0:
36,192,87997,1,0,0:0:0:0:
475,192,87997,1,0,0:0:0:0:
109,192,88068,1,0,0:0:0:0:
182,192,88140,1,0,0:0:0:0:
256,192,88211,1,0,0:0:0:0:
36,192,88283,1,0,0:0:0:0:
329,192,88283,1,0,0:0:0:0:
475,192,88283,1,0,0:0:0:0:
182,192,88426,1,0,0:0:0:0:
402,192,88497,1,0,0:0:0:0:
256,192,88568,1,0,0:0:0:0:
36,192,88568,1,0,0:0:0:0:
475,192,88568,1,0,0:0:0:0:
182,192,88711,1,0,0:0:0:0:
109,192,88783,1,0,0:0:0:0:
475,192,88854,1,0,0:0:0:0:
36,192,88854,1,0,0:0:0:0:
256,192,88854,1,0,0:0:0:0:
329,192,88926,1,0,0:0:0:0:
402,192,88997,1,0,0:0:0:0:
182,192,89068,1,0,0:0:0:0:
256,192,89140,1,0,0:0:0:0:
475,192,89140,1,0,0:0:0:0:
36,192,89140,1,0,0:0:0:0:
329,192,89211,1,0,0:0:0:0:
182,192,89283,1,0,0:0:0:0:
329,192,89354,1,0,0:0:0:0:
256,192,89426,128,0,89997:0:0:0:0:
402,192,89426,128,0,89568:0:0:0:0:
109,192,89426,128,0,90568:0:0:0:0:
182,192,89568,1,0,0:0:0:0:
329,192,89711,1,0,0:0:0:0:
36,192,89711,1,0,0:0:0:0:
475,192,89711,1,0,0:0:0:0:
402,192,89854,128,0,91140:0:0:0:0:
182,192,89997,1,0,0:0:0:0:
36,192,89997,1,0,0:0:0:0:
475,192,89997,1,0,0:0:0:0:
329,192,90140,1,0,0:0:0:0:
256,192,90283,128,0,90854:0:0:0:0:
36,192,90283,1,0,0:0:0:0:
182,192,90283,1,0,0:0:0:0:
329,192,90426,1,0,0:0:0:0:
475,192,90568,1,0,0:0:0:0:
36,192,90568,1,0,0:0:0:0:
182,192,90568,1,0,0:0:0:0:
329,192,90711,1,0,0:0:0:0:
109,192,90854,128,0,91711:0:0:0:0:
36,192,90854,1,0,0:0:0:0:
475,192,90854,1,0,0:0:0:0:
182,192,90997,1,0,0:0:0:0:
256,192,91140,128,0,91711:0:0:0:0:
329,192,91140,1,0,0:0:0:0:
475,192,91140,1,0,0:0:0:0:
182,192,91283,1,0,0:0:0:0:
402,192,91426,128,0,91711:0:0:0:0:
36,192,91426,1,0,0:0:0:0:
329,192,91426,1,0,0:0:0:0:
475,192,91568,1,0,0:0:0:0:
182,192,91711,128,0,91854:0:0:0:0:
329,192,91711,128,0,92283:0:0:0:0:
36,192,91711,128,0,93426:0:0:0:0:
402,192,91854,1,0,0:0:0:0:
475,192,91997,1,0,0:0:0:0:
109,192,91997,1,0,0:0:0:0:
256,192,91997,1,0,0:0:0:0:
182,192,92140,128,0,93140:0:0:0:0:
256,192,92283,1,0,0:0:0:0:
402,192,92283,1,0,0:0:0:0:
475,192,92283,1,0,0:0:0:0:
109,192,92426,1,0,0:0:0:0:
329,192,92568,128,0,92854:0:0:0:0:
475,192,92568,1,0,0:0:0:0:
402,192,92568,1,0,0:0:0:0:
256,192,92711,1,0,0:0:0:0:
109,192,92854,1,0,0:0:0:0:
475,192,92854,1,0,0:0:0:0:
402,192,92854,1,0,0:0:0:0:
256,192,92997,1,0,0:0:0:0:
109,192,93140,1,0,0:0:0:0:
329,192,93140,128,0,93330:0:0:0:0:
475,192,93140,1,0,0:0:0:0:
256,192,93235,128,0,93426:0:0:0:0:
182,192,93330,128,0,93426:0:0:0:0:
329,192,93426,128,0,93997:0:0:0:0:
109,192,93426,128,0,93997:0:0:0:0:
475,192,93426,128,0,93711:0:0:0:0:
256,192,93568,1,0,0:0:0:0:
182,192,93711,1,0,0:0:0:0:
36,192,93711,1,0,0:0:0:0:
402,192,93711,1,0,0:0:0:0:
256,192,93854,1,0,0:0:0:0:
475,192,93997,128,0,96140:0:0:0:0:
36,192,93997,128,0,96283:0:0:0:0:
402,192,93997,1,0,0:0:0:0:
256,192,94140,1,0,0:0:0:0:
329,192,94283,1,0,0:0:0:0:
109,192,94283,1,0,0:0:0:0:
256,192,94378,1,0,0:0:0:0:
182,192,94473,1,0,0:0:0:0:
109,192,94568,1,0,0:0:0:0:
402,192,94568,1,0,0:0:0:0:
329,192,94664,1,0,0:0:0:0:
256,192,94759,1,0,0:0:0:0:
402,192,94854,1,0,0:0:0:0:
182,192,94854,1,0,0:0:0:0:
256,192,94949,1,0,0:0:0:0:
329,192,95045,1,0,0:0:0:0:
402,192,95140,1,0,0:0:0:0:
109,192,95140,1,0,0:0:0:0:
182,192,95235,1,0,0:0:0:0:
256,192,95330,1,0,0:0:0:0:
329,192,95426,1,0,0:0:0:0:
402,192,95426,1,0,0:0:0:0:
182,192,95521,1,0,0:0:0:0:
256,192,95616,1,0,0:0:0:0:
329,192,95711,1,0,0:0:0:0:
109,192,95711,1,0,0:0:0:0:
402,192,95806,1,0,0:0:0:0:
256,192,95902,1,0,0:0:0:0:
329,192,95997,1,0,0:0:0:0:
109,192,95997,1,0,0:0:0:0:
182,192,96092,1,0,0:0:0:0:
402,192,96187,1,0,0:0:0:0:
109,192,96283,1,0,0:0:0:0:
256,192,96283,1,0,0:0:0:0:
475,192,96283,1,0,0:0:0:0:
109,192,96426,1,0,0:0:0:0:
256,192,96426,1,0,0:0:0:0:
475,192,96497,1,0,0:0:0:0:
182,192,96568,1,0,0:0:0:0:
329,192,96568,1,0,0:0:0:0:
182,192,96711,1,0,0:0:0:0:
475,192,96711,1,0,0:0:0:0:
329,192,96711,1,0,0:0:0:0:
256,192,96854,1,0,0:0:0:0:
36,192,96854,1,0,0:0:0:0:
402,192,96854,1,0,0:0:0:0:
256,192,96997,1,0,0:0:0:0:
402,192,96997,1,0,0:0:0:0:
36,192,97068,1,0,0:0:0:0:
329,192,97140,1,0,0:0:0:0:
182,192,97140,1,0,0:0:0:0:
329,192,97283,1,0,0:0:0:0:
36,192,97283,1,0,0:0:0:0:
182,192,97283,1,0,0:0:0:0:
402,192,97426,1,0,0:0:0:0:
256,192,97426,128,0,97497:0:0:0:0:
182,192,97497,128,0,97568:0:0:0:0:
402,192,97568,1,0,0:0:0:0:
109,192,97568,128,0,97640:0:0:0:0:
36,192,97640,128,0,97711:0:0:0:0:
475,192,97711,1,0,0:0:0:0:
329,192,97711,128,0,97783:0:0:0:0:
256,192,97783,128,0,97854:0:0:0:0:
475,192,97854,1,0,0:0:0:0:
182,192,97854,128,0,97926:0:0:0:0:
109,192,97926,128,0,97997:0:0:0:0:
36,192,97997,1,0,0:0:0:0:
402,192,97997,128,0,98068:0:0:0:0:
329,192,98068,128,0,98140:0:0:0:0:
36,192,98140,1,0,0:0:0:0:
256,192,98140,128,0,98211:0:0:0:0:
182,192,98211,128,0,98283:0:0:0:0:
109,192,98283,1,0,0:0:0:0:
475,192,98283,128,0,98354:0:0:0:0:
402,192,98354,128,0,98426:0:0:0:0:
109,192,98426,1,0,0:0:0:0:
329,192,98426,128,0,98497:0:0:0:0:
256,192,98497,128,0,98568:0:0:0:0:
182,192,98568,1,0,0:0:0:0:
36,192,98568,1,0,0:0:0:0:
475,192,98568,128,0,98854:0:0:0:0:
182,192,98711,128,0,98854:0:0:0:0:
36,192,98711,128,0,98854:0:0:0:0:
402,192,98997,1,0,0:0:0:0:
109,192,98997,128,0,99283:0:0:0:0:
256,192,98997,1,0,0:0:0:0:
256,192,99140,128,0,99283:0:0:0:0:
402,192,99140,128,0,99283:0:0:0:0:
475,192,99426,128,0,100568:0:0:0:0:
182,192,99426,128,0,99997:0:0:0:0:
329,192,99426,128,0,100283:0:0:0:0:
109,192,99997,128,0,100854:0:0:0:0:
36,192,99997,1,0,0:0:0:0:
402,192,99997,1,0,0:0:0:0:
182,192,100140,1,0,0:0:0:0:
256,192,100283,128,0,101283:0:0:0:0:
402,192,100283,1,0,0:0:0:0:
36,192,100283,1,0,0:0:0:0:
182,192,100426,1,0,0:0:0:0:
402,192,100568,128,0,101711:0:0:0:0:
329,192,100568,1,0,0:0:0:0:
36,192,100568,1,0,0:0:0:0:
182,192,100711,1,0,0:0:0:0:
36,192,100854,128,0,102854:0:0:0:0:
329,192,100854,1,0,0:0:0:0:
475,192,100854,1,0,0:0:0:0:
182,192,100997,1,0,0:0:0:0:
329,192,101140,1,0,0:0:0:0:
475,192,101140,1,0,0:0:0:0:
109,192,101140,1,0,0:0:0:0:
182,192,101283,128,0,102568:0:0:0:0:
109,192,101426,1,0,0:0:0:0:
475,192,101426,1,0,0:0:0:0:
329,192,101426,1,0,0:0:0:0:
256,192,101568,1,0,0:0:0:0:
329,192,101711,128,0,102283:0:0:0:0:
109,192,101711,1,0,0:0:0:0:
475,192,101711,1,0,0:0:0:0:
256,192,101854,1,0,0:0:0:0:
109,192,101997,1,0,0:0:0:0:
475,192,101997,1,0,0:0:0:0:
402,192,101997,1,0,0:0:0:0:
256,192,102140,1,0,0:0:0:0:
402,192,102283,128,0,103140:0:0:0:0:
109,192,102283,1,0,0:0:0:0:
475,192,102283,1,0,0:0:0:0:
329,192,102426,1,0,0:0:0:0:
256,192,102568,128,0,102997:0:0:0:0:
109,192,102568,1,0,0:0:0:0:
475,192,102568,1,0,0:0:0:0:
329,192,102711,1,0,0:0:0:0:
109,192,102854,128,0,103140:0:0:0:0:
182,192,102854,1,0,0:0:0:0:
475,192,102854,1,0,0:0:0:0:
329,192,102997,1,0,0:0:0:0:
36,192,103140,128,0,105283:0:0:0:0:
475,192,103140,128,0,105426:0:0:0:0:
256,192,103140,1,0,0:0:0:0:
182,192,103283,1,0,0:0:0:0:
329,192,103354,1,0,0:0:0:0:
256,192,103426,1,0,0:0:0:0:
109,192,103426,1,0,0:0:0:0:
402,192,103568,1,0,0:0:0:0:
256,192,103640,1,0,0:0:0:0:
182,192,103711,1,0,0:0:0:0:
329,192,103711,1,0,0:0:0:0:
109,192,103783,1,0,0:0:0:0:
256,192,103854,1,0,0:0:0:0:
402,192,103926,1,0,0:0:0:0:
182,192,103997,1,0,0:0:0:0:
329,192,103997,1,0,0:0:0:0:
109,192,104068,1,0,0:0:0:0:
256,192,104140,1,0,0:0:0:0:
402,192,104211,1,0,0:0:0:0:
329,192,104283,1,0,0:0:0:0:
182,192,104283,1,0,0:0:0:0:
256,192,104426,1,0,0:0:0:0:
402,192,104497,1,0,0:0:0:0:
329,192,104568,1,0,0:0:0:0:
109,192,104568,1,0,0:0:0:0:
182,192,104711,1,0,0:0:0:0:
329,192,104783,1,0,0:0:0:0:
256,192,104854,1,0,0:0:0:0:
109,192,104854,1,0,0:0:0:0:
182,192,104926,1,0,0:0:0:0:
329,192,104997,1,0,0:0:0:0:
402,192,105068,1,0,0:0:0:0:
256,192,105140,1,0,0:0:0:0:
109,192,105140,1,0,0:0:0:0:
182,192,105211,1,0,0:0:0:0:
329,192,105283,1,0,0:0:0:0:
402,192,105354,1,0,0:0:0:0:
256,192,105426,1,0,0:0:0:0:
109,192,105426,1,0,0:0:0:0:
36,192,105426,1,0,0:0:0:0:
329,192,105568,1,0,0:0:0:0:
109,192,105711,1,0,0:0:0:0:
182,192,105711,1,0,0:0:0:0:
402,192,105711,1,0,0:0:0:0:
182,192,105854,1,0,0:0:0:0:
256,192,105854,1,0,0:0:0:0:
475,192,105854,1,0,0:0:0:0:
329,192,105997,1,0,0:0:0:0:
36,192,105997,1,0,0:0:0:0:
109,192,106140,1,0,0:0:0:0:
402,192,106140,1,0,0:0:0:0:
182,192,106140,1,0,0:0:0:0:
256,192,106283,1,0,0:0:0:0:
475,192,106283,1,0,0:0:0:0:
109,192,106426,1,0,0:0:0:0:
329,192,106426,1,0,0:0:0:0:
402,192,106497,1,0,0:0:0:0:
182,192,106497,1,0,0:0:0:0:
256,192,106568,1,0,0:0:0:0:
475,192,106568,1,0,0:0:0:0:
36,192,106568,1,0,0:0:0:0:
182,192,106711,1,0,0:0:0:0:
402,192,106711,1,0,0:0:0:0:
109,192,106854,1,0,0:0:0:0:
36,192,106854,1,0,0:0:0:0:
329,192,106854,1,0,0:0:0:0:
182,192,106997,1,0,0:0:0:0:
402,192,106997,1,0,0:0:0:0:
256,192,107140,1,0,0:0:0:0:
475,192,107140,1,0,0:0:0:0:
36,192,107140,1,0,0:0:0:0:
109,192,107211,1,0,0:0:0:0:
182,192,107283,1,0,0:0:0:0:
329,192,107354,1,0,0:0:0:0:
475,192,107426,1,0,0:0:0:0:
36,192,107426,1,0,0:0:0:0:
256,192,107426,1,0,0:0:0:0:
182,192,107497,1,0,0:0:0:0:
329,192,107568,1,0,0:0:0:0:
402,192,107640,1,0,0:0:0:0:
36,192,107711,128,0,108568:0:0:0:0:
256,192,107711,1,0,0:0:0:0:
475,192,107711,1,0,0:0:0:0:
256,192,107854,1,0,0:0:0:0:
329,192,107997,1,0,0:0:0:0:
475,192,107997,1,0,0:0:0:0:
182,192,107997,1,0,0:0:0:0:
475,192,108140,128,0,109140:0:0:0:0:
256,192,108283,1,0,0:0:0:0:
109,192,108283,1,0,0:0:0:0:
402,192,108283,1,0,0:0:0:0:
256,192,108426,1,0,0:0:0:0:
109,192,108568,128,0,109140:0:0:0:0:
329,192,108568,1,0,0:0:0:0:
182,192,108568,1,0,0:0:0:0:
329,192,108711,1,0,0:0:0:0:
402,192,108854,1,0,0:0:0:0:
182,192,108854,1,0,0:0:0:0:
256,192,108854,1,0,0:0:0:0:
182,192,108997,1,0,0:0:0:0:
36,192,109140,128,0,109854:0:0:0:0:
256,192,109140,1,0,0:0:0:0:
329,192,109140,1,0,0:0:0:0:
329,192,109283,1,0,0:0:0:0:
182,192,109426,128,0,109854:0:0:0:0:
402,192,109426,1,0,0:0:0:0:
475,192,109426,1,0,0:0:0:0:
402,192,109568,1,0,0:0:0:0:
329,192,109711,128,0,109997:0:0:0:0:
109,192,109711,1,0,0:0:0:0:
475,192,109711,1,0,0:0:0:0:
475,192,109854,1,0,0:0:0:0:
109,192,109997,128,0,110854:0:0:0:0:
256,192,109997,1,0,0:0:0:0:
36,192,109997,1,0,0:0:0:0:
329,192,110068,1,0,0:0:0:0:
402,192,110140,1,0,0:0:0:0:
475,192,110211,1,0,0:0:0:0:
36,192,110283,1,0,0:0:0:0:
182,192,110283,1,0,0:0:0:0:
256,192,110354,1,0,0:0:0:0:
475,192,110426,128,0,111140:0:0:0:0:
329,192,110426,1,0,0:0:0:0:
402,192,110497,1,0,0:0:0:0:
182,192,110568,1,0,0:0:0:0:
36,192,110568,1,0,0:0:0:0:
256,192,110640,1,0,0:0:0:0:
329,192,110711,1,0,0:0:0:0:
402,192,110783,1,0,0:0:0:0:
36,192,110854,128,0,111140:0:0:0:0:
329,192,110854,1,0,0:0:0:0:
256,192,110926,1,0,0:0:0:0:
182,192,110997,1,0,0:0:0:0:
109,192,111068,1,0,0:0:0:0:
329,192,111140,1,0,0:0:0:0:
402,192,111140,1,0,0:0:0:0:
256,192,111140,1,0,0:0:0:0:
182,192,111426,1,0,0:0:0:0:
182,192,111568,1,0,0:0:0:0:
256,192,111640,1,0,0:0:0:0:
329,192,111711,1,0,0:0:0:0:
182,192,111783,1,0,0:0:0:0:
329,192,111854,1,0,0:0:0:0:
329,192,111997,1,0,0:0:0:0:
182,192,111997,1,0,0:0:0:0:
475,192,111997,1,0,0:0:0:0:
36,192,112283,1,0,0:0:0:0:
256,192,112283,1,0,0:0:0:0:
402,192,112283,1,0,0:0:0:0:
109,192,112426,1,0,0:0:0:0:
182,192,112497,1,0,0:0:0:0:
256,192,112568,1,0,0:0:0:0:
402,192,112568,1,0,0:0:0:0:
475,192,112568,1,0,0:0:0:0:
109,192,112640,1,0,0:0:0:0:
256,192,112711,1,0,0:0:0:0:
182,192,112783,1,0,0:0:0:0:
109,192,112854,1,0,0:0:0:0:
402,192,112854,1,0,0:0:0:0:
36,192,112854,1,0,0:0:0:0:
329,192,112926,1,0,0:0:0:0:
256,192,112997,1,0,0:0:0:0:
402,192,113068,1,0,0:0:0:0:
256,192,113140,1,0,0:0:0:0:
182,192,113140,1,0,0:0:0:0:
36,192,113140,1,0,0:0:0:0:
329,192,113211,1,0,0:0:0:0:
402,192,113283,1,0,0:0:0:0:
256,192,113354,1,0,0:0:0:0:
329,192,113426,1,0,0:0:0:0:
475,192,113426,1,0,0:0:0:0:
109,192,113426,1,0,0:0:0:0:
182,192,113568,1,0,0:0:0:0:
256,192,113711,1,0,0:0:0:0:
36,192,113711,1,0,0:0:0:0:
329,192,113711,1,0,0:0:0:0:
109,192,113854,1,0,0:0:0:0:
182,192,113997,1,0,0:0:0:0:
402,192,113997,1,0,0:0:0:0:
475,192,113997,1,0,0:0:0:0:
329,192,114140,1,0,0:0:0:0:
182,192,114211,1,0,0:0:0:0:
402,192,114211,1,0,0:0:0:0:
256,192,114283,1,0,0:0:0:0:
36,192,114283,1,0,0:0:0:0:
475,192,114283,1,0,0:0:0:0:
182,192,114426,1,0,0:0:0:0:
329,192,114426,1,0,0:0:0:0:
256,192,114568,1,0,0:0:0:0:
109,192,114568,1,0,0:0:0:0:
402,192,114711,1,0,0:0:0:0:
109,192,114711,1,0,0:0:0:0:
329,192,114783,1,0,0:0:0:0:
256,192,114854,1,0,0:0:0:0:
36,192,114854,1,0,0:0:0:0:
402,192,114926,1,0,0:0:0:0:
256,192,114997,1,0,0:0:0:0:
36,192,114997,1,0,0:0:0:0:
329,192,115068,1,0,0:0:0:0:
402,192,115140,1,0,0:0:0:0:
109,192,115140,1,0,0:0:0:0:
182,192,115211,1,0,0:0:0:0:
256,192,115283,1,0,0:0:0:0:
402,192,115283,1,0,0:0:0:0:
109,192,115354,1,0,0:0:0:0:
256,192,115426,1,0,0:0:0:0:
475,192,115426,1,0,0:0:0:0:
182,192,115497,1,0,0:0:0:0:
109,192,115568,1,0,0:0:0:0:
475,192,115568,1,0,0:0:0:0:
256,192,115640,1,0,0:0:0:0:
109,192,115711,1,0,0:0:0:0:
402,192,115711,1,0,0:0:0:0:
182,192,115783,1,0,0:0:0:0:
256,192,115854,1,0,0:0:0:0:
475,192,115854,1,0,0:0:0:0:
329,192,115926,1,0,0:0:0:0:
182,192,115997,1,0,0:0:0:0:
402,192,115997,1,0,0:0:0:0:
256,192,116068,1,0,0:0:0:0:
329,192,116140,1,0,0:0:0:0:
109,192,116140,1,0,0:0:0:0:
402,192,116211,1,0,0:0:0:0:
256,192,116283,1,0,0:0:0:0:
36,192,116283,1,0,0:0:0:0:
329,192,116354,1,0,0:0:0:0:
402,192,116426,1,0,0:0:0:0:
182,192,116426,1,0,0:0:0:0:
475,192,116497,1,0,0:0:0:0:
256,192,116568,1,0,0:0:0:0:
36,192,116568,1,0,0:0:0:0:
182,192,116640,1,0,0:0:0:0:
109,192,116711,1,0,0:0:0:0:
329,192,116711,1,0,0:0:0:0:
36,192,116783,1,0,0:0:0:0:
402,192,116854,1,0,0:0:0:0:
329,192,116997,1,0,0:0:0:0:
256,192,117068,1,0,0:0:0:0:
182,192,117140,1,0,0:0:0:0:
36,192,117140,1,0,0:0:0:0:
402,192,117140,1,0,0:0:0:0:
329,192,117211,1,0,0:0:0:0:
182,192,117283,1,0,0:0:0:0:
256,192,117354,1,0,0:0:0:0:
329,192,117426,1,0,0:0:0:0:
475,192,117426,1,0,0:0:0:0:
36,192,117426,1,0,0:0:0:0:
182,192,117497,1,0,0:0:0:0:
329,192,117568,1,0,0:0:0:0:
256,192,117640,1,0,0:0:0:0:
182,192,117711,1,0,0:0:0:0:
36,192,117711,1,0,0:0:0:0:
475,192,117711,1,0,0:0:0:0:
329,192,117783,1,0,0:0:0:0:
182,192,117854,1,0,0:0:0:0:
256,192,117926,1,0,0:0:0:0:
329,192,117997,1,0,0:0:0:0:
36,192,117997,1,0,0:0:0:0:
475,192,117997,1,0,0:0:0:0:
329,192,118140,1,0,0:0:0:0:
109,192,118140,1,0,0:0:0:0:
182,192,118283,1,0,0:0:0:0:
36,192,118283,1,0,0:0:0:0:
402,192,118283,1,0,0:0:0:0:
182,192,118426,1,0,0:0:0:0:
475,192,118426,1,0,0:0:0:0:
329,192,118568,1,0,0:0:0:0:
36,192,118568,1,0,0:0:0:0:
256,192,118568,1,0,0:0:0:0:
329,192,118711,1,0,0:0:0:0:
109,192,118711,1,0,0:0:0:0:
182,192,118854,1,0,0:0:0:0:
402,192,118854,1,0,0:0:0:0:
36,192,118854,1,0,0:0:0:0:
182,192,118997,1,0,0:0:0:0:
475,192,118997,1,0,0:0:0:0:
329,192,119140,1,0,0:0:0:0:
36,192,119140,1,0,0:0:0:0:
256,192,119211,1,0,0:0:0:0:
182,192,119283,1,0,0:0:0:0:
36,192,119283,1,0,0:0:0:0:
329,192,119354,1,0,0:0:0:0:
182,192,119426,1,0,0:0:0:0:
475,192,119426,1,0,0:0:0:0:
256,192,119497,1,0,0:0:0:0:
329,192,119568,1,0,0:0:0:0:
475,192,119568,1,0,0:0:0:0:
182,192,119640,1,0,0:0:0:0:
329,192,119711,1,0,0:0:0:0:
36,192,119711,1,0,0:0:0:0:
256,192,119783,1,0,0:0:0:0:
182,192,119854,1,0,0:0:0:0:
36,192,119854,1,0,0:0:0:0:
329,192,119926,1,0,0:0:0:0:
182,192,119997,1,0,0:0:0:0:
475,192,119997,1,0,0:0:0:0:
256,192,120068,1,0,0:0:0:0:
329,192,120140,1,0,0:0:0:0:
475,192,120140,1,0,0:0:0:0:
182,192,120211,1,0,0:0:0:0:
36,192,120283,1,0,0:0:0:0:
329,192,120283,1,0,0:0:0:0:
109,192,120354,1,0,0:0:0:0:
182,192,120426,1,0,0:0:0:0:
402,192,120426,1,0,0:0:0:0:
256,192,120497,1,0,0:0:0:0:
475,192,120568,1,0,0:0:0:0:
36,192,120568,1,0,0:0:0:0:
402,192,120640,1,0,0:0:0:0:
329,192,120711,1,0,0:0:0:0:
109,192,120711,1,0,0:0:0:0:
256,192,120783,1,0,0:0:0:0:
36,192,120854,1,0,0:0:0:0:
475,192,120854,1,0,0:0:0:0:
109,192,120926,1,0,0:0:0:0:
182,192,120997,1,0,0:0:0:0:
329,192,120997,1,0,0:0:0:0:
475,192,121068,1,0,0:0:0:0:
36,192,121140,1,0,0:0:0:0:
256,192,121140,1,0,0:0:0:0:
329,192,121211,1,0,0:0:0:0:
182,192,121283,1,0,0:0:0:0:
402,192,121283,1,0,0:0:0:0:
256,192,121354,1,0,0:0:0:0:
109,192,121426,1,0,0:0:0:0:
36,192,121426,1,0,0:0:0:0:
402,192,121426,128,0,121497:0:0:0:0:
329,192,121497,128,0,121568:0:0:0:0:
475,192,121568,1,0,0:0:0:0:
256,192,121568,128,0,121640:0:0:0:0:
182,192,121640,128,0,121711:0:0:0:0:
109,192,121711,128,0,121783:0:0:0:0:
329,192,121711,1,0,0:0:0:0:
182,192,121854,1,0,0:0:0:0:
475,192,121854,1,0,0:0:0:0:
402,192,121854,128,0,121926:0:0:0:0:
329,192,121926,128,0,121997:0:0:0:0:
36,192,121997,1,0,0:0:0:0:
256,192,121997,128,0,122068:0:0:0:0:
182,192,122068,128,0,122140:0:0:0:0:
109,192,122140,128,0,122211:0:0:0:0:
329,192,122140,1,0,0:0:0:0:
182,192,122283,1,0,0:0:0:0:
475,192,122283,1,0,0:0:0:0:
402,192,122283,128,0,122354:0:0:0:0:
329,192,122354,128,0,122426:0:0:0:0:
36,192,122426,1,0,0:0:0:0:
256,192,122426,128,0,122497:0:0:0:0:
182,192,122497,128,0,122568:0:0:0:0:
109,192,122568,128,0,122640:0:0:0:0:
329,192,122568,1,0,0:0:0:0:
475,192,122568,1,0,0:0:0:0:
256,192,122664,1,0,0:0:0:0:
182,192,122759,1,0,0:0:0:0:
109,192,122854,1,0,0:0:0:0:
329,192,122854,128,0,122949:0:0:0:0:
36,192,122949,1,0,0:0:0:0:
256,192,122949,128,0,123045:0:0:0:0:
182,192,123045,128,0,123140:0:0:0:0:
475,192,123045,1,0,0:0:0:0:
36,192,123140,1,0,0:0:0:0:
402,192,123140,128,0,123235:0:0:0:0:
182,192,123235,1,0,0:0:0:0:
329,192,123235,128,0,123330:0:0:0:0:
256,192,123330,128,0,123426:0:0:0:0:
109,192,123330,1,0,0:0:0:0:
36,192,123426,1,0,0:0:0:0:
475,192,123426,128,0,123521:0:0:0:0:
402,192,123521,128,0,123616:0:0:0:0:
182,192,123568,1,0,0:0:0:0:
329,192,123616,128,0,123711:0:0:0:0:
475,192,123711,1,0,0:0:0:0:
109,192,123711,128,0,123783:0:0:0:0:
182,192,123783,128,0,123854:0:0:0:0:
36,192,123854,1,0,0:0:0:0:
256,192,123854,128,0,123926:0:0:0:0:
329,192,123926,128,0,123997:0:0:0:0:
182,192,123997,1,0,0:0:0:0:
402,192,123997,128,0,124068:0:0:0:0:
329,192,124140,1,0,0:0:0:0:
36,192,124140,1,0,0:0:0:0:
109,192,124140,128,0,124211:0:0:0:0:
182,192,124211,128,0,124283:0:0:0:0:
475,192,124283,1,0,0:0:0:0:
256,192,124283,128,0,124354:0:0:0:0:
329,192,124354,128,0,124426:0:0:0:0:
402,192,124426,128,0,124497:0:0:0:0:
182,192,124426,1,0,0:0:0:0:
329,192,124568,1,0,0:0:0:0:
36,192,124568,1,0,0:0:0:0:
109,192,124568,128,0,124640:0:0:0:0:
182,192,124640,128,0,124711:0:0:0:0:
475,192,124711,1,0,0:0:0:0:
256,192,124711,128,0,124783:0:0:0:0:
329,192,124783,128,0,124854:0:0:0:0:
402,192,124854,128,0,124926:0:0:0:0:
182,192,124854,1,0,0:0:0:0:
36,192,124854,1,0,0:0:0:0:
475,192,124926,1,0,0:0:0:0:
182,192,124997,1,0,0:0:0:0:
256,192,125068,1,0,0:0:0:0:
329,192,125140,1,0,0:0:0:0:
36,192,125140,128,0,125211:0:0:0:0:
109,192,125211,128,0,125283:0:0:0:0:
402,192,125283,1,0,0:0:0:0:
182,192,125283,128,0,125354:0:0:0:0:
256,192,125354,128,0,125426:0:0:0:0:
36,192,125426,1,0,0:0:0:0:
475,192,125426,128,0,125497:0:0:0:0:
402,192,125497,128,0,125568:0:0:0:0:
109,192,125568,1,0,0:0:0:0:
329,192,125568,128,0,125640:0:0:0:0:
256,192,125640,128,0,125711:0:0:0:0:
402,192,125711,1,0,0:0:0:0:
36,192,125711,128,0,125783:0:0:0:0:
109,192,125783,128,0,125854:0:0:0:0:
475,192,125854,1,0,0:0:0:0:
182,192,125854,128,0,125926:0:0:0:0:
256,192,125926,128,0,125997:0:0:0:0:
329,192,125997,1,0,0:0:0:0:
475,192,125997,1,0,0:0:0:0:
36,192,125997,1,0,0:0:0:0:
182,192,126068,1,0,0:0:0:0:
402,192,126140,1,0,0:0:0:0:
109,192,126211,1,0,0:0:0:0:
329,192,126283,1,0,0:0:0:0:
36,192,126354,1,0,0:0:0:0:
256,192,126426,1,0,0:0:0:0:
475,192,126497,1,0,0:0:0:0:
182,192,126568,1,0,0:0:0:0:
402,192,126640,1,0,0:0:0:0:
109,192,126711,1,0,0:0:0:0:
329,192,126783,1,0,0:0:0:0:
36,192,126854,1,0,0:0:0:0:
256,192,126926,1,0,0:0:0:0:
475,192,126997,1,0,0:0:0:0:
182,192,127068,1,0,0:0:0:0:
402,192,127140,1,0,0:0:0:0:
109,192,127211,1,0,0:0:0:0:
329,192,127283,1,0,0:0:0:0:
36,192,127354,1,0,0:0:0:0:
256,192,127426,1,0,0:0:0:0:
475,192,127497,1,0,0:0:0:0:
182,192,127568,1,0,0:0:0:0:
402,192,127640,1,0,0:0:0:0:
109,192,127711,1,0,0:0:0:0:
329,192,127783,1,0,0:0:0:0:
36,192,127854,1,0,0:0:0:0:
256,192,127926,1,0,0:0:0:0:
475,192,127997,1,0,0:0:0:0:
182,192,128068,1,0,0:0:0:0:
402,192,128140,1,0,0:0:0:0:
109,192,128211,1,0,0:0:0:0:
329,192,128283,1,0,0:0:0:0:
256,192,128283,1,0,0:0:0:0:
182,192,128426,1,0,0:0:0:0:
109,192,128568,1,0,0:0:0:0:
36,192,128568,1,0,0:0:0:0:
329,192,128711,1,0,0:0:0:0:
402,192,128711,1,0,0:0:0:0:
256,192,128854,1,0,0:0:0:0:
182,192,128997,1,0,0:0:0:0:
109,192,128997,1,0,0:0:0:0:
256,192,129140,1,0,0:0:0:0:
329,192,129283,1,0,0:0:0:0:
402,192,129283,1,0,0:0:0:0:
109,192,129426,1,0,0:0:0:0:
36,192,129426,1,0,0:0:0:0:
182,192,129568,1,0,0:0:0:0:
256,192,129711,1,0,0:0:0:0:
329,192,129711,1,0,0:0:0:0:
402,192,129854,1,0,0:0:0:0:
475,192,129854,1,0,0:0:0:0:
329,192,129997,1,0,0:0:0:0:
256,192,130140,1,0,0:0:0:0:
182,192,130140,1,0,0:0:0:0:
329,192,130283,1,0,0:0:0:0:
402,192,130426,1,0,0:0:0:0:
475,192,130426,1,0,0:0:0:0:
182,192,130568,1,0,0:0:0:0:
109,192,130568,1,0,0:0:0:0:
256,192,130711,1,0,0:0:0:0:
329,192,130854,1,0,0:0:0:0:
402,192,130854,1,0,0:0:0:0:
109,192,130997,1,0,0:0:0:0:
36,192,130997,1,0,0:0:0:0:
182,192,131140,1,0,0:0:0:0:
256,192,131283,1,0,0:0:0:0:
329,192,131283,1,0,0:0:0:0:
182,192,131426,1,0,0:0:0:0:
109,192,131568,1,0,0:0:0:0:
36,192,131568,1,0,0:0:0:0:
329,192,131711,1,0,0:0:0:0:
402,192,131711,1,0,0:0:0:0:
256,192,131854,1,0,0:0:0:0:
182,192,131997,1,0,0:0:0:0:
109,192,131997,1,0,0:0:0:0:
402,192,132140,1,0,0:0:0:0:
475,192,132140,1,0,0:0:0:0:
329,192,132283,1,0,0:0:0:0:
256,192,132426,1,0,0:0:0:0:
182,192,132426,1,0,0:0:0:0:
329,192,132568,1,0,0:0:0:0:
402,192,132711,1,0,0:0:0:0:
475,192,132711,1,0,0:0:0:0:
36,192,132854,128,0,133140:0:0:0:0:
475,192,132997,128,0,133140:0:0:0:0:
