osu file format v14

[General]
AudioFilename: audio.ogg
AudioLeadIn: 0
PreviewTime: 37926
Countdown: 0
SampleSet: Soft
StackLeniency: 0.7
Mode: 3
LetterboxInBreaks: 0
SpecialStyle: 0
WidescreenStoryboard: 1

[Editor]
Bookmarks: 10569,19712,28855,37998,47141,56284,68855,80284,89426,107712,117141,128284
DistanceSpacing: 1
BeatDivisor: 4
GridSize: 16
TimelineZoom: 2.5

[Metadata]
Title:SILENT BLUE
TitleUnicode:SILENT BLUE
Artist:Kaneko Chiharu
ArtistUnicode:かねこちはる
Creator:Shima Rin
Version:BASIC
Source:maimai MiLK PLUS
Tags:Tofu1222 _Stan ExNeko [Sick]Catcat オンゲキ ONGEKI SUMMER 藤沢 柚子 Fujikawa Yuzu ALL PERFECT COLLECTiON Video Game Electronic Instrumental
BeatmapID:3632452
BeatmapSetID:1726774

[Difficulty]
HPDrainRate:6.5
CircleSize:7
OverallDifficulty:6.5
ApproachRate:5
SliderMultiplier:1.4
SliderTickRate:1

[Events]
//Background and Video events
0,0,"BG.jpg",0,0
//Break Periods
//Storyboard Layer 0 (Background)
//Storyboard Layer 1 (Fail)
//Storyboard Layer 2 (Pass)
//Storyboard Layer 3 (Foreground)
//Storyboard Layer 4 (Overlay)
//Storyboard Sound Samples

[TimingPoints]
1426,285.714285714286,4,2,1,50,1,0
37997,-100,4,2,1,50,0,1
59426,-100,4,2,1,50,0,0
80283,-100,4,2,1,50,0,1
98568,-100,4,2,1,50,0,0
99426,-100,4,2,1,50,0,1
111140,-100,4,2,1,50,0,0
112283,-100,4,2,1,50,0,1
125997,-100,4,2,1,50,0,0

[HitObjects]
36,192,1426,5,0,0:0:0:0:
329,192,1426,1,0,0:0:0:0:
475,192,1854,1,0,0:0:0:0:
182,192,2283,1,0,0:0:0:0:
36,192,2854,1,0,0:0:0:0:
109,192,3140,1,0,0:0:0:0:
329,192,3426,1,0,0:0:0:0:
256,192,3711,1,0,0:0:0:0:
329,192,4140,1,0,0:0:0:0:
182,192,4568,1,0,0:0:0:0:
256,192,5140,1,0,0:0:0:0:
182,192,5426,1,0,0:0:0:0:
109,192,5711,1,0,0:0:0:0:
36,192,5997,1,0,0:0:0:0:
329,192,6283,1,0,0:0:0:0:
329,192,6426,1,0,0:0:0:0:
402,192,7140,1,0,0:0:0:0:
182,192,7568,1,0,0:0:0:0:
402,192,7997,1,0,0:0:0:0:
475,192,8283,128,0,9426:0:0:0:0:
36,192,9426,128,0,9997:0:0:0:0:
256,192,9997,1,0,0:0:0:0:
182,192,10283,1,0,0:0:0:0:
329,192,10283,1,0,0:0:0:0:
109,192,10568,1,0,0:0:0:0:
402,192,10568,1,0,0:0:0:0:
256,192,10854,1,0,0:0:0:0:
36,192,11140,1,0,0:0:0:0:
182,192,11426,1,0,0:0:0:0:
329,192,11711,1,0,0:0:0:0:
256,192,11997,1,0,0:0:0:0:
182,192,12283,1,0,0:0:0:0:
109,192,12568,1,0,0:0:0:0:
402,192,12854,1,0,0:0:0:0:
256,192,13140,1,0,0:0:0:0:
475,192,13426,1,0,0:0:0:0:
329,192,13711,1,0,0:0:0:0:
182,192,13997,1,0,0:0:0:0:
256,192,14283,1,0,0:0:0:0:
329,192,14568,1,0,0:0:0:0:
402,192,14854,1,0,0:0:0:0:
36,192,15140,1,0,0:0:0:0:
256,192,15426,1,0,0:0:0:0:
329,192,15711,1,0,0:0:0:0:
182,192,15997,1,0,0:0:0:0:
402,192,16283,1,0,0:0:0:0:
256,192,16568,1,0,0:0:0:0:
109,192,16854,1,0,0:0:0:0:
329,192,17140,1,0,0:0:0:0:
475,192,17426,128,0,17997:0:0:0:0:
109,192,17711,1,0,0:0:0:0:
329,192,17997,128,0,18283:0:0:0:0:
182,192,18283,128,0,18568:0:0:0:0:
329,192,18568,128,0,19140:0:0:0:0:
109,192,19140,1,0,0:0:0:0:
182,192,19283,1,0,0:0:0:0:
256,192,19426,1,0,0:0:0:0:
402,192,19426,1,0,0:0:0:0:
475,192,19711,1,0,0:0:0:0:
109,192,19711,128,0,20140:0:0:0:0:
256,192,19997,1,0,0:0:0:0:
402,192,20140,128,0,20568:0:0:0:0:
182,192,20283,1,0,0:0:0:0:
256,192,20568,128,0,21140:0:0:0:0:
475,192,20854,1,0,0:0:0:0:
36,192,21140,128,0,21426:0:0:0:0:
182,192,21426,128,0,21711:0:0:0:0:
329,192,21711,128,0,21997:0:0:0:0:
475,192,21997,128,0,22426:0:0:0:0:
182,192,22283,1,0,0:0:0:0:
329,192,22426,128,0,22854:0:0:0:0:
109,192,22568,1,0,0:0:0:0:
182,192,22854,128,0,23426:0:0:0:0:
329,192,23140,1,0,0:0:0:0:
402,192,23426,128,0,23711:0:0:0:0:
256,192,23711,128,0,23997:0:0:0:0:
109,192,23997,128,0,24283:0:0:0:0:
36,192,24283,1,0,0:0:0:0:
475,192,24283,1,0,0:0:0:0:
182,192,24497,1,0,0:0:0:0:
329,192,24711,1,0,0:0:0:0:
109,192,25140,1,0,0:0:0:0:
256,192,25354,1,0,0:0:0:0:
402,192,25568,1,0,0:0:0:0:
475,192,25997,1,0,0:0:0:0:
329,192,26211,1,0,0:0:0:0:
182,192,26426,1,0,0:0:0:0:
36,192,26568,128,0,27140:0:0:0:0:
329,192,26568,1,0,0:0:0:0:
256,192,26854,1,0,0:0:0:0:
182,192,27140,128,0,27711:0:0:0:0:
402,192,27426,1,0,0:0:0:0:
329,192,27711,128,0,28283:0:0:0:0:
182,192,27997,1,0,0:0:0:0:
475,192,28283,128,0,28854:0:0:0:0:
109,192,28568,1,0,0:0:0:0:
36,192,28854,1,0,0:0:0:0:
256,192,28854,1,0,0:0:0:0:
402,192,29140,1,0,0:0:0:0:
182,192,29426,1,0,0:0:0:0:
475,192,29711,1,0,0:0:0:0:
36,192,29997,1,0,0:0:0:0:
182,192,30283,1,0,0:0:0:0:
402,192,30568,1,0,0:0:0:0:
256,192,30854,1,0,0:0:0:0:
109,192,31140,1,0,0:0:0:0:
402,192,31568,1,0,0:0:0:0:
182,192,31854,1,0,0:0:0:0:
256,192,32283,1,0,0:0:0:0:
329,192,32711,1,0,0:0:0:0:
402,192,33140,1,0,0:0:0:0:
475,192,33426,1,0,0:0:0:0:
182,192,33711,1,0,0:0:0:0:
402,192,33997,1,0,0:0:0:0:
256,192,34283,1,0,0:0:0:0:
109,192,34568,1,0,0:0:0:0:
329,192,34854,1,0,0:0:0:0:
402,192,35140,1,0,0:0:0:0:
182,192,35426,1,0,0:0:0:0:
256,192,35711,1,0,0:0:0:0:
109,192,36140,1,0,0:0:0:0:
402,192,36426,1,0,0:0:0:0:
182,192,36854,1,0,0:0:0:0:
329,192,36854,1,0,0:0:0:0:
256,192,37426,1,0,0:0:0:0:
475,192,37711,1,0,0:0:0:0:
329,192,37711,1,0,0:0:0:0:
256,192,37997,1,0,0:0:0:0:
36,192,37997,128,0,38426:0:0:0:0:
182,192,38283,1,0,0:0:0:0:
329,192,38426,128,0,38854:0:0:0:0:
475,192,38568,1,0,0:0:0:0:
182,192,38854,128,0,39426:0:0:0:0:
402,192,39140,1,0,0:0:0:0:
36,192,39426,128,0,39711:0:0:0:0:
182,192,39711,128,0,39997:0:0:0:0:
475,192,39997,128,0,40283:0:0:0:0:
329,192,40283,128,0,40711:0:0:0:0:
182,192,40568,1,0,0:0:0:0:
36,192,40711,128,0,41140:0:0:0:0:
256,192,40854,1,0,0:0:0:0:
182,192,41140,128,0,41711:0:0:0:0:
402,192,41426,1,0,0:0:0:0:
329,192,41711,128,0,41997:0:0:0:0:
475,192,41997,128,0,42283:0:0:0:0:
36,192,42283,128,0,42568:0:0:0:0:
182,192,42568,128,0,42854:0:0:0:0:
475,192,42568,1,0,0:0:0:0:
329,192,42854,1,0,0:0:0:0:
329,192,42997,128,0,44854:0:0:0:0:
36,192,43140,1,0,0:0:0:0:
182,192,43426,1,0,0:0:0:0:
36,192,43711,1,0,0:0:0:0:
182,192,43997,1,0,0:0:0:0:
36,192,44283,1,0,0:0:0:0:
182,192,44568,1,0,0:0:0:0:
475,192,44854,1,0,0:0:0:0:
182,192,45140,1,0,0:0:0:0:
402,192,45426,1,0,0:0:0:0:
109,192,45711,1,0,0:0:0:0:
256,192,45997,1,0,0:0:0:0:
402,192,46283,1,0,0:0:0:0:
256,192,46568,1,0,0:0:0:0:
109,192,46854,1,0,0:0:0:0:
256,192,47140,1,0,0:0:0:0:
36,192,47140,128,0,47568:0:0:0:0:
182,192,47426,1,0,0:0:0:0:
329,192,47568,128,0,47997:0:0:0:0:
475,192,47711,1,0,0:0:0:0:
182,192,47997,128,0,48568:0:0:0:0:
402,192,48283,1,0,0:0:0:0:
36,192,48568,128,0,48854:0:0:0:0:
182,192,48854,128,0,49140:0:0:0:0:
475,192,49140,128,0,49426:0:0:0:0:
329,192,49426,128,0,49854:0:0:0:0:
182,192,49711,1,0,0:0:0:0:
475,192,49854,128,0,50283:0:0:0:0:
109,192,49997,1,0,0:0:0:0:
182,192,50283,128,0,50854:0:0:0:0:
402,192,50568,1,0,0:0:0:0:
475,192,50854,1,0,0:0:0:0:
329,192,50949,1,0,0:0:0:0:
182,192,51045,1,0,0:0:0:0:
36,192,51140,128,0,51711:0:0:0:0:
329,192,51426,1,0,0:0:0:0:
256,192,51711,1,0,0:0:0:0:
475,192,51711,128,0,53997:0:0:0:0:
109,192,51997,1,0,0:0:0:0:
256,192,52283,1,0,0:0:0:0:
109,192,52568,1,0,0:0:0:0:
256,192,52854,1,0,0:0:0:0:
109,192,53140,1,0,0:0:0:0:
256,192,53426,1,0,0:0:0:0:
109,192,53711,1,0,0:0:0:0:
329,192,53997,1,0,0:0:0:0:
256,192,54211,1,0,0:0:0:0:
329,192,54426,1,0,0:0:0:0:
182,192,54568,1,0,0:0:0:0:
256,192,54783,1,0,0:0:0:0:
182,192,54997,1,0,0:0:0:0:
475,192,55140,128,0,55426:0:0:0:0:
329,192,55426,128,0,55711:0:0:0:0:
182,192,55711,128,0,55997:0:0:0:0:
109,192,55997,1,0,0:0:0:0:
475,192,55997,1,0,0:0:0:0:
36,192,56283,1,0,0:0:0:0:
182,192,56283,1,0,0:0:0:0:
402,192,56568,1,0,0:0:0:0:
256,192,56711,1,0,0:0:0:0:
329,192,56997,1,0,0:0:0:0:
109,192,57283,1,0,0:0:0:0:
475,192,57426,1,0,0:0:0:0:
329,192,57426,1,0,0:0:0:0:
182,192,57568,1,0,0:0:0:0:
36,192,57711,128,0,58140:0:0:0:0:
402,192,58140,1,0,0:0:0:0:
329,192,58283,1,0,0:0:0:0:
256,192,58426,1,0,0:0:0:0:
36,192,58568,1,0,0:0:0:0:
182,192,58568,1,0,0:0:0:0:
36,192,58997,1,0,0:0:0:0:
182,192,58997,1,0,0:0:0:0:
475,192,59426,128,0,61997:0:0:0:0:
109,192,59426,1,0,0:0:0:0:
256,192,59711,1,0,0:0:0:0:
109,192,59997,1,0,0:0:0:0:
256,192,60283,1,0,0:0:0:0:
109,192,60568,1,0,0:0:0:0:
256,192,60854,1,0,0:0:0:0:
109,192,61140,1,0,0:0:0:0:
256,192,61426,1,0,0:0:0:0:
109,192,61711,1,0,0:0:0:0:
256,192,61997,1,0,0:0:0:0:
402,192,62283,1,0,0:0:0:0:
256,192,62426,1,0,0:0:0:0:
182,192,62711,1,0,0:0:0:0:
109,192,62997,1,0,0:0:0:0:
256,192,63140,1,0,0:0:0:0:
402,192,63426,1,0,0:0:0:0:
256,192,63568,1,0,0:0:0:0:
475,192,63854,1,0,0:0:0:0:
182,192,64140,1,0,0:0:0:0:
256,192,64283,1,0,0:0:0:0:
402,192,64568,1,0,0:0:0:0:
256,192,64711,1,0,0:0:0:0:
182,192,64997,1,0,0:0:0:0:
109,192,65283,1,0,0:0:0:0:
256,192,65426,1,0,0:0:0:0:
402,192,65711,1,0,0:0:0:0:
256,192,65854,1,0,0:0:0:0:
109,192,66140,1,0,0:0:0:0:
182,192,66426,1,0,0:0:0:0:
256,192,66568,1,0,0:0:0:0:
402,192,66854,1,0,0:0:0:0:
256,192,66997,1,0,0:0:0:0:
182,192,67283,1,0,0:0:0:0:
109,192,67568,1,0,0:0:0:0:
256,192,67711,1,0,0:0:0:0:
256,192,67997,1,0,0:0:0:0:
256,192,68283,1,0,0:0:0:0:
256,192,68568,1,0,0:0:0:0:
256,192,68854,128,0,69997:0:0:0:0:
109,192,69997,128,0,70568:0:0:0:0:
402,192,70568,128,0,71140:0:0:0:0:
256,192,71140,128,0,71711:0:0:0:0:
402,192,71711,128,0,72283:0:0:0:0:
475,192,72283,128,0,72854:0:0:0:0:
36,192,72854,128,0,73426:0:0:0:0:
329,192,73426,1,0,0:0:0:0:
182,192,73711,1,0,0:0:0:0:
36,192,73997,128,0,74283:0:0:0:0:
182,192,74283,128,0,74568:0:0:0:0:
475,192,74568,128,0,74854:0:0:0:0:
256,192,74854,128,0,75140:0:0:0:0:
402,192,75140,128,0,75426:0:0:0:0:
182,192,75426,128,0,75711:0:0:0:0:
256,192,75711,128,0,77997:0:0:0:0:
329,192,77997,1,0,0:0:0:0:
475,192,78283,1,0,0:0:0:0:
329,192,78426,1,0,0:0:0:0:
182,192,78711,1,0,0:0:0:0:
36,192,78997,1,0,0:0:0:0:
475,192,79140,1,0,0:0:0:0:
256,192,79140,1,0,0:0:0:0:
182,192,79711,1,0,0:0:0:0:
475,192,79997,1,0,0:0:0:0:
329,192,79997,1,0,0:0:0:0:
36,192,80283,1,0,0:0:0:0:
256,192,80283,128,0,80711:0:0:0:0:
475,192,80568,1,0,0:0:0:0:
329,192,80711,128,0,81140:0:0:0:0:
109,192,80854,1,0,0:0:0:0:
182,192,81140,128,0,81711:0:0:0:0:
402,192,81426,1,0,0:0:0:0:
36,192,81711,128,0,81997:0:0:0:0:
182,192,81997,128,0,82283:0:0:0:0:
329,192,82283,128,0,82568:0:0:0:0:
256,192,82568,128,0,82997:0:0:0:0:
36,192,82854,1,0,0:0:0:0:
329,192,82997,128,0,83426:0:0:0:0:
109,192,83140,1,0,0:0:0:0:
182,192,83426,128,0,83997:0:0:0:0:
402,192,83711,1,0,0:0:0:0:
475,192,83997,128,0,84283:0:0:0:0:
329,192,84283,128,0,84568:0:0:0:0:
182,192,84568,128,0,84854:0:0:0:0:
475,192,84854,1,0,0:0:0:0:
36,192,84854,128,0,85140:0:0:0:0:
329,192,85140,1,0,0:0:0:0:
329,192,85283,128,0,87140:0:0:0:0:
36,192,85426,1,0,0:0:0:0:
182,192,85711,1,0,0:0:0:0:
36,192,85997,1,0,0:0:0:0:
182,192,86283,1,0,0:0:0:0:
36,192,86568,1,0,0:0:0:0:
182,192,86854,1,0,0:0:0:0:
475,192,87140,1,0,0:0:0:0:
109,192,87426,1,0,0:0:0:0:
402,192,87711,1,0,0:0:0:0:
182,192,87997,1,0,0:0:0:0:
329,192,88283,1,0,0:0:0:0:
36,192,88568,1,0,0:0:0:0:
402,192,88854,1,0,0:0:0:0:
109,192,89140,1,0,0:0:0:0:
256,192,89426,128,0,89854:0:0:0:0:
475,192,89426,1,0,0:0:0:0:
36,192,89711,1,0,0:0:0:0:
329,192,89854,128,0,90283:0:0:0:0:
109,192,89997,1,0,0:0:0:0:
182,192,90283,128,0,90854:0:0:0:0:
402,192,90568,1,0,0:0:0:0:
36,192,90854,128,0,91140:0:0:0:0:
182,192,91140,128,0,91426:0:0:0:0:
329,192,91426,128,0,91711:0:0:0:0:
256,192,91711,128,0,92140:0:0:0:0:
475,192,91997,1,0,0:0:0:0:
329,192,92140,128,0,92568:0:0:0:0:
109,192,92283,1,0,0:0:0:0:
475,192,92568,128,0,93140:0:0:0:0:
36,192,92854,1,0,0:0:0:0:
402,192,93140,1,0,0:0:0:0:
329,192,93235,1,0,0:0:0:0:
256,192,93330,1,0,0:0:0:0:
182,192,93426,128,0,93997:0:0:0:0:
329,192,93711,1,0,0:0:0:0:
36,192,93997,1,0,0:0:0:0:
475,192,93997,128,0,96283:0:0:0:0:
182,192,94283,1,0,0:0:0:0:
36,192,94568,1,0,0:0:0:0:
182,192,94854,1,0,0:0:0:0:
36,192,95140,1,0,0:0:0:0:
182,192,95426,1,0,0:0:0:0:
36,192,95711,1,0,0:0:0:0:
182,192,95997,1,0,0:0:0:0:
329,192,96283,1,0,0:0:0:0:
256,192,96497,1,0,0:0:0:0:
329,192,96711,1,0,0:0:0:0:
182,192,96854,1,0,0:0:0:0:
256,192,97068,1,0,0:0:0:0:
182,192,97283,1,0,0:0:0:0:
475,192,97426,128,0,97711:0:0:0:0:
36,192,97711,128,0,97997:0:0:0:0:
329,192,97997,128,0,98283:0:0:0:0:
182,192,98283,128,0,98568:0:0:0:0:
256,192,98568,1,0,0:0:0:0:
475,192,98997,1,0,0:0:0:0:
329,192,99426,1,0,0:0:0:0:
182,192,99426,128,0,99997:0:0:0:0:
36,192,99997,128,0,100283:0:0:0:0:
182,192,100283,128,0,100568:0:0:0:0:
475,192,100568,128,0,100854:0:0:0:0:
329,192,100854,128,0,101283:0:0:0:0:
182,192,101140,1,0,0:0:0:0:
475,192,101283,128,0,101711:0:0:0:0:
109,192,101426,1,0,0:0:0:0:
182,192,101711,128,0,102283:0:0:0:0:
329,192,101997,1,0,0:0:0:0:
36,192,102283,128,0,102568:0:0:0:0:
402,192,102568,128,0,102854:0:0:0:0:
36,192,102854,128,0,103140:0:0:0:0:
475,192,103140,1,0,0:0:0:0:
182,192,103140,128,0,105426:0:0:0:0:
329,192,103426,1,0,0:0:0:0:
475,192,103711,1,0,0:0:0:0:
329,192,103997,1,0,0:0:0:0:
475,192,104283,1,0,0:0:0:0:
329,192,104568,1,0,0:0:0:0:
475,192,104854,1,0,0:0:0:0:
329,192,105140,1,0,0:0:0:0:
402,192,105426,1,0,0:0:0:0:
182,192,105711,1,0,0:0:0:0:
402,192,105854,1,0,0:0:0:0:
475,192,106140,1,0,0:0:0:0:
329,192,106426,1,0,0:0:0:0:
109,192,106568,1,0,0:0:0:0:
182,192,106854,1,0,0:0:0:0:
256,192,107140,128,0,107711:0:0:0:0:
475,192,107711,1,0,0:0:0:0:
36,192,107711,128,0,108140:0:0:0:0:
182,192,107997,1,0,0:0:0:0:
329,192,108140,128,0,108568:0:0:0:0:
109,192,108283,1,0,0:0:0:0:
182,192,108568,128,0,109140:0:0:0:0:
475,192,108854,1,0,0:0:0:0:
36,192,109140,128,0,109426:0:0:0:0:
182,192,109426,128,0,109711:0:0:0:0:
475,192,109711,128,0,109997:0:0:0:0:
329,192,109997,128,0,110426:0:0:0:0:
109,192,110283,1,0,0:0:0:0:
475,192,110426,128,0,110854:0:0:0:0:
256,192,110568,1,0,0:0:0:0:
182,192,110854,128,0,111140:0:0:0:0:
36,192,111140,1,0,0:0:0:0:
402,192,111140,1,0,0:0:0:0:
329,192,111711,1,0,0:0:0:0:
182,192,111997,1,0,0:0:0:0:
36,192,111997,1,0,0:0:0:0:
329,192,112283,1,0,0:0:0:0:
475,192,112283,1,0,0:0:0:0:
182,192,112568,128,0,112854:0:0:0:0:
402,192,112854,1,0,0:0:0:0:
109,192,113140,128,0,113426:0:0:0:0:
329,192,113426,1,0,0:0:0:0:
109,192,113711,1,0,0:0:0:0:
256,192,113997,1,0,0:0:0:0:
402,192,114211,1,0,0:0:0:0:
475,192,114426,1,0,0:0:0:0:
329,192,114568,1,0,0:0:0:0:
182,192,114711,1,0,0:0:0:0:
36,192,114854,128,0,115140:0:0:0:0:
402,192,115140,1,0,0:0:0:0:
256,192,115283,1,0,0:0:0:0:
109,192,115426,128,0,115711:0:0:0:0:
475,192,115711,128,0,116283:0:0:0:0:
109,192,116283,1,0,0:0:0:0:
182,192,116497,1,0,0:0:0:0:
256,192,116711,1,0,0:0:0:0:
329,192,116854,1,0,0:0:0:0:
36,192,117140,1,0,0:0:0:0:
475,192,117140,128,0,117426:0:0:0:0:
182,192,117426,1,0,0:0:0:0:
402,192,117711,128,0,117997:0:0:0:0:
256,192,117997,1,0,0:0:0:0:
109,192,118283,1,0,0:0:0:0:
402,192,118568,1,0,0:0:0:0:
329,192,118783,1,0,0:0:0:0:
256,192,118997,1,0,0:0:0:0:
36,192,119140,1,0,0:0:0:0:
182,192,119283,1,0,0:0:0:0:
329,192,119426,128,0,119711:0:0:0:0:
109,192,119711,1,0,0:0:0:0:
256,192,119854,1,0,0:0:0:0:
402,192,119997,128,0,120283:0:0:0:0:
36,192,120283,128,0,120854:0:0:0:0:
182,192,120854,128,0,121426:0:0:0:0:
475,192,121426,1,0,0:0:0:0:
329,192,121426,128,0,121854:0:0:0:0:
109,192,121711,1,0,0:0:0:0:
402,192,121854,128,0,122283:0:0:0:0:
182,192,121997,1,0,0:0:0:0:
475,192,122283,128,0,122854:0:0:0:0:
36,192,122568,1,0,0:0:0:0:
256,192,122854,128,0,123140:0:0:0:0:
182,192,123140,128,0,123426:0:0:0:0:
109,192,123426,128,0,123711:0:0:0:0:
475,192,123711,1,0,0:0:0:0:
36,192,123711,128,0,124140:0:0:0:0:
402,192,123997,1,0,0:0:0:0:
109,192,124140,128,0,124568:0:0:0:0:
329,192,124283,1,0,0:0:0:0:
182,192,124568,128,0,125140:0:0:0:0:
475,192,124854,1,0,0:0:0:0:
402,192,125140,128,0,125426:0:0:0:0:
256,192,125426,128,0,125711:0:0:0:0:
109,192,125711,128,0,125997:0:0:0:0:
329,192,125997,1,0,0:0:0:0:
475,192,125997,128,0,128283:0:0:0:0:
256,192,128283,1,0,0:0:0:0:
402,192,128568,1,0,0:0:0:0:
256,192,128711,1,0,0:0:0:0:
182,192,128997,1,0,0:0:0:0:
109,192,129283,1,0,0:0:0:0:
256,192,129426,1,0,0:0:0:0:
402,192,129711,1,0,0:0:0:0:
256,192,129854,1,0,0:0:0:0:
109,192,130140,1,0,0:0:0:0:
182,192,130426,1,0,0:0:0:0:
256,192,130568,1,0,0:0:0:0:
402,192,130854,1,0,0:0:0:0:
256,192,130997,1,0,0:0:0:0:
182,192,131283,1,0,0:0:0:0:
109,192,131568,1,0,0:0:0:0:
256,192,131711,1,0,0:0:0:0:
402,192,131997,1,0,0:0:0:0:
256,192,132140,1,0,0:0:0:0:
475,192,132426,1,0,0:0:0:0:
182,192,132711,1,0,0:0:0:0:
