osu file format v14

[General]
AudioFilename: audio.ogg
AudioLeadIn: 0
PreviewTime: 37926
Countdown: 0
SampleSet: Normal
StackLeniency: 0.7
Mode: 1
LetterboxInBreaks: 0
WidescreenStoryboard: 1

[Editor]
Bookmarks: 10568,19711,28854,36848,37277,37997,47134,59420,66562,68848,77991,79134,80277,89420,98562,99420,111134,116848,117134
DistanceSpacing: 1
BeatDivisor: 4
GridSize: 4
TimelineZoom: 2.9

[Metadata]
Title:SILENT BLUE
TitleUnicode:SILENT BLUE
Artist:Kaneko Chiharu
ArtistUnicode:かねこちはる
Creator:[-E S I A-]
Version:MUZUKASHII
Source:maimai MiLK PLUS
Tags:オンゲキ ONGEKI SUMMER 藤沢 柚子 Fujikawa Yuzu ALL PERFECT COLLECTiON Video Game Videogame Electronic Instrumental E_S_I_A [-E_S_I_A-] ESIA [-ESIA-]
BeatmapID:3811605
BeatmapSetID:1853727

[Difficulty]
HPDrainRate:6
CircleSize:2
OverallDifficulty:5
ApproachRate:10
SliderMultiplier:1.4
SliderTickRate:1

[Events]
//Background and Video events
0,0,"M.jpg",0,-90
//Break Periods
2,59619,66111
//Storyboard Layer 0 (Background)
//Storyboard Layer 1 (Fail)
//Storyboard Layer 2 (Pass)
//Storyboard Layer 3 (Foreground)
//Storyboard Layer 4 (Overlay)
//Storyboard Sound Samples

[TimingPoints]
277,285.714285714286,4,1,0,50,1,8
1419,285.714285714286,4,1,0,50,1,0
1419,-111.111111111111,4,1,0,50,0,0
8561,-111.111111111111,4,1,0,30,0,0
9847,-111.111111111111,4,1,0,70,0,0
10419,-100,4,1,0,70,0,0
19561,-100,4,1,0,75,0,0
28990,-111.111111111111,4,1,0,50,0,0
36704,-95.2380952380952,4,1,0,60,0,0
37133,-111.111111111111,4,1,0,70,0,0
37847,-100,4,1,0,80,0,0
37990,-100,4,1,0,80,0,1
56204,-95.2380952380952,4,1,0,80,0,1
56561,-100,4,1,0,80,0,1
57347,-95.2380952380952,4,1,0,80,0,1
57633,-100,4,1,0,80,0,1
58490,-95.2380952380952,4,1,0,80,0,1
58919,-90.9090909090909,4,1,0,80,0,1
59347,-86.9565217391304,4,1,0,80,0,1
59419,-86.9565217391304,4,1,0,80,0,0
59704,285.714285714286,4,1,0,50,1,0
59704,-111.111111111111,4,1,0,50,0,0
66490,-108.695652173913,4,1,0,50,0,0
66776,-106.382978723404,4,1,0,50,0,0
67061,-104.166666666667,4,1,0,50,0,0
67347,-102.040816326531,4,1,0,50,0,0
67633,-100,4,1,0,50,0,0
67919,-98.0392156862745,4,1,0,50,0,0
68204,-96.1538461538461,4,1,0,50,0,0
68490,-94.3396226415094,4,1,0,50,0,0
68776,-92.5925925925926,4,1,0,50,0,0
68990,-111.111111111111,4,1,0,50,0,0
78990,-95.2380952380952,4,1,0,60,0,0
79419,-111.111111111111,4,1,0,70,0,0
80275,285.714285714286,4,1,0,80,1,8
80276,285.714285714286,4,1,0,80,1,1
80276,-100,4,1,0,80,0,1
98561,-95.2380952380952,4,1,0,70,0,0
98919,-90.9090909090909,4,1,0,70,0,0
99418,-86.9565217391304,4,1,0,80,0,1
99704,-100,4,1,0,80,0,1
111133,-95.2380952380952,4,1,0,70,0,0
111419,-111.111111111111,4,1,0,70,0,0
112276,-100,4,1,0,80,0,1
116847,-100,4,1,0,70,0,0
117133,-100,4,1,0,80,0,1
121347,-95.2380952380952,4,1,0,80,0,1
123633,-90.9090909090909,4,1,0,80,0,1
125990,-90.9090909090909,4,1,0,70,0,0
126133,-100,4,1,0,70,0,0
126240,-101.010101010101,4,1,0,70,0,0
126383,-103.092783505155,4,1,0,70,0,0
126526,-104.166666666667,4,1,0,70,0,0
126597,-105.263157894737,4,1,0,70,0,0
126669,-106.382978723404,4,1,0,70,0,0
126811,-107.52688172043,4,1,0,70,0,0
127097,-109.89010989011,4,1,0,70,0,0
127240,-112.359550561798,4,1,0,70,0,0
127383,-113.636363636364,4,1,0,70,0,0
127454,-114.942528735632,4,1,0,70,0,0
127526,-116.279069767442,4,1,0,70,0,0
127669,-117.647058823529,4,1,0,70,0,0
127954,-120.481927710843,4,1,0,70,0,0
128097,-121.951219512195,4,1,0,70,0,0
128240,-123.456790123457,4,1,0,70,0,0
128669,-126.582278481013,4,1,0,70,0,0
128954,-128.205128205128,4,1,0,70,0,0
129240,-129.87012987013,4,1,0,70,0,0
129383,-131.578947368421,4,1,0,70,0,0
129669,-133.333333333333,4,1,0,70,0,0
129811,-135.135135135135,4,1,0,70,0,0
130097,-136.986301369863,4,1,0,70,0,0
130526,-140.845070422535,4,1,0,70,0,0
130811,-142.857142857143,4,1,0,70,0,0
130954,-144.927536231884,4,1,0,70,0,0
131240,-147.058823529412,4,1,0,70,0,0
131526,-149.253731343284,4,1,0,70,0,0
131669,-151.515151515152,4,1,0,70,0,0
131954,-153.846153846154,4,1,0,70,0,0
132097,-156.25,4,1,0,70,0,0
132383,-158.730158730159,4,1,0,70,0,0
132669,-161.290322580645,4,1,0,70,0,0
132811,-166.666666666667,4,1,0,40,0,0
133133,-166.666666666667,4,1,0,35,0,0
133419,-166.666666666667,4,1,0,30,0,0
133704,-166.666666666667,4,1,0,25,0,0
133990,-166.666666666667,4,1,0,20,0,0
134276,-166.666666666667,4,1,0,15,0,0
134561,-166.666666666667,4,1,0,10,0,0
134847,-166.666666666667,4,1,0,5,0,0

[HitObjects]
265,239,1419,5,8,0:0:0:0:
265,239,1847,1,8,0:0:0:0:
62,376,2276,1,0,0:0:0:0:
265,184,2847,1,0,0:0:0:0:
93,151,3133,1,0,0:0:0:0:
265,184,3419,1,8,0:0:0:0:
265,184,3704,1,0,0:0:0:0:
265,184,4133,1,8,0:0:0:0:
317,244,4561,1,0,0:0:0:0:
52,150,5133,1,8,0:0:0:0:
118,173,5419,1,8,0:0:0:0:
257,171,5704,1,0,0:0:0:0:
394,210,5990,1,0,0:0:0:0:
185,185,6276,1,8,0:0:0:0:
185,185,6419,1,8,0:0:0:0:
371,88,6704,1,0,0:0:0:0:
323,183,6990,1,8,0:0:0:0:
288,183,7061,1,8,0:0:0:0:
252,181,7133,1,8,0:0:0:0:
323,183,7561,1,8,0:0:0:0:
288,183,7990,1,8,0:0:0:0:
148,170,8276,1,0,0:0:0:0:
256,192,8561,12,0,9419,0:0:0:0:
309,211,9990,5,8,0:0:0:0:
309,211,10061,5,8,0:0:0:0:
309,211,10133,1,8,0:0:0:0:
240,224,10276,1,0,0:0:0:0:
148,329,10561,1,12,0:0:0:0:
274,269,10847,1,0,0:0:0:0:
331,229,10990,1,8,0:0:0:0:
298,216,11276,1,8,0:0:0:0:
298,216,11419,1,0,0:0:0:0:
344,164,11561,1,8,0:0:0:0:
362,171,11990,1,0,0:0:0:0:
327,171,12276,1,0,0:0:0:0:
358,174,12419,1,0,0:0:0:0:
293,161,12561,1,8,0:0:0:0:
293,161,12704,1,8,0:0:0:0:
362,171,12847,1,0,0:0:0:0:
297,175,13133,1,0,0:0:0:0:
327,171,13276,1,8,0:0:0:0:
362,171,13561,1,8,0:0:0:0:
259,181,13704,1,0,0:0:0:0:
362,171,13847,1,8,0:0:0:0:
293,161,14276,1,8,0:0:0:0:
331,180,14419,1,8,0:0:0:0:
293,161,14561,1,0,0:0:0:0:
331,180,14704,1,8,0:0:0:0:
301,88,14990,1,8,0:0:0:0:
297,175,15133,1,0,0:0:0:0:
293,161,15419,1,0,0:0:0:0:
362,169,15561,1,8,0:0:0:0:
314,225,15704,1,0,0:0:0:0:
383,213,15847,1,8,0:0:0:0:
245,240,16133,1,8,0:0:0:0:
293,161,16276,1,0,0:0:0:0:
312,207,16561,1,0,0:0:0:0:
362,169,16704,1,8,0:0:0:0:
292,175,16847,1,0,0:0:0:0:
259,170,16990,1,8,0:0:0:0:
360,180,17133,1,0,0:0:0:0:
287,219,17276,1,8,0:0:0:0:
259,170,17347,1,8,0:0:0:0:
313,195,17419,1,8,0:0:0:0:
239,167,17704,1,0,0:0:0:0:
287,219,17847,1,0,0:0:0:0:
289,184,17990,1,8,0:0:0:0:
313,195,18276,1,8,0:0:0:0:
381,250,18561,1,0,0:0:0:0:
232,176,18990,1,0,0:0:0:0:
297,207,19133,1,8,0:0:0:0:
290,241,19204,1,8,0:0:0:0:
290,241,19276,1,8,0:0:0:0:
297,207,19419,1,0,0:0:0:0:
166,257,19704,1,12,0:0:0:0:
218,127,19990,1,0,0:0:0:0:
256,185,20133,1,8,0:0:0:0:
270,150,20276,1,0,0:0:0:0:
130,134,20419,1,0,0:0:0:0:
200,143,20561,1,8,0:0:0:0:
167,116,20847,1,0,0:0:0:0:
306,155,21133,1,8,0:0:0:0:
340,159,21276,1,0,0:0:0:0:
200,143,21419,1,8,0:0:0:0:
82,322,21561,1,8,0:0:0:0:
200,143,21704,1,0,0:0:0:0:
165,225,21990,1,8,0:0:0:0:
200,143,22276,1,0,0:0:0:0:
173,207,22419,1,8,0:0:0:0:
127,262,22561,1,0,0:0:0:0:
84,206,22704,1,0,0:0:0:0:
356,208,22847,1,8,0:0:0:0:
286,197,23276,1,8,0:0:0:0:
226,159,23419,1,0,0:0:0:0:
286,197,23561,1,8,0:0:0:0:
354,180,23704,1,8,0:0:0:0:
356,208,23847,1,0,0:0:0:0:
253,187,23919,1,0,0:0:0:0:
253,187,23990,1,0,0:0:0:0:
253,187,24133,1,8,0:0:0:0:
354,180,24276,1,12,0:0:0:0:
457,166,24490,1,0,0:0:0:0:
354,188,24704,1,8,0:0:0:0:
156,261,25133,1,4,0:0:0:0:
244,224,25347,1,0,0:0:0:0:
342,186,25561,1,8,0:0:0:0:
339,228,25990,1,12,0:0:0:0:
478,218,26204,1,0,0:0:0:0:
373,225,26419,1,8,0:0:0:0:
332,168,26561,1,4,0:0:0:0:
264,187,26704,1,0,0:0:0:0:
264,187,26776,1,0,0:0:0:0:
264,187,26847,1,0,0:0:0:0:
264,187,26990,1,0,0:0:0:0:
264,187,27133,1,8,0:0:0:0:
227,179,27204,1,8,0:0:0:0:
188,180,27276,1,8,0:0:0:0:
264,187,27419,1,0,0:0:0:0:
264,187,27561,1,8,0:0:0:0:
267,194,27704,1,0,0:0:0:0:
264,187,27990,1,0,0:0:0:0:
264,187,28133,1,0,0:0:0:0:
264,187,28276,1,8,0:0:0:0:
264,187,28419,1,0,0:0:0:0:
264,187,28561,1,8,0:0:0:0:
317,232,28633,1,8,0:0:0:0:
317,232,28704,1,8,0:0:0:0:
279,186,28847,5,4,0:0:0:0:
414,220,29133,1,0,0:0:0:0:
346,203,29276,1,0,0:0:0:0:
347,132,29419,1,8,0:0:0:0:
286,156,29704,1,0,0:0:0:0:
346,61,29847,1,8,0:0:0:0:
386,118,29990,1,0,0:0:0:0:
244,273,30419,1,0,0:0:0:0:
235,203,30561,1,8,0:0:0:0:
212,136,30704,1,0,0:0:0:0:
240,156,30776,1,0,0:0:0:0:
212,136,30847,1,0,0:0:0:0:
258,188,30990,1,0,0:0:0:0:
315,148,31133,1,8,0:0:0:0:
358,204,31419,1,8,0:0:0:0:
415,246,31561,1,0,0:0:0:0:
358,204,31847,1,8,0:0:0:0:
227,152,32133,1,0,0:0:0:0:
199,130,32204,1,0,0:0:0:0:
358,204,32276,1,0,0:0:0:0:
219,217,32704,1,8,0:0:0:0:
427,188,33133,1,8,0:0:0:0:
291,152,33419,1,0,0:0:0:0:
231,278,33704,1,0,0:0:0:0:
261,214,33847,1,0,0:0:0:0:
252,144,33990,1,8,0:0:0:0:
261,214,34276,1,0,0:0:0:0:
252,144,34419,1,8,0:0:0:0:
261,214,34561,1,0,0:0:0:0:
398,54,34990,1,0,0:0:0:0:
346,101,35133,1,8,0:0:0:0:
301,155,35276,1,8,0:0:0:0:
245,131,35347,1,8,0:0:0:0:
234,185,35419,1,8,0:0:0:0:
303,182,35561,1,0,0:0:0:0:
372,205,35704,1,8,0:0:0:0:
250,134,35990,1,8,0:0:0:0:
234,185,36133,1,0,0:0:0:0:
368,238,36419,1,8,0:0:0:0:
268,53,36847,1,12,0:0:0:0:
308,279,37276,1,0,0:0:0:0:
230,330,37419,1,8,0:0:0:0:
234,295,37490,1,8,0:0:0:0:
244,261,37561,1,8,0:0:0:0:
276,198,37704,1,0,0:0:0:0:
399,264,37990,1,12,0:0:0:0:
276,198,38419,1,8,0:0:0:0:
284,184,38561,1,0,0:0:0:0:
314,188,38704,1,0,0:0:0:0:
278,183,38847,1,8,0:0:0:0:
278,183,38919,1,8,0:0:0:0:
278,183,38990,1,8,0:0:0:0:
276,198,39133,1,0,0:0:0:0:
239,195,39419,1,0,0:0:0:0:
278,183,39561,1,0,0:0:0:0:
269,200,39704,1,8,0:0:0:0:
247,202,39990,1,8,0:0:0:0:
302,194,40276,1,0,0:0:0:0:
306,203,40704,1,8,0:0:0:0:
302,194,40847,1,0,0:0:0:0:
239,190,40990,1,0,0:0:0:0:
302,194,41133,1,8,0:0:0:0:
306,203,41204,1,8,0:0:0:0:
306,203,41276,1,8,0:0:0:0:
344,188,41419,1,0,0:0:0:0:
510,87,41704,1,8,0:0:0:0:
453,133,41847,1,0,0:0:0:0:
276,198,41919,1,0,0:0:0:0:
237,190,41990,1,0,0:0:0:0:
302,194,42133,1,0,0:0:0:0:
374,143,42276,1,8,0:0:0:0:
340,86,42561,1,4,0:0:0:0:
367,196,42847,1,8,0:0:0:0:
309,155,42990,1,8,0:0:0:0:
381,178,43276,1,0,0:0:0:0:
439,183,43419,1,8,0:0:0:0:
381,178,43561,1,0,0:0:0:0:
345,168,43633,1,0,0:0:0:0:
387,124,43704,1,0,0:0:0:0:
381,178,43847,1,0,0:0:0:0:
387,124,43990,1,8,0:0:0:0:
397,193,44133,1,0,0:0:0:0:
279,230,44419,1,0,0:0:0:0:
294,307,44561,1,0,0:0:0:0:
307,273,44704,1,0,0:0:0:0:
215,182,44847,1,8,0:0:0:0:
352,233,45133,1,8,0:0:0:0:
279,230,45276,1,0,0:0:0:0:
425,221,45561,1,0,0:0:0:0:
370,171,45704,1,8,0:0:0:0:
277,224,45847,1,8,0:0:0:0:
331,176,45990,1,0,0:0:0:0:
446,82,46276,1,8,0:0:0:0:
331,176,46419,1,0,0:0:0:0:
296,193,46561,1,0,0:0:0:0:
415,176,46704,1,8,0:0:0:0:
277,224,47133,1,12,0:0:0:0:
276,198,47561,1,8,0:0:0:0:
276,198,47704,1,8,0:0:0:0:
314,188,47847,1,0,0:0:0:0:
278,183,47990,1,8,0:0:0:0:
252,206,48061,1,8,0:0:0:0:
252,206,48133,1,8,0:0:0:0:
276,198,48276,1,0,0:0:0:0:
239,195,48561,1,0,0:0:0:0:
283,196,48704,1,0,0:0:0:0:
269,200,48847,1,8,0:0:0:0:
247,202,49133,1,8,0:0:0:0:
302,194,49419,1,0,0:0:0:0:
35,171,49847,1,8,0:0:0:0:
276,198,49990,1,8,0:0:0:0:
239,190,50133,1,0,0:0:0:0:
302,194,50276,1,8,0:0:0:0:
302,194,50347,1,8,0:0:0:0:
276,198,50419,1,8,0:0:0:0:
276,198,50561,1,0,0:0:0:0:
443,277,50847,1,8,0:0:0:0:
402,249,50942,1,8,0:0:0:0:
359,223,51038,1,8,0:0:0:0:
326,185,51133,1,8,0:0:0:0:
51,80,51704,1,12,0:0:0:0:
181,147,51990,1,0,0:0:0:0:
217,210,52133,1,8,0:0:0:0:
245,183,52276,1,0,0:0:0:0:
279,178,52347,1,0,0:0:0:0:
279,178,52419,1,0,0:0:0:0:
245,183,52561,1,8,0:0:0:0:
279,247,52847,1,8,0:0:0:0:
281,175,52942,1,8,0:0:0:0:
279,247,53038,1,8,0:0:0:0:
279,247,53133,1,8,0:0:0:0:
279,247,53419,1,0,0:0:0:0:
279,247,53704,1,8,0:0:0:0:
279,247,53990,1,0,0:0:0:0:
258,216,54204,1,8,0:0:0:0:
279,247,54419,1,8,0:0:0:0:
258,216,54561,1,0,0:0:0:0:
316,153,54776,1,0,0:0:0:0:
172,215,54990,1,8,0:0:0:0:
310,249,55133,1,0,0:0:0:0:
310,249,55204,1,0,0:0:0:0:
310,249,55276,1,0,0:0:0:0:
310,249,55419,1,8,0:0:0:0:
310,249,55561,1,0,0:0:0:0:
310,249,55704,1,8,0:0:0:0:
310,249,55776,1,8,0:0:0:0:
310,249,55847,1,8,0:0:0:0:
310,249,55990,1,8,0:0:0:0:
407,181,56276,1,12,0:0:0:0:
407,181,56704,1,8,0:0:0:0:
268,229,56990,1,0,0:0:0:0:
268,229,57276,1,0,0:0:0:0:
377,194,57419,1,12,0:0:0:0:
230,194,57704,1,8,0:0:0:0:
375,169,58133,1,0,0:0:0:0:
446,149,58276,1,8,0:0:0:0:
377,194,58419,1,8,0:0:0:0:
316,125,58561,1,4,0:0:0:0:
377,194,58990,1,4,0:0:0:0:
377,194,59419,1,12,0:0:0:0:
352,299,66561,5,0,0:0:0:0:
257,191,66847,1,0,0:0:0:0:
353,300,67133,1,0,0:0:0:0:
250,184,67419,1,0,0:0:0:0:
396,192,67704,1,8,0:0:0:0:
266,185,67990,1,8,0:0:0:0:
394,192,68276,1,8,0:0:0:0:
262,185,68561,1,8,0:0:0:0:
408,172,68847,1,4,0:0:0:0:
269,222,69133,1,8,0:0:0:0:
219,286,69276,1,0,0:0:0:0:
339,226,69561,1,0,0:0:0:0:
372,82,69847,1,8,0:0:0:0:
267,203,70704,1,0,0:0:0:0:
267,203,70847,1,0,0:0:0:0:
339,192,70990,1,8,0:0:0:0:
408,167,71133,1,8,0:0:0:0:
285,249,71419,1,8,0:0:0:0:
219,53,71561,1,0,0:0:0:0:
332,147,71847,1,8,0:0:0:0:
445,241,72133,1,8,0:0:0:0:
449,176,72204,1,8,0:0:0:0:
474,173,72276,1,8,0:0:0:0:
223,143,72847,1,0,0:0:0:0:
264,148,72942,1,0,0:0:0:0:
264,148,73038,1,0,0:0:0:0:
385,145,73133,1,0,0:0:0:0:
291,173,73419,1,12,0:0:0:0:
385,145,73704,1,8,0:0:0:0:
338,159,73990,1,0,0:0:0:0:
340,227,74276,1,8,0:0:0:0:
376,205,74371,1,8,0:0:0:0:
291,173,74466,1,8,0:0:0:0:
274,204,74561,1,8,0:0:0:0:
220,222,74847,1,0,0:0:0:0:
256,205,74942,1,0,0:0:0:0:
229,182,75038,1,0,0:0:0:0:
229,182,75133,1,0,0:0:0:0:
242,56,75419,1,0,0:0:0:0:
229,182,75704,1,8,0:0:0:0:
374,159,75990,1,8,0:0:0:0:
244,228,76276,1,0,0:0:0:0:
244,228,76419,1,0,0:0:0:0:
6,164,76704,1,8,0:0:0:0:
152,171,76990,1,0,0:0:0:0:
225,168,77133,1,8,0:0:0:0:
365,212,77419,1,0,0:0:0:0:
225,168,77704,1,8,0:0:0:0:
255,147,77847,1,8,0:0:0:0:
391,173,79133,1,12,0:0:0:0:
134,184,79561,1,0,0:0:0:0:
200,152,79704,1,8,0:0:0:0:
233,136,79776,1,8,0:0:0:0:
266,120,79847,1,8,0:0:0:0:
283,191,79990,1,0,0:0:0:0:
310,335,80276,1,12,0:0:0:0:
277,206,80704,1,8,0:0:0:0:
277,206,80847,1,8,0:0:0:0:
315,196,80990,1,0,0:0:0:0:
279,191,81133,1,8,0:0:0:0:
315,196,81204,1,8,0:0:0:0:
315,196,81276,1,8,0:0:0:0:
277,206,81419,1,0,0:0:0:0:
240,203,81704,1,0,0:0:0:0:
232,133,81847,1,0,0:0:0:0:
270,208,81990,1,8,0:0:0:0:
315,196,82133,1,0,0:0:0:0:
248,210,82276,1,8,0:0:0:0:
237,176,82561,1,0,0:0:0:0:
36,179,82990,1,8,0:0:0:0:
277,206,83133,1,8,0:0:0:0:
240,198,83276,1,0,0:0:0:0:
303,202,83419,1,8,0:0:0:0:
285,220,83490,1,8,0:0:0:0:
261,245,83561,1,8,0:0:0:0:
345,196,83704,1,0,0:0:0:0:
511,95,83990,1,8,0:0:0:0:
454,141,84133,1,0,0:0:0:0:
277,206,84204,1,0,0:0:0:0:
238,198,84276,1,0,0:0:0:0:
303,202,84419,1,0,0:0:0:0:
375,151,84561,1,8,0:0:0:0:
305,140,84704,1,8,0:0:0:0:
341,94,84847,1,4,0:0:0:0:
368,204,85133,1,8,0:0:0:0:
298,190,85276,1,8,0:0:0:0:
382,186,85561,1,0,0:0:0:0:
440,191,85704,1,8,0:0:0:0:
382,186,85847,1,0,0:0:0:0:
346,176,85919,1,0,0:0:0:0:
388,132,85990,1,0,0:0:0:0:
388,132,86133,1,0,0:0:0:0:
382,186,86276,1,8,0:0:0:0:
388,132,86419,1,0,0:0:0:0:
280,238,86704,1,0,0:0:0:0:
295,315,86847,1,0,0:0:0:0:
308,281,86990,1,0,0:0:0:0:
216,190,87133,1,8,0:0:0:0:
353,241,87419,1,8,0:0:0:0:
280,238,87561,1,0,0:0:0:0:
426,229,87847,1,0,0:0:0:0:
371,179,87990,1,8,0:0:0:0:
278,232,88133,1,8,0:0:0:0:
332,184,88276,1,0,0:0:0:0:
447,90,88561,1,8,0:0:0:0:
332,184,88704,1,0,0:0:0:0:
297,201,88847,1,0,0:0:0:0:
416,184,88990,1,8,0:0:0:0:
277,224,89419,1,12,0:0:0:0:
276,198,89847,1,8,0:0:0:0:
276,198,89990,1,0,0:0:0:0:
314,188,90133,1,0,0:0:0:0:
278,183,90276,1,8,0:0:0:0:
314,188,90347,1,8,0:0:0:0:
314,188,90419,1,8,0:0:0:0:
283,196,90561,1,0,0:0:0:0:
239,195,90847,1,0,0:0:0:0:
283,196,90990,1,0,0:0:0:0:
269,200,91133,1,8,0:0:0:0:
334,224,91276,1,0,0:0:0:0:
247,202,91419,1,8,0:0:0:0:
236,168,91704,1,0,0:0:0:0:
35,171,92133,1,8,0:0:0:0:
276,198,92276,1,0,0:0:0:0:
239,190,92419,1,0,0:0:0:0:
302,194,92561,1,8,0:0:0:0:
336,188,92633,1,8,0:0:0:0:
336,188,92704,1,8,0:0:0:0:
276,198,92847,1,0,0:0:0:0:
443,277,93133,1,8,0:0:0:0:
402,249,93228,1,8,0:0:0:0:
359,223,93323,1,8,0:0:0:0:
396,194,93419,1,8,0:0:0:0:
51,80,93990,1,12,0:0:0:0:
181,147,94276,1,0,0:0:0:0:
217,210,94419,1,8,0:0:0:0:
281,175,94561,1,0,0:0:0:0:
279,247,94847,1,0,0:0:0:0:
279,247,95133,1,8,0:0:0:0:
279,247,95228,1,8,0:0:0:0:
279,247,95323,1,8,0:0:0:0:
279,247,95419,1,8,0:0:0:0:
279,247,95704,1,0,0:0:0:0:
279,247,95990,1,8,0:0:0:0:
279,247,96276,1,0,0:0:0:0:
258,216,96490,1,8,0:0:0:0:
279,247,96704,1,8,0:0:0:0:
258,216,96847,1,0,0:0:0:0:
209,222,97061,1,0,0:0:0:0:
172,215,97276,1,8,0:0:0:0:
323,228,97419,5,0,0:0:0:0:
323,228,97490,1,0,0:0:0:0:
323,228,97561,1,0,0:0:0:0:
323,228,97704,1,8,0:0:0:0:
323,228,97847,1,0,0:0:0:0:
323,228,97990,1,8,0:0:0:0:
323,228,98061,1,8,0:0:0:0:
323,228,98133,1,8,0:0:0:0:
323,228,98276,1,0,0:0:0:0:
323,228,98419,1,0,0:0:0:0:
391,226,98561,5,12,0:0:0:0:
213,95,98990,1,12,0:0:0:0:
390,225,99419,1,12,0:0:0:0:
240,203,99990,1,0,0:0:0:0:
270,208,100133,1,0,0:0:0:0:
284,204,100276,1,8,0:0:0:0:
248,210,100419,1,0,0:0:0:0:
311,181,100561,1,8,0:0:0:0:
303,202,100847,1,0,0:0:0:0:
36,179,101276,1,8,0:0:0:0:
277,206,101419,1,0,0:0:0:0:
240,198,101561,1,0,0:0:0:0:
303,202,101704,1,8,0:0:0:0:
335,190,101776,1,8,0:0:0:0:
306,183,101847,1,8,0:0:0:0:
345,196,101990,1,0,0:0:0:0:
511,95,102276,1,8,0:0:0:0:
454,141,102419,1,0,0:0:0:0:
277,206,102490,1,0,0:0:0:0:
238,198,102561,1,0,0:0:0:0:
303,202,102704,1,0,0:0:0:0:
375,151,102847,1,8,0:0:0:0:
341,94,103133,1,12,0:0:0:0:
440,191,103419,1,0,0:0:0:0:
382,186,103847,1,0,0:0:0:0:
440,191,103990,1,8,0:0:0:0:
382,186,104133,1,0,0:0:0:0:
277,206,104204,1,0,0:0:0:0:
388,132,104276,1,0,0:0:0:0:
388,132,104419,1,0,0:0:0:0:
382,186,104561,1,8,0:0:0:0:
337,228,104704,1,0,0:0:0:0:
409,202,104990,1,0,0:0:0:0:
420,237,105133,1,0,0:0:0:0:
286,170,105276,1,0,0:0:0:0:
316,218,105419,1,8,0:0:0:0:
316,218,105704,1,8,0:0:0:0:
316,218,105847,1,0,0:0:0:0:
397,144,106133,1,8,0:0:0:0:
347,198,106276,1,0,0:0:0:0:
185,210,106419,1,8,0:0:0:0:
248,139,106490,1,8,0:0:0:0:
217,153,106561,1,8,0:0:0:0:
362,172,106847,1,0,0:0:0:0:
492,255,107133,1,0,0:0:0:0:
398,224,107228,1,0,0:0:0:0:
348,220,107323,1,0,0:0:0:0:
302,202,107419,1,0,0:0:0:0:
207,179,107704,1,12,0:0:0:0:
277,206,108133,1,8,0:0:0:0:
277,206,108276,1,0,0:0:0:0:
315,196,108419,1,0,0:0:0:0:
279,191,108561,1,8,0:0:0:0:
307,170,108633,1,8,0:0:0:0:
307,170,108704,1,8,0:0:0:0:
351,223,108847,1,0,0:0:0:0:
240,203,109133,1,0,0:0:0:0:
284,204,109276,1,0,0:0:0:0:
270,208,109419,1,8,0:0:0:0:
351,223,109561,1,0,0:0:0:0:
248,210,109704,1,8,0:0:0:0:
237,176,109990,1,0,0:0:0:0:
426,229,110419,1,8,0:0:0:0:
426,229,110561,1,0,0:0:0:0:
426,229,110704,1,0,0:0:0:0:
426,229,110847,1,8,0:0:0:0:
391,196,111133,5,12,0:0:0:0:
184,273,111561,1,0,0:0:0:0:
249,240,111704,1,8,0:0:0:0:
283,226,111776,1,8,0:0:0:0:
276,190,111847,1,8,0:0:0:0:
348,179,111990,1,0,0:0:0:0:
276,190,112276,1,12,0:0:0:0:
348,179,112561,1,0,0:0:0:0:
348,179,112704,1,8,0:0:0:0:
348,179,112847,1,0,0:0:0:0:
311,182,112990,1,8,0:0:0:0:
311,182,113061,1,8,0:0:0:0:
348,179,113133,1,8,0:0:0:0:
348,179,113276,1,8,0:0:0:0:
311,182,113419,1,0,0:0:0:0:
167,210,113704,1,8,0:0:0:0:
384,173,113990,1,0,0:0:0:0:
309,218,114204,1,0,0:0:0:0:
252,171,114419,1,0,0:0:0:0:
309,218,114561,1,8,0:0:0:0:
311,182,114847,1,0,0:0:0:0:
311,182,114990,1,8,0:0:0:0:
348,182,115133,1,0,0:0:0:0:
364,165,115276,1,8,0:0:0:0:
382,212,115347,1,8,0:0:0:0:
317,108,115419,1,8,0:0:0:0:
450,233,115561,1,8,0:0:0:0:
322,193,115704,1,0,0:0:0:0:
322,193,115990,1,8,0:0:0:0:
322,193,116276,1,0,0:0:0:0:
322,193,116490,1,0,0:0:0:0:
322,193,116704,1,0,0:0:0:0:
448,118,117133,1,12,0:0:0:0:
298,168,117419,1,8,0:0:0:0:
311,182,117561,1,0,0:0:0:0:
348,179,117704,1,8,0:0:0:0:
313,218,117776,1,8,0:0:0:0:
348,179,117847,1,8,0:0:0:0:
311,182,117990,1,0,0:0:0:0:
370,224,118276,1,8,0:0:0:0:
252,171,118561,1,0,0:0:0:0:
309,218,118776,1,0,0:0:0:0:
384,173,118990,1,0,0:0:0:0:
309,218,119133,1,8,0:0:0:0:
311,182,119419,1,8,0:0:0:0:
311,182,119561,1,8,0:0:0:0:
348,182,119704,1,0,0:0:0:0:
364,165,119847,1,8,0:0:0:0:
382,212,119919,1,8,0:0:0:0:
317,108,119990,1,8,0:0:0:0:
450,233,120133,1,8,0:0:0:0:
376,232,120276,1,0,0:0:0:0:
352,94,120561,1,0,0:0:0:0:
364,165,120704,1,8,0:0:0:0:
261,139,120847,1,0,0:0:0:0:
364,165,120919,1,0,0:0:0:0:
364,165,120990,1,0,0:0:0:0:
433,160,121133,1,8,0:0:0:0:
318,185,121276,1,0,0:0:0:0:
266,223,121419,1,12,0:0:0:0:
371,134,121847,1,8,0:0:0:0:
318,185,121990,1,0,0:0:0:0:
391,179,122133,1,0,0:0:0:0:
391,179,122276,1,8,0:0:0:0:
330,137,122561,1,0,0:0:0:0:
318,185,122847,1,8,0:0:0:0:
330,137,122942,1,8,0:0:0:0:
281,189,123038,1,8,0:0:0:0:
290,153,123133,1,8,0:0:0:0:
366,175,123419,1,0,0:0:0:0:
266,223,123704,5,12,0:0:0:0:
339,223,124133,1,8,0:0:0:0:
339,223,124276,1,0,0:0:0:0:
339,223,124419,1,0,0:0:0:0:
339,223,124561,1,8,0:0:0:0:
339,223,124847,1,0,0:0:0:0:
339,223,125133,1,8,0:0:0:0:
339,223,125228,1,8,0:0:0:0:
339,223,125323,1,8,0:0:0:0:
345,260,125419,1,8,0:0:0:0:
265,199,125704,1,0,0:0:0:0:
296,175,125990,5,12,0:0:0:0:
372,300,126276,1,8,0:0:0:0:
386,248,126419,1,0,0:0:0:0:
320,216,126561,1,8,0:0:0:0:
335,186,126633,1,8,0:0:0:0:
320,216,126704,1,8,0:0:0:0:
368,212,126847,1,0,0:0:0:0:
320,216,127133,1,0,0:0:0:0:
295,163,127276,1,8,0:0:0:0:
295,163,127419,1,8,0:0:0:0:
367,145,127490,1,8,0:0:0:0:
331,143,127561,1,8,0:0:0:0:
368,212,127704,1,0,0:0:0:0:
331,171,127990,1,0,0:0:0:0:
331,143,128133,1,0,0:0:0:0:
320,216,128276,1,8,0:0:0:0:
248,128,128561,1,8,0:0:0:0:
348,285,128704,1,0,0:0:0:0:
320,216,128990,1,8,0:0:0:0:
448,287,129276,1,0,0:0:0:0:
410,223,129419,1,8,0:0:0:0:
351,357,129704,1,8,0:0:0:0:
320,216,129847,1,0,0:0:0:0:
203,285,130133,1,0,0:0:0:0:
378,157,130561,1,8,0:0:0:0:
344,300,130847,1,8,0:0:0:0:
331,213,130990,1,0,0:0:0:0:
413,339,131276,1,8,0:0:0:0:
399,192,131561,1,0,0:0:0:0:
292,154,131704,1,8,0:0:0:0:
360,214,131990,1,8,0:0:0:0:
413,338,132133,1,0,0:0:0:0:
446,194,132419,1,0,0:0:0:0:
318,265,132704,1,8,0:0:0:0:
256,192,132847,12,0,135133,0:0:0:0:
