osu file format v14

[General]
AudioFilename: audio.mp3
AudioLeadIn: 0
PreviewTime: 20254
Countdown: 0
SampleSet: Soft
StackLeniency: 0.5
Mode: 0
LetterboxInBreaks: 0
WidescreenStoryboard: 0

[Editor]
Bookmarks: 45105,90653,95187,98238
DistanceSpacing: 1
BeatDivisor: 4
GridSize: 4
TimelineZoom: 1.9

[Metadata]
Title:Lachryma
TitleUnicode:Lachryma《Re:Queen'M》
Artist:Kaneko Chiharu
ArtistUnicode:かねこちはる
Creator:Kroytz
Version:toybot's GRAVITY
Source:SOUND VOLTEX III GRAVITY WARS
Tags:SDVX Grace The 5th KAC Original Song Contest KONAMI BEMANI Battle Ametrin Fizz Ponoyoshi Alheak toybot Smoothie World
BeatmapID:1056698
BeatmapSetID:475629

[Difficulty]
HPDrainRate:5.5
CircleSize:4.5
OverallDifficulty:8.8
ApproachRate:9.5
SliderMultiplier:1.7
SliderTickRate:1

[Events]
//Background and Video events
0,0,"BG.png",0,0
//Break Periods
//Storyboard Layer 0 (Background)
//Storyboard Layer 1 (Fail)
//Storyboard Layer 2 (Pass)
//Storyboard Layer 3 (Foreground)
//Storyboard Sound Samples

[TimingPoints]
678,254.237288135593,3,2,1,55,1,0
1440,-200,3,2,1,55,0,0
2203,-100,3,2,1,55,0,0
2966,-200,3,2,1,55,0,0
3728,-100,3,2,1,55,0,0
4491,-200,3,2,1,55,0,0
5254,-133.333333333333,3,2,1,55,0,0
6016,-200,3,2,1,55,0,0
6716,-200,3,2,1,55,0,0
6779,-111.111111111111,3,2,1,55,0,0
14406,-100,3,2,1,55,0,0
18983,-100,3,3,2,55,0,0
19745,-100,3,2,1,55,0,0
20508,254.237288135593,4,2,1,55,1,1
24575,-71.4285714285714,4,2,1,55,0,1
24702,-71.4285714285714,4,2,1,5,0,1
24766,-71.4285714285714,4,2,1,55,0,1
24893,-71.4285714285714,4,2,1,5,0,1
24957,-100,4,2,1,55,0,1
27118,-100,4,3,2,55,0,1
27880,-106.382978723404,4,2,4,55,0,0
28389,-106.382978723404,4,2,1,55,0,0
28643,-111.111111111111,4,2,1,55,0,1
32711,-71.4285714285714,4,2,1,55,0,1
32838,-71.4285714285714,4,2,1,5,0,1
32902,-71.4285714285714,4,2,1,55,0,1
33029,-71.4285714285714,4,2,1,5,0,1
33092,-100,4,2,1,55,0,1
33728,-76.9230769230769,4,2,1,55,0,1
33855,-76.9230769230769,4,2,1,5,0,1
33919,-76.9230769230769,4,2,1,55,0,1
34046,-76.9230769230769,4,2,1,5,0,1
34109,-100,4,2,1,55,0,1
36779,-200,4,2,1,55,0,0
38813,-133.333333333333,4,2,1,55,0,0
40846,-200,4,2,1,55,0,0
42880,-100,4,2,1,55,0,0
43262,-111.111111111111,4,2,1,55,0,0
43643,-125,4,2,1,55,0,0
44024,-142.857142857143,4,2,1,55,0,0
44406,-142.857142857143,4,2,1,55,0,0
44914,-133.333333333333,4,2,1,55,0,0
52541,-100,4,2,1,55,0,0
55338,-125,4,2,1,55,0,0
57372,-100,4,2,1,55,0,0
59152,254.237288135593,3,3,1,55,1,0
62202,254.237288135593,4,2,1,55,1,0
66269,254.237288135593,3,2,1,55,1,0
79997,254.237288135593,4,2,5,75,1,0
79997,-133.333333333333,4,2,5,75,0,0
80378,-83.3333333333333,4,2,1,55,0,1
84064,-71.4285714285714,4,2,1,55,0,1
84191,-71.4285714285714,4,2,1,5,0,1
84255,-71.4285714285714,4,2,1,55,0,1
84382,-71.4285714285714,4,2,1,5,0,1
84446,-83.3333333333333,4,2,1,55,0,1
87115,-100,4,2,1,55,0,1
88132,-76.9230769230769,4,2,1,55,0,1
89149,-133.333333333333,4,2,1,55,0,1
89912,-83.3333333333333,4,2,1,55,0,1
92200,-71.4285714285714,4,2,1,55,0,1
92327,-71.4285714285714,4,2,1,5,0,1
92391,-71.4285714285714,4,2,1,55,0,1
92518,-71.4285714285714,4,2,1,5,0,1
92581,-83.3333333333333,4,2,1,55,0,1
93217,-71.4285714285714,4,2,1,55,0,1
93344,-71.4285714285714,4,2,1,5,0,1
93408,-71.4285714285714,4,2,1,55,0,1
93535,-71.4285714285714,4,2,1,5,0,1
93598,-83.3333333333333,4,2,1,55,0,1
96268,-200,4,2,1,55,0,0
97158,-200,4,2,1,5,0,0
97285,-100,4,2,1,55,0,0
98047,-80,4,2,1,55,0,0
98302,254.237288135593,3,2,1,55,1,1
103640,-100,3,2,1,55,0,0
104403,-80,3,2,1,55,0,1
110505,254.237288135593,4,2,1,55,1,0
112284,-100,4,2,1,5,0,0
112538,-100,4,2,1,55,0,0
115081,254.237288135593,4,2,1,55,1,0
115081,-200,4,2,1,55,0,0

[Colours]
Combo1 : 70,70,255
Combo2 : 255,62,62
Combo3 : 255,137,81
Combo4 : 0,174,174
Combo5 : 0,101,202

[HitObjects]
184,64,678,6,0,P|144:132|184:224,1,170,6|0,0:2|0:0,0:0:0:0:
296,224,1059,2,0,P|336:156|296:64,1,170,8|8,0:3|0:3,0:0:0:0:
240,144,1440,6,0,L|236:188,1,42.5,2|0,0:0|0:0,0:0:0:0:
396,212,1694,2,0,L|392:256,1,42.5,10|0,0:0|0:0,0:0:0:0:
240,280,1949,2,0,L|236:324,1,42.5,10|0,0:0|0:0,0:0:0:0:
75,220,2203,6,0,B|175:236|135:168|255:188,1,170,2|0,0:0|0:0,0:0:0:0:
397,287,2584,2,0,B|297:271|337:339|217:319,1,170,8|8,0:3|0:3,0:0:0:0:
245,54,2966,6,0,P|265:58|285:65,1,42.5,2|0,0:0|0:0,0:0:0:0:
426,182,3220,2,0,P|412:197|395:211,1,42.5,10|0,0:0|0:0,0:0:0:0:
373,66,3474,2,0,P|379:86|382:107,1,42.5,10|0,0:0|0:0,0:0:0:0:
353,286,3728,6,0,B|288:276|288:276|252:244|252:244|176:232,1,170,2|0,0:2|0:0,0:0:0:0:
48,176,4110,2,0,B|113:166|113:166|149:134|149:134|225:122,1,170,8|8,0:3|0:3,0:0:0:0:
124,328,4491,6,0,P|118:307|115:286,1,42.5,2|0,0:0|0:0,0:0:0:0:
316,156,4745,2,0,P|321:176|324:197,1,42.5,10|0,0:0|0:0,0:0:0:0:
80,96,5000,2,0,P|74:75|71:54,1,42.5,10|0,0:0|0:0,0:0:0:0:
203,124,5254,6,0,B|211:160|222:183|222:183|204:208|202:225|202:225|225:254|232:278|232:278|217:295|216:320|216:320|226:338|227:358,1,255.000009727478,2|0,0:0|0:0,0:0:0:0:
148,364,5889,1,0,0:0:0:0:
227,357,6016,6,0,L|203:121,1,233.75,2|0,0:0|0:0,0:0:0:0:
250,70,6779,5,4,0:0:0:0:
285,57,6842,1,0,0:0:0:0:
323,63,6906,1,0,0:0:0:0:
353,85,6969,1,0,0:0:0:0:
369,119,7033,1,0,0:0:0:0:
385,153,7097,1,0,0:0:0:0:
415,175,7160,1,8,0:0:0:0:
452,181,7224,1,0,0:0:0:0:
488,168,7287,1,0,0:0:0:0:
508,138,7351,1,0,0:0:0:0:
512,101,7414,1,8,0:0:0:0:
499,66,7478,1,0,0:0:0:0:
470,41,7541,5,2,0:0:0:0:
434,38,7606,1,0,0:0:0:0:
399,53,7669,1,0,0:0:0:0:
376,82,7733,1,0,0:0:0:0:
369,119,7796,1,10,0:0:0:0:
362,156,7860,1,0,0:0:0:0:
339,185,7924,1,0,0:0:0:0:
304,200,7987,1,0,0:0:0:0:
268,197,8050,2,0,L|208:188,3,38.2499988327027,10|0|0|0,0:0|0:0|0:0|0:0,0:0:0:0:
176,140,8305,5,2,0:0:0:0:
138,135,8368,1,0,0:0:0:0:
102,147,8432,1,0,0:0:0:0:
74,173,8495,1,0,0:0:0:0:
61,208,8559,1,0,0:0:0:0:
56,245,8623,1,0,0:0:0:0:
68,281,8687,1,8,0:0:0:0:
94,309,8750,1,0,0:0:0:0:
129,322,8814,1,0,0:0:0:0:
166,326,8876,1,0,0:0:0:0:
202,314,8940,1,8,0:0:0:0:
230,288,9003,1,0,0:0:0:0:
243,253,9067,5,2,0:0:0:0:
249,217,9131,1,0,0:0:0:0:
237,181,9195,1,0,0:0:0:0:
211,153,9258,1,0,0:0:0:0:
176,140,9322,2,0,L|120:132,3,38.2499988327027,10|0|0|0,0:0|0:0|0:0|0:0,0:0:0:0:
248,84,9576,2,0,L|236:36,1,38.2499988327027,10|0,0:0|0:0,0:0:0:0:
336,192,9703,2,0,L|324:240,1,38.2499988327027,8|0,0:0|0:0,0:0:0:0:
424,120,9830,5,4,0:0:0:0:
428,157,9893,1,0,0:0:0:0:
433,195,9957,1,0,0:0:0:0:
438,233,10020,1,0,0:0:0:0:
442,271,10084,2,0,L|386:263,3,38.2499988327027,0|0|8|0,0:0|0:0|0:0|0:0,0:0:0:0:
336,192,10339,2,0,L|280:184,3,38.2499988327027,0|0|8|0,0:0|0:0|0:0|0:0,0:0:0:0:
243,253,10593,5,2,0:0:0:0:
208,237,10656,1,0,0:0:0:0:
170,242,10720,1,0,0:0:0:0:
141,265,10783,1,0,0:0:0:0:
126,300,10847,2,0,L|134:348,3,38.2499988327027,8|0|0|0,0:0|0:0|0:0|0:0,0:0:0:0:
32,220,11101,2,0,L|24:268,3,38.2499988327027,8|0|0|0,0:0|0:0|0:0|0:0,0:0:0:0:
112,176,11355,5,2,0:0:0:0:
124,161,11418,1,0,0:0:0:0:
132,144,11482,1,0,0:0:0:0:
136,125,11545,1,0,0:0:0:0:
135,106,11609,1,2,0:0:0:0:
129,88,11672,1,0,0:0:0:0:
119,72,11736,1,8,0:0:0:0:
105,59,11799,1,0,0:0:0:0:
89,50,11863,1,2,0:0:0:0:
70,45,11927,1,0,0:0:0:0:
51,45,11990,1,8,0:0:0:0:
33,50,12054,1,0,0:0:0:0:
16,60,12118,5,2,0:0:0:0:
28,74,12181,1,0,0:0:0:0:
43,85,12245,1,0,0:0:0:0:
61,93,12308,1,0,0:0:0:0:
79,97,12372,1,10,0:0:0:0:
98,96,12435,1,0,0:0:0:0:
117,91,12499,1,0,0:0:0:0:
134,82,12562,1,0,0:0:0:0:
148,69,12627,2,0,L|152:17,1,38.2499988327027,10|0,0:0|0:0,0:0:0:0:
224,152,12754,2,0,L|221:190,1,38.2499988327027,8|0,0:0|0:0,0:0:0:0:
308,108,12881,5,4,0:0:0:0:
327,106,12944,1,0,0:0:0:0:
346,104,13008,1,0,0:0:0:0:
365,103,13071,1,0,0:0:0:0:
384,100,13135,2,0,L|380:56,3,38.2499988327027,0|0|8|0,0:0|0:0|0:0|0:0,0:0:0:0:
400,260,13389,2,0,L|404:304,3,38.2499988327027,0|0|8|0,0:0|0:0|0:0|0:0,0:0:0:0:
468,213,13644,5,2,0:0:0:0:
454,198,13707,1,0,0:0:0:0:
439,187,13771,1,0,0:0:0:0:
421,179,13834,1,0,0:0:0:0:
402,177,13898,1,10,3:2:0:0:
383,178,13961,1,0,3:0:0:0:
365,184,14025,1,0,3:0:0:0:
348,193,14088,1,0,3:0:0:0:
335,207,14152,1,0,3:0:0:0:
325,223,14216,1,0,3:0:0:0:
318,241,14279,1,0,3:0:0:0:
316,260,14343,1,0,3:0:0:0:
318,279,14406,6,0,L|328:368,1,85,6|0,3:2|0:0,0:0:0:0:
188,224,14661,1,2,3:2:0:0:
68,296,14788,2,0,B|124:292|124:292|172:316|172:316|248:308,1,170,0|0,0:0|0:0,0:0:0:0:
240,152,15169,6,0,B|204:132|204:132|148:140,1,85,2|0,3:2|0:0,0:0:0:0:
318,279,15423,2,0,B|354:299|354:299|410:291,1,85,2|0,3:2|0:0,0:0:0:0:
232,67,15677,2,0,L|240:152,1,85,2|0,3:2|0:0,0:0:0:0:
368,212,15932,5,2,3:2:0:0:
488,145,16059,2,0,B|432:149|432:149|384:125|384:125|308:133,1,170
318,279,16440,2,0,B|354:299|354:299|410:291,1,85,2|0,3:2|0:0,0:0:0:0:
232,67,16694,6,0,L|240:152,1,85,2|0,3:2|0:0,0:0:0:0:
80,344,16949,2,0,L|88:259,1,85,2|0,3:2|0:0,0:0:0:0:
98,168,17203,1,2,3:2:0:0:
160,311,17330,1,0,0:0:0:0:
5,293,17457,5,2,3:2:0:0:
168,225,17584,2,0,B|211:215|211:215|263:231,1,85,0|2,0:0|3:2,0:0:0:0:
87,259,17839,2,0,B|61:203|61:203|89:99,1,170,0|0,0:0|0:0,0:0:0:0:
360,220,18220,6,0,L|336:312,1,85,2|0,3:2|0:0,0:0:0:0:
298,128,18474,2,0,L|389:102,1,85,2|0,3:2|0:0,0:0:0:0:
250,228,18728,2,0,L|184:164,2,56.6666666666667,2|2|2,3:2|0:0|0:0,0:0:0:0:
311,288,18983,5,0,3:0:0:0:
265,313,19067,1,0,3:0:0:0:
213,306,19152,1,0,3:0:0:0:
175,269,19237,5,0,3:0:0:0:
164,218,19322,1,0,3:0:0:0:
188,171,19406,1,0,3:0:0:0:
233,145,19491,5,0,3:0:0:0:
286,153,19576,1,0,3:0:0:0:
324,188,19661,1,0,3:0:0:0:
334,239,19745,6,0,L|238:225,1,85,8|0,1:3|0:0,0:0:0:0:
139,64,20000,2,0,B|199:52|199:52|235:24|235:24|299:12,1,170,8|2,1:3|0:0,0:0:0:0:
295,48,20317,1,2,0:0:0:0:
292,83,20381,1,2,0:0:0:0:
289,118,20444,1,2,0:0:0:0:
286,153,20508,6,0,P|352:168|420:72,1,170,4|2,0:0|0:0,0:0:0:0:
188,171,20889,2,0,P|180:223|196:271,1,85,8|0,0:2|0:0,0:0:0:0:
265,313,21143,1,8,0:0:0:0:
437,289,21270,5,2,0:0:0:0:
421,262,21334,1,2,0:0:0:0:
396,243,21397,1,10,0:0:0:0:
365,235,21461,1,2,0:0:0:0:
334,239,21524,2,0,B|272:244|272:244|229:222|229:222|164:228,1,170,2|2,0:0|0:0,0:0:0:0:
20,308,21906,2,0,B|82:303|82:303|125:325|125:325|190:319,1,170,10|8,0:0|0:0,0:0:0:0:
48,92,22287,2,0,L|41:149,1,42.5,2|2,0:0|0:0,0:0:0:0:
212,150,22414,2,0,L|218:92,1,42.5,10|2,0:0|0:0,0:0:0:0:
136,36,22541,6,0,P|134:78|130:120,1,85,2|8,0:0|0:0,0:0:0:0:
381,120,22796,2,0,P|377:78|375:36,1,85,2|8,0:2|0:0,0:0:0:0:
216,24,23050,5,2,0:0:0:0:
300,150,23177,1,10,0:0:0:0:
296,24,23304,5,2,0:0:0:0:
212,150,23431,1,10,0:0:0:0:
196,144,23495,1,2,0:0:0:0:
180,140,23558,6,0,L|88:152,1,85,2|8,0:0|0:0,0:0:0:0:
48,296,23813,2,0,L|140:284,1,85,2|8,0:0|0:0,0:0:0:0:
344,228,24067,5,2,3:2:0:0:
305,209,24130,1,0,3:0:0:0:
263,211,24194,1,0,3:0:0:0:
228,235,24257,1,0,3:0:0:0:
208,272,24321,2,0,L|204:326,1,42.5,4|4,3:0|3:0,0:0:0:0:
417,202,24448,5,8,3:0:0:0:
415,180,24511,1,8,3:0:0:0:
413,158,24575,2,0,B|361:126|361:126|285:142,1,118.999996368408,6|0,0:0|0:0,0:0:0:0:
276,296,24766,2,0,B|328:328|328:328|404:312,1,118.999996368408,2|0,0:0|0:0,0:0:0:0:
344,228,24957,2,0,B|288:216|288:216|236:232|236:232|144:212,1,170,6|2,0:0|0:0,0:0:0:0:
88,200,25338,1,10,0:0:0:0:
100,116,25465,1,2,0:0:0:0:
112,32,25592,5,14,0:0:0:0:
21,147,25719,1,0,0:0:0:0:
21,147,25783,1,2,0:0:0:0:
21,147,25846,1,0,0:0:0:0:
166,168,25974,2,0,B|268:176|224:116|324:124,1,170,14|2,0:0|0:0,0:0:0:0:
384,344,26355,2,0,P|336:340|304:300,1,85,8|2,0:0|0:0,0:0:0:0:
304,300,26546,1,0,0:0:0:0:
296,284,26609,6,0,L|304:176,1,85,14|0,0:0|0:0,0:0:0:0:
163,29,26863,2,0,L|155:137,1,85,10|0,0:0|0:0,0:0:0:0:
372,152,27118,5,0,0:0:0:0:
340,124,27181,1,0,0:0:0:0:
299,114,27245,1,0,0:0:0:0:
259,126,27308,1,0,0:0:0:0:
229,156,27372,1,0,0:0:0:0:
199,186,27436,1,0,0:0:0:0:
159,198,27499,1,0,0:0:0:0:
118,188,27563,1,0,0:0:0:0:
87,161,27626,5,8,1:2:0:0:
87,161,27880,2,0,B|156:92|229:157|229:157|304:220|384:140,1,319.599995123291,0|0,0:0|0:0,2:0:0:0:
375,135,28452,1,2,0:0:0:0:
378,119,28516,1,2,0:0:0:0:
381,103,28580,1,2,0:0:0:0:
385,87,28643,6,0,P|316:112|320:200,1,152.999995330811,4|0,0:0|0:0,0:0:0:0:
272,352,29024,2,0,P|341:327|337:239,1,152.999995330811,8|8,0:0|0:0,0:0:0:0:
232,216,29406,1,2,0:0:0:0:
213,218,29469,1,2,0:0:0:0:
194,221,29533,1,10,0:0:0:0:
175,224,29596,1,2,0:0:0:0:
156,226,29660,6,0,B|192:252|192:252|164:146,1,152.999995330811,2|2,0:0|0:0,0:0:0:0:
40,64,30041,2,0,B|4:38|4:38|32:144,1,152.999995330811,8|8,0:0|0:0,0:0:0:0:
164,147,30423,1,2,0:0:0:0:
182,144,30486,1,2,0:0:0:0:
201,141,30550,1,10,0:0:0:0:
220,139,30613,1,2,0:0:0:0:
240,136,30677,6,0,B|256:96|256:96|236:16,2,114.749996498108,2|2|8,0:0|0:0|0:0,0:0:0:0:
356,184,31185,2,0,B|340:224|340:224|360:304,2,114.749996498108,2|2|10,0:0|0:0|0:0,0:0:0:0:
472,104,31694,5,2,0:0:0:0:
456,102,31757,1,2,0:0:0:0:
440,100,31821,1,10,0:0:0:0:
424,98,31885,1,2,0:0:0:0:
388,108,31949,5,2,0:0:0:0:
372,106,32012,1,2,0:0:0:0:
356,104,32076,1,10,0:0:0:0:
340,102,32140,1,2,0:0:0:0:
304,112,32203,5,2,0:2:0:0:
288,110,32266,1,2,0:2:0:0:
272,108,32330,1,2,0:2:0:0:
256,106,32394,1,2,0:2:0:0:
220,116,32457,5,2,3:2:0:0:
348,339,32584,1,2,0:2:0:0:
348,339,32647,1,0,0:0:0:0:
348,339,32711,6,0,P|384:283|368:215,1,118.999996368408,6|0,0:0|0:0,0:0:0:0:
252,195,32902,2,0,P|216:251|232:319,1,118.999996368408,2|0,0:0|0:0,0:0:0:0:
300,267,33092,6,0,B|196:291|232:215|132:235,1,170,6|2,0:0|0:0,0:0:0:0:
215,32,33474,2,0,P|224:73|220:116,1,85,0|2,0:0|0:0,0:0:0:0:
48,52,33728,6,0,P|101:45|146:77,1,110.499994941712,6|0,0:0|0:0,0:0:0:0:
283,159,33919,2,0,P|239:190|183:183,1,110.499994941712,2|0,0:0|0:0,0:0:0:0:
214,32,34109,6,0,B|266:36|266:36|322:72|322:72|374:77,1,170,6|2,0:0|0:0,0:0:0:0:
456,40,34491,1,0,0:0:0:0:
383,192,34618,5,2,0:0:0:0:
379,176,34681,1,2,0:0:0:0:
375,160,34745,2,0,B|366:117|366:117|373:76,1,85,12|0,0:0|0:0,0:0:0:0:
473,169,34999,1,8,0:0:0:0:
277,151,35126,5,2,0:0:0:0:
281,167,35189,1,2,0:0:0:0:
285,183,35253,2,0,B|294:226|294:226|286:266,1,85,8|0,0:0|0:0,0:0:0:0:
115,238,35507,6,0,L|200:228,1,85,8|2,0:0|0:0,0:0:0:0:
196,244,35698,1,2,0:0:0:0:
192,260,35762,2,0,L|200:308,3,42.5,12|0|0|0,0:0|0:0|0:0|0:0,0:0:0:0:
167,161,36016,5,0,3:0:0:0:
205,156,36079,1,0,3:0:0:0:
241,168,36143,1,0,3:0:0:0:
269,195,36206,1,0,3:0:0:0:
283,231,36270,5,8,0:0:0:0:
280,270,36333,1,0,0:0:0:0:
260,303,36397,1,0,0:0:0:0:
228,325,36460,1,0,0:0:0:0:
190,331,36524,5,4,0:3:0:0:
153,320,36588,1,4,0:3:0:0:
124,295,36651,1,4,0:3:0:0:
109,259,36715,1,4,0:3:0:0:
111,220,36779,6,0,B|144:197|188:193|208:193|248:215|248:215|289:240|332:253|420:256|429:183|428:128|392:84|340:72|299:88|270:105|235:160|284:216,1,595,6|2,0:0|0:0,2:0:0:0:
332,168,38813,6,0,L|328:104,2,63.7500024318696,10|10|10,1:2|1:2|1:2,0:0:0:0:
256,272,39194,2,0,L|252:336,2,63.7500024318696,10|10|10,1:2|1:2|1:2,0:0:0:0:
248,176,39575,2,0,L|244:112,2,63.7500024318696,10|10|10,1:2|1:2|1:2,0:0:0:0:
172,280,39956,2,0,L|168:344,2,63.7500024318696,10|10|10,1:2|1:2|1:2,0:0:0:0:
164,184,40338,5,10,1:2:0:0:
248,176,40465,1,4,3:0:0:0:
332,168,40592,1,4,3:0:0:0:
416,160,40719,1,4,3:0:0:0:
460,292,40846,6,0,B|404:304|344:260|332:168|332:168|320:248|272:268|240:272|240:272|204:264|152:220|176:136,1,510,4|0,0:0|0:0,0:0:0:0:
232,84,42499,1,0,0:0:0:0:
300,72,42626,1,0,0:0:0:0:
368,60,42753,1,0,0:0:0:0:
436,48,42880,5,2,0:0:0:0:
416,184,43007,2,0,L|316:168,1,85,4|0,0:0|0:0,0:0:0:0:
88,108,43262,5,2,0:0:0:0:
108,236,43389,2,0,L|204:220,1,76.4999976654053,4|0,0:0|0:0,0:0:0:0:
416,184,43643,5,2,0:0:0:0:
396,304,43770,2,0,L|304:288,1,68,4|0,0:0|0:0,0:0:0:0:
108,236,44024,5,2,0:0:0:0:
128,344,44151,2,0,L|212:328,1,59.4999981842042,4|0,0:0|0:0,0:0:0:0:
329,292,44406,5,2,0:2:0:0:
183,223,44660,1,2,3:2:0:0:
332,170,44914,5,6,0:0:0:0:
342,142,44977,1,0,0:0:0:0:
342,113,45041,1,0,0:0:0:0:
332,85,45104,1,0,0:0:0:0:
313,62,45168,1,2,0:3:0:0:
288,47,45231,1,0,0:0:0:0:
259,43,45295,1,0,0:0:0:0:
230,48,45358,1,0,0:0:0:0:
204,63,45423,6,0,L|196:112,3,31.8750012159348,10|0|0|0,0:3|0:0|0:0|0:0,0:0:0:0:
124,84,45677,2,0,L|115:132,3,31.8750012159348,2|0|8|0,0:3|0:0|0:0|0:0,0:0:0:0:
43,104,45931,6,0,L|34:152,7,31.8750012159348,2|0|8|0|2|0|0|0,0:3|0:0|0:0|0:0|0:3|0:0|0:0|0:0,0:0:0:0:
100,224,46440,2,0,L|108:175,7,31.8750012159348,10|0|0|0|2|0|8|0,0:3|0:0|0:0|0:0|0:3|0:0|0:0|0:0,0:0:0:0:
204,144,46948,5,2,0:3:0:0:
232,130,47011,1,0,0:0:0:0:
264,128,47075,1,0,0:0:0:0:
293,140,47138,1,0,0:0:0:0:
316,162,47202,1,2,0:3:0:0:
338,183,47266,1,0,0:0:0:0:
368,195,47329,1,0,0:0:0:0:
399,193,47393,1,0,0:0:0:0:
428,180,47457,6,0,L|436:132,1,31.8750012159348,10|0,0:3|0:0,0:0:0:0:
376,284,47584,2,0,L|368:332,1,31.8750012159348
338,183,47711,6,0,L|332:140,1,31.8750012159348,2|0,0:3|0:0,0:0:0:0:
284,248,47838,2,0,L|268:288,1,31.8750012159348,8|8,0:0|0:0,0:0:0:0:
216,184,47965,5,2,0:3:0:0:
186,173,48028,1,0,0:0:0:0:
154,172,48092,1,8,0:0:0:0:
124,183,48155,1,0,0:0:0:0:
99,203,48219,1,2,0:3:0:0:
83,230,48282,1,0,0:0:0:0:
77,261,48346,1,0,0:0:0:0:
82,292,48409,1,0,0:0:0:0:
97,320,48474,6,0,L|144:324,1,31.8750012159348,10|0,0:3|0:0,0:0:0:0:
184,262,48601,2,0,L|216:260,1,31.8750012159348
204,360,48728,6,0,L|235:357,1,31.8750012159348,10|0,0:3|0:0,0:0:0:0:
292,285,48855,2,0,L|324:288,1,31.8750012159348,8|0,0:0|0:0,0:0:0:0:
216,184,48982,5,6,0:0:0:0:
220,152,49045,1,0,0:0:0:0:
237,126,49109,1,0,0:0:0:0:
264,110,49172,1,0,0:0:0:0:
296,107,49236,1,2,0:3:0:0:
325,119,49299,1,0,0:0:0:0:
347,142,49363,1,0,0:0:0:0:
378,147,49426,1,0,0:0:0:0:
408,138,49490,5,10,0:3:0:0:
431,116,49553,1,0,0:0:0:0:
442,86,49617,1,0,0:0:0:0:
438,55,49680,1,0,0:0:0:0:
421,28,49745,2,0,L|372:20,3,31.8750012159348,2|0|8|8,0:3|0:0|0:0|0:0,0:0:0:0:
316,40,49999,6,0,L|266:31,7,31.8750012159348,2|0|8|0|2|0|0|0,0:3|0:0|0:0|0:0|0:3|0:0|0:0|0:0,0:0:0:0:
232,116,50507,2,0,L|281:107,7,31.8750012159348,10|0|0|0|2|0|8|0,0:3|0:0|0:0|0:0|0:3|0:0|0:0|0:0,0:0:0:0:
160,76,51016,5,2,0:3:0:0:
128,76,51079,1,0,0:0:0:0:
98,88,51143,1,0,0:0:0:0:
75,110,51206,1,0,0:0:0:0:
61,138,51270,1,2,0:3:0:0:
58,170,51333,1,0,0:0:0:0:
66,200,51397,1,0,0:0:0:0:
84,226,51460,1,0,0:0:0:0:
110,244,51524,6,0,L|164:240,3,31.8750012159348,10|0|0|0,0:3|0:0|0:0|0:0,0:0:0:0:
204,296,51779,2,0,L|257:291,3,31.8750012159348,2|0|8|8,0:3|0:0|0:0|0:0,0:0:0:0:
320,236,52033,5,2,0:3:0:0:
347,220,52096,1,0,0:0:0:0:
378,224,52160,1,8,0:0:0:0:
402,244,52223,1,0,0:0:0:0:
409,275,52287,1,2,0:3:0:0:
397,304,52350,1,0,0:0:0:0:
371,321,52414,1,0,0:0:0:0:
340,320,52477,1,0,0:0:0:0:
315,301,52541,6,0,L|307:235,1,42.5,2|0,3:0|3:0,0:0:0:0:
200,224,52669,2,0,L|204:181,1,42.5,0|0,3:0|3:0,0:0:0:0:
320,144,52796,2,0,L|312:78,1,42.5,0|0,3:0|3:0,0:0:0:0:
196,56,52923,2,0,L|200:13,1,42.5,0|0,3:0|3:0,0:0:0:0:
315,101,53304,6,0,B|371:93|371:93|419:61|419:61|491:49,1,170,4|2,0:0|0:0,0:0:0:0:
461,227,53685,2,0,L|448:144,1,85,2|10,0:0|0:0,0:0:0:0:
289,193,53940,6,0,B|233:201|233:201|185:233|185:233|113:245,1,170,4|2,0:0|0:0,0:0:0:0:
156,150,54321,1,10,0:0:0:0:
264,286,54448,2,0,B|276:328|276:328|263:375,1,85,10|0,0:0|0:0,0:0:0:0:
130,242,54702,5,2,0:0:0:0:
86,84,54830,1,2,0:0:0:0:
156,150,54957,1,2,0:0:0:0:
60,176,55084,1,10,0:0:0:0:
182,58,55338,6,0,P|232:44|304:100,1,136,6|2,0:0|0:0,0:0:0:0:
264,286,55719,2,0,P|255:253|261:219,1,68,2|8,0:0|0:0,0:0:0:0:
332,168,55974,6,0,L|476:148,1,136,6|2,0:0|0:0,0:0:0:0:
340,252,56355,1,10,0:0:0:0:
261,219,56482,2,0,L|117:239,1,136,2|2,0:0|0:0,0:0:0:0:
342,318,56863,2,0,P|347:284|339:251,1,68,2|2,0:0|0:0,0:0:0:0:
253,135,57118,1,10,0:0:0:0:
112,28,57372,6,0,B|146:28|168:24|168:24|220:52|220:52|249:47|296:48,1,170,4|2,0:0|0:0,0:0:0:0:
148,108,57753,2,0,B|106:111|106:111|68:144,1,85,2|8,0:0|0:0,0:0:0:0:
261,293,58007,6,0,B|288:240|288:240|253:135,1,170,4|2,0:0|0:0,0:0:0:0:
196,232,58389,1,10,0:0:0:0:
344,140,58516,2,0,B|378:139|400:144|400:144|452:116|452:116|481:120|528:120,1,170,2|2,0:0|0:0,0:0:0:0:
468,200,58897,1,2,0:0:0:0:
382,59,59024,1,2,0:0:0:0:
253,135,59152,5,6,0:2:0:0:
205,151,59236,1,0,0:0:0:0:
157,135,59321,1,0,0:0:0:0:
129,91,59406,5,2,0:2:0:0:
128,40,59490,1,0,0:0:0:0:
156,84,59575,1,0,0:0:0:0:
157,135,59660,5,2,0:2:0:0:
136,180,59745,1,0,0:0:0:0:
88,196,59829,1,0,0:0:0:0:
36,184,59914,6,0,L|24:116,2,56.6666666666667,6|0|0,0:2|0:0|0:0,0:0:0:0:
116,284,60168,2,0,L|104:352,2,56.6666666666667,2|0|0,0:2|0:0|0:0,0:0:0:0:
214,206,60423,2,0,L|202:138,2,56.6666666666667,2|0|0,0:2|0:0|0:0,0:0:0:0:
294,306,60677,5,6,0:2:0:0:
342,317,60761,1,0,0:0:0:0:
386,294,60846,1,0,0:0:0:0:
404,247,60931,5,2,0:2:0:0:
386,201,61015,1,0,0:0:0:0:
341,178,61100,1,0,0:0:0:0:
293,190,61185,5,2,0:2:0:0:
245,202,61270,1,0,0:0:0:0:
200,179,61355,1,0,0:0:0:0:
183,133,61440,6,0,L|180:72,2,56.6666666666667,6|0|0,0:2|0:0|0:0,0:0:0:0:
331,76,61694,2,0,L|329:133,2,56.6666666666667,2|0|0,0:2|0:0|0:0,0:0:0:0:
180,260,61948,2,0,P|144:264|100:244,2,56.6666666666667,2|0|0,0:2|0:0|0:0,0:0:0:0:
332,260,62202,5,6,0:0:0:0:
344,250,62265,1,2,0:0:0:0:
358,242,62329,1,2,0:0:0:0:
373,237,62392,1,2,0:0:0:0:
389,235,62456,1,2,0:0:0:0:
405,236,62519,1,2,0:0:0:0:
420,240,62583,1,2,0:0:0:0:
435,247,62646,1,2,0:0:0:0:
448,256,62710,1,2,0:0:0:0:
459,267,62774,1,2,0:0:0:0:
469,280,62837,1,2,0:0:0:0:
475,294,62901,1,2,0:0:0:0:
479,310,62964,1,2,0:0:0:0:
480,325,63028,1,2,0:0:0:0:
478,341,63091,1,2,0:0:0:0:
474,356,63155,1,2,0:0:0:0:
467,371,63218,6,0,L|392:364,7,42.5,2|2|2|2|2|2|2|2,0:0|0:0|0:0|0:0|0:0|0:0|0:0|0:0,0:0:0:0:
332,260,63727,2,0,L|257:253,7,42.5,2|2|2|2|2|2|2|2,0:0|0:0|0:0|0:0|0:0|0:0|0:0|0:0,0:0:0:0:
197,149,64235,5,2,0:0:0:0:
184,159,64298,1,2,0:0:0:0:
174,171,64362,1,2,0:0:0:0:
165,184,64425,1,2,0:0:0:0:
159,199,64489,1,2,0:0:0:0:
155,214,64552,1,2,0:0:0:0:
154,230,64616,1,2,0:0:0:0:
155,246,64679,1,2,0:0:0:0:
158,261,64743,1,2,0:0:0:0:
164,276,64807,1,2,0:0:0:0:
172,290,64870,1,2,0:0:0:0:
183,302,64934,1,2,0:0:0:0:
195,312,64998,1,2,0:0:0:0:
208,321,65061,1,2,0:0:0:0:
223,327,65124,1,2,0:0:0:0:
238,331,65188,1,2,0:0:0:0:
254,332,65251,5,2,0:0:0:0:
270,331,65315,1,2,0:0:0:0:
285,328,65379,1,2,0:0:0:0:
300,322,65442,1,2,0:0:0:0:
314,313,65506,1,2,0:0:0:0:
326,303,65569,1,2,0:0:0:0:
336,291,65633,1,2,0:0:0:0:
345,277,65696,1,2,0:0:0:0:
351,263,65760,1,2,0:0:0:0:
355,247,65823,1,2,0:0:0:0:
356,231,65887,1,2,0:0:0:0:
355,216,65951,1,2,0:0:0:0:
351,200,66014,1,2,0:0:0:0:
345,185,66078,1,2,0:0:0:0:
337,172,66141,1,2,0:0:0:0:
326,160,66205,1,2,0:0:0:0:
314,149,66269,6,0,B|258:157|258:157|218:201|218:201|142:213,1,170,4|2,0:0|0:3,0:0:0:0:
32,64,66650,2,0,B|88:72|88:72|128:116|128:116|204:128,1,170,8|8,0:0|0:0,0:0:0:0:
248,84,67031,6,0,B|256:48|256:48|244:-4,1,85,2|0,0:3|0:0,0:0:0:0:
316,149,67285,2,0,B|308:185|308:185|320:237,1,85,10|0,0:3|0:0,0:0:0:0:
484,104,67540,2,0,L|400:116,1,85,10|0,0:3|0:0,0:0:0:0:
236,220,67794,6,0,P|288:216|352:312,2,170,2|2|2,0:3|0:3|0:3,0:0:0:0:
268,300,68430,1,10,0:0:0:0:
184,288,68557,6,0,P|154:244|205:141,1,170,2|10,0:3|0:3,0:0:0:0:
236,220,68938,1,0,0:0:0:0:
268,300,69065,1,10,0:3:0:0:
84,280,69192,1,2,0:0:0:0:
196,145,69319,6,0,B|292:157|240:205|348:217,1,170,4|2,0:0|0:3,0:0:0:0:
336,124,69701,1,8,0:0:0:0:
424,268,69828,2,0,P|436:220|424:164,1,85,2|8,0:3|0:0,0:0:0:0:
343,41,70082,6,0,P|332:81|336:124,1,85,2|0,0:3|0:0,0:0:0:0:
497,114,70336,2,0,P|456:103|414:106,1,85,10|0,0:3|0:0,0:0:0:0:
352,201,70591,1,10,0:3:0:0:
428,28,70718,1,2,0:0:0:0:
256,64,70845,6,0,B|196:68|196:68|152:48|152:48|80:52,1,170,2|2,0:3|0:3,0:0:0:0:
132,136,71226,1,8,0:0:0:0:
32,184,71353,2,0,B|16:145|16:145|21:103,1,85,10|0,0:3|0:0,0:0:0:0:
172,240,71607,5,2,0:3:0:0:
168,260,71671,1,2,0:0:0:0:
164,280,71735,1,2,0:0:0:0:
132,136,71862,1,10,0:3:0:0:
132,136,72116,1,2,0:3:0:0:
273,180,72243,1,10,0:0:0:0:
384,84,72370,6,0,B|396:44|396:44|384:-4,1,85,4|0,0:0|0:0,0:0:0:0:
274,98,72624,2,0,B|262:138|262:138|274:186,1,85,2|8,0:3|0:0,0:0:0:0:
388,240,72879,2,0,L|476:232,1,85,2|8,0:3|0:0,0:0:0:0:
274,98,73133,6,0,B|214:106|214:106|186:138|186:138|106:150,2,170,2|10|6,0:3|0:3|3:3,0:0:0:0:
356,140,73769,1,0,3:0:0:0:
356,140,73832,1,0,0:0:0:0:
356,140,73896,5,6,3:2:0:0:
269,5,74023,1,0,0:0:0:0:
196,148,74150,1,2,3:2:0:0:
278,190,74277,5,0,0:0:0:0:
191,55,74404,1,2,3:2:0:0:
118,198,74531,1,0,0:0:0:0:
356,140,74658,6,0,P|368:92|352:48,1,85,2|0,3:2|0:0,0:0:0:0:
278,190,74913,2,0,P|313:224|359:232,1,85,2|0,3:2|0:0,0:0:0:0:
274,98,75167,2,0,P|226:111|196:147,1,85,2|0,3:2|0:0,0:0:0:0:
118,198,75421,5,2,3:2:0:0:
128,284,75548,1,0,0:0:0:0:
138,370,75675,1,2,3:2:0:0:
202,136,75802,5,0,0:0:0:0:
212,222,75929,1,2,3:2:0:0:
222,308,76056,1,0,0:0:0:0:
286,74,76184,6,0,L|294:158,1,85,2|0,3:2|0:0,0:0:0:0:
40,144,76438,2,0,L|31:228,1,85,2|0,3:2|0:0,0:0:0:0:
212,222,76692,2,0,L|220:306,1,85,2|0,3:2|0:0,0:0:0:0:
136,80,76946,5,2,3:2:0:0:
294,158,77074,2,0,B|390:166|346:106|458:118,1,170,0|0,0:0|0:0,0:0:0:0:
282,45,77455,1,2,3:2:0:0:
212,222,77582,1,0,0:0:0:0:
397,204,77709,6,0,P|408:152|392:104,1,85,2|0,3:2|0:0,0:0:0:0:
110,121,77963,2,0,P|103:163|115:204,1,85,2|0,3:2|0:0,0:0:0:0:
256,80,78218,2,0,L|256:16,2,56.6666666666667,2|2|2,3:2|0:2|0:2,0:0:0:0:
358,165,78472,5,8,3:0:0:0:
306,148,78556,1,8,3:0:0:0:
256,173,78641,1,8,3:0:0:0:
235,225,78726,5,8,3:0:0:0:
256,276,78811,1,8,3:0:0:0:
277,225,78895,1,8,3:0:0:0:
256,173,78980,5,12,3:3:0:0:
206,148,79065,1,12,3:3:0:0:
154,165,79149,1,12,3:0:0:0:
112,228,79235,5,10,0:0:0:0:
400,228,79489,1,10,0:0:0:0:
196,28,79743,6,0,P|192:59|188:76,1,42.5,2|2,0:0|0:0,0:0:0:0:
322,69,79870,2,0,P|317:49|316:28,1,42.5,2|2,0:0|0:0,0:0:0:0:
256,173,79997,6,0,B|240:256|272:220|256:312,1,127.500004863739,2|4,0:0|0:0,0:0:0:0:
444,292,80378,6,0,P|476:228|388:152,1,203.999993774414,8|8,0:0|0:0,0:0:0:0:
258,299,80759,1,2,0:0:0:0:
222,307,80823,1,2,0:0:0:0:
186,315,80886,1,10,0:0:0:0:
150,323,80950,1,2,0:0:0:0:
114,331,81013,6,0,L|10:319,1,101.999996887207,2|0,0:0|0:0,0:0:0:0:
60,152,81268,1,2,0:0:0:0:
204,224,81395,2,0,B|132:216|132:216|80:244|80:244|4:236,1,203.999993774414,10|8,0:0|0:0,0:0:0:0:
112,36,81776,2,0,L|124:100,1,50.9999984436036,2|2,0:0|0:0,0:0:0:0:
204,224,81903,2,0,L|216:160,1,50.9999984436036,10|2,0:0|0:0,0:0:0:0:
312,96,82030,6,0,L|424:80,1,101.999996887207,2|8,0:0|0:0,0:0:0:0:
412,302,82285,2,0,L|312:288,1,101.999996887207,2|8,0:0|0:0,0:0:0:0:
200,96,82539,5,2,0:0:0:0:
392,192,82666,1,10,0:0:0:0:
200,288,82793,1,2,0:0:0:0:
296,56,82920,5,10,0:0:0:0:
304,76,82984,1,0,0:0:0:0:
312,96,83047,2,0,L|300:208,1,101.999996887207,2|8,0:0|0:0,0:0:0:0:
200,96,83302,1,2,0:0:0:0:
392,192,83429,1,8,0:0:0:0:
200,288,83556,5,8,3:2:0:0:
152,303,83619,1,8,3:2:0:0:
109,279,83683,1,8,3:2:0:0:
96,232,83746,1,8,3:2:0:0:
121,189,83810,2,0,L|184:184,1,50.9999984436036,4|4,3:0|3:0,0:0:0:0:
332,312,83937,5,2,0:2:0:0:
348,296,84001,1,2,0:2:0:0:
364,280,84064,2,0,P|376:220|344:168,1,118.999996368408,6|0,0:0|0:0,0:0:0:0:
230,190,84255,2,0,P|218:250|250:302,1,118.999996368408,2|0,0:0|0:0,0:0:0:0:
297,235,84446,6,0,B|308:176|308:176|276:104|276:104|292:16,1,203.999993774414,6|2,0:0|0:0,0:0:0:0:
354,84,84827,1,10,0:0:0:0:
230,190,84954,1,2,0:0:0:0:
64,56,85081,5,6,0:0:0:0:
148,20,85208,1,0,0:0:0:0:
156,40,85272,1,2,0:0:0:0:
156,60,85335,1,0,0:0:0:0:
40,144,85463,6,0,B|158:128|106:208|230:190,1,203.999993774414,6|2,0:0|0:0,0:0:0:0:
400,104,85844,1,10,0:0:0:0:
314,68,85971,1,2,0:0:0:0:
306,88,86035,1,2,0:0:0:0:
304,108,86098,6,0,P|324:165|370:195,1,101.999996887207,14|0,0:0|0:0,0:0:0:0:
496,100,86352,2,0,P|476:43|430:13,1,101.999996887207,14|0,0:0|0:0,0:0:0:0:
229,190,86607,2,0,B|136:176|180:247|58:227,2,152.999995330811,10|10|10,0:2|0:2|0:2,0:0:0:0:
420,244,87115,6,0,L|480:232,2,56.6666666666667,10|10|10,0:2|0:2|0:2,0:0:0:0:
340,312,87369,2,0,L|280:300,2,56.6666666666667,10|10|10,0:2|0:2|0:2,0:0:0:0:
432,360,87624,2,0,L|492:348,2,56.6666666666667,10|10|8,0:2|0:2|0:2,0:0:0:0:
328,196,87878,5,2,3:2:0:0:
324,172,87941,1,2,3:2:0:0:
320,148,88005,1,2,3:2:0:0:
316,124,88069,1,2,3:2:0:0:
312,100,88132,6,0,P|352:76|440:104,1,110.499994941712,6|0,0:0|0:0,0:0:0:0:
200,100,88386,2,0,P|160:76|72:104,1,110.499994941712,6|0,0:0|0:0,0:0:0:0:
384,190,88641,6,0,P|452:202|480:258,1,110.499994941712,4|0,0:0|0:0,0:0:0:0:
128,190,88895,2,0,P|60:202|32:258,1,110.499994941712,2|2,0:0|0:0,0:0:0:0:
256,352,89149,5,4,3:2:0:0:
256,341,89212,1,0,3:0:0:0:
256,331,89276,1,0,3:0:0:0:
256,321,89339,1,0,3:0:0:0:
256,311,89403,1,2,3:2:0:0:
256,301,89466,1,0,3:0:0:0:
256,291,89530,1,2,3:2:0:0:
256,281,89593,1,0,3:0:0:0:
256,271,89658,2,0,L|256:220,3,31.8750012159348,0|0|0|0,3:0|3:0|3:0|3:0,0:0:0:0:
208,172,89912,6,0,L|192:100,1,50.9999984436036,6|2,3:2|3:2,0:0:0:0:
308,80,90039,2,0,L|324:8,1,50.9999984436036,2|2,3:2|3:2,0:0:0:0:
200,40,90166,6,0,B|148:32|148:32|108:44|108:44|40:36,2,152.999995330811,6|2|10,0:0|0:0|0:0,0:0:0:0:
316,196,90674,2,0,B|368:204|368:204|408:192|408:192|476:200,2,152.999995330811,2|2|8,0:0|0:0|0:0,0:0:0:0:
28,205,91183,5,2,0:0:0:0:
61,242,91246,1,2,0:0:0:0:
110,249,91310,1,10,0:0:0:0:
153,223,91373,1,2,0:0:0:0:
169,175,91437,1,2,0:0:0:0:
185,127,91501,1,2,0:0:0:0:
227,101,91564,1,10,0:0:0:0:
277,108,91628,1,2,0:0:0:0:
310,145,91691,6,0,L|316:201,1,50.9999984436036,2|2,0:0|0:0,0:0:0:0:
96,177,91819,2,0,L|90:121,1,50.9999984436036,2|2,0:0|0:0,0:0:0:0:
241,173,91946,2,0,L|247:229,1,50.9999984436036,0|0,3:0|3:0,0:0:0:0:
27,205,92073,5,0,3:0:0:0:
26,192,92136,1,0,3:0:0:0:
25,179,92200,2,0,B|20:127|20:127|21:110|21:110|16:49,1,118.999996368408,6|0,0:0|0:0,0:0:0:0:
153,223,92391,2,0,B|148:274|148:274|149:291|149:291|144:353,1,118.999996368408,2|0,0:0|0:0,0:0:0:0:
90,126,92581,2,0,B|206:94|166:186|304:144,1,203.999993774414,6|2,0:0|0:0,0:0:0:0:
335,71,92963,1,2,0:0:0:0:
325,229,93090,1,2,0:0:0:0:
194,142,93217,6,0,B|168:88|168:88|184:24,1,118.999996368408,6|0,0:0|0:0,0:0:0:0:
276,160,93408,2,0,B|242:209|242:209|178:227,1,118.999996368408,2|0,0:0|0:0,0:0:0:0:
250,79,93598,2,0,B|320:76|320:76|368:108|368:108|456:104,1,203.999993774414,6|2,0:0|0:0,0:0:0:0:
400,20,93980,1,2,0:0:0:0:
425,232,94107,5,2,0:0:0:0:
437,216,94170,1,2,0:0:0:0:
449,200,94234,2,0,P|461:160|429:88,1,101.999996887207,14|0,0:0|0:0,0:0:0:0:
194,142,94488,6,0,L|186:214,2,67.9999979248048,10|2|2,0:0|0:0|0:0,0:0:0:0:
325,229,94742,2,0,L|333:301,2,67.9999979248048,10|2|2,0:0|0:0|0:0,0:0:0:0:
176,304,94996,2,0,L|168:376,2,67.9999979248048,10|2|2,0:0|0:0|0:0,0:0:0:0:
322,78,95251,5,14,0:0:0:0:
383,75,95336,1,2,0:0:0:0:
429,119,95421,1,2,0:0:0:0:
431,181,95506,1,10,0:0:0:0:
387,227,95590,1,2,0:0:0:0:
325,229,95675,1,2,0:0:0:0:
280,185,95759,5,10,0:0:0:0:
234,140,95844,1,2,0:0:0:0:
172,143,95929,1,2,0:0:0:0:
128,188,96013,1,10,0:0:0:0:
130,250,96098,1,2,0:0:0:0:
176,294,96183,1,2,0:0:0:0:
238,292,96268,6,0,B|248:248|248:248|240:208|240:208|252:168|252:168|240:128|240:128|252:84|252:84|240:48|240:48|248:-8,1,297.5,6|0,0:0|0:0,0:0:0:0:
380,52,97285,6,0,P|420:84|428:108,1,63.75,2|0,1:2|2:0,0:0:0:0:
324,269,97475,6,0,P|272:266|252:251,1,63.75,2|0,1:2|2:0,0:0:0:0:
243,60,97666,6,0,P|285:31|311:31,1,63.75,2|0,1:2|2:0,0:0:0:0:
431,181,97857,6,0,P|412:228|392:243,1,63.75,2|0,1:2|2:0,0:0:0:0:
207,194,98047,6,0,P|198:172|196:143,1,53.125,2|0,1:2|2:0,0:0:0:0:
294,113,98174,2,0,P|303:135|305:164,1,53.125,2|0,1:2|2:0,0:0:0:0:
119,246,98302,5,12,0:0:0:0:
64,238,98386,1,0,0:0:0:0:
31,194,98471,1,0,0:0:0:0:
38,139,98556,1,8,0:0:0:0:
81,104,98640,1,0,0:0:0:0:
136,110,98725,1,0,0:0:0:0:
172,152,98810,1,8,0:0:0:0:
207,194,98895,1,0,0:0:0:0:
261,199,98980,1,0,0:0:0:0:
304,164,99064,6,0,L|310:73,2,56.6666666666667,8|0|0,0:0|0:0|0:0,0:0:0:0:
388,276,99318,2,0,L|394:367,2,56.6666666666667,8|0|0,0:0|0:0|0:0,0:0:0:0:
432,96,99573,2,0,L|438:5,2,56.6666666666667,8|0|0,0:0|0:0|0:0,0:0:0:0:
440,212,99827,5,8,0:0:0:0:
386,195,99911,1,0,0:0:0:0:
335,216,99996,1,0,0:0:0:0:
308,264,100081,1,8,0:0:0:0:
281,312,100166,1,0,0:0:0:0:
230,333,100251,1,0,0:0:0:0:
176,316,100335,1,8,0:0:0:0:
147,268,100420,1,0,0:0:0:0:
155,213,100505,1,0,0:0:0:0:
196,175,100590,6,0,P|230:164|268:176,2,56.6666666666667,8|0|0,0:0|0:0|0:0,0:0:0:0:
433,138,100844,2,0,P|424:173|396:199,2,56.6666666666667,8|0|0,0:0|0:0|0:0,0:0:0:0:
304,88,101098,2,0,P|330:112|339:150,2,56.6666666666667,8|0|0,0:0|0:0|0:0,0:0:0:0:
454,274,101352,5,8,0:0:0:0:
398,280,101436,1,0,0:0:0:0:
348,255,101521,1,0,0:0:0:0:
320,206,101606,1,8,0:0:0:0:
324,152,101691,1,0,0:0:0:0:
284,112,101776,1,0,0:0:0:0:
228,116,101861,1,8,0:0:0:0:
192,160,101946,1,0,0:0:0:0:
200,216,102030,1,0,0:0:0:0:
184,272,102115,5,8,0:0:0:0:
148,314,102199,1,0,0:0:0:0:
94,326,102284,1,0,0:0:0:0:
44,301,102369,1,8,0:0:0:0:
24,248,102454,1,0,0:0:0:0:
41,196,102539,1,0,0:0:0:0:
88,165,102624,1,8,0:0:0:0:
144,173,102708,1,0,0:0:0:0:
181,214,102793,1,0,0:0:0:0:
184,272,102878,6,0,L|176:336,2,56.6666666666667,8|0|0,0:0|0:0|0:0,0:0:0:0:
320,206,103132,2,0,L|328:270,2,56.6666666666667,8|0|0,0:0|0:0|0:0,0:0:0:0:
199,103,103386,2,0,L|191:167,2,56.6666666666667,8|0|0,0:0|0:0|0:0,0:0:0:0:
312,32,103640,5,2,0:0:0:0:
325,48,103724,1,2,0:0:0:0:
341,61,103810,1,2,0:0:0:0:
360,71,103894,1,2,0:0:0:0:
381,76,103978,1,2,0:0:0:0:
402,76,104063,1,2,0:0:0:0:
424,72,104149,2,0,P|456:56|480:24,2,56.6666666666667,2|2|2,0:0|0:0|0:0,0:0:0:0:
496,112,104403,5,4,0:0:0:0:
509,179,104487,1,0,0:0:0:0:
469,235,104572,1,0,0:0:0:0:
400,245,104657,1,2,0:3:0:0:
342,205,104742,1,0,0:0:0:0:
330,137,104827,1,0,0:0:0:0:
368,80,104912,2,0,P|384:48|392:8,2,70.8333333333333
252,128,105166,5,2,0:3:0:0:
202,79,105250,1,0,0:0:0:0:
133,80,105335,1,0,0:0:0:0:
79,125,105420,1,2,0:3:0:0:
71,193,105504,1,0,0:0:0:0:
107,253,105589,1,0,0:0:0:0:
179,265,105674,2,0,P|215:261|259:249,2,70.8333333333333,2|0|0,0:3|0:0|0:0,0:0:0:0:
163,173,105929,5,2,0:3:0:0:
223,140,106013,1,0,0:0:0:0:
288,161,106098,1,0,0:0:0:0:
318,223,106183,1,2,0:3:0:0:
323,293,106268,1,0,0:0:0:0:
352,355,106353,1,0,0:0:0:0:
416,375,106437,2,0,P|452:374|487:368,2,70.8333333333333,2|0|0,0:3|0:0|0:0,0:0:0:0:
436,112,106691,5,2,0:3:0:0:
369,130,106775,1,0,0:0:0:0:
338,191,106860,1,0,0:0:0:0:
361,255,106945,1,2,0:3:0:0:
425,282,107029,1,0,0:0:0:0:
487,252,107114,1,0,0:0:0:0:
507,186,107200,2,0,P|512:150|511:115,2,70.8333333333333,2|0|0,0:3|0:0|0:0,0:0:0:0:
384,40,107454,5,2,0:3:0:0:
360,36,107538,1,0,0:0:0:0:
337,40,107623,1,0,0:0:0:0:
317,52,107708,1,2,0:3:0:0:
283,84,107792,1,0,0:0:0:0:
237,91,107877,1,0,0:0:0:0:
196,70,107963,1,2,0:3:0:0:
145,23,108047,1,0,0:0:0:0:
77,28,108132,1,0,0:0:0:0:
34,82,108217,6,0,L|26:159,1,70.8333333333333,2|0,0:3|0:0,0:0:0:0:
171,173,108386,1,0,0:0:0:0:
171,173,108471,2,0,L|108:127,1,70.8333333333333,2|0,0:3|0:0,0:0:0:0:
23,246,108640,1,0,0:0:0:0:
23,246,108725,2,0,L|93:214,1,70.8333333333333,2|0,0:3|0:0,0:0:0:0:
164,268,108895,1,0,0:0:0:0:
164,268,108979,6,0,P|188:312|188:344,2,70.8333333333333,2|0|0,0:3|0:0|0:0,0:0:0:0:
322,331,109234,2,0,P|328:297|348:268,2,70.8333333333333,2|0|0,0:3|0:0|0:0,0:0:0:0:
256,148,109488,2,0,L|256:218,2,70.8333333333333,2|0|0,0:3|0:0|0:0,0:0:0:0:
384,72,109742,5,2,0:0:0:0:
410,72,109805,1,2,0:0:0:0:
435,79,109869,1,2,0:0:0:0:
458,93,109932,1,2,0:0:0:0:
474,114,109996,1,2,0:0:0:0:
484,138,110059,1,2,0:0:0:0:
486,165,110123,1,2,0:0:0:0:
480,190,110186,1,2,0:0:0:0:
467,213,110251,6,0,P|459:251|459:284,1,53.125,2|2,0:0|0:0,0:0:0:0:
348,267,110378,2,0,P|345:240|339:214,1,53.125,2|2,0:0|0:0,0:0:0:0:
404,156,110505,1,6,0:0:0:0:
256,192,110632,12,0,112284,2:0:0:0:
124,104,112538,6,0,L|108:8,1,85,10|10,1:2|1:2,0:0:0:0:
256,192,112793,1,10,1:2:0:0:
137,187,112920,6,0,L|121:91,1,85,10|10,1:2|1:2,0:0:0:0:
257,263,113175,1,10,1:2:0:0:
377,187,113301,6,0,L|393:91,1,85,10|10,1:2|1:2,0:0:0:0:
257,263,113556,1,10,1:2:0:0:
390,103,113682,6,0,L|403:19,1,85,10|10,1:2|1:2,0:0:0:0:
256,192,113937,1,10,1:2:0:0:
212,104,114064,5,10,1:2:0:0:
313,320,114191,1,4,1:3:0:0:
300,104,114318,5,4,1:3:0:0:
199,320,114445,1,4,1:3:0:0:
199,320,115081,5,2,0:0:0:0:
216,327,115144,1,2,0:0:0:0:
234,331,115208,1,2,0:0:0:0:
252,332,115271,1,2,0:0:0:0:
270,332,115335,1,2,0:0:0:0:
288,329,115398,1,2,0:0:0:0:
305,324,115462,1,2,0:0:0:0:
322,316,115525,1,2,0:0:0:0:
337,307,115589,1,2,0:0:0:0:
351,296,115653,1,2,0:0:0:0:
364,283,115716,1,2,0:0:0:0:
375,268,115780,1,2,0:0:0:0:
383,253,115843,1,2,0:0:0:0:
390,236,115907,1,2,0:0:0:0:
395,218,115970,1,2,0:0:0:0:
397,201,116034,1,2,0:0:0:0:
397,182,116097,5,2,0:0:0:0:
395,165,116161,1,2,0:0:0:0:
390,147,116225,1,2,0:0:0:0:
383,130,116288,1,2,0:0:0:0:
375,115,116352,1,2,0:0:0:0:
364,100,116415,1,2,0:0:0:0:
351,87,116479,1,2,0:0:0:0:
337,76,116542,1,2,0:0:0:0:
322,67,116606,1,2,0:0:0:0:
305,59,116669,1,2,0:0:0:0:
288,54,116733,1,2,0:0:0:0:
270,51,116797,1,2,0:0:0:0:
252,51,116860,1,2,0:0:0:0:
234,52,116924,1,2,0:0:0:0:
216,56,116987,1,2,0:0:0:0:
199,63,117051,1,2,0:0:0:0:
183,71,117114,5,2,0:0:0:0:
169,81,117178,1,2,0:0:0:0:
155,93,117242,1,2,0:0:0:0:
144,107,117305,1,2,0:0:0:0:
134,122,117369,1,2,0:0:0:0:
126,139,117432,1,2,0:0:0:0:
120,156,117496,1,2,0:0:0:0:
117,173,117559,1,2,0:0:0:0:
116,192,117623,1,2,0:0:0:0:
117,210,117686,1,2,0:0:0:0:
120,227,117750,1,2,0:0:0:0:
126,244,117814,1,2,0:0:0:0:
134,261,117877,1,2,0:0:0:0:
144,276,117941,1,2,0:0:0:0:
155,290,118004,1,2,0:0:0:0:
169,302,118068,1,2,0:0:0:0:
183,312,118131,5,4,3:0:0:0:
