osu file format v14

[General]
AudioFilename: audio.mp3
AudioLeadIn: 0
PreviewTime: 20254
Countdown: 0
SampleSet: Soft
StackLeniency: 0.5
Mode: 0
LetterboxInBreaks: 0
WidescreenStoryboard: 0

[Editor]
Bookmarks: 14406,45105,90653,95187,98238
DistanceSpacing: 1.1
BeatDivisor: 4
GridSize: 4
TimelineZoom: 2.899999

[Metadata]
Title:Lachryma
TitleUnicode:Lachryma《Re:Queen'M》
Artist:Kaneko Chiharu
ArtistUnicode:かねこちはる
Creator:Kroytz
Version:Smoothie World's MAXIMUM
Source:SOUND VOLTEX III GRAVITY WARS
Tags:SDVX Grace The 5th KAC Original Song Contest KONAMI BEMANI Battle Ametrin Fizz Ponoyoshi Alheak toybot Smoothie World
BeatmapID:1021421
BeatmapSetID:475629

[Difficulty]
HPDrainRate:5.7
CircleSize:4.2
OverallDifficulty:9
ApproachRate:9.7
SliderMultiplier:2
SliderTickRate:1

[Events]
//Background and Video events
0,0,"BG.png",0,0
//Break Periods
//Storyboard Layer 0 (Background)
//Storyboard Layer 1 (Fail)
//Storyboard Layer 2 (Pass)
//Storyboard Layer 3 (Foreground)
//Storyboard Sound Samples

[TimingPoints]
678,254.237288135593,3,2,1,55,1,0
1440,-142.857142857143,3,2,1,55,0,0
2203,-100,3,2,1,55,0,0
2966,-142.857142857143,3,2,1,55,0,0
3728,-100,3,2,1,55,0,0
4491,-142.857142857143,3,2,1,55,0,0
5254,-500,3,2,1,55,0,0
6016,-200,3,2,1,55,0,0
6779,-100,3,2,1,55,0,0
18983,-100,3,3,2,55,0,0
19745,-100,3,2,1,55,0,0
20508,254.237288135593,4,2,1,55,1,1
20508,-76.9230769230769,4,2,1,55,0,1
20698,-76.9230769230769,4,2,1,5,0,1
20762,-76.9230769230769,4,2,1,55,0,1
21715,-76.9230769230769,4,2,1,5,0,1
21779,-76.9230769230769,4,2,1,55,0,1
24575,-111.111111111111,4,2,1,55,0,1
24702,-111.111111111111,4,2,1,5,0,1
24766,-90.9090909090909,4,2,1,55,0,1
24893,-90.9090909090909,4,2,1,5,0,1
24957,-76.9230769230769,4,2,1,55,0,1
25592,-111.111111111111,4,2,1,55,0,1
25719,-111.111111111111,4,2,1,5,0,1
25783,-111.111111111111,4,2,1,55,0,1
25974,-76.9230769230769,4,2,1,55,0,1
27118,-76.9230769230769,4,3,2,55,0,1
27880,-250,4,2,4,55,0,0
28389,-90.9090909090909,4,2,1,55,0,0
28643,-90.9090909090909,4,2,1,55,0,1
32711,-111.111111111111,4,2,1,55,0,1
32838,-111.111111111111,4,2,1,5,0,1
32902,-90.9090909090909,4,2,1,55,0,1
33029,-90.9090909090909,4,2,1,5,0,1
33092,-76.9230769230769,4,2,1,55,0,1
33728,-111.111111111111,4,2,1,55,0,1
33855,-111.111111111111,4,2,1,5,0,1
33919,-111.111111111111,4,2,1,55,0,1
34109,-76.9230769230769,4,2,1,55,0,1
34745,-111.111111111111,4,2,1,55,0,1
34999,-90.9090909090909,4,2,1,55,0,1
35253,-76.9230769230769,4,2,1,55,0,1
35507,-66.6666666666667,4,2,1,55,0,1
36143,-76.9230769230769,4,2,1,55,0,1
36779,-500,4,2,1,55,0,0
42880,-76.9230769230769,4,2,1,55,0,0
43198,-76.9230769230769,4,2,1,5,0,0
43262,-76.9230769230769,4,2,1,55,0,0
43389,-90.9090909090909,4,2,1,55,0,0
43580,-90.9090909090909,4,2,1,5,0,0
43643,-90.9090909090909,4,2,1,55,0,0
43770,-111.111111111111,4,2,1,55,0,0
43961,-111.111111111111,4,2,1,5,0,0
44024,-111.111111111111,4,2,1,55,0,0
44152,-142.857142857143,4,2,1,55,0,0
44342,-142.857142857143,4,2,1,5,0,0
44406,-142.857142857143,4,2,1,55,0,0
45296,-90.909090909091,4,2,1,55,0,0
53304,-76.9230769230769,4,2,1,55,0,0
53495,-76.9230769230769,4,2,1,5,0,0
53558,-76.9230769230769,4,2,1,55,0,0
54130,-76.9230769230769,4,2,1,5,0,0
54194,-76.9230769230769,4,2,1,55,0,0
54639,-76.9230769230769,4,2,1,5,0,0
54702,-76.9230769230769,4,2,1,55,0,0
55529,-76.9230769230769,4,2,1,5,0,0
55592,-76.9230769230769,4,2,1,55,0,0
56164,-76.9230769230769,4,2,1,5,0,0
56228,-76.9230769230769,4,2,1,55,0,0
57563,-76.9230769230769,4,2,1,5,0,0
57626,-76.9230769230769,4,2,1,55,0,0
58198,-76.9230769230769,4,2,1,5,0,0
58262,-76.9230769230769,4,2,1,55,0,0
59152,254.237288135593,3,3,1,55,1,0
59660,-166.666666666667,3,3,1,55,0,0
62202,254.237288135593,4,2,1,55,1,0
62202,-100,4,2,1,55,0,0
66269,254.237288135593,3,2,1,55,1,0
66269,-111.111111111111,3,2,1,55,0,0
66459,-111.111111111111,3,2,1,5,0,0
66523,-111.111111111111,3,2,1,55,0,0
69510,-111.111111111111,3,2,1,5,0,0
69574,-111.111111111111,3,2,1,55,0,0
72370,-111.111111111111,3,2,1,55,0,0
72561,-111.111111111111,3,2,1,5,0,0
72624,-111.111111111111,3,2,1,55,0,0
73896,-76.9230769230769,3,2,1,55,0,0
78218,-111.111111111111,3,2,1,55,0,0
79997,254.237288135593,4,2,5,75,1,0
79997,-250,4,2,5,75,0,0
80187,-250,4,2,1,5,0,0
80251,-71.4285714285714,4,2,1,55,0,1
81204,-71.4285714285714,4,2,1,5,0,1
81268,-71.4285714285714,4,2,1,55,0,1
84064,-111.111111111111,4,2,1,55,0,1
84191,-111.111111111111,4,2,1,5,0,1
84255,-90.9090909090909,4,2,1,55,0,1
84382,-90.9090909090909,4,2,1,5,0,1
84446,-76.9230769230769,4,2,1,55,0,1
85081,-111.111111111111,4,2,1,55,0,1
85208,-111.111111111111,4,2,1,5,0,1
85272,-111.111111111111,4,2,1,55,0,1
85463,-76.9230769230769,4,2,1,55,0,1
87115,-90.9090909090909,4,2,1,55,0,1
87369,-111.111111111111,4,2,1,55,0,1
87624,-142.857142857143,4,2,1,55,0,1
89912,-71.4285714285715,4,2,1,55,0,1
92200,-111.111111111111,4,2,1,55,0,1
92327,-111.111111111111,4,2,1,5,0,1
92391,-90.9090909090909,4,2,1,55,0,1
92518,-90.9090909090909,4,2,1,5,0,1
92581,-76.9230769230769,4,2,1,55,0,1
93217,-111.111111111111,4,2,1,55,0,1
93344,-111.111111111111,4,2,1,5,0,1
93408,-111.111111111111,4,2,1,55,0,1
93598,-76.9230769230769,4,2,1,55,0,1
94488,-111.111111111111,4,2,1,55,0,1
96268,-200,4,2,1,55,0,0
97221,-200,4,2,1,5,0,0
97285,-200,4,2,1,55,0,0
98302,254.237288135593,3,2,1,55,1,1
104340,-100,3,2,1,55,0,0
104403,-100,3,2,1,55,0,1
110505,254.237288135593,4,2,1,55,1,0
115081,254.237288135593,4,2,1,55,1,1
115081,-100,4,2,1,55,0,1
118131,-100,4,2,1,55,0,0

[Colours]
Combo1 : 70,70,255
Combo2 : 255,62,62
Combo3 : 255,137,81
Combo4 : 0,174,174
Combo5 : 0,101,202

[HitObjects]
144,166,678,6,0,B|123:242|172:294|172:294|191:267|172:206,1,200,6|0,0:2|0:0,0:0:0:0:
57,110,1059,1,8,0:3:0:0:
178,233,1313,5,8,0:3:0:0:
246,150,1440,2,0,B|298:137|298:137|394:154,2,139.999995727539,2|10|10,0:0|0:0|0:0,0:0:0:0:
371,330,2203,6,0,B|410:287|391:228|391:228|449:220|462:144,1,200,2|0,0:0|0:0,0:0:0:0:
281,257,2584,1,8,0:3:0:0:
455,171,2839,5,8,0:3:0:0:
365,127,2966,2,0,B|419:138|419:138|508:112,2,139.999995727539,2|10|10,0:0|0:0|0:0,0:0:0:0:
135,84,3728,6,0,P|189:110|151:245,1,200,2|0,0:2|0:0,0:0:0:0:
75,346,4110,1,8,0:3:0:0:
129,166,4364,1,8,0:3:0:0:
154,323,4491,5,2,0:0:0:0:
208,143,4745,1,10,0:0:0:0:
24,188,5000,1,10,0:0:0:0:
244,382,5254,6,0,B|238:343|238:343|247:301,1,80,2|0,0:0|0:0,0:0:0:0:
247,304,5889,1,0,0:0:0:0:
301,213,6016,2,0,L|268:208,11,25,2|0|0|0|0|0|0|0|0|0|0|0,0:0|0:0|0:0|0:0|0:0|0:0|0:0|0:0|0:0|0:0|0:0|0:0,0:0:0:0:
359,264,6779,5,4,0:0:0:0:
379,218,6843,1,0,0:0:0:0:
369,169,6906,1,0,0:0:0:0:
327,141,6970,1,0,0:0:0:0:
289,108,7033,1,0,0:0:0:0:
287,57,7097,1,0,0:0:0:0:
313,13,7161,1,8,0:0:0:0:
361,3,7224,1,0,0:0:0:0:
417,25,7288,5,0,0:0:0:0:
431,82,7351,1,0,0:0:0:0:
404,136,7415,2,0,P|339:133|320:127,1,50,8|0,0:0|0:0,0:0:0:0:
205,91,7542,6,0,L|200:25,3,50,2|0|0|0,0:0|0:0|0:0|0:0,0:0:0:0:
123,0,7796,2,0,B|112:37|112:37|120:116,1,100,10|0,0:0|0:0,0:0:0:0:
284,295,8050,2,0,P|219:268|178:273,1,100,10|0,0:0|0:0,0:0:0:0:
17,324,8305,5,2,0:0:0:0:
59,309,8368,1,0,0:0:0:0:
84,271,8432,1,0,0:0:0:0:
81,226,8495,1,0,0:0:0:0:
57,187,8559,1,0,0:0:0:0:
46,143,8622,1,0,0:0:0:0:
62,100,8686,1,8,0:0:0:0:
102,79,8750,1,0,0:0:0:0:
135,127,8813,5,0,0:0:0:0:
190,150,8877,1,0,0:0:0:0:
249,148,8940,2,0,P|294:140|328:119,1,50,8|0,0:0|0:0,0:0:0:0:
427,100,9067,6,0,B|433:76|433:76|434:36,3,50,2|0|0|0,0:0|0:0|0:0|0:0,0:0:0:0:
327,37,9322,2,0,L|455:36,1,100,10|0,0:0|0:0,0:0:0:0:
424,280,9576,2,0,P|416:241|422:199,1,50,10|0,0:0|0:0,0:0:0:0:
507,92,9703,2,0,P|503:121|492:152,1,50,8|0,0:0|0:0,0:0:0:0:
488,340,9830,6,0,P|420:367|354:336,1,150,4|0,0:0|0:0,0:0:0:0:
424,280,10084,1,0,0:0:0:0:
300,236,10211,2,0,B|293:196|293:196|308:159|292:102,1,100,8|0,0:0|0:0,0:0:0:0:
173,242,10466,1,8,0:0:0:0:
95,77,10593,6,0,B|153:91|153:91|266:64,1,150,2|0,0:0|0:0,0:0:0:0:
148,137,10847,2,0,P|128:170|124:201,1,50,8|0,0:0|0:0,0:0:0:0:
83,324,10974,2,0,P|68:303|60:280,1,50,0|0,0:0|0:0,0:0:0:0:
11,151,11101,1,8,0:0:0:0:
13,136,11165,1,0,0:0:0:0:
15,121,11228,1,0,0:0:0:0:
17,106,11292,1,0,0:0:0:0:
2,58,11355,5,2,0:0:0:0:
42,87,11419,1,0,0:0:0:0:
92,90,11483,1,0,0:0:0:0:
139,75,11546,1,0,0:0:0:0:
184,52,11610,1,2,0:0:0:0:
232,43,11673,1,0,0:0:0:0:
282,46,11737,1,8,0:0:0:0:
328,63,11800,1,0,0:0:0:0:
366,94,11864,5,2,0:0:0:0:
361,118,11927,1,0,0:0:0:0:
355,142,11991,1,8,0:0:0:0:
350,166,12055,1,0,0:0:0:0:
313,199,12118,5,2,0:0:0:0:
362,191,12182,1,0,0:0:0:0:
407,209,12245,1,0,0:0:0:0:
430,253,12309,1,0,0:0:0:0:
430,302,12372,1,10,0:0:0:0:
400,342,12436,1,0,0:0:0:0:
352,358,12500,1,0,0:0:0:0:
303,347,12563,1,0,0:0:0:0:
278,303,12627,6,0,P|325:278|357:270,1,50,10|0,0:0|0:0,0:0:0:0:
450,232,12754,2,0,P|427:221|406:208,1,50,8|0,0:0|0:0,0:0:0:0:
165,199,12881,6,0,B|218:211|218:211|321:197,1,150,4|0,0:0|0:0,0:0:0:0:
362,191,13135,1,0,0:0:0:0:
176,369,13262,2,0,P|154:299|178:246,1,100,8|0,0:0|0:0,0:0:0:0:
228,82,13516,1,8,0:0:0:0:
0,208,13644,5,2,0:0:0:0:
35,243,13707,1,0,0:0:0:0:
84,249,13771,1,0,0:0:0:0:
130,232,13834,1,0,0:0:0:0:
165,199,13898,1,10,3:2:0:0:
202,164,13961,1,0,3:0:0:0:
251,158,14025,1,0,3:0:0:0:
297,175,14088,1,0,3:0:0:0:
321,235,14152,5,0,3:0:0:0:
375,246,14216,1,0,3:0:0:0:
428,233,14279,1,0,3:0:0:0:
467,194,14343,1,0,3:0:0:0:
484,142,14406,6,0,P|483:76|444:25,1,100,6|0,3:2|0:0,0:0:0:0:
321,235,14661,2,0,L|311:357,1,100,2|0,3:2|0:0,0:0:0:0:
251,158,14915,1,2,3:2:0:0:
310,353,15042,1,0,0:0:0:0:
72,264,15169,5,2,3:2:0:0:
321,235,15296,1,0,0:0:0:0:
162,100,15423,2,0,P|140:150|158:211,1,100,2|0,3:2|0:0,0:0:0:0:
394,296,15677,1,2,3:2:0:0:
188,328,15805,1,0,0:0:0:0:
283,89,15932,6,0,B|324:80|324:80|389:95,1,100,2|0,3:2|0:0,0:0:0:0:
245,377,16186,2,0,L|234:250,1,100,2|0,3:2|0:0,0:0:0:0:
221,35,16440,1,2,3:2:0:0:
286,187,16567,1,0,0:0:0:0:
72,132,16694,6,0,P|120:101|200:116,1,100,2|0,3:2|0:0,0:0:0:0:
331,276,16949,2,0,P|379:307|459:292,1,100,2|0,3:2|0:0,0:0:0:0:
453,106,17203,1,2,3:2:0:0:
441,307,17330,1,0,0:0:0:0:
369,46,17457,6,0,B|359:84|359:84|374:158,1,100,2|0,3:2|0:0,0:0:0:0:
228,38,17711,2,0,P|184:18|92:40,1,100,2|0,3:2|0:0,0:0:0:0:
45,164,17966,1,2,3:2:0:0:
269,192,18093,1,0,0:0:0:0:
118,27,18220,5,2,3:2:0:0:
165,263,18347,1,0,0:0:0:0:
209,113,18474,2,0,L|329:103,1,100,2|0,3:2|0:0,0:0:0:0:
412,349,18728,2,0,P|452:354|507:334,2,66.6666666666667,2|2|2,3:2|0:0|0:0,0:0:0:0:
351,302,18983,5,0,3:0:0:0:
356,276,19067,1,0,3:0:0:0:
362,250,19152,1,0,3:0:0:0:
411,216,19237,1,0,3:0:0:0:
408,189,19321,1,0,3:0:0:0:
404,162,19406,1,0,3:0:0:0:
350,123,19491,1,0,3:0:0:0:
354,96,19575,1,0,3:0:0:0:
356,69,19660,1,0,3:0:0:0:
391,23,19745,5,8,1:3:0:0:
362,250,20000,1,8,1:3:0:0:
217,135,20254,5,2,0:0:0:0:
197,133,20317,1,2,0:0:0:0:
177,130,20381,1,2,0:0:0:0:
157,127,20444,1,2,0:0:0:0:
120,143,20508,6,0,P|219:166|276:71,1,194.999991073609,4|0,0:0|0:0,0:0:0:0:
222,8,20762,1,2,0:0:0:0:
211,212,20889,2,0,B|204:260|204:260|183:295|183:295|175:359,1,129.999994049073,8|0,0:2|0:0,0:0:0:0:
53,229,21143,1,8,0:0:0:0:
301,279,21270,5,2,0:0:0:0:
341,274,21333,1,2,0:0:0:0:
380,269,21397,1,10,0:0:0:0:
418,263,21460,1,2,0:0:0:0:
460,284,21524,6,0,B|505:211|505:211|483:97,1,194.999991073609,2|0,0:0|0:0,0:0:0:0:
455,4,21779,1,2,0:0:0:0:
268,163,21906,2,0,P|267:236|320:290,1,129.999994049073,10|0,0:0|0:0,0:0:0:0:
501,206,22160,1,8,0:0:0:0:
331,85,22287,5,2,0:0:0:0:
275,64,22351,1,2,0:0:0:0:
218,75,22414,1,10,0:0:0:0:
179,119,22478,1,2,0:0:0:0:
175,176,22541,5,2,0:0:0:0:
421,179,22669,1,8,0:0:0:0:
224,0,22796,1,2,0:2:0:0:
300,278,22923,1,8,0:0:0:0:
70,127,23050,5,2,0:0:0:0:
288,182,23177,1,10,0:0:0:0:
206,1,23304,1,2,0:0:0:0:
139,297,23431,1,10,0:0:0:0:
150,320,23495,6,0,B|195:342|235:321|235:321|273:378|360:342,1,194.999991073609,2|8,0:0|0:0,0:0:0:0:
421,179,23813,1,2,0:0:0:0:
421,179,23876,1,0,0:0:0:0:
421,179,23940,1,8,0:0:0:0:
120,195,24067,6,0,P|164:207|209:203,1,64.9999970245363,2|0,3:2|3:0,0:0:0:0:
353,134,24194,2,0,P|313:156|269:164,1,64.9999970245363,0|0,3:0|3:0,0:0:0:0:
134,57,24321,2,0,P|166:89|207:108,1,64.9999970245363,4|4,3:0|3:0,0:0:0:0:
361,236,24448,1,8,3:0:0:0:
380,277,24512,1,8,3:0:0:0:
370,321,24575,6,0,P|294:340|263:320,1,89.9999972534181,6|0,0:0|0:0,0:0:0:0:
183,207,24766,6,0,P|237:263|224:312,1,110.000003356934,2|0,0:0|0:0,0:0:0:0:
118,285,24957,6,0,B|91:239|98:197|98:197|70:173|70:173|81:120|50:66,1,194.999991073609,6|0,0:0|0:0,0:0:0:0:
21,249,25211,1,2,0:0:0:0:
255,144,25338,2,0,P|265:88|222:29,1,129.999994049073,10|2,0:0|0:0,0:0:0:0:
235,289,25592,6,0,B|276:285|276:285|295:273|295:273|355:268,1,89.9999972534181,14|0,0:0|0:0,0:0:0:0:
393,255,25783,1,2,0:0:0:0:
393,255,25846,1,0,0:0:0:0:
421,132,25974,6,0,B|410:193|410:193|435:350,1,194.999991073609,14|0,0:0|0:0,0:0:0:0:
321,270,26228,1,2,0:0:0:0:
512,261,26355,1,8,0:0:0:0:
306,91,26482,1,2,0:0:0:0:
301,110,26546,1,0,0:0:0:0:
295,126,26609,6,0,B|352:145|352:145|431:129,1,129.999994049073,14|0,0:0|0:0,0:0:0:0:
144,184,26863,2,0,B|87:165|87:165|8:181,1,129.999994049073,14|0,0:0|0:0,0:0:0:0:
248,359,27118,5,0,0:0:0:0:
257,342,27181,1,0,0:0:0:0:
249,323,27245,1,0,0:0:0:0:
258,306,27308,1,0,0:0:0:0:
249,288,27372,1,0,0:0:0:0:
258,271,27435,1,0,0:0:0:0:
250,252,27499,1,0,0:0:0:0:
259,235,27562,1,0,0:0:0:0:
253,216,27626,5,8,1:2:0:0:
263,81,27880,2,0,B|261:109|250:127|250:127|263:163|263:163|253:185|252:225,1,140
222,256,28389,5,0,0:0:0:0:
276,231,28452,1,2,0:0:0:0:
334,249,28516,1,2,0:0:0:0:
368,298,28580,1,2,0:0:0:0:
370,357,28643,6,0,L|371:212,1,110.000003356934,4|8,0:0|0:0,0:0:0:0:
371,95,28897,1,0,0:0:0:0:
466,280,29024,2,0,P|469:208|429:155,1,110.000003356934,8|2,0:0|0:0,0:0:0:0:
197,129,29279,1,8,0:0:0:0:
148,365,29406,5,2,0:0:0:0:
94,336,29470,1,2,0:0:0:0:
77,277,29534,1,10,0:0:0:0:
90,218,29597,1,2,0:0:0:0:
137,180,29660,6,0,B|184:170|184:170|281:197,1,110.000003356934,2|8,0:0|0:0,0:0:0:0:
321,305,29914,1,2,0:0:0:0:
346,100,30041,2,0,L|328:217,1,110.000003356934,8|2,0:0|0:0,0:0:0:0:
239,363,30296,1,8,0:0:0:0:
154,106,30423,5,2,0:0:0:0:
94,116,30486,1,2,0:0:0:0:
66,170,30550,1,10,0:0:0:0:
79,228,30613,1,2,0:0:0:0:
138,240,30677,6,0,P|214:224|274:265,1,110.000003356934,2|8,0:0|0:0,0:0:0:0:
318,315,30868,1,2,0:0:0:0:
318,315,30931,2,0,B|311:256|311:256|347:158,1,110.000003356934,2|8,0:0|0:0,0:0:0:0:
474,98,31185,2,0,P|398:114|338:73,1,110.000003356934,2|8,0:0|0:0,0:0:0:0:
294,23,31376,1,2,0:0:0:0:
294,23,31439,2,0,B|301:82|301:82|265:180,1,110.000003356934,2|10,0:0|0:0,0:0:0:0:
157,321,31694,6,0,B|146:293|146:293|143:247,1,55.0000016784668,2|2,0:0|0:0,0:0:0:0:
109,86,31821,2,0,B|120:114|120:114|123:160,1,55.0000016784668,10|2,0:0|0:0,0:0:0:0:
190,333,31948,6,0,B|186:303|186:303|195:257,1,55.0000016784668,2|2,0:0|0:0,0:0:0:0:
199,95,32075,2,0,B|202:124|202:124|193:170,1,55.0000016784668,10|2,0:0|0:0,0:0:0:0:
225,340,32202,6,0,B|229:310|229:310|249:268,1,55.0000016784668,2|2,0:2|0:2,0:0:0:0:
283,129,32329,2,0,B|278:158|278:158|258:200,1,55.0000016784668,2|2,0:2|0:2,0:0:0:0:
53,299,32457,6,0,L|10:303,1,27.5000008392334,2|0,3:2|0:0,0:0:0:0:
48,263,32520,2,0,L|5:267,1,27.5000008392334,2|0,3:2|0:0,0:0:0:0:
41,225,32584,2,0,L|-2:229,1,27.5000008392334,0|0,3:0|0:0,0:0:0:0:
38,190,32647,2,0,L|-5:194,1,27.5000008392334,0|0,3:0|0:0,0:0:0:0:
34,144,32711,6,0,B|72:131|72:131|150:143,1,89.9999972534181,6|0,0:0|0:0,0:0:0:0:
173,299,32902,6,0,B|156:256|156:256|179:159,1,110.000003356934,2|0,0:0|0:0,0:0:0:0:
267,180,33092,6,0,P|183:158|196:50,1,194.999991073609,6|0,0:0|0:0,0:0:0:0:
296,32,33346,1,2,0:0:0:0:
254,265,33474,1,0,0:0:0:0:
121,138,33601,1,2,0:0:0:0:
355,115,33728,6,0,B|405:126|405:126|451:118,1,89.9999972534181,6|0,0:0|0:0,0:0:0:0:
406,43,33919,1,2,0:0:0:0:
406,43,33982,1,0,0:0:0:0:
419,232,34109,6,0,B|409:173|409:173|424:127|424:127|402:24,1,194.999991073609,6|0,0:0|0:0,0:0:0:0:
319,189,34363,1,2,0:0:0:0:
501,52,34491,1,0,0:0:0:0:
245,57,34618,1,2,0:0:0:0:
228,63,34681,1,2,0:0:0:0:
214,74,34745,6,0,P|195:134|260:153,1,134.999995880127,12|0,0:0|0:0,0:0:0:0:
214,74,34999,6,0,P|187:116|296:151,1,165.000005035401,8|2,0:0|0:0,0:0:0:0:
214,74,35253,6,0,P|212:192|276:205,1,194.999991073609,8|0,0:0|0:0,0:0:0:0:
214,74,35507,6,0,P|194:192|323:208,1,225.000008583069,8|2,0:0|0:0,0:0:0:0:
356,192,35762,5,12,0:0:0:0:
397,175,35825,1,0,0:0:0:0:
440,186,35889,1,0,0:0:0:0:
469,219,35952,1,0,0:0:0:0:
473,264,36016,1,0,3:0:0:0:
449,302,36080,1,0,3:0:0:0:
413,317,36143,2,0,P|402:282|405:245,1,64.9999970245363,0|0,3:0|3:0,0:0:0:0:
458,72,36270,5,8,0:0:0:0:
401,55,36334,1,0,0:0:0:0:
344,67,36397,1,0,0:0:0:0:
298,104,36461,1,0,0:0:0:0:
257,145,36524,1,4,0:3:0:0:
200,162,36588,1,4,0:3:0:0:
143,150,36651,1,4,0:3:0:0:
97,113,36715,1,4,0:3:0:0:
83,61,36779,6,0,B|133:64|161:41|161:41|185:76|232:70|232:70|201:126|137:140,1,280,6|2,0:0|0:0,0:0:0:0:
220,0,38813,5,10,1:2:0:0:
332,263,38940,1,10,1:2:0:0:
231,252,39067,1,10,1:2:0:0:
343,6,39194,5,10,1:2:0:0:
231,208,39321,1,10,1:2:0:0:
332,197,39448,1,10,1:2:0:0:
220,0,39575,5,10,1:2:0:0:
331,153,39702,1,10,1:2:0:0:
230,142,39829,1,10,1:2:0:0:
343,6,39956,5,10,1:2:0:0:
232,98,40084,1,10,1:2:0:0:
333,87,40211,1,10,1:2:0:0:
70,107,40338,5,10,1:2:0:0:
57,196,40465,1,4,3:0:0:0:
50,286,40592,1,4,3:0:0:0:
40,376,40719,1,4,3:0:0:0:
349,322,40846,1,4,0:0:0:0:
256,192,40974,12,0,42626,0:0:0:0:
241,299,42880,5,2,0:0:0:0:
250,112,43007,2,0,B|250:143|243:162|243:162|258:193|258:193|225:240|243:307,1,194.999991073609,4|0,0:0|0:0,0:0:0:0:
145,185,43262,1,2,0:0:0:0:
326,267,43389,6,0,P|385:265|411:161,1,165.000005035401,4|0,0:0|0:0,0:0:0:0:
365,77,43643,1,2,0:0:0:0:
245,95,43770,6,0,P|322:108|367:73,1,134.999995880127,4|0,0:0|0:0,0:0:0:0:
409,0,44024,1,2,0:0:0:0:
419,176,44152,6,0,L|428:262,1,69.9999978637696,4|0,0:0|0:0,0:0:0:0:
439,384,44406,5,2,0:2:0:0:
262,347,44533,5,0,3:0:0:0:
226,220,44660,5,2,3:2:0:0:
240,128,44787,5,0,3:0:0:0:
157,320,44914,5,6,0:0:0:0:
113,306,44978,1,0,0:0:0:0:
89,267,45041,1,0,0:0:0:0:
96,221,45105,1,0,0:0:0:0:
117,180,45169,1,2,0:3:0:0:
159,165,45232,1,0,0:0:0:0:
202,173,45296,2,0,P|186:232|165:248,1,55.0000016784668,0|0,0:0|0:0,0:0:0:0:
89,267,45423,5,10,0:3:0:0:
43,256,45487,1,0,0:0:0:0:
14,221,45550,1,0,0:0:0:0:
21,175,45614,1,0,0:0:0:0:
42,134,45678,1,2,0:3:0:0:
84,119,45741,1,0,0:0:0:0:
127,127,45805,2,0,P|111:186|90:202,1,55.0000016784668,8|0,0:0|0:0,0:0:0:0:
52,47,45931,5,2,0:3:0:0:
74,46,45995,1,0,0:0:0:0:
95,45,46058,1,8,0:0:0:0:
117,44,46122,1,0,0:0:0:0:
138,43,46185,1,2,0:3:0:0:
160,42,46249,1,0,0:0:0:0:
182,41,46313,1,0,0:0:0:0:
203,40,46376,1,0,0:0:0:0:
233,64,46440,5,10,0:3:0:0:
262,24,46503,1,0,0:0:0:0:
310,12,46567,1,0,0:0:0:0:
357,23,46630,1,0,0:0:0:0:
383,64,46694,1,2,0:3:0:0:
377,112,46757,1,0,0:0:0:0:
347,152,46821,2,0,P|307:158|280:155,1,55.0000016784668,8|0,0:0|0:0,0:0:0:0:
184,126,46948,5,2,0:3:0:0:
140,140,47012,1,0,0:0:0:0:
116,179,47075,1,0,0:0:0:0:
123,225,47139,1,0,0:0:0:0:
144,266,47203,1,2,0:3:0:0:
186,281,47266,1,0,0:0:0:0:
229,273,47330,2,0,P|213:214|192:198,1,55.0000016784668,0|0,0:0|0:0,0:0:0:0:
116,179,47457,5,10,0:3:0:0:
70,190,47521,1,0,0:0:0:0:
41,225,47584,1,0,0:0:0:0:
48,271,47648,1,0,0:0:0:0:
69,312,47712,1,2,0:3:0:0:
111,327,47775,1,0,0:0:0:0:
154,319,47839,2,0,P|138:260|117:244,1,55.0000016784668,8|8,0:0|0:0,0:0:0:0:
0,165,47965,6,0,L|6:94,7,55.0000016784668,2|0|8|0|2|0|0|0,0:3|0:0|0:0|0:0|0:3|0:0|0:0|0:0,0:0:0:0:
94,94,48474,2,0,L|88:23,7,55.0000016784668,10|0|0|0|10|0|8|0,0:3|0:0|0:0|0:0|0:3|0:0|0:0|0:0,0:0:0:0:
116,179,48982,5,6,0:0:0:0:
130,223,49046,1,0,0:0:0:0:
169,247,49109,1,0,0:0:0:0:
215,240,49173,1,0,0:0:0:0:
256,219,49237,1,2,0:3:0:0:
271,177,49300,1,0,0:0:0:0:
263,134,49364,2,0,P|204:150|188:171,1,55.0000016784668,0|0,0:0|0:0,0:0:0:0:
169,247,49491,5,10,0:3:0:0:
180,293,49554,1,0,0:0:0:0:
215,322,49618,1,0,0:0:0:0:
263,322,49681,1,0,0:0:0:0:
302,294,49745,1,2,0:3:0:0:
317,252,49808,1,0,0:0:0:0:
309,209,49872,2,0,P|250:225|234:246,1,55.0000016784668,8|8,0:0|0:0,0:0:0:0:
386,338,49999,5,2,0:3:0:0:
392,322,50063,1,0,0:0:0:0:
396,306,50126,1,8,0:0:0:0:
399,289,50190,1,0,0:0:0:0:
401,272,50253,1,2,0:3:0:0:
402,255,50317,1,0,0:0:0:0:
402,238,50380,1,0,0:0:0:0:
401,221,50444,1,0,0:0:0:0:
426,185,50507,5,10,0:3:0:0:
385,202,50571,1,0,0:0:0:0:
341,191,50635,1,0,0:0:0:0:
311,158,50698,1,0,0:0:0:0:
309,113,50762,1,2,0:3:0:0:
331,75,50825,1,0,0:0:0:0:
375,70,50889,2,0,P|384:103|378:129,1,55.0000016784668,8|0,0:0|0:0,0:0:0:0:
234,177,51016,5,2,0:3:0:0:
217,179,51080,1,0,0:0:0:0:
200,181,51143,1,0,0:0:0:0:
183,183,51207,1,0,0:0:0:0:
166,185,51270,1,2,0:3:0:0:
149,187,51334,1,0,0:0:0:0:
132,189,51397,1,0,0:0:0:0:
115,191,51461,1,0,0:0:0:0:
77,197,51524,5,10,0:3:0:0:
114,207,51588,1,0,0:0:0:0:
151,217,51652,1,0,0:0:0:0:
187,227,51715,1,0,0:0:0:0:
224,237,51779,1,2,0:3:0:0:
260,247,51842,1,0,0:0:0:0:
297,258,51906,1,8,0:0:0:0:
333,268,51969,1,8,0:0:0:0:
371,278,52033,5,2,0:3:0:0:
370,261,52096,1,0,0:0:0:0:
369,244,52160,1,8,0:0:0:0:
368,227,52224,1,0,0:0:0:0:
367,210,52287,1,2,0:3:0:0:
366,193,52351,1,0,0:0:0:0:
365,176,52414,1,0,0:0:0:0:
365,159,52478,1,0,0:0:0:0:
388,119,52541,5,2,3:0:0:0:
348,88,52605,1,0,3:0:0:0:
298,84,52669,1,0,3:0:0:0:
252,102,52732,1,0,3:0:0:0:
218,138,52796,1,0,3:0:0:0:
178,169,52860,1,0,3:0:0:0:
128,173,52924,1,0,3:0:0:0:
82,155,52987,1,0,3:0:0:0:
309,362,53304,6,0,B|319:305|319:305|303:248|303:248|314:158,1,194.999991073609,4|0,0:0|0:0,0:0:0:0:
219,299,53558,1,2,0:0:0:0:
413,290,53685,1,2,0:0:0:0:
218,138,53813,1,10,0:0:0:0:
427,380,53940,6,0,P|487:331|428:195,1,194.999991073609,4|0,0:0|0:0,0:0:0:0:
312,170,54194,1,2,0:0:0:0:
413,290,54321,1,10,0:0:0:0:
445,67,54448,6,0,B|405:64|372:84|372:84|337:58|337:58|303:75|234:61,1,194.999991073609,10|0,0:0|0:0,0:0:0:0:
312,170,54702,1,2,0:0:0:0:
468,70,54830,1,2,0:0:0:0:
241,64,54957,1,2,0:0:0:0:
473,223,55084,1,10,0:0:0:0:
218,138,55338,6,0,P|280:178|260:302,1,194.999991073609,6|0,0:0|0:0,0:0:0:0:
177,358,55592,1,2,0:0:0:0:
386,266,55719,1,2,0:0:0:0:
199,235,55846,1,8,0:0:0:0:
452,339,55974,6,0,B|475:261|475:261|439:111,1,194.999991073609,6|0,0:0|0:0,0:0:0:0:
404,64,56228,1,2,0:0:0:0:
305,214,56355,1,10,0:0:0:0:
233,19,56482,6,0,P|205:69|236:159,1,129.999994049073,2|0,0:0|0:0,0:0:0:0:
386,266,56736,1,2,0:0:0:0:
153,249,56863,1,2,0:0:0:0:
309,111,56991,1,2,0:0:0:0:
300,337,57118,1,10,0:0:0:0:
94,203,57372,6,0,B|163:242|210:207|210:207|205:177|205:177|230:98,1,194.999991073609,4|0,0:0|0:0,0:0:0:0:
309,111,57626,1,2,0:0:0:0:
115,114,57753,1,2,0:0:0:0:
295,258,57880,1,8,0:0:0:0:
109,100,58007,6,0,B|63:80|-2:88|-2:88|47:102|70:156,1,194.999991073609,4|0,0:0|0:0,0:0:0:0:
61,273,58262,1,2,0:0:0:0:
190,66,58389,1,10,0:0:0:0:
199,332,58516,6,0,B|190:283|190:283|212:182,1,129.999994049073,2|0,0:0|0:0,0:0:0:0:
484,185,58770,2,0,P|434:202|410:201,1,64.9999970245363,2|0,0:0|0:0,0:0:0:0:
274,146,58897,2,0,P|324:163|348:162,1,64.9999970245363,2|0,0:0|0:0,0:0:0:0:
462,91,59024,2,0,P|412:108|388:107,1,64.9999970245363,2|0,0:0|0:0,0:0:0:0:
210,68,59152,5,6,0:2:0:0:
190,66,59236,1,0,0:0:0:0:
170,63,59321,1,0,0:0:0:0:
150,60,59406,1,2,0:2:0:0:
130,57,59490,1,0,0:0:0:0:
110,54,59575,1,0,0:0:0:0:
90,50,59660,2,0,L|82:9,2,39.9999987792969,2|0|0,0:2|0:0|0:0,0:0:0:0:
44,133,59914,5,6,0:2:0:0:
71,129,59999,1,0,0:0:0:0:
98,125,60084,1,0,0:0:0:0:
125,121,60168,1,2,0:2:0:0:
152,117,60253,1,0,0:0:0:0:
179,113,60338,1,0,0:0:0:0:
206,107,60423,2,0,L|212:38,2,39.9999987792969,2|0|0,0:2|0:0|0:0,0:0:0:0:
274,193,60677,5,6,0:2:0:0:
233,190,60762,1,0,0:0:0:0:
193,188,60846,1,0,0:0:0:0:
152,185,60931,1,2,0:2:0:0:
111,182,61016,1,0,0:0:0:0:
70,179,61101,1,0,0:0:0:0:
38,174,61185,2,0,L|45:115,2,39.9999987792969,2|0|0,0:2|0:0|0:0,0:0:0:0:
71,286,61440,5,6,0:2:0:0:
126,279,61524,1,0,0:0:0:0:
182,271,61609,1,0,0:0:0:0:
237,263,61694,1,2,0:2:0:0:
293,254,61778,1,0,0:0:0:0:
349,246,61863,1,0,0:0:0:0:
404,235,61948,2,0,L|414:189,2,39.9999987792969,2|0|0,0:2|0:0|0:0,0:0:0:0:
248,362,62202,5,6,0:0:0:0:
211,379,62265,1,2,0:0:0:0:
172,384,62329,1,2,0:0:0:0:
133,373,62392,1,2,0:0:0:0:
101,349,62456,1,2,0:0:0:0:
79,315,62519,1,2,0:0:0:0:
72,276,62583,1,2,0:0:0:0:
79,237,62646,1,2,0:0:0:0:
99,202,62710,1,2,0:0:0:0:
130,178,62774,1,2,0:0:0:0:
169,166,62837,1,2,0:0:0:0:
209,169,62901,1,2,0:0:0:0:
245,187,62964,1,2,0:0:0:0:
273,217,63028,1,2,0:0:0:0:
287,253,63091,1,2,0:0:0:0:
288,294,63155,1,2,0:0:0:0:
274,331,63218,6,0,P|264:350|237:368,7,50,2|2|2|2|2|2|2|2,0:0|0:0|0:0|0:0|0:0|0:0|0:0|0:0,0:0:0:0:
417,259,63727,2,0,P|427:240|454:222,7,50,2|2|2|2|2|2|2|2,0:0|0:0|0:0|0:0|0:0|0:0|0:0|0:0,0:0:0:0:
310,138,64235,5,2,0:0:0:0:
289,142,64299,1,2,0:0:0:0:
288,95,64363,5,2,0:0:0:0:
271,107,64426,1,2,0:0:0:0:
252,64,64490,5,2,0:0:0:0:
241,81,64553,1,2,0:0:0:0:
207,47,64617,5,2,0:0:0:0:
203,68,64680,1,2,0:0:0:0:
159,50,64744,5,2,0:0:0:0:
163,70,64807,1,2,0:0:0:0:
115,70,64871,5,2,0:0:0:0:
127,86,64935,1,2,0:0:0:0:
83,108,64998,5,2,0:0:0:0:
101,117,65062,1,2,0:0:0:0:
67,152,65125,5,2,0:0:0:0:
88,155,65189,1,2,0:0:0:0:
70,201,65252,5,2,0:0:0:0:
90,195,65316,1,2,0:0:0:0:
91,243,65380,5,2,0:0:0:0:
107,230,65443,1,2,0:0:0:0:
127,275,65507,5,2,0:0:0:0:
137,257,65570,1,2,0:0:0:0:
172,291,65634,5,2,0:0:0:0:
175,271,65697,1,2,0:0:0:0:
220,287,65761,5,2,0:0:0:0:
215,267,65824,1,2,0:0:0:0:
263,267,65888,5,2,0:0:0:0:
251,251,65952,1,2,0:0:0:0:
296,231,66015,5,2,0:0:0:0:
278,221,66079,1,2,0:0:0:0:
311,186,66142,5,2,0:0:0:0:
291,183,66206,1,2,0:0:0:0:
309,137,66269,6,0,L|340:289,1,134.999995880127,4|0,0:0|0:0,0:0:0:0:
355,350,66523,1,2,0:3:0:0:
66,337,66650,2,0,B|125:325|125:325|185:343|185:343|241:332,1,179.999994506836,8|8,0:0|0:0,0:0:0:0:
309,137,67031,5,2,0:3:0:0:
445,296,67285,1,10,0:3:0:0:
512,100,67540,1,10,0:3:0:0:
256,207,67794,6,0,P|326:223|398:141,1,179.999994506836,2|2,0:3|0:3,0:0:0:0:
380,221,68175,2,0,B|370:258|370:258|378:315,1,89.9999972534181,8|2,0:0|0:3,0:0:0:0:
505,341,68430,1,10,0:0:0:0:
260,322,68557,1,2,0:3:0:0:
252,307,68811,5,10,0:3:0:0:
244,292,69065,1,10,0:3:0:0:
497,326,69192,1,8,0:0:0:0:
400,90,69319,6,0,P|356:56|271:66,1,134.999995880127,4|2,0:0|0:3,0:0:0:0:
222,123,69574,1,2,0:3:0:0:
46,78,69701,2,0,P|104:52|160:62,1,89.9999972534181,8|2,0:0|0:3,0:0:0:0:
124,190,69955,1,8,0:0:0:0:
325,138,70082,6,0,L|303:238,1,89.9999972534181,2|0,0:3|0:0,0:0:0:0:
183,341,70336,2,0,L|280:310,1,89.9999972534181,10|0,0:3|0:0,0:0:0:0:
481,354,70591,1,10,0:3:0:0:
370,297,70718,1,2,0:0:0:0:
459,121,70845,5,2,0:3:0:0:
333,115,71099,1,2,0:3:0:0:
205,106,71353,1,10,0:3:0:0:
262,269,71607,5,2,0:3:0:0:
260,279,71670,1,2,0:0:0:0:
259,289,71734,1,2,0:0:0:0:
317,200,71862,1,10,0:3:0:0:
100,304,72116,1,2,0:3:0:0:
244,374,72243,1,10,0:0:0:0:
40,205,72370,6,0,P|30:146|109:92,1,134.999995880127,4|0,0:0|0:0,0:0:0:0:
157,159,72624,1,2,0:3:0:0:
291,89,72752,2,0,B|295:124|295:124|282:197,1,89.9999972534181,8|2,0:0|0:3,0:0:0:0:
256,318,73006,1,8,0:0:0:0:
389,143,73133,2,0,P|452:121|496:133,1,89.9999972534181,2|0,0:3|0:0,0:0:0:0:
356,277,73387,5,10,0:3:0:0:
398,49,73514,1,4,3:0:0:0:
455,241,73641,1,6,3:3:0:0:
285,177,73769,1,0,3:0:0:0:
171,384,73896,6,0,B|159:332|159:332|181:220,1,129.999994049073,6|0,3:2|0:0,0:0:0:0:
214,59,74150,1,2,3:2:0:0:
180,238,74277,1,0,0:0:0:0:
73,145,74404,1,2,3:2:0:0:
285,177,74531,1,0,0:0:0:0:
108,372,74658,6,0,P|74:313|92:230,1,129.999994049073,2|0,3:2|0:0,0:0:0:0:
374,93,74913,2,0,P|339:151|259:177,1,129.999994049073,2|0,3:2|0:0,0:0:0:0:
0,8,75167,2,0,P|68:8|130:65,1,129.999994049073,2|0,3:2|0:0,0:0:0:0:
263,299,75421,6,0,B|319:317|319:317|427:291,1,129.999994049073,2|0,3:2|0:0,0:0:0:0:
449,140,75675,1,2,3:2:0:0:
475,342,75802,1,0,0:0:0:0:
308,190,75930,1,2,3:2:0:0:
481,358,76057,1,0,0:0:0:0:
486,64,76184,6,0,P|440:52|371:97,1,129.999994049073,2|0,3:2|0:0,0:0:0:0:
291,324,76438,1,2,3:2:0:0:
222,101,76565,1,0,0:0:0:0:
418,244,76692,1,2,3:2:0:0:
185,238,76819,1,0,0:0:0:0:
449,140,76946,6,0,B|457:187|457:187|422:274,1,129.999994049073,2|0,3:2|0:0,0:0:0:0:
190,325,77201,1,2,3:2:0:0:
307,107,77328,1,0,0:0:0:0:
290,311,77455,1,2,3:2:0:0:
217,89,77582,1,0,0:0:0:0:
68,371,77709,6,0,P|59:299|114:244,1,129.999994049073,2|0,3:2|0:0,0:0:0:0:
371,177,77963,2,0,P|313:220|238:200,1,129.999994049073,2|0,3:2|0:0,0:0:0:0:
110,91,78218,2,0,P|105:45|113:18,2,59.9999981689454,2|2|2,3:2|0:2|0:2,0:0:0:0:
139,196,78472,5,8,3:0:0:0:
148,237,78557,1,8,3:0:0:0:
155,277,78641,1,8,3:0:0:0:
174,239,78726,5,8,3:0:0:0:
187,199,78811,1,8,3:0:0:0:
203,160,78896,1,8,3:0:0:0:
221,197,78980,5,12,3:3:0:0:
259,214,79065,1,12,3:3:0:0:
300,208,79150,1,12,3:0:0:0:
317,124,79235,5,10,0:0:0:0:
346,318,79489,1,10,0:0:0:0:
463,124,79743,1,2,0:0:0:0:
413,121,79807,1,2,0:0:0:0:
364,117,79870,1,2,0:0:0:0:
314,113,79934,1,2,0:0:0:0:
262,105,79997,6,0,B|255:139|265:167,1,60,2|0,0:0|0:0,0:0:0:0:
320,222,80251,1,4,0:0:0:0:
467,45,80378,6,0,B|461:106|461:106|446:132|446:132|436:221,1,139.999995727539,8|0,0:0|0:0,0:0:0:0:
420,360,80632,1,8,0:0:0:0:
181,204,80759,1,2,0:0:0:0:
170,252,80823,1,2,0:0:0:0:
179,299,80886,1,10,0:0:0:0:
219,327,80950,1,2,0:0:0:0:
267,328,81013,6,0,B|309:317|338:329|338:329|378:311|378:311|426:322|474:286,1,209.999993591309,2|0,0:0|0:0,0:0:0:0:
440,180,81268,1,2,0:0:0:0:
181,204,81395,2,0,P|162:130|221:59,1,139.999995727539,10|0,0:0|0:0,0:0:0:0:
88,266,81649,1,8,0:0:0:0:
240,144,81776,1,2,0:0:0:0:
288,143,81840,1,2,0:0:0:0:
336,141,81903,1,10,0:0:0:0:
385,140,81967,1,2,0:0:0:0:
427,116,82030,5,2,0:0:0:0:
431,307,82158,1,8,0:0:0:0:
231,150,82285,1,2,0:0:0:0:
512,164,82412,1,8,0:0:0:0:
174,266,82539,5,2,0:0:0:0:
288,60,82666,1,10,0:0:0:0:
388,229,82793,1,2,0:0:0:0:
128,82,82920,1,10,0:0:0:0:
102,97,82984,6,0,B|66:121|66:121|255:154,1,209.999993591309,0|8,0:0|0:0,0:0:0:0:
471,199,83302,1,2,0:0:0:0:
473,247,83365,1,0,0:0:0:0:
455,293,83429,1,8,0:0:0:0:
211,329,83556,5,8,3:2:0:0:
168,305,83619,1,8,3:2:0:0:
157,256,83683,1,8,3:2:0:0:
184,214,83747,1,8,3:2:0:0:
230,226,83810,1,4,3:0:0:0:
278,214,83874,1,4,3:0:0:0:
301,171,83937,2,0,B|303:137|303:137|289:101,1,69.9999978637696,2|2,0:2|0:2,0:0:0:0:
96,78,84064,6,0,P|163:99|206:82,1,89.9999972534181,6|0,0:0|0:0,0:0:0:0:
322,10,84255,6,0,P|284:65|313:131,1,110.000003356934,2|0,0:0|0:0,0:0:0:0:
360,247,84446,6,0,P|328:166|191:178,1,194.999991073609,6|0,0:0|0:0,0:0:0:0:
185,215,84700,1,2,0:0:0:0:
153,23,84827,1,10,0:0:0:0:
57,207,84954,1,2,0:0:0:0:
290,104,85081,6,0,B|337:95|337:95|400:111,1,89.9999972534181,6|0,0:0|0:0,0:0:0:0:
457,132,85272,1,2,0:0:0:0:
457,132,85335,1,0,0:0:0:0:
383,363,85463,6,0,B|382:300|415:273|415:273|404:228|404:228|458:196|456:117,1,259.999988098145,6|2,0:0|0:0,0:0:0:0:
323,14,85844,1,10,0:0:0:0:
154,194,85971,1,2,0:0:0:0:
177,233,86035,1,2,0:0:0:0:
210,263,86098,6,0,P|298:271|348:229,1,129.999994049073,14|0,0:0|0:0,0:0:0:0:
171,65,86352,2,0,L|152:207,1,129.999994049073,14|0,0:0|0:0,0:0:0:0:
119,330,86607,5,10,0:2:0:0:
266,132,86797,1,10,0:2:0:0:
24,104,86988,1,10,0:2:0:0:
123,257,87115,6,0,P|126:291|114:341,2,73.3333355712891,10|10|10,0:2|0:2|0:2,0:0:0:0:
179,194,87369,6,0,P|213:191|250:198,2,59.9999981689454,10|10|10,0:2|0:2|0:2,0:0:0:0:
67,190,87624,6,0,P|33:193|-3:187,2,46.6666652425131,10|10|8,0:2|0:2|0:2,0:0:0:0:
162,120,87878,5,2,3:2:0:0:
173,98,87941,1,2,3:2:0:0:
180,74,88005,1,2,3:2:0:0:
178,49,88069,1,2,3:2:0:0:
169,26,88132,5,6,0:0:0:0:
211,269,88386,1,6,0:0:0:0:
302,78,88641,1,4,0:0:0:0:
67,190,88895,1,2,0:0:0:0:
305,319,89149,5,4,3:2:0:0:
315,319,89213,1,0,3:0:0:0:
325,320,89276,1,0,3:0:0:0:
335,321,89340,1,0,3:0:0:0:
345,322,89403,1,2,3:2:0:0:
355,323,89467,1,0,3:0:0:0:
365,324,89530,1,2,3:2:0:0:
375,325,89594,1,0,3:0:0:0:
385,326,89658,1,0,3:0:0:0:
395,327,89721,1,0,3:0:0:0:
405,328,89785,1,0,3:0:0:0:
415,329,89848,1,0,3:0:0:0:
453,354,89912,5,6,3:2:0:0:
425,313,89975,1,2,3:2:0:0:
414,264,90039,1,2,3:2:0:0:
423,216,90102,1,2,3:2:0:0:
456,179,90166,6,0,P|484:113|441:38,1,139.999995727539,6|8,0:0|0:0,0:0:0:0:
390,116,90357,1,2,0:0:0:0:
390,116,90420,2,0,B|334:136|334:136|247:113,1,139.999995727539,0|10,0:0|0:0,0:0:0:0:
72,196,90674,2,0,P|163:207|187:268,1,139.999995727539,2|8,0:0|0:0,0:0:0:0:
189,327,90865,1,2,0:0:0:0:
189,327,90929,2,0,B|248:345|248:345|360:318,1,139.999995727539,0|8,0:0|0:0,0:0:0:0:
403,47,91183,6,0,P|400:82|390:116,1,69.9999978637696,2|2,0:0|0:0,0:0:0:0:
368,235,91310,2,0,P|371:200|382:167,1,69.9999978637696,10|2,0:0|0:0,0:0:0:0:
303,42,91437,6,0,P|310:77|309:112,1,69.9999978637696,2|2,0:0|0:0,0:3:0:0:
315,232,91564,2,0,P|309:197|311:163,1,69.9999978637696,10|2,0:0|0:0,0:3:0:0:
209,59,91691,6,0,P|223:90|232:125,1,69.9999978637696,2|2,0:0|0:0,0:0:0:0:
265,233,91818,2,0,P|250:202|243:168,1,69.9999978637696,2|2,0:0|0:0,0:0:0:0:
104,147,91946,6,0,L|53:145,1,34.9999989318848,0|0,3:0|0:0,0:0:0:0:
109,178,92009,2,0,L|59:190,1,34.9999989318848,0|0,3:0|0:0,0:0:0:0:
126,208,92073,2,0,L|83:236,1,34.9999989318848,0|0,3:0|0:0,0:0:0:0:
148,235,92136,2,0,L|113:286,1,34.9999989318848,0|0,3:0|0:0,0:0:0:0:
178,258,92200,6,0,P|194:304|179:348,1,89.9999972534181,6|0,0:0|0:0,0:0:0:0:
0,252,92391,6,0,P|77:220|120:241,1,110.000003356934,2|0,0:0|0:0,0:0:0:0:
274,313,92581,6,0,B|284:273|263:233|263:233|288:199|288:199|262:153|286:89,1,194.999991073609,6|0,0:0|0:0,0:0:0:0:
223,45,92835,1,2,0:0:0:0:
381,148,92963,1,2,0:0:0:0:
154,240,93090,1,2,0:0:0:0:
388,65,93217,6,0,P|456:105|458:153,1,89.9999972534181,6|0,0:0|0:0,0:0:0:0:
463,189,93408,1,2,0:0:0:0:
463,189,93471,1,0,0:0:0:0:
274,313,93598,6,0,B|342:343|394:306|394:306|413:356|466:364,1,194.999991073609,6|0,0:0|0:0,0:0:0:0:
512,286,93852,1,2,0:0:0:0:
248,315,93980,1,2,0:0:0:0:
366,176,94107,1,2,0:0:0:0:
381,148,94170,2,0,B|242:137|242:137|306:192,1,194.999991073609,2|0,0:0|0:0,0:0:0:0:
213,58,94488,6,0,P|220:33|223:-12,2,59.9999981689454,10|2|2,0:0|0:0|0:0,0:0:0:0:
132,185,94742,2,0,P|106:191|66:211,2,59.9999981689454,10|2|2,0:0|0:0|0:0,0:0:0:0:
284,173,94996,2,0,P|302:191|339:216,2,59.9999981689454,10|2|2,0:0|0:0|0:0,0:0:0:0:
209,138,95251,5,14,0:0:0:0:
204,179,95335,1,2,0:0:0:0:
217,218,95420,1,2,0:0:0:0:
244,249,95505,1,10,0:0:0:0:
249,290,95589,1,2,0:0:0:0:
236,329,95674,1,2,0:0:0:0:
192,360,95759,5,10,0:0:0:0:
174,308,95844,1,2,0:0:0:0:
135,270,95929,1,2,0:0:0:0:
81,265,96013,1,10,0:0:0:0:
32,288,96098,1,2,0:0:0:0:
17,340,96183,1,2,0:0:0:0:
86,384,96268,6,0,B|112:340|87:303|87:303|117:267|117:267|73:189|93:149|93:149|134:161|134:161|162:155|162:155|226:167,1,375,6|0,0:0|0:0,0:0:0:0:
146,75,97285,5,2,1:2:0:0:
231,248,97475,1,2,1:2:0:0:
95,149,97666,1,2,1:2:0:0:
268,64,97856,1,2,1:2:0:0:
266,324,98047,5,2,1:2:0:0:
473,308,98174,1,2,1:2:0:0:
361,362,98302,5,12,0:0:0:0:
368,336,98386,1,0,0:0:0:0:
376,310,98471,1,0,0:0:0:0:
359,277,98556,1,8,0:0:0:0:
367,252,98640,1,0,0:0:0:0:
375,226,98725,1,0,0:0:0:0:
411,211,98810,1,8,0:0:0:0:
418,184,98895,1,0,0:0:0:0:
427,150,98979,1,0,0:0:0:0:
380,95,99064,6,0,P|425:79|467:92,2,66.6666666666667,8|0|0,0:0|0:0|0:0,0:0:0:0:
303,186,99318,2,0,P|258:202|216:193,2,66.6666666666667,8|0|0,0:0|0:0|0:0,0:0:0:0:
276,58,99573,2,0,L|300:-14,2,50,8|0|0,0:0|0:0|0:0,0:0:0:0:
218,116,99827,5,8,0:0:0:0:
178,122,99912,1,0,0:0:0:0:
139,111,99996,1,0,0:0:0:0:
105,89,100081,1,8,0:0:0:0:
64,87,100166,1,0,0:0:0:0:
31,111,100251,1,0,0:0:0:0:
12,145,100335,1,8,0:0:0:0:
14,185,100420,1,0,0:0:0:0:
36,218,100505,1,0,0:0:0:0:
89,165,100590,6,0,P|135:156|190:172,2,66.6666666666667,8|0|0,0:0|0:0|0:0,0:0:0:0:
77,283,100844,2,0,P|31:292|-24:276,2,66.6666666666667,8|0|0,0:0|0:0|0:0,0:0:0:0:
183,237,101098,2,0,P|229:228|284:244,2,66.6666666666667,8|0|0,0:0|0:0|0:0,0:0:0:0:
225,305,101352,5,8,0:0:0:0:
265,306,101437,1,0,0:0:0:0:
300,286,101522,1,0,0:0:0:0:
320,251,101607,1,8,0:0:0:0:
320,211,101691,1,0,0:0:0:0:
304,173,101776,1,0,0:0:0:0:
267,156,101861,1,8,0:0:0:0:
238,128,101946,1,0,0:0:0:0:
232,88,102030,1,0,0:0:0:0:
266,13,102115,6,0,B|234:9|234:9|200:13,2,66.6666666666667,8|0|0,0:0|0:0|0:0,0:0:0:0:
159,142,102369,2,0,B|170:172|170:172|191:199,2,66.6666666666667,8|0|0,0:0|0:0|0:0,0:0:0:0:
325,173,102624,2,0,B|345:147|345:147|358:116,2,66.6666666666667,8|0|0,0:0|0:0|0:0,0:0:0:0:
158,70,102878,6,0,L|74:61,2,66.6666666666667,8|0|0,0:0|0:0|0:0,0:0:0:0:
266,218,103132,2,0,L|300:295,2,66.6666666666667,8|0|0,0:0|0:0|0:0,0:0:0:0:
324,54,103386,2,0,L|373:-14,2,66.6666666666667,8|0|0,0:0|0:0|0:0,0:0:0:0:
251,131,103640,5,2,0:0:0:0:
252,137,103725,1,2,0:0:0:0:
253,143,103810,1,2,0:0:0:0:
254,149,103895,1,2,0:0:0:0:
255,155,103979,1,2,0:0:0:0:
256,161,104064,1,2,0:0:0:0:
257,167,104149,1,2,0:0:0:0:
258,173,104234,1,2,0:0:0:0:
259,179,104318,1,2,0:0:0:0:
220,261,104403,5,4,0:0:0:0:
262,228,104488,1,0,0:0:0:0:
315,225,104573,1,0,0:0:0:0:
360,251,104657,1,2,0:3:0:0:
412,262,104742,1,0,0:0:0:0:
460,238,104827,1,0,0:0:0:0:
471,185,104912,1,2,0:3:0:0:
448,137,104996,1,0,0:0:0:0:
395,125,105081,1,0,0:0:0:0:
335,133,105166,5,2,0:3:0:0:
276,118,105251,1,0,0:0:0:0:
237,72,105335,1,0,0:0:0:0:
179,55,105420,1,2,0:3:0:0:
120,71,105505,1,0,0:0:0:0:
96,126,105590,1,0,0:0:0:0:
106,184,105674,1,2,0:3:0:0:
154,219,105759,1,0,0:0:0:0:
213,211,105844,1,0,0:0:0:0:
255,192,105929,5,2,0:3:0:0:
295,213,106013,1,0,0:0:0:0:
313,255,106098,1,0,0:0:0:0:
305,301,106183,1,2,0:3:0:0:
269,331,106268,1,0,0:0:0:0:
222,335,106352,1,0,0:0:0:0:
182,309,106437,1,2,0:3:0:0:
137,293,106522,1,0,0:0:0:0:
90,299,106607,1,0,0:0:0:0:
36,324,106691,5,2,0:3:0:0:
79,366,106776,1,0,0:0:0:0:
137,352,106861,1,0,0:0:0:0:
158,295,106946,1,2,0:3:0:0:
132,241,107030,1,0,0:0:0:0:
72,230,107115,1,0,0:0:0:0:
23,194,107200,1,2,0:3:0:0:
23,133,107285,1,0,0:0:0:0:
69,96,107369,1,0,0:0:0:0:
128,106,107454,6,0,P|138:77|139:36,2,66.6666666666667,2|0|0,0:3|0:0|0:0,0:0:0:0:
23,194,107708,2,0,P|13:223|12:264,2,66.6666666666667,2|0|0,0:3|0:0|0:0,0:0:0:0:
150,242,107963,2,0,L|216:249,2,66.6666666666667,2|0|0,0:3|0:0|0:0,0:0:0:0:
92,285,108217,5,2,0:3:0:0:
82,233,108301,1,0,0:0:0:0:
107,186,108386,1,0,0:0:0:0:
158,171,108471,1,2,0:3:0:0:
204,197,108556,1,0,0:0:0:0:
254,214,108640,1,0,0:0:0:0:
306,204,108725,1,2,0:3:0:0:
343,165,108810,1,0,0:0:0:0:
350,112,108895,1,0,0:0:0:0:
323,66,108979,6,0,L|241:48,2,66.6666666666667,2|0|0,0:3|0:0|0:0,0:0:0:0:
433,126,109234,2,0,L|515:108,2,66.6666666666667,2|0|0,0:3|0:0|0:0,0:0:0:0:
265,134,109488,2,0,L|183:116,2,66.6666666666667,2|0|0,0:3|0:0|0:0,0:0:0:0:
343,165,109742,5,2,0:0:0:0:
344,171,109827,1,0,0:0:0:0:
345,177,109912,1,0,0:0:0:0:
346,183,109996,1,2,0:0:0:0:
347,189,110081,1,0,0:0:0:0:
348,195,110166,1,0,0:0:0:0:
349,201,110251,1,2,0:0:0:0:
350,207,110335,1,0,0:0:0:0:
351,213,110420,1,0,0:0:0:0:
375,260,110505,5,6,0:0:0:0:
343,250,110589,1,2,0:0:0:0:
309,252,110674,1,2,0:0:0:0:
278,266,110759,1,2,0:0:0:0:
246,276,110843,1,2,0:0:0:0:
212,274,110928,1,2,0:0:0:0:
183,257,111013,5,2,0:0:0:0:
151,247,111097,1,2,0:0:0:0:
117,249,111182,1,2,0:0:0:0:
86,263,111267,1,2,0:0:0:0:
54,273,111351,1,2,0:0:0:0:
20,271,111436,1,2,0:0:0:0:
48,196,111521,5,2,0:0:0:0:
48,196,112538,5,10,1:2:0:0:
283,146,112666,1,10,1:2:0:0:
150,82,112793,1,10,1:2:0:0:
192,278,112920,5,10,1:2:0:0:
392,228,113048,1,10,1:2:0:0:
294,164,113175,1,10,1:2:0:0:
287,353,113301,5,10,1:2:0:0:
484,302,113429,1,10,1:2:0:0:
397,248,113556,1,10,1:2:0:0:
402,384,113682,5,10,1:2:0:0:
402,384,113810,1,10,1:2:0:0:
402,384,113937,1,10,1:2:0:0:
482,175,114064,5,10,1:2:0:0:
352,158,114191,1,4,1:3:0:0:
221,143,114318,1,4,1:3:0:0:
95,300,114445,1,4,1:3:0:0:
95,300,114954,5,4,3:0:0:0:
103,219,115017,1,4,3:0:0:0:
112,138,115081,2,0,L|117:79,48,50,2|2|2|2|2|2|2|2|2|2|2|2|2|2|2|2|2|2|2|2|2|2|2|2|2|2|2|2|2|2|2|2|2|2|2|2|2|2|2|2|2|2|2|2|2|2|2|2|4,0:0|0:0|0:0|0:0|0:0|0:0|0:0|0:0|0:0|0:0|0:0|0:0|0:0|0:0|0:0|0:0|0:0|0:0|0:0|0:0|0:0|0:0|0:0|0:0|0:0|0:0|0:0|0:0|0:0|0:0|0:0|0:0|0:0|0:0|0:0|0:0|0:0|0:0|0:0|0:0|0:0|0:0|0:0|0:0|0:0|0:0|0:0|0:0|3:0,0:0:0:0:
