osu file format v14

[General]
AudioFilename: audio.mp3
AudioLeadIn: 0
PreviewTime: 20254
Countdown: 0
SampleSet: Soft
StackLeniency: 0.5
Mode: 0
LetterboxInBreaks: 0
WidescreenStoryboard: 0

[Editor]
Bookmarks: 6779,14279
DistanceSpacing: 1.2
BeatDivisor: 4
GridSize: 32
TimelineZoom: 2.2

[Metadata]
Title:Lachryma
TitleUnicode:Lachryma《Re:Queen'M》
Artist:Kaneko Chiharu
ArtistUnicode:かねこちはる
Creator:Kroytz
Version:Pono's HYPER
Source:SOUND VOLTEX III GRAVITY WARS
Tags:SDVX Grace The 5th KAC Original Song Contest KONAMI BEMANI Battle Ametrin Fizz Ponoyoshi Alheak toybot Smoothie World
BeatmapID:1231787
BeatmapSetID:475629

[Difficulty]
HPDrainRate:4.5
CircleSize:3.6
OverallDifficulty:7
ApproachRate:9
SliderMultiplier:1.6
SliderTickRate:1

[Events]
//Background and Video events
0,0,"BG.png",0,0
//Break Periods
//Storyboard Layer 0 (Background)
//Storyboard Layer 1 (Fail)
//Storyboard Layer 2 (Pass)
//Storyboard Layer 3 (Foreground)
//Storyboard Sound Samples

[TimingPoints]
678,254.237288135593,3,2,1,55,1,0
5254,-133.333333333333,4,2,1,55,0,0
6016,-200,4,2,1,55,0,0
6779,-83.3333333333333,4,2,1,55,0,0
14406,-90.9090909090909,4,2,1,55,0,0
18983,-90.9090909090909,4,3,2,55,0,0
19745,-200,4,2,1,55,0,0
20254,-83.3333333333333,4,2,1,55,0,0
20508,254.237288135593,4,2,1,55,1,1
20508,-76.9230769230769,4,2,1,55,0,1
24575,-83.3333333333333,4,2,1,55,0,1
24702,-83.3333333333333,4,2,1,5,0,1
24766,-83.3333333333333,4,2,1,55,0,1
24893,-83.3333333333333,4,2,1,5,0,1
24957,-83.3333333333333,4,2,1,55,0,1
25719,-83.3333333333333,4,2,1,5,0,1
25783,-83.3333333333333,4,2,1,55,0,1
25910,-83.3333333333333,4,2,1,5,0,1
25974,-83.3333333333333,4,2,1,55,0,1
27118,-83.3333333333333,4,3,2,55,0,1
27880,-250,4,2,4,55,0,0
28389,-250,4,2,1,55,0,0
28643,-83.3333333333333,4,2,1,55,0,1
32838,-83.3333333333333,4,2,1,5,0,1
32902,-83.3333333333333,4,2,1,55,0,1
33029,-83.3333333333333,4,2,1,5,0,1
33092,-83.3333333333333,4,2,1,55,0,1
33855,-83.3333333333333,4,2,1,5,0,1
33919,-83.3333333333333,4,2,1,55,0,1
34046,-83.3333333333333,4,2,1,5,0,1
34109,-83.3333333333333,4,2,1,55,0,1
36779,-500,4,2,1,55,0,0
38749,-500,4,2,1,5,0,0
38813,-100,4,2,1,55,0,0
40846,-200,4,2,1,55,0,0
44914,-100,4,2,1,55,0,0
59152,254.237288135593,3,3,1,55,1,0
62202,254.237288135593,4,2,1,55,1,0
62202,-500,4,2,1,55,0,0
64235,-100,4,2,1,55,0,0
66269,254.237288135593,3,2,1,55,1,0
79997,254.237288135593,4,2,5,75,1,0
79997,-200,4,2,5,75,0,0
80251,-76.9230769230769,4,2,1,55,0,1
88132,-83.3333333333333,4,2,1,55,0,1
96268,-200,4,2,1,55,0,0
97221,-200,4,2,1,5,0,0
97285,-100,4,2,1,55,0,0
98302,254.237288135593,3,2,1,55,1,1
98302,-83.3333333333333,4,2,1,55,0,1
104403,-76.9230769230769,3,2,1,55,0,1
110505,254.237288135593,4,2,1,55,1,0
112475,-100,4,2,1,5,0,0
112538,-100,4,2,1,55,0,0
115081,254.237288135593,4,2,1,55,1,1
115081,-500,4,2,1,55,0,1
118131,-100,4,2,1,55,0,0

[Colours]
Combo1 : 70,70,255
Combo2 : 255,62,62
Combo3 : 255,137,81
Combo4 : 0,174,174
Combo5 : 0,101,202

[HitObjects]
50,273,678,6,0,P|128:240|214:277,1,160,6|0,0:2|0:0,0:0:0:0:
282,329,1059,2,0,P|303:253|270:182,1,160,8|8,0:3|0:3,0:0:0:0:
191,148,1440,6,0,B|294:161,1,80,2|0,0:0|0:0,0:0:0:0:
94,119,1694,2,0,B|197:132,1,80,10|0,0:0|0:0,0:0:0:0:
349,148,1949,2,0,B|246:161,1,80,10|0,0:0|0:0,0:0:0:0:
407,84,2203,6,0,P|433:138|370:231,1,160,2|0,0:0|0:0,0:0:0:0:
315,266,2584,2,0,L|492:259,1,160,8|8,0:3|0:3,0:0:0:0:
251,325,2966,6,0,B|148:312,1,80,2|0,0:0|0:0,0:0:0:0:
348,354,3220,2,0,B|245:341,1,80,10|0,0:0|0:0,0:0:0:0:
93,325,3475,2,0,B|196:312,1,80,10|0,0:0|0:0,0:0:0:0:
7,342,3728,6,0,P|27:267|98:237,1,160,2|0,0:2|0:0,0:0:0:0:
251,325,4110,2,0,P|324:348|388:304,1,160,8|8,0:3|0:3,0:0:0:0:
309,187,4491,6,0,B|314:290,1,80,2|0,0:0|0:0,0:0:0:0:
320,86,4745,2,0,B|325:189,1,80,10|0,0:0|0:0,0:0:0:0:
171,305,5000,2,0,B|151:201,1,80,10|0,0:0|0:0,0:0:0:0:
97,162,5254,6,0,B|70:115|70:115|124:74|124:74|187:93|187:93|178:160,1,240.000009155274,2|0,0:0|0:0,0:0:0:0:
86,264,5889,1,0,0:0:0:0:
173,305,6016,6,0,L|205:299,11,20,2|0|0|0|0|0|0|0|0|0|0|0,0:0|0:0|0:0|0:0|0:0|0:0|0:0|0:0|0:0|0:0|0:0|0:0,0:0:0:0:
218,318,6779,6,0,B|272:307|272:307|336:311,1,95.9999970703126,4|0,0:0|0:0,0:0:0:0:
130,216,7033,1,0,0:0:0:0:
130,216,7161,2,0,B|184:227|184:227|248:223,1,95.9999970703126,8|0,0:0|0:0,0:0:0:0:
383,162,7415,1,8,0:0:0:0:
383,162,7542,6,0,B|329:151|329:151|265:155,1,95.9999970703126,2|0,0:0|0:0,0:0:0:0:
436,223,7796,2,0,P|464:162|456:128,1,95.9999970703126,10|0,0:0|0:0,0:0:0:0:
235,95,8050,2,0,P|207:156|215:190,1,95.9999970703126,10|0,0:0|0:0,0:0:0:0:
325,289,8305,6,0,L|217:274,1,95.9999970703126,2|0,0:0|0:0,0:0:0:0:
59,255,8559,1,0,0:0:0:0:
59,255,8686,2,0,L|167:240,1,95.9999970703126,8|0,0:0|0:0,0:0:0:0:
325,289,8940,1,8,0:0:0:0:
325,289,9067,6,0,P|263:239|262:189,1,95.9999970703126,2|0,0:0|0:0,0:0:0:0:
368,124,9322,2,0,P|355:202|312:228,1,95.9999970703126,10|0,0:0|0:0,0:0:0:0:
119,186,9576,1,10,0:0:0:0:
289,152,9703,1,8,0:0:0:0:
119,186,9830,6,0,L|235:196,1,95.9999970703126,4|0,0:0|0:0,0:0:0:0:
70,119,10084,2,0,P|35:190|50:233,1,95.9999970703126,0|8,0:0|0:0,0:0:0:0:
153,359,10339,2,0,P|188:288|173:245,1,95.9999970703126,0|8,0:0|0:0,0:0:0:0:
105,292,10593,6,0,L|241:308,1,95.9999970703126,2|0,0:0|0:0,0:0:0:0:
407,240,10847,2,0,L|271:256,1,95.9999970703126,8|0,0:0|0:0,0:0:0:0:
451,306,11101,2,0,P|486:235|471:192,1,95.9999970703126,8|0,0:0|0:0,0:0:0:0:
366,135,11355,6,0,P|440:124|380:77,1,191.999994140625,2|2,0:0|0:0,0:0:0:0:
242,204,11737,2,0,B|245:163|245:163|239:136|239:136|245:85,1,95.9999970703126,8|2,0:0|0:0,0:0:0:0:
110,197,11991,1,8,0:0:0:0:
110,197,12118,6,0,B|113:238|113:238|107:265|107:265|113:316,1,95.9999970703126,10|0,0:0|0:0,0:0:0:0:
257,384,12372,2,0,L|399:372,1,95.9999970703126,8|0,0:0|0:0,0:0:0:0:
288,285,12627,1,10,0:0:0:0:
139,380,12754,1,8,0:0:0:0:
179,144,12881,6,0,L|190:267,1,95.9999970703126,4|0,0:0|0:0,0:0:0:0:
349,233,13135,2,0,P|309:208|262:209,1,95.9999970703126,0|8,0:0|0:0,0:0:0:0:
122,306,13389,2,0,P|162:330|209:330,1,95.9999970703126,0|8,0:0|0:0,0:0:0:0:
273,137,13644,6,0,B|262:212|262:212|279:261,1,95.9999970703126,2|0,0:0|0:0,0:0:0:0:
425,359,13898,2,0,B|436:284|436:284|419:235,1,95.9999970703126,10|0,3:2|3:0,0:0:0:0:
173,241,14152,2,0,L|288:229,1,95.9999970703126,0|0,3:0|3:0,0:0:0:0:
488,213,14406,6,0,P|423:188|352:267,1,176.000005371094,6|2,3:2|3:2,0:0:0:0:
271,318,14788,2,0,B|263:273|263:273|269:218,1,88.000002685547,0|2,0:0|3:2,0:0:0:0:
335,128,15042,1,0,0:0:0:0:
335,128,15169,6,0,L|225:148,1,88.000002685547,2|0,3:2|0:0,0:0:0:0:
463,39,15423,2,0,L|376:54,1,88.000002685547,2|0,3:2|0:0,0:0:0:0:
177,95,15677,1,2,3:2:0:0:
177,95,15932,6,0,P|267:56|384:57,1,176.000005371094,2|2,3:2|3:2,0:0:0:0:
335,128,16313,2,0,P|272:135|225:156,1,88.000002685547,0|2,0:0|3:2,0:0:0:0:
91,244,16567,1,0,0:0:0:0:
91,244,16694,6,0,L|79:135,1,88.000002685547,2|0,3:2|0:0,0:0:0:0:
178,266,16949,2,0,L|166:157,1,88.000002685547,2|0,3:2|0:0,0:0:0:0:
258,230,17203,2,0,L|249:143,1,88.000002685547,2|0,3:2|0:0,0:0:0:0:
180,90,17457,6,0,P|236:54|328:106,1,176.000005371094,2|2,3:2|3:2,0:0:0:0:
397,226,17839,2,0,B|403:176|403:176|394:107,1,88.000002685547,0|2,0:0|3:2,0:0:0:0:
258,230,18093,1,0,0:0:0:0:
258,230,18220,6,0,B|252:280|252:280|261:349,1,88.000002685547,2|0,3:2|0:0,0:0:0:0:
162,171,18474,2,0,B|168:221|168:221|159:290,1,88.000002685547,2|0,3:2|0:0,0:0:0:0:
63,333,18728,2,0,L|6:350,2,58.6666684570313,2|2|2,3:2|0:0|0:0,0:0:0:0:
142,347,18983,5,0,3:0:0:0:
176,338,19067,1,0,3:0:0:0:
210,329,19152,1,0,3:0:0:0:
244,320,19237,5,0,3:0:0:0:
277,329,19321,1,0,3:0:0:0:
311,338,19406,1,0,3:0:0:0:
359,368,19491,5,0,3:0:0:0:
359,368,19576,1,0,3:0:0:0:
359,368,19661,1,0,3:0:0:0:
359,368,19745,6,0,L|353:296,1,53.3333333333333,8|0,1:3|0:0,0:0:0:0:
416,260,20000,2,0,L|410:188,1,53.3333333333333,8|0,1:3|0:0,0:0:0:0:
342,161,20254,2,0,L|335:92,3,47.9999985351563,2|2|2|2,0:0|0:0|0:0|0:0,0:0:0:0:
419,58,20508,6,0,P|331:14|246:74,1,207.999990478516,4|2,0:0|0:0,0:0:0:0:
190,223,20889,2,0,B|184:151|184:151|155:112|155:112|148:12,1,207.999990478516,8|8,0:2|0:0,0:0:0:0:
99,184,21270,1,2,0:0:0:0:
99,184,21334,1,2,0:0:0:0:
99,184,21397,1,10,0:0:0:0:
99,184,21461,1,2,0:0:0:0:
99,184,21524,6,0,P|166:130|275:177,1,207.999990478516,2|2,0:0|0:0,0:0:0:0:
328,320,21906,2,0,B|334:248|334:248|363:209|363:209|370:109,1,207.999990478516,10|8,0:0|0:0,0:0:0:0:
280,66,22287,1,2,0:0:0:0:
280,66,22351,1,2,0:0:0:0:
280,66,22414,1,10,0:0:0:0:
280,66,22478,1,2,0:0:0:0:
280,66,22541,6,0,L|269:169,1,103.999995239258,2|8,0:0|0:0,0:0:0:0:
179,326,22796,2,0,L|189:222,1,103.999995239258,2|8,0:2|0:0,0:0:0:0:
143,119,23050,2,0,B|200:113|200:113|255:127,2,103.999995239258,2|10|2,0:0|0:0|0:0,0:0:0:0:
85,214,23431,1,10,0:0:0:0:
85,214,23558,6,0,L|211:224,1,103.999995239258,2|8,0:0|0:0,0:0:0:0:
330,263,23813,2,0,L|456:273,1,103.999995239258,2|8,0:0|0:0,0:0:0:0:
179,326,24067,2,0,L|119:334,5,51.999997619629,2|0|0|0|4|4,3:2|3:0|3:0|3:0|3:0|3:0,0:0:0:0:
56,264,24448,1,8,3:0:0:0:
56,264,24511,1,8,3:0:0:0:
56,264,24575,6,0,L|168:250,1,95.9999970703126,6|0,0:0|0:0,0:0:0:0:
218,197,24766,2,0,L|330:183,1,95.9999970703126,2|0,0:0|0:0,0:0:0:0:
216,111,24957,2,0,P|140:161|150:251,1,191.999994140625,6|2,0:0|0:0,0:0:0:0:
272,309,25338,2,0,B|232:313|232:313|205:323|205:323|157:328,1,95.9999970703126,10|2,0:0|0:0,0:0:0:0:
292,225,25592,6,0,L|282:338,1,95.9999970703126,14|0,0:0|0:0,0:0:0:0:
308,210,25783,2,0,L|316:114,1,95.9999970703126,2|0,0:0|0:0,0:0:0:0:
246,49,25974,2,0,P|324:20|410:98,1,191.999994140625,14|2,0:0|0:0,0:0:0:0:
441,270,26355,2,0,L|449:174,1,95.9999970703126,8|2,0:0|0:0,0:0:0:0:
468,158,26546,1,0,0:0:0:0:
468,158,26609,6,0,L|476:62,1,95.9999970703126,14|0,0:0|0:0,0:0:0:0:
308,210,26863,2,0,L|299:305,1,95.9999970703126,10|0,0:0|0:0,0:0:0:0:
196,163,27118,2,0,L|204:88,3,47.9999985351563,0|0|0|0,0:0|0:0|0:0|0:0,0:0:0:0:
127,217,27372,2,0,L|121:264,3,47.9999985351563,0|0|0|0,0:0|0:0|0:0|0:0,0:0:0:0:
55,152,27626,5,8,1:2:0:0:
55,152,27880,2,0,L|38:287,1,128,0|0,0:0|0:0,0:0:0:0:
113,326,28452,1,2,0:0:0:0:
118,290,28515,1,2,0:0:0:0:
122,253,28579,1,2,0:0:0:0:
127,217,28643,6,0,L|143:88,1,95.9999970703126,4|8,0:0|0:0,0:0:0:0:
60,52,28897,1,0,0:0:0:0:
60,52,29024,2,0,P|147:19|225:69,1,191.999994140625,8|8,0:0|0:0,0:0:0:0:
251,199,29406,2,0,L|257:135,3,47.9999985351563,2|2|10|2,0:0|0:0|0:0|0:0,0:0:0:0:
315,84,29660,6,0,P|228:67|204:79,1,95.9999970703126,2|8,0:0|0:0,0:0:0:0:
132,165,29914,1,2,0:0:0:0:
132,165,30041,2,0,B|203:170|203:170|252:199|252:199|351:205,1,191.999994140625,8|8,0:0|0:0,0:0:0:0:
446,159,30423,2,0,L|379:158,3,47.9999985351563,2|2|10|2,0:0|0:0|0:0|0:0,0:0:0:0:
315,202,30677,6,0,L|422:204,1,95.9999970703126,2|8,0:0|0:0,0:0:0:0:
490,279,30868,2,0,L|394:277,1,95.9999970703126,2|0,0:0|0:0,0:0:0:0:
290,323,31058,1,8,0:0:0:0:
290,323,31185,2,0,L|194:321,1,95.9999970703126,2|8,0:0|0:0,0:0:0:0:
115,246,31376,2,0,L|210:247,1,95.9999970703126,2|0,0:0|0:0,0:0:0:0:
315,202,31567,1,10,0:0:0:0:
315,202,31694,6,0,L|379:203,7,47.9999985351563,2|2|10|2|2|2|10|2,0:0|0:0|0:0|0:0|0:0|0:0|0:0|0:0,0:0:0:0:
247,145,32202,2,0,L|199:144,3,47.9999985351563,2|2|2|2,0:2|0:2|0:2|0:2,0:0:0:0:
336,95,32457,1,2,3:2:0:0:
336,95,32520,1,2,3:2:0:0:
336,95,32584,1,0,3:0:0:0:
336,95,32647,1,0,3:0:0:0:
336,95,32711,6,0,B|386:88|386:88|432:97,1,95.9999970703126,6|0,0:0|0:0,0:0:0:0:
481,174,32902,2,0,B|431:181|431:181|385:172,1,95.9999970703126,2|0,0:0|0:0,0:0:0:0:
319,233,33092,2,0,L|437:260,1,95.9999970703126,6|0,0:0|0:0,0:0:0:0:
245,263,33346,2,0,P|244:201|285:160,2,95.9999970703126,2|0|2,0:0|0:0|0:0,0:0:0:0:
319,318,33728,6,0,L|225:296,1,95.9999970703126,6|0,0:0|0:0,0:0:0:0:
154,336,33919,2,0,L|60:314,1,95.9999970703126,2|0,0:0|0:0,0:0:0:0:
48,223,34109,2,0,P|131:233|149:117,1,191.999994140625,6|2,0:0|0:0,0:0:0:0:
96,167,34491,2,0,P|150:178|202:163,1,95.9999970703126,0|2,0:0|0:0,0:0:0:0:
417,99,34745,6,0,P|371:88|324:97,1,95.9999970703126,12|0,0:0|0:0,0:0:0:0:
147,51,34999,2,0,P|193:42|240:53,1,95.9999970703126,8|2,0:0|0:0,0:0:0:0:
404,116,35253,2,0,P|357:104|310:113,1,95.9999970703126,8|0,0:0|0:0,0:0:0:0:
153,70,35507,2,0,P|199:61|246:72,1,95.9999970703126,8|2,0:0|0:0,0:0:0:0:
359,189,35762,6,0,L|285:202,3,47.9999985351563,12|0|0|0,0:0|0:0|0:0|0:0,0:0:0:0:
267,269,36016,2,0,L|220:278,3,47.9999985351563,0|0|0|0,3:0|3:0|3:0|3:0,0:0:0:0:
194,167,36270,2,0,L|120:180,3,47.9999985351563,8|0|0|0,0:0|0:0|0:0|0:0,0:0:0:0:
102,247,36524,2,0,L|55:256,3,47.9999985351563,4|4|4|4,0:3|0:3|0:3|0:3,0:0:0:0:
0,166,36779,5,6,0:0:0:0:
256,192,36842,12,0,38749,0:0:0:0:
256,192,38813,5,0,1:2:0:0:
256,96,38940,1,10,1:2:0:0:
338,257,39067,2,0,L|355:161,1,80,10|10,1:2|1:2,0:0:0:0:
174,257,39321,2,0,L|157:161,1,80,10|10,1:2|1:2,0:0:0:0:
256,96,39575,1,10,1:2:0:0:
256,192,39702,1,10,1:2:0:0:
103,69,39830,6,0,P|174:56|204:63,1,80,10|10,1:2|1:2,1:2:0:0:
409,69,40084,1,10,1:2:0:0:
409,69,40211,2,0,P|338:56|308:63,1,80,10|8,1:2|1:2,1:2:0:0:
256,272,40465,1,4,3:0:0:0:
256,272,40592,2,0,L|256:176,1,80,4|4,3:0|3:0,1:2:0:0:
256,32,40846,5,4,1:2:0:0:
256,192,40910,12,0,42880,0:0:0:0:
135,263,43007,6,0,L|216:254,1,80,4|2,0:0|0:0,0:0:0:0:
127,279,43389,2,0,L|208:270,1,80,4|2,0:0|0:0,0:0:0:0:
119,295,43770,2,0,L|200:286,1,80,4|2,0:0|0:0,0:0:0:0:
389,309,44152,2,0,L|308:300,1,80,4|2,0:0|0:2,0:0:0:0:
397,323,44660,1,2,3:2:0:0:
87,270,44914,6,0,P|111:286|135:312,3,40,6|0|0|0,0:0|0:0|0:0|0:0,0:0:0:0:
118,249,45169,2,0,P|134:273|148:305,3,40,2|0|0|0,0:3|0:0|0:0|0:0,0:0:0:0:
154,240,45423,2,0,P|161:268|163:303,3,40,10|0|0|0,0:3|0:0|0:0|0:0,0:0:0:0:
191,244,45678,2,0,P|188:273|178:307,3,40,2|0|8|0,0:3|0:0|0:0|0:0,0:0:0:0:
236,270,45931,2,0,P|232:289|231:309,3,40,2|0|8|0,0:3|0:0|0:0|0:0,0:0:0:0:
259,274,46186,2,0,P|262:293|267:312,3,40,2|0|0|0,0:3|0:0|0:0|0:0,0:0:0:0:
282,271,46440,2,0,P|291:288|303:304,3,40,10|0|0|0,0:3|0:0|0:0|0:0,0:0:0:0:
303,259,46694,2,0,P|318:271|334:283,3,40,2|0|8|0,0:3|0:0|0:0|0:0,0:0:0:0:
397,228,46948,6,0,P|381:215|365:203,7,40,2|0|0|0|2|0|0|0,0:3|0:0|0:0|0:0|0:3|0:0|0:0|0:0,0:0:0:0:
287,177,47457,2,0,P|270:165|255:152,7,40,10|0|0|0|2|0|8|8,0:3|0:0|0:0|0:0|0:3|0:0|0:0|0:0,0:0:0:0:
184,56,47965,6,0,L|211:97,3,40,2|0|8|0,0:3|0:0|0:0|0:0,0:0:0:0:
205,44,48219,2,0,L|224:89,3,40,2|0|0|0,0:3|0:0|0:0|0:0,0:0:0:0:
227,36,48474,2,0,L|239:84,3,40,10|0|0|0,0:3|0:0|0:0|0:0,0:0:0:0:
251,32,48728,2,0,L|254:81,3,40,10|0|8|0,0:3|0:0|0:0|0:0,0:0:0:0:
275,33,48982,6,0,L|270:82,7,40,6|0|0|0|2|0|0|0,0:0|0:0|0:0|0:0|0:3|0:0|0:0|0:0,0:0:0:0:
325,179,49491,2,0,L|329:139,7,40,10|0|0|0|2|0|8|8,0:3|0:0|0:0|0:0|0:3|0:0|0:0|0:0,0:0:0:0:
413,100,49999,6,0,L|407:148,3,40,2|0|8|0,0:3|0:0|0:0|0:0,0:0:0:0:
325,179,50253,2,0,L|319:227,3,40,2|0|0|0,0:3|0:0|0:0|0:0,0:0:0:0:
253,86,50507,2,0,L|247:134,3,40,10|0|0|0,0:3|0:0|0:0|0:0,0:0:0:0:
165,165,50761,2,0,L|159:213,3,40,2|0|8|0,0:3|0:0|0:0|0:0,0:0:0:0:
93,72,51016,6,0,L|87:120,7,40,2|0|0|0|2|0|0|0,0:3|0:0|0:0|0:0|0:3|0:0|0:0|0:0,0:0:0:0:
165,165,51524,2,0,L|169:125,7,40,10|0|0|0|2|0|8|8,0:3|0:0|0:0|0:0|0:3|0:0|0:0|0:0,0:0:0:0:
238,59,52033,5,2,0:3:0:0:
245,68,52096,1,0,0:0:0:0:
251,78,52160,1,8,0:0:0:0:
256,89,52223,1,0,0:0:0:0:
260,101,52287,1,2,0:3:0:0:
262,112,52350,1,0,0:0:0:0:
262,124,52414,1,0,0:0:0:0:
262,136,52477,1,0,0:0:0:0:
260,148,52541,6,0,L|236:214,3,40,2|0|0|0,3:0|3:0|3:0|3:0,0:0:0:0:
285,301,52796,2,0,L|298:263,3,40,0|0|0|0,3:0|3:0|3:0|3:0,0:0:0:0:
197,264,53050,1,0,0:0:0:0:
197,264,53304,6,0,B|171:262|171:262|142:267|142:267|82:262,1,80,4|0,0:0|0:0,0:0:0:0:
20,161,53558,1,2,0:0:0:0:
212,249,53685,2,0,B|186:247|186:247|157:252|157:252|97:247,1,80,2|10,0:0|0:0,0:0:0:0:
251,178,53940,2,0,P|292:238|252:319,1,160,4|2,0:0|0:0,0:0:0:0:
132,249,54321,1,10,0:0:0:0:
92,178,54448,2,0,P|51:238|91:319,1,160,10|2,0:0|0:0,0:0:0:0:
195,355,54830,1,2,0:0:0:0:
212,249,54957,1,2,0:0:0:0:
121,100,55084,1,10,0:0:0:0:
121,100,55338,6,0,B|167:108|167:108|232:95,1,80,6|0,0:0|0:0,0:0:0:0:
336,47,55592,1,2,0:0:0:0:
130,121,55719,2,0,B|176:129|176:129|241:116,1,80,2|8,0:0|0:0,0:0:0:0:
76,55,55974,2,0,P|43:119|102:202,1,160,6|2,0:0|0:0,0:0:0:0:
217,228,56355,1,10,0:0:0:0:
1,258,56482,2,0,P|68:220|137:253,1,160,2|2,0:0|0:0,0:0:0:0:
177,341,56863,1,2,0:0:0:0:
217,228,56991,1,2,0:0:0:0:
98,347,57118,1,10,0:0:0:0:
98,347,57372,6,0,L|205:340,1,80,4|0,0:0|0:0,0:0:0:0:
325,285,57626,1,2,0:0:0:0:
325,285,57753,2,0,L|432:278,1,80,2|8,0:0|0:0,0:0:0:0:
264,219,58007,2,0,B|213:216|213:216|159:194|159:194|90:192,1,160,4|2,0:0|0:0,0:0:0:0:
234,137,58389,1,10,0:0:0:0:
234,137,58516,2,0,L|330:144,1,80,2|0,0:0|0:0,0:0:0:0:
437,152,58770,1,2,0:0:0:0:
325,285,58897,2,0,L|357:184,1,80,2|2,0:0|0:0,0:0:0:0:
437,152,59152,6,0,L|463:70,8,53.3333333333333,6|0|0|2|0|0|2|0|0,0:2|0:0|0:0|0:2|0:0|0:0|0:2|0:0|0:0,0:0:0:0:
348,88,59914,2,0,L|365:38,8,53.3333333333333,6|0|0|2|0|0|2|0|0,0:2|0:0|0:0|0:2|0:0|0:0|0:2|0:0|0:0,0:0:0:0:
234,137,60677,2,0,L|250:86,8,53.3333333333333,6|0|0|2|0|0|2|0|0,0:2|0:0|0:0|0:2|0:0|0:0|0:2|0:0|0:0,0:0:0:0:
152,64,61440,2,0,L|169:7,8,53.3333333333333,6|0|0|2|0|0|2|0|0,0:2|0:0|0:0|0:2|0:0|0:0|0:2|0:0|0:0,0:0:0:0:
67,164,62202,6,0,L|74:163,15,8,6|2|2|2|2|2|2|2|2|2|2|2|2|2|2|2,0:0|0:0|0:0|0:0|0:0|0:0|0:0|0:0|0:0|0:0|0:0|0:0|0:0|0:0|0:0|0:0,0:0:0:0:
138,217,63218,2,0,L|145:216,7,8,2|2|2|2|2|2|2|2,0:0|0:0|0:0|0:0|0:0|0:0|0:0|0:0,0:0:0:0:
186,141,63727,2,0,L|193:140,7,8,2|2|2|2|2|2|2|2,0:0|0:0|0:0|0:0|0:0|0:0|0:0|0:0,0:0:0:0:
261,197,64235,6,0,L|321:205,31,40,2|2|2|2|2|2|2|2|2|2|2|2|2|2|2|2|2|2|2|2|2|2|2|2|2|2|2|2|2|2|2|2,0:0|0:0|0:0|0:0|0:0|0:0|0:0|0:0|0:0|0:0|0:0|0:0|0:0|0:0|0:0|0:0|0:0|0:0|0:0|0:0|0:0|0:0|0:0|0:0|0:0|0:0|0:0|0:0|0:0|0:0|0:0|0:0,0:0:0:0:
358,267,66269,6,0,B|299:279|299:279|256:273|256:273|182:290,1,160,4|2,0:0|0:3,0:0:0:0:
97,265,66650,2,0,P|132:204|235:190,1,160,8|8,0:0|0:0,0:0:0:0:
358,267,67031,6,0,P|424:275|467:257,1,80,2|0,0:3|0:0,0:0:0:0:
254,299,67285,2,0,P|188:307|145:289,1,80,10|0,0:3|0:0,0:0:0:0:
364,346,67540,2,0,L|357:253,1,80,10|0,0:3|0:0,0:0:0:0:
425,181,67794,6,0,P|345:158|266:212,1,160,2|2,0:3|0:3,0:0:0:0:
198,235,68175,2,0,P|221:155|167:76,1,160,8|10,0:0|0:0,0:0:0:0:
132,279,68557,6,0,P|171:310|221:312,1,80,2|0,0:3|0:0,0:0:0:0:
364,346,68811,2,0,P|325:315|275:313,1,80,10|0,0:3|0:0,0:0:0:0:
115,370,69065,1,10,0:3:0:0:
198,235,69192,1,8,0:0:0:0:
115,370,69319,6,0,L|107:275,1,80,4|0,0:0|0:0,0:0:0:0:
204,155,69574,2,0,L|196:250,1,80,2|8,0:3|0:0,0:0:0:0:
156,89,69828,2,0,P|212:74|255:91,1,80,2|8,0:3|0:0,0:0:0:0:
419,244,70082,6,0,L|324:236,1,80,2|0,0:3|0:0,0:0:0:0:
204,155,70336,2,0,L|299:147,1,80,10|0,0:3|0:0,0:0:0:0:
415,141,70591,1,10,0:3:0:0:
415,141,70718,1,2,0:0:0:0:
237,58,70845,6,0,P|317:53|334:61,1,80,2|0,0:3|0:0,0:0:0:0:
156,89,71099,2,0,P|76:84|59:92,1,80,2|8,0:3|0:0,0:0:0:0:
198,232,71353,2,0,P|203:152|195:135,1,80,10|0,0:3|0:0,0:0:0:0:
47,235,71607,5,2,0:3:0:0:
47,235,71671,1,2,0:0:0:0:
47,235,71735,1,2,0:0:0:0:
116,322,71862,2,0,L|202:314,1,80,10|0,0:3|0:0,0:0:0:0:
342,232,72116,1,2,0:3:0:0:
276,345,72243,1,10,0:0:0:0:
468,321,72370,6,0,L|382:313,1,80,4|0,0:0|0:0,0:0:0:0:
262,239,72624,2,0,L|348:231,1,80,2|8,0:3|0:0,0:0:0:0:
198,290,72879,2,0,P|181:231|196:191,1,80,2|8,0:3|0:0,0:0:0:0:
344,33,73133,6,0,L|352:119,1,80,2|0,0:3|0:0,0:0:0:0:
262,239,73387,2,0,L|270:153,1,80,10|4,0:3|3:0,0:0:0:0:
175,37,73641,2,0,L|183:123,1,80,6|0,3:3|3:0,0:0:0:0:
107,254,73896,6,0,B|189:228|189:228|262:238,1,160,6|2,3:2|3:2,0:0:0:0:
394,289,74277,2,0,B|361:296|332:309|332:309|374:266|355:202,1,160,0|0,0:0|0:0,0:0:0:0:
287,90,74658,6,0,L|300:183,1,80,2|0,3:2|0:0,0:0:0:0:
211,118,74913,2,0,L|224:211,1,80,2|0,3:2|0:0,0:0:0:0:
130,101,75167,2,0,L|143:194,1,80,2|0,3:2|0:0,0:0:0:0:
241,294,75421,6,0,P|187:278|84:315,1,160,2|2,3:2|3:2,0:0:0:0:
18,365,75802,2,0,B|13:299|13:299|4:274|4:274|-2:180,1,160
39,34,76184,6,0,L|26:127,1,80,2|0,3:2|0:0,0:0:0:0:
115,62,76439,2,0,L|102:155,1,80,2|0,3:2|0:0,0:0:0:0:
196,45,76693,2,0,L|183:138,1,80,2|0,3:2|0:0,0:0:0:0:
251,241,76946,5,2,3:2:0:0:
251,241,77074,2,0,L|262:161,1,80,0|2,0:0|3:2,0:0:0:0:
318,284,77328,2,0,P|247:321|175:269,1,160,0|0,0:0|0:0,0:0:0:0:
133,144,77709,6,0,P|143:208|122:249,1,80,2|0,3:2|0:0,0:0:0:0:
1,234,77963,2,0,P|51:193|97:191,1,80,2|0,3:2|0:0,0:0:0:0:
145,309,78218,2,0,P|84:285|59:246,1,80,2|0,3:2|0:0,0:0:0:0:
133,144,78472,6,0,L|187:140,2,53.3333333333333,8|8|8,3:0|3:0|3:0,0:0:0:0:
62,92,78726,2,0,L|8:88,2,53.3333333333333,8|8|8,3:0|3:0|3:0,0:0:0:0:
139,53,78980,2,0,L|193:49,2,53.3333333333333,12|12|12,3:3|3:3|3:0,0:0:0:0:
67,6,79235,5,10,0:0:0:0:
104,249,79489,1,10,0:0:0:0:
104,249,79743,2,0,L|157:242,3,40,2|2|2|2,0:0|0:0|0:0|0:0,0:0:0:0:
214,278,79997,6,0,L|297:268,1,80,2|4,0:0|0:0,0:0:0:0:
375,181,80378,2,0,B|291:191|291:191|255:178|255:178|159:188,1,207.999990478516,8|8,0:0|0:0,0:0:0:0:
307,97,80759,1,2,0:0:0:0:
307,97,80823,1,2,0:0:0:0:
307,97,80886,1,10,0:0:0:0:
307,97,80950,1,2,0:0:0:0:
307,97,81013,6,0,P|423:93|475:170,1,207.999990478516,2|2,0:0|0:0,0:0:0:0:
374,255,81395,2,0,P|427:240|376:318,1,207.999990478516,10|8,0:0|0:0,0:0:0:0:
260,236,81776,1,2,0:0:0:0:
260,236,81840,1,2,0:0:0:0:
260,236,81903,1,10,0:0:0:0:
260,236,81967,1,2,0:0:0:0:
260,236,82030,6,0,B|275:178|275:178|268:115,1,103.999995239258,2|8,0:0|0:0,0:0:0:0:
93,161,82285,2,0,L|204:172,1,103.999995239258,2|8,0:0|0:0,0:0:0:0:
353,142,82539,2,0,L|464:153,2,103.999995239258,2|10|2,0:0|0:0|0:0,0:0:0:0:
194,58,82920,1,10,0:0:0:0:
106,264,83047,6,0,L|90:143,1,103.999995239258,2|8,0:0|0:0,0:0:0:0:
260,236,83302,2,0,L|276:115,1,103.999995239258,2|8,0:0|0:0,0:0:0:0:
113,315,83556,2,0,L|103:245,5,51.999997619629,8|8|8|8|4|4,3:2|3:2|3:2|3:2|3:0|3:0,0:0:0:0:
209,325,83937,1,2,0:2:0:0:
209,325,84000,1,2,0:2:0:0:
209,325,84064,6,0,L|332:311,1,103.999995239258,6|0,0:0|0:0,0:0:0:0:
363,224,84255,2,0,L|259:235,1,103.999995239258,2|0,0:0|0:0,0:0:0:0:
423,280,84446,2,0,P|444:221|325:150,1,207.999990478516,6|2,0:0|0:0,0:0:0:0:
157,238,84827,2,0,P|242:240|279:225,1,103.999995239258,10|2,0:0|0:0,0:0:0:0:
165,134,85081,6,0,L|154:266,1,103.999995239258,6|0,0:0|0:0,0:0:0:0:
72,297,85272,2,0,L|80:193,1,103.999995239258,2|0,0:0|0:0,0:0:0:0:
101,88,85463,2,0,P|203:66|241:151,1,207.999990478516,6|2,0:0|0:0,0:0:0:0:
279,309,85844,2,0,P|276:251|300:195,1,103.999995239258,10|2,0:0|0:0,0:0:0:0:
376,182,86035,1,2,0:0:0:0:
376,182,86098,6,0,P|392:132|388:81,1,103.999995239258,14|0,0:0|0:0,0:0:0:0:
177,234,86352,6,0,P|160:184|164:133,1,103.999995239258,14|0,0:0|0:0,0:0:0:0:
291,208,86607,2,0,L|301:115,3,51.999997619629,10|0|0|10,0:2|0:0|0:0|0:2,0:0:0:0:
247,51,86861,2,0,L|239:102,3,51.999997619629,0|0|10|0,0:0|0:0|0:2|0:0,0:0:0:0:
98,145,87115,6,0,P|171:135|181:139,2,69.3333301595054,10|10|10,0:2|0:2|0:2,0:0:0:0:
177,234,87369,2,0,P|104:224|94:228,2,69.3333301595054,10|10|10,0:2|0:2|0:2,0:0:0:0:
91,318,87624,2,0,P|164:308|174:312,2,69.3333301595054,10|10|8,0:2|0:2|0:2,0:0:0:0:
15,235,87878,1,2,3:2:0:0:
15,235,87941,1,2,3:2:0:0:
15,235,88005,1,2,3:2:0:0:
15,235,88069,1,2,3:2:0:0:
15,235,88132,6,0,L|136:218,1,95.9999970703126,6|0,0:0|0:0,0:0:0:0:
42,142,88386,2,0,L|137:128,1,95.9999970703126,6|0,0:0|0:0,0:0:0:0:
205,207,88641,2,0,L|110:221,1,95.9999970703126,4|0,0:0|0:0,0:0:0:0:
232,114,88895,2,0,L|137:128,1,95.9999970703126,2|2,0:0|0:0,0:0:0:0:
205,207,89149,6,0,L|257:201,11,47.9999985351563,4|0|0|0|0|0|0|0|0|0|0|0,3:2|3:0|3:0|3:0|3:2|3:0|3:2|3:0|3:0|3:0|3:0|3:0,0:0:0:0:
343,253,89912,1,6,3:2:0:0:
343,253,89975,1,2,3:2:0:0:
343,253,90039,1,2,3:2:0:0:
343,253,90102,1,2,3:2:0:0:
343,253,90166,6,0,L|450:255,1,95.9999970703126,6|8,0:0|0:0,0:0:0:0:
484,179,90357,2,0,L|388:177,1,95.9999970703126,2|0,0:0|0:0,0:0:0:0:
189,167,90547,1,10,0:0:0:0:
189,167,90674,6,0,L|296:169,1,95.9999970703126,2|8,0:0|0:0,0:0:0:0:
330,93,90865,2,0,L|234:91,1,95.9999970703126,2|0,0:0|0:0,0:0:0:0:
76,224,91055,1,8,0:0:0:0:
76,224,91183,6,0,L|145:227,7,47.9999985351563,2|2|10|2|2|2|10|2,0:0|0:0|0:0|0:0|0:0|0:0|0:0|0:0,0:0:0:0:
179,291,91691,2,0,L|248:294,3,47.9999985351563,2|2|2|2,0:0|0:0|0:0|0:0,0:0:0:0:
309,244,91946,5,0,3:0:0:0:
309,244,92009,1,0,3:0:0:0:
309,244,92073,1,0,3:0:0:0:
309,244,92136,1,0,3:0:0:0:
309,244,92200,6,0,B|359:237|359:237|405:246,1,95.9999970703126,6|0,0:0|0:0,0:0:0:0:
481,168,92391,2,0,B|431:175|431:175|385:166,1,95.9999970703126,2|0,0:0|0:0,0:0:0:0:
334,78,92581,2,0,L|452:102,1,95.9999970703126,6|0,0:0|0:0,0:0:0:0:
246,138,92835,2,0,L|128:162,2,95.9999970703126,2|2|2,0:0|0:0|0:0,0:0:0:0:
334,78,93217,6,0,L|240:56,1,95.9999970703126,6|0,0:0|0:0,0:0:0:0:
246,138,93408,2,0,L|340:160,1,95.9999970703126,2|0,0:0|0:0,0:0:0:0:
359,240,93598,2,0,B|260:218|260:218|142:249,1,191.999994140625,6|2,0:0|0:0,0:0:0:0:
145,327,93980,2,0,L|252:299,1,95.9999970703126,2|2,0:0|0:0,0:0:0:0:
246,138,94234,6,0,L|153:162,1,95.9999970703126,14|0,0:0|0:0,0:0:0:0:
110,258,94488,2,0,L|182:237,2,63.9999980468751,10|2|2,0:0|0:0|0:0,0:0:0:0:
69,161,94742,2,0,L|-3:140,2,63.9999980468751,10|2|2,0:0|0:0|0:0,0:0:0:0:
139,87,94996,2,0,L|211:66,2,63.9999980468751,10|2|2,0:0|0:0|0:0,0:0:0:0:
56,74,95251,6,0,L|8:61,3,47.9999985351563,14|0|0|0,0:0|0:0|0:0|0:0,0:0:0:0:
69,161,95505,2,0,L|21:148,3,47.9999985351563,10|0|0|0,0:0|0:0|0:0|0:0,0:0:0:0:
99,236,95759,2,0,L|147:223,3,47.9999985351563,10|0|0|0,0:0|0:0|0:0|0:0,0:0:0:0:
86,323,96013,2,0,L|134:310,3,47.9999985351563,10|0|0|0,0:0|0:0|0:0|0:0,0:0:0:0:
21,377,96268,5,6,0:0:0:0:
256,192,96331,12,0,97221,0:0:0:0:
372,273,97285,6,0,L|377:138,2,120,2|2|0,1:2|1:2|0:0,0:0:0:0:
440,108,97857,2,0,P|382:74|315:97,1,120,2|2,1:2|1:2,0:0:0:0:
232,184,98174,1,0,0:0:0:0:
121,110,98302,6,0,B|132:164|132:164|128:228,1,95.9999970703126,12|0,0:0|0:0,0:0:0:0:
13,173,98556,1,8,0:0:0:0:
13,173,98683,2,0,B|2:227|2:227|6:291,1,95.9999970703126,0|8,0:0|0:0,0:0:0:0:
160,342,98938,1,0,0:0:0:0:
160,342,99065,6,0,B|106:331|106:331|42:335,1,95.9999970703126,8|0,0:0|0:0,0:0:0:0:
219,282,99318,2,0,B|273:271|273:271|337:275,1,95.9999970703126,8|0,0:0|0:0,0:0:0:0:
205,127,99573,2,0,P|177:188|185:222,1,95.9999970703126,8|0,0:0|0:0,0:0:0:0:
352,194,99828,6,0,L|245:186,1,95.9999970703126,8|0,0:0|0:0,0:0:0:0:
85,207,100082,1,8,0:0:0:0:
85,207,100208,2,0,L|180:214,1,95.9999970703126,0|8,0:0|0:0,0:0:0:0:
284,343,100463,1,0,0:0:0:0:
284,343,100590,6,0,P|222:293|221:243,1,95.9999970703126,8|0,0:0|0:0,0:0:0:0:
352,194,100845,2,0,P|322:249|275:281,1,95.9999970703126,8|0,0:0|0:0,0:0:0:0:
132,304,101099,1,8,0:0:0:0:
132,304,101226,1,0,0:0:0:0:
132,304,101353,6,0,L|119:102,1,191.999994140625,8|8,0:0|0:0,0:0:0:0:
192,57,101734,2,0,L|200:176,1,95.9999970703126,0|8,0:0|0:0,0:0:0:0:
262,283,101988,1,0,0:0:0:0:
262,283,102115,6,0,P|327:268|374:283,1,95.9999970703126,8|0,0:0|0:0,0:0:0:0:
447,339,102369,2,0,P|432:274|447:227,1,95.9999970703126,8|0,0:0|0:0,0:0:0:0:
362,106,102624,2,0,P|376:151|371:198,1,95.9999970703126,8|0,0:0|0:0,0:0:0:0:
166,287,102878,6,0,L|290:281,1,95.9999970703126,8|0,0:0|0:0,0:0:0:0:
103,226,103132,2,0,L|-21:220,1,95.9999970703126,8|0,0:0|0:0,0:0:0:0:
200,170,103386,2,0,L|324:164,1,95.9999970703126,8|0,0:0|0:0,0:0:0:0:
108,70,103640,2,0,L|122:145,5,63.9999980468751,2|0|0|0|2|0,0:0|0:0|0:0|0:0|0:0|0:0,0:0:0:0:
41,148,104149,2,0,L|29:85,2,63.9999980468751,2|0|0,0:0|0:0|0:0,0:0:0:0:
85,226,104404,6,0,P|142:209|181:346,1,207.999990478516,4|2,0:0|0:3,0:0:0:0:
269,360,104785,2,0,P|287:294|281:242,1,103.999995239258,0|2,0:0|0:3,0:0:0:0:
202,138,105039,1,0,0:0:0:0:
202,138,105166,6,0,P|268:156|320:150,1,103.999995239258,2|0,0:3|0:0,0:0:0:0:
466,194,105420,2,0,P|400:212|348:206,1,103.999995239258,2|0,0:3|0:0,0:0:0:0:
272,79,105674,2,0,P|338:61|390:67,1,103.999995239258,2|0,0:3|0:0,0:0:0:0:
254,202,105929,6,0,P|163:210|134:85,1,207.999990478516,2|2,0:3|0:3,0:0:0:0:
71,40,106310,2,0,P|41:119|45:178,1,103.999995239258,0|2,0:0|0:3,0:0:0:0:
92,313,106564,1,0,0:0:0:0:
92,313,106691,6,0,P|62:234|66:175,1,103.999995239258,2|0,0:3|0:0,0:0:0:0:
223,299,106946,2,0,P|253:220|249:161,1,103.999995239258,2|0,0:3|0:0,0:0:0:0:
119,115,107200,2,0,P|126:166|149:212,1,103.999995239258,2|0,0:3|0:0,0:0:0:0:
345,170,107454,6,0,P|253:131|276:216,1,207.999990478516,2|2,0:3|0:3,0:0:0:0:
411,262,107835,2,0,P|422:190|418:132,1,103.999995239258,0|2,0:0|0:3,0:0:0:0:
233,50,108090,1,0,0:0:0:0:
233,50,108217,6,0,P|303:38|368:62,1,103.999995239258,2|0,0:3|0:0,0:0:0:0:
119,115,108471,2,0,P|49:103|-16:127,1,103.999995239258,2|0,0:3|0:0,0:0:0:0:
243,175,108725,2,0,P|313:163|378:187,1,103.999995239258,2|0,0:3|0:0,0:0:0:0:
163,282,108979,6,0,P|93:294|28:270,1,103.999995239258,2|0,0:3|0:0,0:0:0:0:
243,175,109234,2,0,P|192:162|141:169,1,103.999995239258,2|0,0:3|0:0,0:0:0:0:
264,276,109488,2,0,P|194:288|129:264,1,103.999995239258,2|0,0:3|0:0,0:0:0:0:
53,160,109742,5,2,0:0:0:0:
53,160,109806,1,2,0:0:0:0:
53,160,109869,1,2,0:0:0:0:
53,160,109933,1,2,0:0:0:0:
53,160,109996,2,0,L|56:90,3,51.999997619629,2|2|2|2,0:0|0:0|0:0|0:0,0:0:0:0:
118,221,110251,2,0,L|115:272,3,51.999997619629,2|2|2|2,0:0|0:0|0:0|0:0,0:0:0:0:
45,338,110505,5,6,0:0:0:0:
256,192,110568,12,0,112475,0:0:0:0:
154,280,112538,5,10,1:2:0:0:
154,280,112666,2,0,L|47:268,1,80,10|10,1:2|1:2,0:0:0:0:
358,280,112920,5,10,1:2:0:0:
358,280,113048,2,0,L|465:268,1,80,10|10,1:2|1:2,0:0:0:0:
187,198,113301,5,10,1:2:0:0:
187,198,113429,2,0,B|144:186|144:186|80:186,1,80,10|10,1:2|1:2,0:0:0:0:
325,198,113682,5,10,1:2:0:0:
325,198,113810,2,0,B|368:186|368:186|432:186,1,80,10|10,1:2|1:2,0:0:0:0:
174,96,114064,5,10,1:2:0:0:
338,96,114191,1,4,1:3:0:0:
256,256,114318,1,4,1:3:0:0:
256,128,114445,1,4,1:3:0:0:
256,128,114954,5,4,3:0:0:0:
256,256,115081,6,0,L|256:264,47,8,2|2|2|2|2|2|2|2|2|2|2|2|2|2|2|2|2|2|2|2|2|2|2|2|2|2|2|2|2|2|2|2|2|2|2|2|2|2|2|2|2|2|2|2|2|2|2|2,0:0|0:0|0:0|0:0|0:0|0:0|0:0|0:0|0:0|0:0|0:0|0:0|0:0|0:0|0:0|0:0|0:0|0:0|0:0|0:0|0:0|0:0|0:0|0:0|0:0|0:0|0:0|0:0|0:0|0:0|0:0|0:0|0:0|0:0|0:0|0:0|0:0|0:0|0:0|0:0|0:0|0:0|0:0|0:0|0:0|0:0|0:0|0:0,0:0:0:0:
256,352,118131,5,4,3:0:0:0:
