osu file format v14

[General]
AudioFilename: audio.mp3
AudioLeadIn: 0
PreviewTime: 20254
Countdown: 0
SampleSet: Soft
StackLeniency: 0.5
Mode: 0
LetterboxInBreaks: 0
WidescreenStoryboard: 0

[Editor]
Bookmarks: 6779,14279
DistanceSpacing: 1.4
BeatDivisor: 4
GridSize: 32
TimelineZoom: 2.2

[Metadata]
Title:Lachryma
TitleUnicode:Lachryma《Re:Queen'M》
Artist:Kaneko Chiharu
ArtistUnicode:かねこちはる
Creator:Kroytz
Version:Fizz's ADVANCED
Source:SOUND VOLTEX III GRAVITY WARS
Tags:SDVX Grace The 5th KAC Original Song Contest KONAMI BEMANI Battle Ametrin Fizz Ponoyoshi Alheak toybot Smoothie World
BeatmapID:1236683
BeatmapSetID:475629

[Difficulty]
HPDrainRate:4
CircleSize:3.4
OverallDifficulty:6
ApproachRate:8
SliderMultiplier:1.1
SliderTickRate:1

[Events]
//Background and Video events
0,0,"BG.png",0,0
//Break Periods
//Storyboard Layer 0 (Background)
//Storyboard Layer 1 (Fail)
//Storyboard Layer 2 (Pass)
//Storyboard Layer 3 (Foreground)
//Storyboard Sound Samples

[TimingPoints]
678,254.237288135593,3,2,1,55,1,0
5254,-133.333333333333,4,2,1,55,0,0
6779,-100,4,2,1,55,0,0
14406,-133.333333333333,4,2,1,55,0,0
18983,-133.333333333333,4,3,2,55,0,0
19745,-133.333333333333,4,2,1,55,0,0
20508,254.237288135593,4,2,1,55,1,1
27118,-100,4,3,2,55,0,1
27880,-200,4,2,4,55,0,0
28643,-100,4,2,1,55,0,1
36779,-100,4,2,1,55,0,0
59152,254.237288135593,3,3,1,55,1,0
62202,254.237288135593,4,2,1,55,1,0
66269,254.237288135593,3,2,1,55,1,0
73896,-133.333333333333,4,2,1,55,0,0
79997,254.237288135593,4,2,5,75,1,0
80251,-100,4,2,1,55,0,1
96268,-200,4,2,1,55,0,0
97285,-100,4,2,1,55,0,0
98302,254.237288135593,3,2,1,55,1,1
98302,-83.3333333333333,4,2,1,55,0,1
104403,-83.3333333333333,3,2,1,55,0,1
110505,254.237288135593,4,2,1,55,1,0
110505,-500,4,2,1,55,0,0
112411,-500,4,2,1,5,0,0
112538,-100,4,2,1,55,0,0
115081,254.237288135593,4,2,1,55,1,1
115081,-100,4,2,1,55,0,1
118131,-100,4,2,1,55,0,0

[Colours]
Combo1 : 70,70,255
Combo2 : 255,62,62
Combo3 : 255,137,81
Combo4 : 0,174,174
Combo5 : 0,101,202

[HitObjects]
326,157,678,6,0,B|211:138|211:138|158:158,1,165,6|8,0:2|0:3,0:0:0:0:
105,238,1313,1,8,0:3:0:0:
105,238,1440,2,0,L|213:256,2,110,2|10|10,0:0|0:0|0:0,0:0:0:0:
29,157,2203,6,0,P|97:117|166:155,1,165,2|8,0:0|0:3,0:0:0:0:
257,91,2839,1,8,0:3:0:0:
257,91,2966,2,0,L|365:72,2,110,2|10|10,0:0|0:0|0:0,0:0:0:0:
234,198,3728,6,0,B|297:204|297:204|323:220|323:220|403:234,1,165,2|8,0:2|0:3,0:0:0:0:
460,133,4364,1,8,0:3:0:0:
460,133,4491,2,0,L|333:138,2,110,2|10|10,0:0|0:0|0:0,0:0:0:0:
467,250,5254,6,0,B|469:291|469:291|433:340|433:340|405:323|368:319,1,165.000006294251,2|0,0:0|0:0,0:0:0:0:
337,299,5889,1,0,0:0:0:0:
337,299,6016,6,0,B|178:288|178:288|240:272,1,206.250007867813,2|0,0:0|0:0,0:0:0:0:
277,213,6779,6,0,P|249:198|167:213,1,110,4|0,0:0|0:0,0:0:0:0:
108,253,7161,1,8,0:0:0:0:
35,143,7415,1,8,0:0:0:0:
35,143,7542,6,0,L|22:78,1,55,2|0,0:0|0:0,0:0:0:0:
80,36,7796,2,0,P|120:31|146:29,1,55,10|0,0:0|0:0,0:0:0:0:
186,86,8050,1,10,0:0:0:0:
339,72,8305,6,0,L|447:61,1,110,2|0,0:0|0:0,0:0:0:0:
467,139,8686,1,8,0:0:0:0:
421,241,8940,1,8,0:0:0:0:
421,241,9067,6,0,P|463:237|496:237,1,55,2|0,0:0|0:0,0:0:0:0:
356,302,9322,2,0,P|328:300|301:297,1,55,10|0,0:0|0:0,0:0:0:0:
340,221,9576,1,10,0:0:0:0:
252,226,9703,1,8,0:0:0:0:
252,226,9830,6,0,L|122:236,2,110,4|0|0,0:0|0:0|0:0,0:0:0:0:
233,137,10466,1,8,0:0:0:0:
233,137,10593,2,0,L|342:128,2,110,2|8|8,0:0|0:0|0:0,0:0:0:0:
160,69,11355,6,0,P|130:49|52:89,1,110,2|2,0:0|0:0,0:0:0:0:
26,139,11737,1,8,0:0:0:0:
120,232,11991,1,8,0:0:0:0:
120,232,12118,6,0,L|53:225,1,55,2|0,0:0|0:0,0:0:0:0:
194,187,12372,2,0,L|261:180,1,55,10|0,0:0|0:0,0:0:0:0:
197,278,12627,1,10,0:0:0:0:
197,278,12754,1,8,0:0:0:0:
197,278,12881,6,0,P|232:263|317:283,2,110,4|0|0,0:0|0:0|0:0,0:0:0:0:
127,338,13516,1,8,0:0:0:0:
127,338,13644,2,0,P|92:353|7:333,2,110,2|10|0,0:0|3:2|3:0,0:0:0:0:
215,346,14406,6,0,B|263:346|263:346|283:353|283:353|340:353,1,123.750004720688,6|0,3:2|0:0,0:0:0:0:
452,333,15042,1,0,0:0:0:0:
452,333,15169,2,0,B|439:305|439:305|439:285|439:285|422:238,2,82.5000031471254,2|2|2,3:2|3:2|3:2,0:0:0:0:
340,268,15932,6,0,L|358:135,1,123.750004720688,2|0,3:2|0:0,0:0:0:0:
460,165,16567,1,0,0:0:0:0:
460,165,16694,2,0,L|362:174,2,82.5000031471254,2|2|2,3:2|3:2|3:2,0:0:0:0:
426,46,17457,6,0,B|366:32|366:32|300:40,1,123.750004720688,2|0,3:2|0:0,0:0:0:0:
225,103,18093,1,0,0:0:0:0:
225,103,18220,2,0,L|130:92,2,82.5000031471254,2|2|2,3:2|3:2|3:2,0:0:0:0:
304,150,18813,1,2,0:0:0:0:
304,150,18898,1,2,0:0:0:0:
304,150,18983,6,0,L|294:186,2,27.5000010490418,0|0|0,3:0|3:0|3:0,0:0:0:0:
267,211,19237,2,0,L|274:237,2,27.5000010490418,0|0|0,3:0|3:0|3:0,0:0:0:0:
260,282,19491,2,0,L|250:318,2,27.5000010490418,0|0|0,3:0|3:0|3:0,0:0:0:0:
234,338,19745,5,8,1:3:0:0:
101,303,20000,1,8,1:3:0:0:
101,303,20508,6,0,B|101:262|101:262|111:238|111:238|114:192,1,110,4|2,0:0|0:0,0:0:0:0:
122,118,20889,2,0,B|147:192|147:192|145:212|145:212|162:283,1,165,8|2,0:2|0:0,0:0:0:0:
238,273,21397,1,10,0:0:0:0:
238,273,21524,6,0,B|290:258|290:258|353:281,1,110,2|2,0:0|0:0,0:0:0:0:
397,332,21906,2,0,B|380:294|380:294|389:156,1,165,10|2,0:0|0:0,0:0:0:0:
438,111,22414,1,10,0:0:0:0:
438,111,22541,6,0,P|481:101|501:100,1,55,2|8,0:0|0:0,0:0:0:0:
354,97,22796,2,0,P|311:87|291:86,1,55,2|8,0:2|0:0,0:0:0:0:
221,113,23050,2,0,L|236:189,1,55,2|10,0:0|0:0,0:0:0:0:
226,304,23304,2,0,L|215:250,1,55,2|10,0:0|0:0,0:0:0:0:
304,206,23558,6,0,B|271:199|271:199|240:208|240:208|197:198|197:198|159:213|159:213|130:204|130:204|87:212,1,220,2|2,0:0|3:2,0:0:0:0:
18,150,24194,2,0,L|8:175,2,27.5,0|0|4,3:0|3:0|3:0,0:0:0:0:
100,90,24448,2,0,L|137:86,1,27.5,8|0,0:0|0:0,0:0:0:0:
110,130,24575,6,0,L|92:211,1,82.5,6|2,0:0|0:0,0:0:0:0:
192,147,24957,2,0,B|234:143|234:143|252:149|252:149|313:143,1,110,6|2,0:0|0:0,0:0:0:0:
352,74,25338,1,10,0:0:0:0:
383,172,25465,1,2,0:0:0:0:
383,172,25592,6,0,L|489:164,2,82.5,14|2|14,0:0|0:0|0:0,0:0:0:0:
267,277,26228,1,2,0:0:0:0:
267,277,26355,2,0,L|343:269,1,55,8|2,0:0|0:0,0:0:0:0:
262,195,26609,6,0,L|207:189,1,55,14|0,0:0|0:0,0:0:0:0:
128,274,26863,2,0,L|204:266,1,55,10|0,0:0|0:0,0:0:0:0:
83,182,27118,2,0,L|99:288,2,82.5,0|0|0,0:0|0:0|0:0,0:0:0:0:
147,128,27626,5,8,1:2:0:0:
147,128,27880,6,0,P|164:108|195:160,1,110
370,73,28643,6,0,L|254:60,1,110,6|0,0:0|0:0,0:0:0:0:
153,59,29024,2,0,L|173:172,1,110,10|8,0:0|0:0,0:0:0:0:
279,143,29406,2,0,L|306:145,3,27.5,2|2|10|2,0:0|0:0|0:0|0:0,0:0:0:0:
331,182,29660,6,0,P|366:172|424:210,1,110,2|2,0:0|0:0,0:0:0:0:
481,318,30041,2,0,L|368:305,1,110,10|8,0:0|0:0,0:0:0:0:
280,303,30423,2,0,L|252:305,3,27.5,2|2|10|2,0:0|0:0|0:0|0:0,0:0:0:0:
222,280,30677,6,0,B|206:312|206:312|210:332|210:332|197:366,2,82.5,2|2|8,0:0|0:0|0:0,0:0:0:0:
120,190,31185,2,0,B|136:222|136:222|132:242|132:242|141:266,2,82.5,2|2|10,0:0|0:0|0:0,0:0:0:0:
219,194,31694,6,0,L|231:162,11,27.5,2|2|10|2|2|2|10|2|2|2|2|2,0:0|0:0|0:0|0:0|0:0|0:0|0:0|0:0|0:2|0:2|0:2|0:2,0:0:0:0:
343,149,32584,2,0,L|353:184,1,27.5,0|0,3:0|3:0,0:0:0:0:
369,138,32711,6,0,L|464:131,2,82.5,6|2|6,0:0|0:0|0:0,0:0:0:0:
251,162,33346,1,2,0:0:0:0:
174,181,33473,1,0,0:0:0:0:
126,118,33600,1,2,0:0:0:0:
111,39,33728,6,0,L|16:46,2,82.5,6|2|6,0:0|0:0|0:0,0:0:0:0:
140,155,34363,1,2,0:0:0:0:
61,164,34490,1,0,0:0:0:0:
10,222,34617,1,2,0:0:0:0:
4,300,34744,5,12,0:0:0:0:
194,260,34999,2,0,P|229:262|261:269,1,55,8|2,0:0|0:0,0:0:0:0:
236,185,35253,2,0,P|269:174|301:169,1,55,8|0,0:0|0:0,0:0:0:0:
236,103,35507,2,0,P|263:81|291:64,1,55,8|2,0:0|0:0,0:0:0:0:
206,26,35762,6,0,L|171:33,6,27.5,12|0|0|0|0|0|0,0:0|0:0|0:0|0:0|0:0|0:0|0:0,0:0:0:0:
109,83,36270,2,0,L|74:90,6,27.5,8|0|0|0|0|0|0,0:0|0:0|0:0|0:0|0:0|0:0|0:0,0:0:0:0:
63,180,36779,6,0,B|34:173|34:173|-1:186,3,55,6|2|2|2,0:0|0:0|0:0|0:0,0:0:0:0:
54,264,37287,2,0,B|83:271|83:271|118:258,3,55,2|2|2|2,0:0|0:0|0:0|0:0,0:0:0:0:
151,186,37796,6,0,P|155:161|165:131,1,55,2|2,0:0|0:0,0:0:0:0:
238,82,38050,2,0,P|246:108|251:135,1,55,2|2,0:0|0:0,0:0:0:0:
237,272,38304,2,0,P|241:244|250:218,1,55,2|2,0:0|0:0,0:0:0:0:
324,168,38558,2,0,P|332:194|337:221,1,55,2|2,0:0|0:0,0:0:0:0:
326,315,38813,6,0,L|395:305,2,55,10|10|10,1:2|1:2|1:2,0:0:0:0:
237,272,39194,1,10,1:2:0:0:
161,289,39321,1,10,1:2:0:0:
101,241,39448,1,10,1:2:0:0:
101,164,39575,2,0,L|114:103,1,55,10|10,1:2|1:2,0:0:0:0:
248,134,39830,5,10,1:2:0:0:
248,134,39957,2,0,P|221:135|194:139,1,55,10|10,1:2|0:0,0:0:0:0:
331,162,40211,1,10,0:0:0:0:
331,162,40338,2,0,P|321:204|319:236,1,55,10|4,1:2|3:0,0:0:0:0:
420,175,40592,1,4,3:0:0:0:
387,93,40719,1,4,3:0:0:0:
387,93,40846,6,0,L|448:89,3,55,4|0|0|0,0:0|0:0|0:0|0:0,0:0:0:0:
420,175,41355,2,0,L|481:171,3,55
402,263,41863,6,0,P|406:300|409:332,1,55,0|0,0:0|0:0,0:0:0:0:
312,345,42118,2,0,P|316:308|319:276,1,55,0|0,0:0|0:0,0:0:0:0:
325,156,42372,2,0,P|329:193|332:225,1,55,0|0,0:0|0:0,0:0:0:0:
235,238,42627,2,0,P|239:201|242:169,1,55,0|0,0:0|0:0,0:0:0:0:
186,115,42880,5,2,0:0:0:0:
146,193,43007,2,0,L|31:182,1,110,4|2,0:0|0:0,0:0:0:0:
0,277,43389,2,0,B|45:268|45:268|59:273|59:273|115:266,1,110,4|2,0:0|0:0,0:0:0:0:
183,372,43770,6,0,B|196:341|196:341|189:264,1,110,4|2,0:0|0:0,0:0:0:0:
231,193,44152,1,4,0:0:0:0:
301,330,44406,1,2,0:2:0:0:
452,298,44660,1,2,3:2:0:0:
420,228,44787,1,0,3:0:0:0:
382,161,44914,6,0,L|255:167,1,110,6|2,0:0|0:3,0:0:0:0:
118,179,45423,1,10,0:3:0:0:
231,72,45677,1,2,0:3:0:0:
308,67,45804,1,8,0:0:0:0:
386,57,45931,6,0,L|456:64,2,55,2|8|2,0:3|0:0|0:3,0:0:0:0:
411,144,46313,1,0,0:0:0:0:
411,144,46440,2,0,L|465:138,1,55,10|0,0:3|0:0,0:0:0:0:
336,189,46694,2,0,L|281:183,1,55,2|8,0:3|0:0,0:0:0:0:
417,231,46948,6,0,L|399:355,1,110,2|2,0:3|0:3,0:0:0:0:
256,287,47457,1,10,0:3:0:0:
112,341,47711,1,2,0:3:0:0:
107,264,47838,1,8,0:0:0:0:
97,186,47965,6,0,L|107:116,2,55,2|8|2,0:3|0:0|0:3,0:0:0:0:
191,157,48346,1,0,0:0:0:0:
191,157,48474,2,0,L|181:87,1,55,10|0,0:3|0:0,0:0:0:0:
160,236,48728,1,10,0:3:0:0:
252,246,48855,1,8,0:0:0:0:
252,246,48982,6,0,L|371:234,1,110,6|2,0:0|0:3,0:0:0:0:
477,132,49491,1,10,0:3:0:0:
323,92,49745,1,2,0:3:0:0:
245,85,49872,1,8,0:0:0:0:
167,77,49999,6,0,L|97:84,2,55,2|8|2,0:3|0:0|0:3,0:0:0:0:
151,161,50380,1,0,0:0:0:0:
151,161,50507,2,0,P|160:201|165:227,1,55,10|0,0:3|0:0,0:0:0:0:
243,167,50762,2,0,P|248:140|254:113,1,55,2|8,0:3|0:0,0:0:0:0:
241,258,51016,6,0,P|277:240|351:276,1,110,2|2,0:3|0:3,0:0:0:0:
211,344,51524,1,10,0:3:0:0:
63,299,51779,1,2,0:3:0:0:
70,220,51906,1,8,0:0:0:0:
78,142,52033,5,2,0:3:0:0:
78,142,52160,2,0,L|58:30,1,110,8|0,0:0|0:0,0:0:0:0:
148,63,52541,2,0,L|190:55,7,27.5,2|0|0|0|0|0|0|0,3:0|3:0|3:0|3:0|3:0|3:0|3:0|3:0,0:0:0:0:
176,88,53304,6,0,B|217:74|217:74|233:78|233:78|296:64,1,110,4|2,0:0|0:0,0:0:0:0:
351,25,53685,1,2,0:0:0:0:
364,129,53813,1,10,0:0:0:0:
364,129,53940,6,0,B|351:180|351:180|357:197|357:197|344:257,1,110,4|2,0:0|0:0,0:0:0:0:
246,238,54321,1,10,0:0:0:0:
246,238,54448,2,0,B|192:249|192:249|125:228,1,110,10|2,0:0|0:0,0:0:0:0:
77,157,54830,2,0,P|63:189|60:222,1,55,2|2,0:0|0:0,0:0:0:0:
93,327,55084,5,10,0:0:0:0:
93,327,55338,2,0,B|124:367|124:367|205:359,1,110,6|2,0:0|0:0,0:0:0:0:
271,349,55719,1,2,0:0:0:0:
305,255,55846,1,8,0:0:0:0:
305,255,55974,6,0,B|258:244|258:244|240:251|240:251|184:238,1,110,6|2,0:0|0:0,0:0:0:0:
222,133,56355,1,10,0:0:0:0:
222,133,56482,2,0,L|198:241,1,110,2|2,0:0|0:0,0:0:0:0:
118,223,56863,2,0,L|105:169,1,55,2|2,0:0|0:0,0:0:0:0:
170,60,57118,5,10,0:0:0:0:
170,60,57372,2,0,B|214:51|214:51|230:57|230:57|301:49,1,110,4|2,0:0|0:0,0:0:0:0:
366,36,57753,2,0,B|360:57|360:57|368:77|368:77|356:105,1,55,2|8,0:0|0:0,0:0:0:0:
255,131,58007,6,0,B|248:168|248:168|262:190|262:190|251:260,1,110,4|2,0:0|0:0,0:0:0:0:
321,288,58389,1,10,0:0:0:0:
371,220,58516,2,0,B|403:215|403:215|425:224|425:224|446:214|446:214|479:213,1,110,2|2,0:0|0:0,0:0:0:0:
468,303,58897,2,0,P|459:338|456:372,1,55,2|2,0:0|0:0,0:0:0:0:
373,345,59152,6,0,L|330:351,3,36.6666666666667,6|0|0|2,0:2|0:0|0:0|0:2,0:0:0:0:
309,324,59490,2,0,L|266:330,3,36.6666666666667,0|0|2|0,0:0|0:0|0:2|0:0,0:0:0:0:
206,279,59829,1,0,0:0:0:0:
206,279,59914,2,0,P|190:319|203:384,2,110,6|2|2,0:2|0:2|0:2,0:0:0:0:
289,267,60507,1,0,0:0:0:0:
289,267,60592,1,0,0:0:0:0:
289,267,60677,6,0,P|309:262|333:258,3,36.6666666666667,6|0|0|2,0:2|0:0|0:0|0:2,0:0:0:0:
360,239,61016,2,0,P|380:244|404:248,3,36.6666666666667,0|0|2|0,0:0|0:0|0:2|0:0,0:0:0:0:
457,203,61355,1,0,0:0:0:0:
457,203,61440,2,0,L|436:313,2,110,6|2|2,0:2|0:2|0:2,0:0:0:0:
380,157,62033,1,0,0:0:0:0:
380,157,62118,1,0,0:0:0:0:
380,157,62202,6,0,L|348:156,63,27.5,6|2|2|2|2|2|2|2|2|2|2|2|2|2|2|2|2|2|2|2|2|2|2|2|2|2|2|2|2|2|2|2|2|2|2|2|2|2|2|2|2|2|2|2|2|2|2|2|2|2|2|2|2|2|2|2|2|2|2|2|2|2|2|0,0:0|0:0|0:0|0:0|0:0|0:0|0:0|0:0|0:0|0:0|0:0|0:0|0:0|0:0|0:0|0:0|0:0|0:0|0:0|0:0|0:0|0:0|0:0|0:0|0:0|0:0|0:0|0:0|0:0|0:0|0:0|0:0|0:0|0:0|0:0|0:0|0:0|0:0|0:0|0:0|0:0|0:0|0:0|0:0|0:0|0:0|0:0|0:0|0:0|0:0|0:0|0:0|0:0|0:0|0:0|0:0|0:0|0:0|0:0|0:0|0:0|0:0|0:0|0:0,0:0:0:0:
358,133,66269,6,0,B|304:124|304:124|251:143,1,110,4|2,0:0|0:3,0:0:0:0:
209,209,66650,1,8,0:0:0:0:
90,70,66904,1,8,0:0:0:0:
90,70,67031,2,0,L|77:135,1,55,2|0,0:3|0:0,0:0:0:0:
116,194,67285,2,0,L|129:259,1,55,10|0,0:3|0:0,0:0:0:0:
93,319,67540,1,10,0:3:0:0:
245,298,67794,6,0,B|231:259|231:259|255:174,1,110,2|2,0:3|0:3,0:0:0:0:
306,139,68175,1,8,0:0:0:0:
356,306,68430,1,10,0:0:0:0:
356,306,68557,2,0,P|380:300|427:297,1,55,2|0,0:3|0:0,0:0:0:0:
401,215,68811,2,0,P|373:217|346:223,1,55,10|0,0:3|0:0,0:0:0:0:
482,200,69065,1,10,0:3:0:0:
459,125,69192,1,8,0:0:0:0:
436,52,69319,6,0,P|396:37|310:59,1,110,4|2,0:0|0:3,0:0:0:0:
267,99,69701,2,0,B|256:141|256:141|269:206,1,110,8|8,0:0|0:0,0:0:0:0:
330,258,70082,2,0,P|374:247|393:244,1,55,2|0,0:3|0:0,0:0:0:0:
239,289,70336,2,0,P|212:283|185:276,1,55,10|0,0:3|0:0,0:0:0:0:
320,342,70591,1,10,0:3:0:0:
400,353,70718,1,2,0:0:0:0:
479,337,70845,5,2,0:3:0:0:
506,185,71099,1,2,0:3:0:0:
479,33,71353,1,10,0:3:0:0:
358,157,71607,2,0,L|324:163,4,27.5,2|2|2|0|10,0:3|0:0|0:0|0:0|0:3,0:0:0:0:
137,149,72116,2,0,L|191:142,1,55,2|10,0:3|0:0,0:0:0:0:
216,70,72370,6,0,L|232:203,2,110,4|2|2,0:0|0:3|0:3,0:0:0:0:
318,115,73006,1,8,0:0:0:0:
318,115,73133,2,0,L|304:224,2,110,2|10|6,0:3|0:3|3:3,0:0:0:0:
396,174,73896,6,0,P|430:167|472:200,2,82.5000031471254,6|2|2,3:2|3:2|3:2,0:0:0:0:
327,239,74658,2,0,L|339:335,2,82.5000031471254,2|2|2,3:2|3:2|3:2,0:0:0:0:
230,342,75421,6,0,P|270:337|311:345,2,82.5000031471254,2|2|2,3:2|3:2|3:2,0:0:0:0:
138,291,76184,2,0,P|97:286|56:294,2,82.5000031471254,2|2|2,3:2|3:2|3:2,0:0:0:0:
216,208,76946,6,0,L|312:205,2,82.5000031471254,2|2|2,3:2|3:2|3:2,0:0:0:0:
234,112,77709,2,0,L|138:109,2,82.5000031471254,2|2|2,3:2|3:2|3:2,0:0:0:0:
338,67,78302,1,2,0:2:0:0:
338,67,78387,1,2,0:2:0:0:
338,67,78472,6,0,L|378:62,2,27.5000010490418,8|8|8,3:0|3:0|3:0,0:0:0:0:
391,92,78726,2,0,L|431:87,2,27.5000010490418,8|8|8,3:0|3:0|3:0,0:0:0:0:
444,117,78980,2,0,L|484:112,2,27.5000010490418,12|12|12,3:3|3:3|3:0,0:0:0:0:
497,93,79235,6,0,L|486:185,1,82.5000031471254,10|10,0:0|0:0,0:0:0:0:
340,306,79997,6,0,B|395:302|395:302|452:320,1,110,2|4,0:0|0:0,0:0:0:0:
481,244,80378,2,0,B|411:254|411:254|382:270|382:270|311:274,1,165,8|2,0:0|0:0,0:0:0:0:
236,294,80886,1,10,0:0:0:0:
236,294,81013,6,0,B|181:315|181:315|112:298,1,110,2|2,0:0|0:0,0:0:0:0:
43,288,81395,2,0,P|92:224|172:223,1,165,10|2,0:0|0:0,0:0:0:0:
140,133,81903,1,10,0:0:0:0:
140,133,82030,6,0,P|110:131|62:137,1,55,2|8,0:0|0:0,0:0:0:0:
192,70,82285,2,0,P|219:67|246:69,1,55,2|8,0:0|0:0,0:0:0:0:
307,124,82539,2,0,P|300:162|296:195,1,55,2|10,0:0|0:0,0:0:0:0:
335,309,82793,2,0,P|331:281|325:254,1,55,2|10,0:0|0:0,0:0:0:0:
229,210,83047,6,0,B|268:202|268:202|306:218|306:218|338:208|338:208|387:213|387:213|375:180|401:150,1,220,2|8,0:0|3:2,0:0:0:0:
473,153,83683,2,0,L|475:189,2,27.5,8|8|4,3:2|3:2|3:0,0:0:0:0:
442,39,83937,2,0,L|444:75,1,27.5,10|8,3:2|3:2,0:0:0:0:
404,77,84064,6,0,L|394:159,1,82.5,6|2,0:0|0:0,0:0:0:0:
460,283,84446,2,0,B|414:272|414:272|393:280|393:280|376:269|341:267,1,110,6|2,0:0|0:0,0:0:0:0:
276,243,84827,1,10,0:0:0:0:
197,271,84954,1,2,0:0:0:0:
197,271,85081,6,0,B|191:308|191:308|194:323|194:323|190:374,2,82.5,6|2|6,0:0|0:0|0:0,0:0:0:0:
53,302,85717,1,2,0:0:0:0:
53,302,85844,2,0,L|108:307,1,55,10|2,0:0|0:0,0:0:0:0:
115,168,86098,6,0,P|117:196|123:223,1,55,14|0,0:0|0:0,0:0:0:0:
209,185,86352,2,0,P|214:158|216:130,1,55,14|0,0:0|0:0,0:0:0:0:
120,126,86607,2,0,L|26:129,2,82.5,10|10|10,0:2|0:2|0:2,0:0:0:0:
172,52,87115,6,0,L|134:46,5,36.6666666666667,10|10|10|10|10|10,0:2|0:2|0:2|0:2|0:2|0:2,0:0:0:0:
257,57,87624,2,0,L|293:51,5,36.6666666666667,10|10|8|8|8|8,0:2|0:2|0:2|0:2|0:2|0:2,0:0:0:0:
376,91,88132,6,0,P|414:75|442:66,1,55,6|0,0:0|0:0,0:0:0:0:
361,174,88386,2,0,P|401:168|431:166,1,55,6|0,0:0|0:0,0:0:0:0:
346,257,88641,2,0,P|386:262|415:268,1,55,4|0,0:0|0:0,0:0:0:0:
331,340,88895,2,0,P|369:355|395:368,1,55,2|2,0:0|0:0,0:0:0:0:
261,279,89149,6,0,L|253:318,12,27.5,4|0|0|0|2|0|2|0|0|0|0|0|6,3:2|3:0|3:0|3:0|3:2|3:0|3:2|3:0|3:0|3:0|3:0|3:0|3:2,0:0:0:0:
115,270,90166,6,0,B|69:263|69:263|25:274,1,82.5,6|2,0:0|0:0,0:0:0:0:
190,153,90547,1,10,0:0:0:0:
190,153,90674,2,0,L|197:236,1,82.5,2|2,0:0|0:0,0:0:0:0:
312,184,91056,1,8,0:0:0:0:
281,72,91183,6,0,L|288:43,12,27.5,2|2|10|2|2|2|10|2|2|2|2|2|0,0:0|0:0|0:0|0:0|0:0|0:0|0:0|0:0|0:0|0:0|0:0|0:0|0:0,0:0:0:0:
397,96,92073,2,0,L|403:122,1,27.5,0|0,3:0|3:0,0:0:0:0:
428,86,92200,6,0,B|416:123|416:123|424:145|424:145|416:169,2,82.5,6|2|6,0:0|0:0|0:0,0:0:0:0:
277,115,92835,1,2,0:0:0:0:
297,190,92963,1,2,0:0:0:0:
317,265,93090,1,2,0:0:0:0:
337,340,93217,6,0,B|376:331|376:331|421:341,2,82.5,6|2|6,0:0|0:0|0:0,0:0:0:0:
190,302,93852,1,2,0:0:0:0:
114,325,93980,1,2,0:0:0:0:
45,282,94107,1,2,0:0:0:0:
33,203,94234,5,14,0:0:0:0:
168,54,94488,2,0,L|162:90,2,36.6666666666667,10|2|2,0:0|0:0|0:0,0:0:0:0:
245,82,94742,2,0,L|281:88,2,36.6666666666667,10|2|2,0:0|0:0|0:0,0:0:0:0:
209,154,94996,2,0,L|203:190,2,36.6666666666667,10|2|2,0:0|0:0|0:0,0:0:0:0:
321,187,95251,6,0,L|361:181,2,36.6666666666667,14|2|2,0:0|0:0|0:0,0:0:0:0:
271,259,95505,2,0,L|231:265,2,36.6666666666667,10|2|2,0:0|0:0|0:0,0:0:0:0:
358,270,95759,2,0,L|350:314,2,36.6666666666667,10|2|2,0:0|0:0|0:0,0:0:0:0:
436,222,96013,2,0,L|442:185,2,36.6666666666667,10|2|2,0:0|0:0|0:0,0:0:0:0:
407,103,96268,6,0,B|351:111|351:111|307:90|307:90|254:108|254:108|194:87,1,220,6|2,0:0|1:2,0:0:0:0:
354,127,98302,6,0,P|311:118|275:115,1,65.9999979858399,12|0,0:0|0:0,0:0:0:0:
421,71,98556,1,8,0:0:0:0:
421,71,98683,2,0,P|430:114|433:150,1,65.9999979858399,0|8,0:0|0:0,0:0:0:0:
374,230,98937,1,0,0:0:0:0:
374,230,99064,6,0,L|441:224,1,65.9999979858399,8|0,0:0|0:0,0:0:0:0:
237,285,99318,2,0,L|304:279,1,65.9999979858399,8|0,0:0|0:0,0:0:0:0:
447,311,99573,2,0,L|381:316,1,65.9999979858399,8|0,0:0|0:0,0:0:0:0:
226,350,99827,6,0,P|231:317|237:285,1,65.9999979858399,8|0,0:0|0:0,0:0:0:0:
253,144,100081,1,8,0:0:0:0:
253,144,100208,2,0,P|257:176|263:209,1,65.9999979858399,0|8,0:0|0:0,0:0:0:0:
111,205,100463,1,0,0:0:0:0:
111,205,100590,6,0,P|143:209|176:217,1,65.9999979858399,8|0,0:0|0:0,0:0:0:0:
125,86,100844,2,0,P|148:108|170:133,1,65.9999979858399,8|0,0:0|0:0,0:0:0:0:
288,48,101098,2,0,P|255:53|223:61,1,65.9999979858399,8|0,0:0|0:0,0:0:0:0:
253,144,101352,6,0,P|286:149|318:157,1,65.9999979858399,8|0,0:0|0:0,0:0:0:0:
466,130,101607,1,8,0:0:0:0:
466,130,101734,2,0,P|433:135|401:143,1,65.9999979858399,0|8,0:0|0:0,0:0:0:0:
371,224,101988,1,0,0:0:0:0:
371,224,102115,6,0,L|383:315,1,65.9999979858399,8|0,0:0|0:0,0:0:0:0:
276,329,102369,2,0,L|267:263,1,65.9999979858399,8|0,0:0|0:0,0:0:0:0:
166,224,102624,2,0,L|157:289,1,65.9999979858399,8|0,0:0|0:0,0:0:0:0:
217,133,102878,6,0,P|179:118|154:113,1,65.9999979858399,8|0,0:0|0:0,0:0:0:0:
290,83,103132,2,0,P|328:68|353:63,1,65.9999979858399,8|0,0:0|0:0,0:0:0:0:
294,174,103386,2,0,P|309:212|314:237,1,65.9999979858399,8|0,0:0|0:0,0:0:0:0:
371,314,103640,6,0,L|363:350,7,32.99999899292,2|0|0|0|2|0|0|0,0:0|0:0|0:0|0:0|0:0|0:0|0:0|0:0,0:0:0:0:
414,300,104149,6,0,P|425:323|437:344,2,43.9999986572266
459,268,104403,6,0,L|455:194,1,65.9999979858399,4|0,0:0|0:0,0:0:0:0:
443,120,104657,1,2,0:3:0:0:
363,140,104785,2,0,L|290:143,1,65.9999979858399,0|2,0:0|0:3,0:0:0:0:
221,180,105039,1,0,0:0:0:0:
264,253,105166,6,0,P|271:299|272:329,1,65.9999979858399,2|0,0:3|0:0,0:0:0:0:
145,360,105420,2,0,P|147:327|152:294,1,65.9999979858399,2|0,0:3|0:0,0:0:0:0:
178,201,105674,2,0,P|145:203|112:208,1,65.9999979858399,2|0,0:3|0:0,0:0:0:0:
9,175,105929,6,0,P|21:137|37:107,1,65.9999979858399,2|0,0:3|0:0,0:0:0:0:
35,26,106183,1,2,0:3:0:0:
109,74,106310,2,0,L|175:80,1,65.9999979858399,0|2,0:0|0:3,0:0:0:0:
264,119,106564,1,0,0:0:0:0:
357,83,106691,6,0,L|423:77,1,65.9999979858399,2|0,0:3|0:0,0:0:0:0:
415,190,106946,2,0,L|349:196,1,65.9999979858399,2|0,0:3|0:0,0:0:0:0:
341,308,107200,2,0,L|407:302,1,65.9999979858399,2|0,0:3|0:0,0:0:0:0:
227,306,107454,6,0,P|236:274|253:246,1,65.9999979858399,2|0,0:3|0:0,0:0:0:0:
198,178,107708,1,2,0:3:0:0:
279,146,107835,2,0,P|328:160|360:170,1,65.9999979858399,0|2,0:0|0:3,0:0:0:0:
415,231,108090,1,0,0:0:0:0:
482,163,108217,6,0,L|488:92,1,65.9999979858399,2|0,0:3|0:0,0:0:0:0:
361,21,108471,2,0,L|367:92,1,65.9999979858399,2|0,0:3|0:0,0:0:0:0:
382,259,108725,2,0,L|388:188,1,65.9999979858399,2|0,0:3|0:0,0:0:0:0:
264,175,108979,6,0,P|219:167|191:164,1,65.9999979858399,2|0,0:3|0:0,0:0:0:0:
78,101,109234,2,0,P|123:93|151:90,1,65.9999979858399,2|0,0:3|0:0,0:0:0:0:
286,56,109488,2,0,P|241:48|213:45,1,65.9999979858399,2|0,0:3|0:0,0:0:0:0:
121,14,109742,6,0,L|76:22,11,32.99999899292,2|2|2|2|2|2|2|2|2|2|2|2,0:0|0:0|0:0|0:0|0:0|0:0|0:0|0:0|0:0|0:0|0:0|0:0,0:0:0:0:
57,20,110505,6,0,B|63:56|53:84|53:84|73:106|73:106|64:141|69:179,1,165,6|0,0:0|0:0,0:0:0:0:
101,206,112538,6,0,P|60:208|38:212,2,55,10|10|10,1:2|1:2|1:2,0:0:0:0:
191,190,112920,2,0,L|184:253,2,55,10|10|10,1:2|1:2|1:2,0:0:0:0:
262,141,113301,2,0,L|255:86,1,55,10|10,1:2|1:2,0:0:0:0:
332,216,113555,6,0,P|305:220|279:228,2,55,10|10|10,1:2|1:2|0:0,0:0:0:0:
388,145,113937,1,10,0:0:0:0:
388,145,114064,2,0,L|381:90,1,55,10|4,1:2|1:3,0:0:0:0:
459,42,114318,1,4,1:3:0:0:
459,42,114445,1,4,1:3:0:0:
240,79,114954,2,0,L|198:76,1,27.5,4|4,3:0|3:0,0:0:0:0:
136,103,115081,6,0,L|108:101,48,27.5,2|2|2|2|2|2|2|2|2|2|2|2|2|2|2|2|2|2|2|2|2|2|2|2|2|2|2|2|2|2|2|2|2|2|2|2|2|2|2|2|2|2|2|2|2|2|2|2|4,0:0|0:0|0:0|0:0|0:0|0:0|0:0|0:0|0:0|0:0|0:0|0:0|0:0|0:0|0:0|0:0|0:0|0:0|0:0|0:0|0:0|0:0|0:0|0:0|0:0|0:0|0:0|0:0|0:0|0:0|0:0|0:0|0:0|0:0|0:0|0:0|0:0|0:0|0:0|0:0|0:0|0:0|0:0|0:0|0:0|0:0|0:0|0:0|3:0,0:0:0:0:
