osu file format v14

[General]
AudioFilename: audio.mp3
AudioLeadIn: 0
PreviewTime: 20254
Countdown: 0
SampleSet: Soft
StackLeniency: 0.8
Mode: 0
LetterboxInBreaks: 0
WidescreenStoryboard: 0

[Editor]
Bookmarks: 45105,90653,95187,98238
DistanceSpacing: 0.8
BeatDivisor: 2
GridSize: 4
TimelineZoom: 0.8999997

[Metadata]
Title:Lachryma
TitleUnicode:Lachryma《Re:Queen'M》
Artist:Kaneko Chiharu
ArtistUnicode:かねこちはる
Creator:Kroytz
Version:Battle's BASIC
Source:SOUND VOLTEX III GRAVITY WARS
Tags:SDVX Grace The 5th KAC Original Song Contest KONAMI BEMANI Battle Ametrin Fizz Ponoyoshi Alheak toybot Smoothie World
BeatmapID:1236682
BeatmapSetID:475629

[Difficulty]
HPDrainRate:3
CircleSize:3
OverallDifficulty:4
ApproachRate:5.5
SliderMultiplier:1.1
SliderTickRate:1

[Events]
//Background and Video events
0,0,"BG.png",0,0
//Break Periods
//Storyboard Layer 0 (Background)
//Storyboard Layer 1 (Fail)
//Storyboard Layer 2 (Pass)
//Storyboard Layer 3 (Foreground)
//Storyboard Sound Samples

[TimingPoints]
678,254.237288135593,3,2,1,55,1,0
678,-100,3,2,1,55,0,0
18983,-100,3,3,2,55,0,0
19745,-100,3,2,1,55,0,0
20508,254.237288135593,4,2,1,55,1,1
27118,-100,4,3,2,55,0,1
28643,-100,4,2,1,55,0,1
36779,-100,4,2,1,55,0,0
59152,254.237288135593,3,3,1,55,1,0
62202,254.237288135593,4,2,1,55,1,0
66269,254.237288135593,3,2,1,55,1,0
67794,-100,3,2,1,55,0,0
79997,254.237288135593,4,2,5,75,1,0
79997,-100,4,2,5,75,0,0
80251,-100,4,2,1,55,0,1
96268,-100,4,2,1,55,0,0
98302,254.237288135593,3,2,1,55,1,1
110505,254.237288135593,4,2,1,55,1,0
115081,254.237288135593,4,2,1,55,1,1
118131,-100,4,2,1,55,0,0

[Colours]
Combo1 : 70,70,255
Combo2 : 255,62,62
Combo3 : 255,137,81
Combo4 : 0,174,174
Combo5 : 0,101,202

[HitObjects]
50,144,678,6,0,P|30:89|96:16,1,165,6|8,0:2|0:3,0:0:0:0:
214,60,1440,2,0,B|263:84|263:84|340:72,2,110,2|10|10,0:0|0:0|0:0,0:0:0:0:
152,122,2203,2,0,L|163:305,1,165,2|8,0:0|0:3,0:0:0:0:
273,358,2966,2,0,P|319:374|386:344,2,110,2|10|10,0:0|0:0|0:0,0:0:0:0:
248,273,3728,6,0,L|234:94,1,165,2|8,0:2|0:3,0:0:0:0:
341,30,4491,2,0,P|369:92|355:143,2,110,2|10|10,0:0|0:0|0:0,0:0:0:0:
253,16,5254,2,0,B|162:52|162:52|115:33|67:34|46:58,1,220,2|0,0:0|0:0,0:0:0:0:
48,145,6016,2,0,B|69:169|117:170|164:151|164:151|255:188,1,220,2|0,0:0|0:0,0:0:0:0:
336,220,6779,6,0,P|374:307|367:333,1,110,4|0,0:0|0:0,0:0:0:0:
295,361,7288,1,0,0:0:0:0:
222,311,7542,2,0,B|168:293|168:293|93:310,2,110,2|10|10,0:0|0:0|0:0,0:0:0:0:
292,258,8305,2,0,L|297:89,2,165,2|8|2,0:0|0:0|0:0,0:0:0:0:
362,311,9322,2,0,P|431:333|477:308,1,110,10|10,0:0|0:0,0:0:0:0:
485,235,9830,6,0,L|493:118,2,110,4|0|0,0:0|0:0|0:0,0:0:0:0:
404,199,10593,2,0,L|412:82,2,110,2|8|8,0:0|0:0|0:0,0:0:0:0:
338,257,11355,2,0,P|272:273|196:205,2,165,2|8|2,0:0|0:0|0:0,0:0:0:0:
404,199,12372,2,0,L|411:89,1,110,10|10,0:0|0:0,0:0:0:0:
422,1,12881,6,0,P|478:31|501:88,2,110,4|0|0,0:0|0:0|0:0,0:0:0:0:
337,27,13644,2,0,B|280:46|280:46|215:28,1,110,2|10,0:0|3:2,0:0:0:0:
159,82,14152,1,0,3:0:0:0:
218,147,14406,6,0,B|247:234|247:234|217:322,2,165,6|0|2,3:2|0:0|3:2,0:0:0:0:
141,103,15423,2,0,P|93:98|34:133,1,110,2|2,3:2|3:2,0:0:0:0:
106,184,15932,2,0,B|131:264|131:264|109:355,2,165,2|0|2,3:2|0:0|3:2,0:0:0:0:
39,126,16949,2,0,P|23:72|56:17,1,110,2|2,3:2|3:2,0:0:0:0:
131,44,17457,6,0,B|183:70|183:70|308:43,2,165,2|0|2,3:2|0:0|3:2,0:0:0:0:
87,120,18474,2,0,L|193:172,1,110,2|2,3:2|3:2,0:0:0:0:
264,208,18983,2,0,P|327:272|271:376,1,220,0|0,3:0|0:0,0:0:0:0:
194,336,19745,2,0,L|71:337,1,110,8|8,1:3|1:3,0:0:0:0:
56,252,20254,1,2,0:0:0:0:
34,166,20508,6,0,P|96:110|173:122,2,165,4|8|2,0:0|0:2|0:0,0:0:0:0:
118,191,21524,2,0,B|195:212|195:212|286:191,2,165,2|10|2,0:0|0:0|0:0,0:0:0:0:
47,243,22541,6,0,P|28:285|49:359,1,110,2|2,0:0|0:2,0:0:0:0:
126,358,23050,2,0,P|195:358|246:358,1,110,2|2,0:0|0:0,0:0:0:0:
323,349,23558,2,0,P|325:256|325:229,1,110,2|2,0:0|0:0,0:0:0:0:
380,170,24067,2,0,P|302:155|266:175,1,110,2|4,3:2|3:0,0:0:0:0:
231,241,24575,6,0,P|154:266|73:238,1,165,6|6,0:0|0:0,0:0:0:0:
18,130,25338,1,10,0:0:0:0:
67,57,25592,2,0,P|144:31|221:56,1,165,14|14,0:0|0:0,0:0:0:0:
290,167,26355,1,8,0:0:0:0:
371,134,26609,6,0,L|370:261,1,110,14|10,0:0|0:0,0:0:0:0:
356,335,27118,2,0,P|312:316|235:331,2,110,0|0|8,0:0|0:0|1:2,0:0:0:0:
475,69,28643,6,0,L|474:238,2,165,4|8|2,0:0|0:0|0:0,0:0:0:0:
391,98,29660,2,0,L|391:262,2,165,2|8|2,0:0|0:0|0:0,0:0:0:0:
332,32,30677,6,0,P|244:23|212:37,1,110,2|2,0:0|0:0,0:0:0:0:
196,112,31185,2,0,P|108:121|76:107,1,110,2|2,0:0|0:0,0:0:0:0:
16,65,31694,2,0,P|2:117|24:175,1,110,2|2,0:0|0:0,0:0:0:0:
91,218,32202,2,0,L|200:217,1,110,2|2,0:2|3:2,0:0:0:0:
255,147,32711,6,0,P|295:90|399:109,1,165,6|6,0:0|0:0,0:0:0:0:
492,169,33474,1,0,0:0:0:0:
463,253,33728,2,0,P|423:310|319:291,1,165,6|6,0:0|0:0,0:0:0:0:
233,220,34491,1,0,0:0:0:0:
160,269,34745,6,0,L|162:382,1,110,12|8,0:0|0:0,0:0:0:0:
79,350,35253,2,0,L|77:237,1,110,8|8,0:0|0:0,0:0:0:0:
68,152,35762,2,0,P|91:114|150:93,1,110,12|0,0:0|3:0,0:0:0:0:
225,139,36270,2,0,P|302:139|353:135,1,110,8|4,0:0|0:3,0:0:0:0:
384,63,36779,5,6,0:0:0:0:
256,192,36906,12,10,38813,1:2:0:0:
203,237,40846,6,0,B|263:171|345:210|345:210|309:254|315:310|315:310|404:294|415:372|500:300,1,440,4|0,0:0|0:0,0:0:0:0:
439,61,43007,6,0,L|435:229,2,165,4|4|4,0:0|0:0|0:0,0:0:0:0:
316,10,44152,1,4,0:0:0:0:
253,71,44406,2,0,P|233:121|246:174,1,110,2|2,0:2|3:2,0:0:0:0:
247,262,44914,6,0,B|195:245|195:245|129:267,1,110,6|2,0:0|0:3,0:0:0:0:
85,329,45423,2,0,P|56:273|64:227,1,110,10|2,0:3|0:3,0:0:0:0:
98,148,45931,2,0,B|154:167|154:167|218:115|312:154,1,220,2|10,0:3|0:3,0:0:0:0:
363,218,46694,1,2,0:3:0:0:
445,188,46948,6,0,P|448:119|450:66,1,110,2|2,0:3|0:3,0:0:0:0:
378,25,47457,2,0,P|302:37|261:18,1,110,10|2,0:3|0:3,0:0:0:0:
195,67,47965,2,0,P|193:146|192:191,1,110,2|2,0:3|0:3,0:0:0:0:
109,208,48474,2,0,P|111:129|112:84,1,110,10|10,0:3|0:3,0:0:0:0:
31,61,48982,6,0,L|27:180,2,110,6|2|10,0:0|0:3|0:3,0:0:0:0:
95,0,49745,1,2,0:3:0:0:
179,24,49999,2,0,P|248:59|263:195,1,220,2|10,0:3|0:3,0:0:0:0:
204,253,50762,1,2,0:3:0:0:
265,316,51016,6,0,B|317:332|317:332|380:318,2,110,2|2|10,0:3|0:3|0:3,0:0:0:0:
204,253,51779,1,2,0:3:0:0:
148,321,52033,2,0,B|96:337|96:337|33:323,2,110,2|2|2,0:3|0:3|3:0,0:0:0:0:
93,251,52796,1,0,3:0:0:0:
173,94,53304,5,4,0:0:0:0:
243,146,53558,2,0,P|316:177|401:147,1,165,2|4,0:0|0:0,0:0:0:0:
497,69,54321,2,0,L|495:129,1,55,10|10,0:0|0:0,0:0:0:0:
491,256,54830,2,0,P|438:259|408:321,1,110,2|10,0:0|0:0,0:0:0:0:
346,365,55338,5,6,0:0:0:0:
288,298,55592,2,0,B|179:312|179:312|109:279,1,165,2|6,0:0|0:0,0:0:0:0:
38,191,56355,2,0,P|39:131|48:118,1,55,10|2,0:0|0:0,0:0:0:0:
120,36,56863,2,0,B|173:58|173:58|245:41,1,110,2|10,0:0|0:0,0:0:0:0:
309,22,57372,5,4,0:0:0:0:
353,97,57626,2,0,L|344:280,1,165,2|4,0:0|0:0,0:0:0:0:
230,328,58389,2,0,L|233:252,1,55,10|2,0:0|0:0,0:0:0:0:
169,157,58897,1,2,0:0:0:0:
103,216,59152,6,0,P|46:223|-16:185,2,110,6|2|2,0:2|0:2|0:2,0:0:0:0:
169,157,59914,2,0,L|174:29,2,110,6|2|2,0:2|0:2|0:2,0:0:0:0:
228,222,60677,2,0,L|223:350,2,110,6|2|2,0:2|0:2|0:2,0:0:0:0:
298,168,61440,2,0,P|355:161|417:199,2,110,6|2|2,0:2|0:2|0:2,0:0:0:0:
256,192,62202,12,2,64235,0:0:0:0:
256,192,64363,12,4,66269,0:0:0:0:
42,175,67794,6,0,P|27:88|100:47,2,165,2|8|2,0:3|0:0|0:3,0:0:0:0:
114,225,68811,2,0,B|169:210|169:210|231:228,1,110,10|10,0:3|0:3,0:0:0:0:
295,269,69319,6,0,L|295:381,2,110,4|2|2,0:0|0:3|0:3,0:0:0:0:
379,245,70082,2,0,L|379:133,2,110,2|10|10,0:3|0:3|0:3,0:0:0:0:
467,248,70845,6,0,L|469:124,1,110,2|2,0:3|0:3,0:0:0:0:
430,58,71353,1,10,0:3:0:0:
342,54,71607,2,0,P|299:94|291:148,1,110,2|10,0:3|0:3,0:0:0:0:
276,229,72116,1,2,0:3:0:0:
196,190,72370,6,0,B|138:177|138:177|83:189,2,110,4|2|2,0:0|0:3|0:3,0:0:0:0:
276,229,73133,2,0,B|334:242|334:242|389:230,2,110,2|10|6,0:3|0:3|3:3,0:0:0:0:
196,190,73896,6,0,P|187:100|250:54,2,165,6|0|2,3:2|0:0|3:2,0:0:0:0:
258,252,74913,2,0,L|379:250,1,110,2|2,3:2|3:2,0:0:0:0:
404,170,75421,2,0,P|450:215|426:318,2,165,2|0|2,3:2|0:0|3:2,0:0:0:0:
316,192,76438,2,0,L|317:326,1,110,2|2,3:2|3:2,0:0:0:0:
233,328,76946,6,0,L|234:156,2,165,2|0|2,3:2|0:0|3:2,0:0:0:0:
148,355,77963,2,0,L|149:241,1,110,2|2,3:2|3:2,0:0:0:0:
144,156,78472,2,0,P|139:89|224:35,1,165,8|0,3:0|0:0,0:0:0:0:
323,105,79235,2,0,L|445:106,1,110,10|10,0:0|0:0,0:0:0:0:
438,193,79743,1,2,0:0:0:0:
433,280,79997,6,0,P|333:272|290:327,2,165,2|8|2,0:0|0:0|0:0,0:0:0:0:
377,347,81013,2,0,L|374:173,2,165,2|10|2,0:0|0:0|0:0,0:0:0:0:
294,315,82030,6,0,P|226:291|187:303,1,110,2|2,0:0|0:0,0:0:0:0:
120,352,82539,2,0,P|111:266|130:238,1,110,2|2,0:0|0:0,0:0:0:0:
178,183,83047,2,0,B|234:199|234:199|304:183,2,110,2|2|8,0:0|0:0|3:2,0:0:0:0:
123,113,83810,1,4,3:0:0:0:
64,178,84064,6,0,B|41:252|41:252|64:342,1,165,6|6,0:0|0:0,0:0:0:0:
180,277,84827,1,10,0:0:0:0:
247,333,85081,2,0,B|319:356|319:356|428:330,1,165,6|6,0:0|0:0,0:0:0:0:
491,234,85844,1,10,0:0:0:0:
422,178,86098,6,0,P|410:91|426:60,1,110,14|14,0:0|0:0,0:0:0:0:
344,24,86607,2,0,B|293:45|293:45|224:28,1,110,10|0,0:2|0:0,0:0:0:0:
152,25,87115,2,0,B|176:84|176:84|151:133|151:133|178:199|178:199|152:269|152:269|179:335,1,330,10|2,0:2|3:2,0:0:0:0:
105,381,88132,6,0,L|33:204,2,165,6|0|2,0:0|0:0|0:0,0:0:0:0:
176,329,89149,2,0,L|104:152,2,165,4|2|6,3:2|3:2|3:2,0:0:0:0:
261,308,90166,6,0,P|259:267|290:202,1,110,6|0,0:0|0:0,0:0:0:0:
352,146,90674,2,0,B|401:165|401:165|459:147,1,110,2|0,0:0|0:0,0:0:0:0:
452,59,91183,2,0,B|403:40|403:40|345:58,2,110,2|2|2,0:0|0:0|0:0,0:0:0:0:
455,147,91946,1,0,3:0:0:0:
377,188,92200,6,0,B|361:273|361:273|381:359,1,165,6|6,0:0|0:0,0:0:0:0:
259,291,92963,1,2,0:0:0:0:
183,336,93217,2,0,B|106:355|106:355|24:328,1,165,6|6,0:0|0:0,0:0:0:0:
8,196,93980,1,2,0:0:0:0:
76,141,94234,6,0,L|204:142,1,110,14|10,0:0|0:0,0:0:0:0:
248,79,94742,2,0,P|272:142|258:198,1,110,10|10,0:0|0:0,0:0:0:0:
204,246,95251,2,0,P|181:295|186:349,1,110,14|10,0:0|0:0,0:0:0:0:
266,311,95759,2,0,L|395:313,1,110,10|10,0:0|0:0,0:0:0:0:
443,256,96268,5,6,0:0:0:0:
443,256,97285,2,0,B|459:174|459:174|409:88,2,165,2|2|2,1:2|1:2|1:2,0:0:0:0:
355,243,98302,6,0,L|359:360,2,110,12|8|8,0:0|0:0|0:0,0:0:0:0:
272,211,99064,2,0,L|276:328,2,110,8|8|0,0:0|0:0|0:0,0:0:0:0:
218,140,99827,2,0,P|271:122|331:144,2,110,8|8|8,0:0|0:0|0:0,0:0:0:0:
185,222,100590,2,0,B|124:236|124:236|69:218,2,110,8|8|8,0:0|0:0|0:0,0:0:0:0:
272,211,101352,6,0,L|408:209,2,110,8|8|8,0:0|0:0|0:0,0:0:0:0:
305,129,102115,2,0,L|441:127,2,110,8|8|8,0:0|0:0|0:0,0:0:0:0:
217,141,102878,2,0,P|208:63|227:34,2,110,8|8|8,0:0|0:0|0:0,0:0:0:0:
272,211,103640,2,0,L|273:336,1,110,2|2,0:0|0:0,0:0:0:0:
200,371,104149,1,2,0:0:0:0:
135,311,104403,6,0,L|7:311,2,110,4|2|2,0:0|0:3|0:3,0:0:0:0:
169,229,105166,2,0,L|41:229,2,110,2|2|2,0:3|0:3|0:3,0:0:0:0:
232,168,105929,2,0,P|222:97|242:51,2,110,2|2|2,0:3|0:3|0:3,0:0:0:0:
307,211,106691,2,0,P|317:282|297:328,2,110,2|2|2,0:3|0:3|0:3,0:0:0:0:
232,168,107454,6,0,B|177:185|177:185|110:166,2,110,2|2|2,0:3|0:3|0:3,0:0:0:0:
296,107,108217,2,0,L|295:-5,2,110,2|2|2,0:3|0:3|0:3,0:0:0:0:
378,137,108979,2,0,L|377:25,2,110,2|2|2,0:3|0:3|0:3,0:0:0:0:
452,184,109742,2,0,P|470:253|459:303,2,110,2|2|2,0:0|0:0|0:0,0:0:0:0:
385,241,110505,5,6,0:0:0:0:
92,252,112538,6,0,P|57:179|90:106,2,165,10|10|10,1:2|1:2|1:2,0:0:0:0:
188,270,113555,1,10,1:2:0:0:
155,177,113810,1,10,1:2:0:0:
251,195,114064,2,0,B|367:195|367:195|417:245,1,165,10|4,1:2|1:3,0:0:0:0:
256,192,115081,12,4,118131,3:0:0:0:
