osu file format v14

[General]
AudioFilename: audio.mp3
AudioLeadIn: 0
PreviewTime: 20254
Countdown: 0
SampleSet: Soft
StackLeniency: 0.5
Mode: 0
LetterboxInBreaks: 0
WidescreenStoryboard: 0

[Editor]
DistanceSpacing: 0.9
BeatDivisor: 3
GridSize: 4
TimelineZoom: 4.199998

[Metadata]
Title:Lachryma
TitleUnicode:Lachryma《Re:Queen'M》
Artist:Kaneko Chiharu
ArtistUnicode:かねこちはる
Creator:Kroytz
Version:
Source:SOUND VOLTEX III GRAVITY WARS
Tags:SDVX Grace The 5th KAC Original Song Contest KONAMI BEMANI Battle Ametrin Fizz Ponoyoshi Alheak toybot Smoothie World
BeatmapID:1016169
BeatmapSetID:475629

[Difficulty]
HPDrainRate:6
CircleSize:4.5
OverallDifficulty:9.4
ApproachRate:9.9
SliderMultiplier:2
SliderTickRate:1

[Events]
//Background and Video events
0,0,"BG.png",0,0
//Break Periods
//Storyboard Layer 0 (Background)
//Storyboard Layer 1 (Fail)
//Storyboard Layer 2 (Pass)
//Storyboard Layer 3 (Foreground)
//Storyboard Sound Samples

[TimingPoints]
678,254.237288135593,3,2,1,55,1,0
678,-125,3,2,1,55,0,0
5254,-133.333333333333,3,2,1,55,0,0
6016,-200,3,2,1,55,0,0
6779,-125,3,2,1,55,0,0
14406,-100,3,2,1,55,0,0
18983,-100,3,3,2,55,0,0
19745,-100,3,2,1,55,0,0
20508,254.237288135593,4,2,1,55,1,1
20508,-76.9230769230769,4,2,1,55,0,1
20698,-76.9230769230769,4,2,1,5,0,1
20762,-76.9230769230769,4,2,1,55,0,1
21715,-76.9230769230769,4,2,1,5,0,1
21779,-76.9230769230769,4,2,1,55,0,1
24575,-90.9090909090909,4,2,1,55,0,1
24702,-90.9090909090909,4,2,1,5,0,1
24766,-80,4,2,1,55,0,1
24893,-80,4,2,1,5,0,1
24957,-71.4285714285714,4,2,1,55,0,1
25592,-90.9090909090909,4,2,1,55,0,1
25719,-90.9090909090909,4,2,1,5,0,1
25783,-80,4,2,1,55,0,1
25910,-80,4,2,1,5,0,1
25974,-71.4285714285714,4,2,1,55,0,1
26609,-76.9230769230769,4,2,1,55,0,1
27118,-76.9230769230769,4,3,2,55,0,1
27880,-90.9090909090909,4,2,4,55,0,0
28389,-90.9090909090909,4,2,1,55,0,0
28643,-74.0740740740741,4,2,1,55,0,1
32711,-90.9090909090909,4,2,1,55,0,1
32838,-90.9090909090909,4,2,1,5,0,1
32902,-80,4,2,1,55,0,1
33029,-80,4,2,1,5,0,1
33092,-71.4285714285714,4,2,1,55,0,1
33728,-90.9090909090909,4,2,1,55,0,1
33855,-90.9090909090909,4,2,1,5,0,1
33919,-80,4,2,1,55,0,1
34046,-80,4,2,1,5,0,1
34109,-71.4285714285714,4,2,1,55,0,1
34745,-74.0740740740741,4,2,1,55,0,1
36779,-200,4,2,1,55,0,0
40846,-333.333333333333,4,2,1,55,0,0
41863,-166.666666666667,4,2,1,55,0,0
41991,-153.846153846154,4,2,1,55,0,0
42118,-142.857142857143,4,2,1,55,0,0
42245,-133.333333333333,4,2,1,55,0,0
42372,-125,4,2,1,55,0,0
42499,-117.647058823529,4,2,1,55,0,0
42626,-111.111111111111,4,2,1,55,0,0
42753,-105.263157894737,4,2,1,55,0,0
42880,-100,4,2,1,55,0,0
43198,-100,4,2,1,5,0,0
43262,-100,4,2,1,55,0,0
43580,-100,4,2,1,5,0,0
43643,-100,4,2,1,55,0,0
43961,-100,4,2,1,5,0,0
44024,-100,4,2,1,55,0,0
44342,-100,4,2,1,5,0,0
44406,-100,4,2,1,55,0,0
44914,-100,4,2,1,55,0,0
53304,-76.9230769230769,4,2,1,55,0,0
53495,-76.9230769230769,4,2,1,5,0,0
53558,-76.9230769230769,4,2,1,55,0,0
54130,-76.9230769230769,4,2,1,5,0,0
54194,-76.9230769230769,4,2,1,55,0,0
54639,-76.9230769230769,4,2,1,5,0,0
54702,-76.9230769230769,4,2,1,55,0,0
55338,-90.9090909090909,4,2,1,55,0,0
55529,-90.9090909090909,4,2,1,5,0,0
55592,-90.9090909090909,4,2,1,55,0,0
56164,-90.9090909090909,4,2,1,5,0,0
56228,-90.9090909090909,4,2,1,55,0,0
56673,-90.9090909090909,4,2,1,5,0,0
56736,-90.9090909090909,4,2,1,55,0,0
57372,-76.9230769230769,4,2,1,55,0,0
57563,-76.9230769230769,4,2,1,5,0,0
57626,-76.9230769230769,4,2,1,55,0,0
58198,-76.9230769230769,4,2,1,5,0,0
58262,-76.9230769230769,4,2,1,55,0,0
58707,-76.9230769230769,4,2,1,5,0,0
58770,-76.9230769230769,4,2,1,55,0,0
59152,254.237288135593,3,3,1,55,1,0
62202,254.237288135593,4,2,1,55,1,0
66269,254.237288135593,3,2,1,55,1,0
66269,-111.111111111111,3,2,1,55,0,0
66459,-111.111111111111,3,2,1,5,0,0
66523,-111.111111111111,3,2,1,55,0,0
67222,-111.111111111111,3,2,1,5,0,0
67285,-111.111111111111,3,2,1,55,0,0
67985,-111.111111111111,3,2,1,5,0,0
68048,-111.111111111111,3,2,1,55,0,0
68747,-111.111111111111,3,2,1,5,0,0
68811,-111.111111111111,3,2,1,55,0,0
69510,-111.111111111111,3,2,1,5,0,0
69574,-111.111111111111,3,2,1,55,0,0
70273,-111.111111111111,3,2,1,5,0,0
70336,-111.111111111111,3,2,1,55,0,0
71035,-111.111111111111,3,2,1,5,0,0
71099,-111.111111111111,3,2,1,55,0,0
72561,-111.111111111111,3,2,1,5,0,0
72624,-111.111111111111,3,2,1,55,0,0
73324,-111.111111111111,3,2,1,5,0,0
73387,-111.111111111111,3,2,1,55,0,0
73896,-100,3,2,1,55,0,0
79743,-90.9090909090909,3,2,1,55,0,0
79997,254.237288135593,4,2,5,75,1,0
79997,-263.157894736842,4,2,5,75,0,0
80187,-200,4,2,1,5,0,0
80251,-71.4285714285714,4,2,1,55,0,1
81204,-71.4285714285714,4,2,1,5,0,1
81268,-71.4285714285714,4,2,1,55,0,1
84064,-83.3333333333333,4,2,1,55,0,1
84191,-83.3333333333333,4,2,1,5,0,1
84255,-74.0740740740741,4,2,1,55,0,1
84382,-74.0740740740741,4,2,1,5,0,1
84446,-66.6666666666667,4,2,1,55,0,1
85081,-83.3333333333333,4,2,1,55,0,1
85208,-83.3333333333333,4,2,1,5,0,1
85272,-74.0740740740741,4,2,1,55,0,1
85399,-74.0740740740741,4,2,1,5,0,1
85463,-66.6666666666667,4,2,1,55,0,1
88132,-76.9230769230769,4,2,1,55,0,1
88323,-76.9230769230769,4,2,1,5,0,1
88386,-76.9230769230769,4,2,1,55,0,1
88831,-76.9230769230769,4,2,1,5,0,1
88895,-76.9230769230769,4,2,1,55,0,1
90166,-71.4285714285714,4,2,1,55,0,1
92200,-83.3333333333333,4,2,1,55,0,1
92327,-83.3333333333333,4,2,1,5,0,1
92391,-74.0740740740741,4,2,1,55,0,1
92518,-74.0740740740741,4,2,1,5,0,1
92581,-66.6666666666667,4,2,1,55,0,1
93217,-83.3333333333333,4,2,1,55,0,1
93344,-83.3333333333333,4,2,1,5,0,1
93408,-74.0740740740741,4,2,1,55,0,1
93535,-74.0740740740741,4,2,1,5,0,1
93598,-66.6666666666667,4,2,1,55,0,1
94234,-71.4285714285714,4,2,1,55,0,1
96268,-100,4,2,1,55,0,0
97221,-100,4,2,1,5,0,0
97285,-100,4,2,1,55,0,0
98302,254.237288135593,3,2,1,55,1,1
104340,-100,3,2,1,55,0,0
104403,-100,3,2,1,55,0,1
105166,-83.3333333333333,3,2,1,55,0,1
105929,-100,3,2,1,55,0,1
106691,-83.3333333333333,3,2,1,55,0,1
107454,-100,3,2,1,55,0,1
108217,-83.3333333333333,3,2,1,55,0,1
110505,254.237288135593,4,2,1,55,1,0
114954,-200,4,2,1,55,0,0
115081,254.237288135593,4,2,1,55,1,1
118131,-100,4,2,1,55,0,0

[Colours]
Combo1 : 70,70,255
Combo2 : 255,62,62
Combo3 : 255,137,81
Combo4 : 0,174,174
Combo5 : 0,101,202

[HitObjects]
101,260,678,6,0,B|137:274|165:254|165:254|204:271|204:271|226:257|252:259,1,160,6|0,0:2|0:0,0:0:0:0:
0,188,1059,1,8,0:3:0:0:
256,335,1313,1,8,0:3:0:0:
256,335,1440,6,0,P|319:292|314:215,1,160,2|10,0:0|0:0,0:0:0:0:
256,0,1949,1,10,0:0:0:0:
252,258,2203,6,0,B|298:245|314:215|314:215|345:233|395:219,1,160,2|0,0:0|0:0,0:0:0:0:
128,192,2584,1,8,0:3:0:0:
339,303,2839,1,8,0:3:0:0:
339,303,2966,6,0,L|295:144,1,160,2|10,0:0|0:0,0:0:0:0:
256,380,3474,1,10,0:0:0:0:
131,106,3728,6,0,P|62:138|47:218,1,160,2|0,0:2|0:0,0:0:0:0:
296,148,4110,1,8,0:3:0:0:
113,343,4364,1,8,0:3:0:0:
114,343,4491,6,0,B|146:238|146:238|128:192,1,160,2|10,0:0|0:0,0:0:0:0:
62,22,5000,1,10,0:0:0:0:
268,219,5254,6,0,P|372:145|263:79,1,300.000011444092,2|0,0:0|0:0,0:0:0:0:
296,148,5889,1,0,0:0:0:0:
296,148,6016,6,0,B|372:186|419:139|419:139|499:156|489:238,1,250,2|0,0:0|0:0,0:0:0:0:
440,333,6779,5,4,0:0:0:0:
416,356,6843,1,0,0:0:0:0:
386,371,6906,1,0,0:0:0:0:
353,376,6970,1,0,0:0:0:0:
320,372,7033,1,0,0:0:0:0:
290,358,7097,1,0,0:0:0:0:
265,336,7161,1,8,0:0:0:0:
240,313,7224,1,0,0:0:0:0:
210,299,7288,1,0,0:0:0:0:
177,294,7351,1,0,0:0:0:0:
144,300,7415,1,8,0:0:0:0:
114,315,7478,1,0,0:0:0:0:
91,339,7542,5,2,0:0:0:0:
93,299,7605,1,0,0:0:0:0:
95,258,7669,1,0,0:0:0:0:
97,217,7733,1,0,0:0:0:0:
99,177,7796,5,10,0:0:0:0:
106,207,7860,1,0,0:0:0:0:
113,237,7923,1,0,0:0:0:0:
121,268,7987,1,0,0:0:0:0:
128,298,8050,5,10,0:0:0:0:
133,274,8114,1,0,0:0:0:0:
139,250,8177,1,0,0:0:0:0:
145,226,8241,1,0,0:0:0:0:
151,202,8305,5,2,0:0:0:0:
170,226,8368,1,0,0:0:0:0:
197,241,8432,1,0,0:0:0:0:
228,242,8495,1,0,0:0:0:0:
258,231,8559,1,0,0:0:0:0:
280,209,8622,1,0,0:0:0:0:
292,179,8686,1,8,0:0:0:0:
290,146,8750,1,0,0:0:0:0:
274,118,8813,1,0,0:0:0:0:
247,99,8877,1,0,0:0:0:0:
215,94,8940,1,8,0:0:0:0:
183,101,9004,1,0,0:0:0:0:
159,121,9068,5,2,0:0:0:0:
186,140,9131,1,0,0:0:0:0:
218,145,9194,1,0,0:0:0:0:
250,138,9258,1,0,0:0:0:0:
274,118,9322,5,10,0:0:0:0:
273,142,9385,1,0,0:0:0:0:
273,166,9449,1,0,0:0:0:0:
273,189,9512,1,0,0:0:0:0:
305,225,9576,5,10,0:0:0:0:
304,240,9639,1,0,0:0:0:0:
303,256,9703,1,8,0:0:0:0:
303,271,9766,1,0,0:0:0:0:
335,307,9830,5,4,0:0:0:0:
348,335,9894,1,0,0:0:0:0:
375,351,9957,1,0,0:0:0:0:
406,351,10021,1,0,0:0:0:0:
433,333,10084,1,0,0:0:0:0:
446,304,10148,1,0,0:0:0:0:
443,271,10211,1,8,0:0:0:0:
422,247,10275,1,0,0:0:0:0:
391,238,10339,2,0,L|391:289,1,40
512,384,10466,2,0,L|512:344,1,40,8|0,0:0|0:0,0:0:0:0:
498,143,10593,5,2,0:0:0:0:
466,119,10656,1,0,0:0:0:0:
427,110,10720,1,0,0:0:0:0:
388,118,10783,1,0,0:0:0:0:
356,141,10847,5,8,0:0:0:0:
358,117,10911,1,0,0:0:0:0:
360,93,10974,1,0,0:0:0:0:
362,68,11038,1,0,0:0:0:0:
365,44,11101,5,8,0:0:0:0:
339,63,11165,1,0,0:0:0:0:
307,69,11228,1,0,0:0:0:0:
276,62,11292,1,0,0:0:0:0:
249,42,11355,5,2,0:0:0:0:
206,33,11419,1,0,0:0:0:0:
168,53,11483,1,0,0:0:0:0:
150,92,11546,1,0,0:0:0:0:
160,134,11610,1,2,0:0:0:0:
194,161,11673,1,0,0:0:0:0:
237,161,11737,1,8,0:0:0:0:
270,188,11800,1,0,0:0:0:0:
281,230,11864,1,2,0:0:0:0:
263,269,11927,1,0,0:0:0:0:
225,289,11991,1,8,0:0:0:0:
183,281,12055,1,0,0:0:0:0:
154,247,12118,5,2,0:0:0:0:
193,239,12182,1,0,0:0:0:0:
232,244,12245,1,0,0:0:0:0:
263,269,12309,1,0,0:0:0:0:
283,302,12372,1,10,0:0:0:0:
317,324,12436,1,0,0:0:0:0:
356,326,12500,1,0,0:0:0:0:
394,312,12563,1,0,0:0:0:0:
420,282,12627,2,0,P|434:245|432:227,1,40,10|0,0:0|0:0,0:0:0:0:
328,172,12754,2,0,P|318:154|314:135,1,40,8|0,0:0|0:0,0:0:0:0:
424,15,12881,5,4,0:0:0:0:
459,18,12944,1,0,0:0:0:0:
489,38,13008,1,0,0:0:0:0:
500,71,13071,1,0,0:0:0:0:
493,106,13135,1,0,0:0:0:0:
469,132,13198,1,0,0:0:0:0:
433,140,13262,1,8,0:0:0:0:
399,129,13325,1,0,0:0:0:0:
377,100,13389,1,0,0:0:0:0:
352,73,13453,1,0,0:0:0:0:
317,62,13516,1,8,0:0:0:0:
282,69,13580,1,0,0:0:0:0:
255,93,13644,5,2,0:0:0:0:
228,69,13707,1,0,0:0:0:0:
193,62,13770,1,0,0:0:0:0:
158,73,13834,1,0,0:0:0:0:
133,100,13898,1,10,3:2:0:0:
106,124,13961,1,0,3:0:0:0:
71,131,14025,1,0,3:0:0:0:
36,120,14089,1,0,3:0:0:0:
11,93,14152,2,0,P|4:72|9:48,1,40,0|0,3:0|3:0,0:0:0:0:
197,135,14279,2,0,P|204:156|199:180,1,40,0|0,3:0|3:0,0:0:0:0:
74,313,14406,6,0,L|74:187,1,100,6|0,3:2|0:0,0:0:0:0:
75,56,14661,1,2,3:2:0:0:
170,239,14788,1,0,0:0:0:0:
170,239,14851,1,0,0:0:0:0:
170,239,14915,2,0,P|225:243|276:175,1,100,2|0,3:2|0:0,0:0:0:0:
371,35,15169,6,0,B|371:102|371:102|354:130,1,100,2|0,3:2|0:0,0:0:0:0:
334,370,15423,2,0,B|276:336|276:336|259:308,1,100,2|0,3:2|0:0,0:0:0:0:
62,170,15677,2,0,B|120:137|120:137|153:137,1,100,2|0,3:2|0:0,0:0:0:0:
395,266,15932,5,2,3:2:0:0:
172,335,16059,1,0,0:0:0:0:
162,339,16122,1,0,0:0:0:0:
153,343,16186,2,0,B|120:343|120:343|62:310,1,100,2|0,3:2|0:0,0:0:0:0:
201,73,16440,2,0,L|201:186,1,100,2|0,3:2|0:0,0:0:0:0:
331,371,16694,6,0,P|349:322|319:263,1,100,2|0,3:2|0:0,0:0:0:0:
62,170,16949,2,0,P|94:209|160:213,1,100,2|0,3:2|0:0,0:0:0:0:
371,37,17203,2,0,P|320:45|283:100,1,100,2|0,3:2|0:0,0:0:0:0:
207,345,17457,5,2,3:2:0:0:
398,194,17584,1,0,0:0:0:0:
398,194,17648,1,0,0:0:0:0:
398,194,17711,2,0,B|388:159|388:159|366:140|366:140|353:98,1,100,0|0,3:2|0:0,0:0:0:0:
140,218,17966,2,0,B|130:251|130:251|108:270|108:270|98:305,1,100,2|0,3:2|0:0,0:0:0:0:
201,73,18220,6,0,L|88:73,1,100,2|0,3:2|0:0,0:0:0:0:
311,311,18474,2,0,L|411:311,1,100,2|0,3:2|0:0,0:0:0:0:
453,92,18728,2,0,L|484:16,2,66.6666666666667,2|2|2,3:2|0:0|0:0,0:0:0:0:
398,194,18983,5,0,0:0:0:0:
366,223,19067,1,0,0:0:0:0:
326,238,19152,1,0,0:0:0:0:
283,236,19237,1,0,0:0:0:0:
244,217,19322,1,0,0:0:0:0:
215,185,19406,1,0,0:0:0:0:
176,166,19491,1,0,0:0:0:0:
133,164,19576,1,0,0:0:0:0:
93,179,19661,1,0,0:0:0:0:
62,209,19745,5,8,1:3:0:0:
423,358,20000,1,8,1:3:0:0:
423,24,20254,6,0,L|410:73,1,50,2|2,0:0|0:0,0:0:0:0:
281,208,20381,2,0,L|268:159,1,50,2|2,0:0|0:0,0:0:0:0:
484,104,20508,6,0,B|473:140|426:172|364:143|364:143|386:166|390:192,1,194.999991073609,4|0,0:0|0:0,0:0:0:0:
392,218,20762,1,2,0:0:0:0:
184,329,20889,2,0,B|176:280|125:263|125:263|125:207|125:207|65:174|78:103,1,259.999988098145,8|8,0:2|0:0,0:0:0:0:
475,218,21270,1,2,0:0:0:0:
464,261,21333,1,2,0:0:0:0:
432,294,21397,1,10,0:0:0:0:
388,305,21460,1,2,0:0:0:0:
344,292,21524,6,0,P|408:261|484:348,1,194.999991073609,2|0,0:0|0:0,0:0:0:0:
482,376,21779,1,2,0:0:0:0:
184,329,21906,2,0,B|215:246|215:246|283:204|283:204|323:99,1,259.999988098145,10|8,0:0|0:0,0:0:0:0:
120,11,22287,1,2,0:0:0:0:
131,54,22350,1,2,0:0:0:0:
163,87,22414,1,10,0:0:0:0:
207,98,22478,1,2,0:0:0:0:
251,85,22541,6,0,P|297:48|379:81,1,129.999994049073,2|8,0:0|0:0,0:0:0:0:
81,268,22796,2,0,L|50:141,1,129.999994049073,2|8,0:2|0:0,0:0:0:0:
344,292,23050,1,2,0:0:0:0:
103,362,23177,1,10,0:0:0:0:
163,87,23304,1,2,0:0:0:0:
274,384,23431,1,10,0:0:0:0:
274,384,23495,1,2,0:0:0:0:
274,384,23558,5,2,0:0:0:0:
443,161,23685,1,8,0:0:0:0:
175,242,23813,1,2,0:0:0:0:
439,333,23940,1,8,0:0:0:0:
278,104,24067,1,2,3:2:0:0:
250,76,24130,1,0,3:0:0:0:
214,63,24194,1,0,3:0:0:0:
175,66,24257,1,0,3:0:0:0:
142,86,24321,1,4,3:0:0:0:
120,117,24385,1,4,3:0:0:0:
114,156,24448,2,0,L|64:93,1,64.9999970245363,8|8,3:0|3:0,0:0:0:0:
322,41,24575,6,0,P|354:94|319:169,1,110.000003356934,6|0,0:0|0:0,0:0:0:0:
208,190,24766,2,0,P|223:131|278:104,1,125,2|0,0:0|0:0,0:0:0:0:
403,188,24957,2,0,P|339:211|282:175,1,139.999995727539,6|0,0:0|0:0,0:0:0:0:
109,20,25211,1,2,0:0:0:0:
21,175,25338,1,10,0:0:0:0:
20,216,25402,1,2,0:0:0:0:
40,253,25465,1,2,0:0:0:0:
77,270,25529,1,2,0:0:0:0:
121,266,25592,6,0,P|171:257|228:291,1,110.000003356934,14|0,0:0|0:0,0:0:0:0:
272,382,25783,2,0,P|225:343|221:283,1,125,2|0,0:0|0:0,0:0:0:0:
282,174,25974,2,0,P|276:242|222:283,1,139.999995727539,14|0,0:0|0:0,0:0:0:0:
60,366,26228,1,2,0:0:0:0:
92,197,26355,1,8,0:0:0:0:
323,317,26482,1,2,0:0:0:0:
361,326,26546,1,0,0:0:0:0:
398,318,26609,6,0,B|452:293|449:236|449:236|413:253,1,129.999994049073,14|0,0:0|0:0,0:0:0:0:
114,318,26863,2,0,B|60:293|63:236|63:236|99:253,1,129.999994049073,10|0,0:0|0:0,0:0:0:0:
256,64,27118,5,0,0:0:0:0:
298,48,27181,1,0,0:0:0:0:
342,59,27245,1,0,0:0:0:0:
369,94,27308,1,0,0:0:0:0:
372,139,27372,1,0,0:0:0:0:
349,178,27435,1,0,0:0:0:0:
307,196,27499,2,0,P|280:196|242:166,1,64.9999970245363
90,10,27626,5,8,1:2:0:0:
448,65,27880,6,2,B|488:113|445:167|445:167|490:173|509:195|531:223|533:264|520:298|495:325|453:338|423:332|393:324|367:284,1,440.000013427735
438,246,28452,1,2,0:0:0:0:
438,246,28516,1,2,0:0:0:0:
438,246,28580,1,2,0:0:0:0:
438,246,28643,6,0,L|316:173,1,135.000000514984,4|8,0:0|0:0,0:0:0:0:
226,378,28897,1,0,0:0:0:0:
202,138,29024,1,8,0:0:0:0:
86,320,29152,1,2,0:0:0:0:
366,283,29279,1,8,0:0:0:0:
194,58,29406,1,2,0:0:0:0:
148,77,29469,1,2,0:0:0:0:
123,120,29533,1,10,0:0:0:0:
128,170,29596,1,2,0:0:0:0:
161,207,29660,5,2,0:0:0:0:
319,65,29787,1,8,0:0:0:0:
277,324,29914,1,2,0:0:0:0:
202,138,30041,5,8,0:0:0:0:
461,180,30169,1,2,0:0:0:0:
192,245,30296,1,8,0:0:0:0:
465,364,30423,5,2,0:0:0:0:
468,313,30486,1,2,0:0:0:0:
436,273,30550,1,10,0:0:0:0:
386,262,30613,1,2,0:0:0:0:
340,287,30677,5,2,0:0:0:0:
95,311,30804,1,8,0:0:0:0:
95,311,30868,1,2,0:0:0:0:
95,311,30931,2,0,P|163:298|189:214,1,135.000000514984,2|8,0:0|0:0,0:0:0:0:
158,50,31185,1,2,0:0:0:0:
34,253,31313,1,8,0:0:0:0:
34,253,31376,1,2,0:0:0:0:
34,253,31440,2,0,L|68:398,1,135.000000514984,2|10,0:0|0:0,0:0:0:0:
397,339,31694,5,2,0:0:0:0:
441,327,31757,1,2,0:0:0:0:
395,301,31821,5,10,0:0:0:0:
434,278,31885,1,2,0:0:0:0:
383,264,31948,5,2,0:0:0:0:
414,232,32012,1,2,0:0:0:0:
362,232,32075,5,10,0:0:0:0:
383,193,32139,1,2,0:0:0:0:
333,206,32202,5,2,0:2:0:0:
343,163,32266,1,2,0:2:0:0:
298,188,32330,5,2,0:2:0:0:
296,144,32393,1,2,0:2:0:0:
260,180,32457,5,2,3:2:0:0:
210,189,32520,1,2,3:2:0:0:
163,168,32584,2,0,P|141:147|97:143,1,67.5000002574921,0|0,3:0|3:0,0:0:0:0:
30,293,32711,6,0,P|72:324|130:315,1,110.000003356934,6|0,0:0|0:0,0:0:0:0:
163,168,32902,2,0,P|115:188|92:258,1,125,2|0,0:0|0:0,0:0:0:0:
188,368,33092,2,0,P|206:302|169:246,1,139.999995727539,6|0,0:0|0:0,0:0:0:0:
26,122,33346,1,2,0:0:0:0:
291,122,33474,1,0,0:0:0:0:
168,245,33601,1,2,0:0:0:0:
244,40,33728,6,0,B|322:40|322:40|347:60,1,110.000003356934,6|0,0:0|0:0,0:0:0:0:
328,234,33919,2,0,B|283:159|283:159|292:113,1,125,2|0,0:0|0:0,0:0:0:0:
453,24,34109,2,0,B|412:108|412:108|372:131,1,139.999995727539,6|0,0:0|0:0,0:0:0:0:
168,245,34363,1,2,0:0:0:0:
435,246,34491,1,0,0:0:0:0:
185,161,34618,1,2,0:0:0:0:
185,161,34681,1,2,0:0:0:0:
185,161,34745,6,0,P|121:172|85:227,1,135.000000514984,12|0,0:0|0:0,0:0:0:0:
291,363,34999,1,8,0:0:0:0:
291,122,35126,1,2,0:0:0:0:
291,122,35190,1,2,0:0:0:0:
291,122,35253,6,0,B|291:20|291:20|326:66,1,135.000000514984,8|0,0:0|0:0,0:0:0:0:
435,246,35507,1,8,0:0:0:0:
204,300,35635,1,2,0:0:0:0:
191,303,35699,1,2,0:0:0:0:
178,308,35762,6,0,P|181:257|205:300,1,135.000000514984,12|0,0:0|0:0,0:0:0:0:
85,227,36016,1,0,3:0:0:0:
97,196,36080,1,0,3:0:0:0:
121,172,36143,1,0,3:0:0:0:
152,160,36207,1,0,3:0:0:0:
185,161,36270,2,0,P|227:161|256:136,1,67.5000002574921,8|0,0:0|0:0,0:0:0:0:
185,11,36397,2,0,P|166:38|166:71,1,67.5000002574921
294,218,36524,1,4,0:3:0:0:
317,194,36587,1,4,0:3:0:0:
331,163,36651,1,4,0:3:0:0:
331,130,36715,1,4,0:3:0:0:
319,98,36779,6,0,L|360:126,1,50,6|2,0:0|0:0,0:0:0:0:
512,120,37033,2,0,L|470:91,1,50,2|2,0:0|0:0,0:0:0:0:
387,34,37287,5,2,0:0:0:0:
442,182,37414,1,2,0:0:0:0:
381,19,37541,1,2,0:0:0:0:
447,196,37668,1,2,0:0:0:0:
269,262,37796,6,0,L|211:277,1,50,2|2,0:0|0:0,0:0:0:0:
389,378,38050,2,0,L|447:363,1,50,2|2,0:0|0:0,0:0:0:0:
204,278,38304,5,2,0:0:0:0:
454,362,38431,1,2,0:0:0:0:
187,282,38558,1,2,0:0:0:0:
471,358,38685,1,2,0:0:0:0:
45,244,38813,5,10,1:2:0:0:
183,74,38940,1,10,1:2:0:0:
329,320,39067,1,10,1:2:0:0:
41,36,39194,5,10,1:2:0:0:
187,282,39321,1,10,1:2:0:0:
325,112,39448,1,10,1:2:0:0:
471,358,39575,5,10,1:2:0:0:
158,291,39702,1,10,1:2:0:0:
470,168,39830,1,10,1:2:0:0:
183,74,39957,5,10,1:2:0:0:
352,234,40084,1,10,1:2:0:0:
129,300,40211,1,10,1:2:0:0:
443,59,40338,5,10,1:2:0:0:
264,354,40465,1,4,3:0:0:0:
233,12,40592,1,4,3:0:0:0:
460,273,40719,1,4,3:0:0:0:
119,196,40846,6,0,L|100:189,15,14.9999995422363,4|0|0|0|0|0|0|0|0|0|0|0|0|0|0|0,0:0|0:0|0:0|0:0|0:0|0:0|0:0|0:0|0:0|0:0|0:0|0:0|0:0|0:0|0:0|0:0,0:0:0:0:
89,122,41863,6,0,P|108:106|129:101,1,29.9999990844727
163,50,41991,2,0,P|187:52|209:68,1,32.4999985122681
268,52,42118,2,0,P|284:71|288:98,1,34.9999989318848
343,130,42245,2,0,P|340:154|324:176,1,37.5000014305115
219,176,42372,6,0,P|238:189|264:191,1,40
289,252,42500,2,0,P|323:249|345:234,1,42.5000008106232
399,260,42627,2,0,P|420:231|424:204,1,44.999998626709
479,172,42754,2,0,P|476:147|456:118,1,47.4999987316132
390,8,42880,5,2,0:0:0:0:
142,136,43007,2,0,P|144:214|202:261,1,150,4|0,0:0|0:0,0:0:0:0:
230,272,43262,1,2,0:0:0:0:
384,101,43389,6,0,L|247:164,1,150,4|0,0:0|0:0,0:0:0:0:
218,175,43644,1,2,0:0:0:0:
246,357,43770,6,0,B|309:340|316:277|316:277|331:296|350:303,1,150,4|0,0:0|0:0,0:0:0:0:
373,324,44024,1,2,0:0:0:0:
94,338,44152,6,0,B|28:343|3:276|3:276|26:257,1,150,4|0,0:0|0:0,0:0:0:0:
54,238,44406,1,2,3:2:0:0:
172,133,44533,1,0,3:0:0:0:
15,148,44660,1,2,3:2:0:0:
152,229,44787,1,0,3:0:0:0:
88,84,44914,5,6,0:0:0:0:
112,56,44978,1,0,0:0:0:0:
146,39,45041,1,0,0:0:0:0:
183,36,45105,1,0,0:0:0:0:
218,48,45169,1,2,0:3:0:0:
247,72,45232,1,0,0:0:0:0:
264,105,45296,1,0,0:0:0:0:
268,142,45358,1,0,0:0:0:0:
258,177,45423,1,10,0:3:0:0:
247,211,45486,1,0,0:0:0:0:
251,248,45550,1,0,0:0:0:0:
268,281,45613,1,0,0:0:0:0:
297,305,45677,1,2,0:3:0:0:
332,317,45741,1,0,0:0:0:0:
369,314,45804,1,8,0:0:0:0:
403,297,45868,1,0,0:0:0:0:
428,270,45931,5,2,0:3:0:0:
439,236,45995,1,0,0:0:0:0:
435,199,46058,1,8,0:0:0:0:
418,166,46122,1,0,0:0:0:0:
389,142,46185,1,2,0:3:0:0:
354,130,46249,1,0,0:0:0:0:
317,133,46313,1,0,0:0:0:0:
283,150,46376,1,0,0:0:0:0:
258,177,46440,1,10,0:3:0:0:
233,204,46503,1,0,0:0:0:0:
199,221,46567,1,0,0:0:0:0:
162,224,46630,1,0,0:0:0:0:
127,212,46694,1,2,0:3:0:0:
98,188,46757,1,0,0:0:0:0:
81,155,46821,1,8,0:0:0:0:
77,118,46885,1,0,0:0:0:0:
88,84,46948,5,2,0:3:0:0:
117,108,47012,1,0,0:0:0:0:
134,141,47075,1,0,0:0:0:0:
138,178,47139,1,0,0:0:0:0:
127,212,47202,1,2,0:3:0:0:
103,241,47266,1,0,0:0:0:0:
94,277,47330,1,0,0:0:0:0:
97,313,47392,1,0,0:0:0:0:
116,345,47457,1,10,0:3:0:0:
144,368,47520,1,0,0:0:0:0:
180,377,47584,1,0,0:0:0:0:
216,373,47647,1,0,0:0:0:0:
250,356,47711,1,2,0:3:0:0:
273,326,47774,1,0,0:0:0:0:
283,290,47838,1,8,0:0:0:0:
279,252,47902,1,8,0:0:0:0:
259,220,47965,5,2,0:3:0:0:
240,236,48029,1,0,0:0:0:0:
221,252,48092,1,8,0:0:0:0:
202,269,48155,1,0,0:0:0:0:
183,285,48219,5,2,0:3:0:0:
191,246,48283,1,0,0:0:0:0:
202,209,48346,1,0,0:0:0:0:
213,171,48410,1,0,0:0:0:0:
222,135,48474,5,10,0:3:0:0:
203,151,48537,1,0,0:0:0:0:
184,167,48601,1,0,0:0:0:0:
165,184,48664,1,0,0:0:0:0:
146,200,48728,5,10,0:3:0:0:
154,161,48792,1,0,0:0:0:0:
165,124,48855,1,8,0:0:0:0:
176,86,48919,1,0,0:0:0:0:
185,50,48982,5,6,0:0:0:0:
205,84,49046,1,0,0:0:0:0:
237,106,49109,1,0,0:0:0:0:
276,114,49173,1,0,0:0:0:0:
315,110,49236,1,2,0:3:0:0:
351,93,49300,1,0,0:0:0:0:
372,59,49363,1,0,0:0:0:0:
406,38,49427,1,0,0:0:0:0:
446,36,49491,1,10,0:3:0:0:
482,52,49554,1,0,0:0:0:0:
504,85,49618,1,0,0:0:0:0:
510,124,49681,1,0,0:0:0:0:
496,162,49745,1,2,0:3:0:0:
465,187,49808,1,0,0:0:0:0:
425,195,49872,1,8,0:0:0:0:
386,184,49935,1,8,0:0:0:0:
357,156,49999,5,2,0:3:0:0:
375,144,50063,1,0,0:0:0:0:
394,133,50126,1,8,0:0:0:0:
413,121,50190,1,0,0:0:0:0:
431,110,50253,5,2,0:3:0:0:
415,152,50317,1,0,0:0:0:0:
425,195,50380,1,0,0:0:0:0:
459,223,50444,1,0,0:0:0:0:
476,263,50507,1,10,0:3:0:0:
471,308,50571,1,0,0:0:0:0:
444,344,50635,1,0,0:0:0:0:
404,363,50698,1,0,0:0:0:0:
358,359,50762,2,0,P|337:346|316:314,1,50,2|0,0:3|0:0,0:0:0:0:
256,142,50889,2,0,L|256:192,1,50,8|0,0:0|0:0,0:0:0:0:
187,328,51016,5,2,0:3:0:0:
154,359,51080,1,0,0:0:0:0:
108,363,51143,1,0,0:0:0:0:
68,344,51206,1,0,0:0:0:0:
41,308,51270,1,2,0:3:0:0:
36,263,51334,1,0,0:0:0:0:
53,223,51397,1,0,0:0:0:0:
87,195,51461,1,0,0:0:0:0:
109,156,51524,1,10,0:3:0:0:
117,111,51588,1,0,0:0:0:0:
109,66,51652,1,0,0:0:0:0:
78,33,51715,1,0,0:0:0:0:
33,24,51779,1,2,0:3:0:0:
41,69,51842,1,0,0:0:0:0:
72,102,51905,1,8,0:0:0:0:
117,111,51969,1,8,0:0:0:0:
158,103,52033,5,2,0:3:0:0:
190,71,52096,1,0,0:0:0:0:
234,60,52160,1,8,0:0:0:0:
276,72,52223,1,0,0:0:0:0:
309,102,52287,1,2,0:3:0:0:
320,144,52350,1,0,0:0:0:0:
312,188,52414,1,0,0:0:0:0:
284,222,52477,1,0,0:0:0:0:
241,236,52541,5,2,3:0:0:0:
294,248,52605,1,0,3:0:0:0:
337,281,52669,1,0,3:0:0:0:
360,329,52732,1,0,3:0:0:0:
408,354,52796,1,0,3:0:0:0:
461,345,52859,1,0,3:0:0:0:
498,306,52923,1,0,3:0:0:0:
504,252,52986,1,0,3:0:0:0:
476,205,53050,1,0,0:0:0:0:
72,102,53304,6,0,B|74:146|107:172|107:172|101:208|101:208|131:238|119:294,1,194.999991073609,4|0,0:0|0:0,0:0:0:0:
122,316,53558,1,2,0:0:0:0:
158,103,53685,1,2,0:0:0:0:
256,336,53813,1,10,0:0:0:0:
440,102,53940,6,0,B|437:146|405:172|405:172|411:208|411:208|381:238|392:294,1,194.999991073609,4|0,0:0|0:0,0:0:0:0:
391,318,54194,1,2,0:0:0:0:
354,103,54321,1,10,0:0:0:0:
475,264,54448,6,0,P|428:203|319:233,1,194.999991073609,10|0,0:0|0:0,0:0:0:0:
296,253,54702,1,2,0:0:0:0:
366,74,54830,1,2,0:0:0:0:
391,318,54957,1,2,0:0:0:0:
172,214,55084,1,10,0:0:0:0:
439,24,55338,6,0,L|235:66,1,165.000005035401,6|0,0:0|0:0,0:0:0:0:
241,68,55592,1,2,0:0:0:0:
481,100,55719,1,2,0:0:0:0:
297,149,55846,1,8,0:0:0:0:
170,19,55974,6,0,P|161:98|221:151,1,165.000005035401,6|0,0:0|0:0,0:0:0:0:
254,155,56228,1,2,0:0:0:0:
0,133,56355,1,10,0:0:0:0:
107,363,56482,6,0,P|98:284|158:231,1,165.000005035401,2|0,0:0|0:0,0:0:0:0:
179,315,56736,1,2,0:0:0:0:
0,251,56863,1,2,0:0:0:0:
262,294,56991,1,2,0:0:0:0:
66,72,57118,1,10,0:0:0:0:
419,349,57372,6,0,B|444:285|444:285|434:225|434:225|468:140,1,194.999991073609,4|0,0:0|0:0,0:0:0:0:
472,129,57626,1,2,0:0:0:0:
262,294,57753,1,2,0:0:0:0:
509,235,57880,1,8,0:0:0:0:
240,220,58007,6,0,P|314:237|312:350,1,194.999991073609,4|0,0:0|0:0,0:0:0:0:
284,368,58262,1,2,0:0:0:0:
360,162,58389,1,10,0:0:0:0:
109,278,58516,6,0,B|71:232|71:232|71:84,1,194.999991073609,2|0,0:0|0:0,0:0:0:0:
38,37,58770,2,0,P|69:29|111:40,1,64.9999970245363,2|0,0:0|0:0,0:0:0:0:
208,64,58897,2,0,L|209:0,1,64.9999970245363,2|0,0:0|0:0,0:0:0:0:
0,129,59024,2,0,L|0:193,1,64.9999970245363,2|0,0:0|0:0,0:0:0:0:
256,250,59152,5,6,0:2:0:0:
293,236,59236,1,0,0:0:0:0:
313,201,59321,1,0,0:0:0:0:
306,162,59406,1,2,0:2:0:0:
276,136,59490,1,0,0:0:0:0:
236,136,59575,1,0,0:0:0:0:
205,162,59660,1,2,0:2:0:0:
198,201,59745,1,0,0:0:0:0:
218,236,59829,1,0,0:0:0:0:
256,262,59914,5,6,0:2:0:0:
300,245,59999,1,0,0:0:0:0:
324,203,60084,1,0,0:0:0:0:
316,156,60168,1,2,0:2:0:0:
280,125,60253,1,0,0:0:0:0:
232,125,60338,1,0,0:0:0:0:
194,156,60423,1,2,0:2:0:0:
186,203,60507,1,0,0:0:0:0:
210,245,60592,1,0,0:0:0:0:
256,276,60677,5,6,0:2:0:0:
309,256,60762,1,0,0:0:0:0:
338,205,60846,1,0,0:0:0:0:
328,149,60931,1,2,0:2:0:0:
284,112,61016,1,0,0:0:0:0:
227,112,61101,1,0,0:0:0:0:
182,149,61185,1,2,0:2:0:0:
172,205,61270,1,0,0:0:0:0:
201,256,61355,1,0,0:0:0:0:
256,293,61440,5,6,0:2:0:0:
320,269,61524,1,0,0:0:0:0:
354,208,61609,1,0,0:0:0:0:
342,141,61694,1,2,0:2:0:0:
290,96,61779,1,0,0:0:0:0:
221,96,61863,1,0,0:0:0:0:
168,141,61948,1,2,0:2:0:0:
156,208,62033,1,0,0:0:0:0:
190,269,62118,1,0,0:0:0:0:
232,330,62202,5,6,0:0:0:0:
257,291,62265,1,2,0:0:0:0:
258,332,62329,5,2,0:0:0:0:
276,289,62392,1,2,0:0:0:0:
285,328,62456,5,2,0:0:0:0:
294,283,62519,1,2,0:0:0:0:
310,319,62583,5,2,0:0:0:0:
310,273,62646,1,2,0:0:0:0:
333,306,62710,5,2,0:0:0:0:
325,261,62774,1,2,0:0:0:0:
354,289,62837,5,2,0:0:0:0:
337,246,62901,1,2,0:0:0:0:
370,268,62964,5,2,0:0:0:0:
346,229,63028,1,2,0:0:0:0:
383,244,63091,5,2,0:0:0:0:
351,211,63155,1,2,0:0:0:0:
391,219,63218,5,2,0:0:0:0:
353,192,63282,1,2,0:0:0:0:
393,192,63346,5,2,0:0:0:0:
352,173,63409,1,2,0:0:0:0:
391,166,63473,5,2,0:0:0:0:
346,154,63536,1,2,0:0:0:0:
384,140,63600,5,2,0:0:0:0:
338,137,63663,1,2,0:0:0:0:
372,116,63727,5,2,0:0:0:0:
326,122,63790,1,2,0:0:0:0:
356,95,63854,5,2,0:0:0:0:
312,109,63918,1,2,0:0:0:0:
336,77,63981,5,2,0:0:0:0:
296,100,64045,1,2,0:0:0:0:
313,63,64108,5,2,0:0:0:0:
278,93,64172,1,2,0:0:0:0:
287,54,64235,5,2,0:0:0:0:
259,90,64299,1,2,0:0:0:0:
261,50,64363,5,2,0:0:0:0:
240,91,64426,1,2,0:0:0:0:
234,51,64490,5,2,0:0:0:0:
221,95,64553,1,2,0:0:0:0:
208,57,64617,5,2,0:0:0:0:
203,103,64680,1,2,0:0:0:0:
184,68,64744,5,2,0:0:0:0:
188,114,64807,1,2,0:0:0:0:
162,83,64871,5,2,0:0:0:0:
174,127,64935,1,2,0:0:0:0:
143,102,64998,5,2,0:0:0:0:
164,143,65062,1,2,0:0:0:0:
128,124,65125,5,2,0:0:0:0:
156,161,65189,1,2,0:0:0:0:
118,149,65252,5,2,0:0:0:0:
152,180,65316,1,2,0:0:0:0:
113,175,65379,5,2,0:0:0:0:
152,199,65443,1,2,0:0:0:0:
112,202,65507,5,2,0:0:0:0:
156,218,65570,1,2,0:0:0:0:
117,228,65634,5,2,0:0:0:0:
162,235,65697,1,2,0:0:0:0:
126,253,65761,5,2,0:0:0:0:
172,252,65824,1,2,0:0:0:0:
140,276,65888,5,2,0:0:0:0:
185,266,65952,1,2,0:0:0:0:
158,296,66015,5,2,0:0:0:0:
201,277,66079,1,2,0:0:0:0:
180,312,66142,5,2,0:0:0:0:
218,285,66206,1,2,0:0:0:0:
255,323,66269,6,0,P|317:348|377:322,1,134.999995880127,4|0,0:0|0:0,0:0:0:0:
431,367,66523,2,0,L|431:261,1,89.9999972534181,2|8,0:3|0:0,0:0:0:0:
315,173,66777,2,0,L|315:263,1,89.9999972534181,2|8,0:3|0:0,0:0:0:0:
506,126,67031,6,0,B|476:97|476:97|368:97,1,134.999995880127,2|0,0:3|0:0,0:0:0:0:
298,28,67285,2,0,L|388:28,1,89.9999972534181,10|0,0:3|0:0,0:0:0:0:
237,173,67540,2,0,B|182:173|182:173|150:154,1,89.9999972534181,10|0,0:3|0:0,0:0:0:0:
36,56,67794,6,0,B|36:100|36:100|60:144|60:144|60:184,1,134.999995880127,2|0,0:3|0:0,0:0:0:0:
18,244,68048,2,0,P|59:258|101:243,1,89.9999972534181,2|8,0:3|0:0,0:0:0:0:
121,79,68302,1,2,0:3:0:0:
237,173,68430,1,10,0:0:0:0:
143,328,68557,6,0,B|90:314|73:259|73:259|100:243,1,134.999995880127,2|0,0:3|0:0,0:0:0:0:
140,182,68811,2,0,P|168:213|169:269,1,89.9999972534181,10|0,0:3|0:0,0:0:0:0:
51,367,69065,1,10,0:3:0:0:
251,325,69192,1,8,0:0:0:0:
150,106,69319,6,0,P|87:125|59:184,1,134.999995880127,4|0,0:0|0:0,0:0:0:0:
200,149,69574,2,0,L|179:41,1,89.9999972534181,2|8,0:3|0:0,0:0:0:0:
63,223,69828,2,0,L|80:311,1,89.9999972534181,2|8,0:3|0:0,0:0:0:0:
234,227,70082,6,0,B|215:123|215:123|200:149,1,134.999995880127,2|0,0:3|0:0,0:0:0:0:
206,295,70336,2,0,P|252:298|297:265,1,89.9999972534181,10|0,0:3|0:0,0:0:0:0:
381,118,70591,1,10,0:3:0:0:
234,227,70718,1,2,0:0:0:0:
415,211,70845,6,0,B|428:155|381:117|381:117|377:146,1,134.999995880127,2|0,0:3|0:0,0:0:0:0:
409,51,71099,2,0,P|362:47|317:80,1,89.9999972534181,2|8,0:3|0:0,0:0:0:0:
200,149,71353,2,0,P|153:152|108:119,1,89.9999972534181,10|0,0:3|0:0,0:0:0:0:
377,146,71607,5,2,0:3:0:0:
374,175,71671,1,2,0:0:0:0:
370,203,71735,1,2,0:0:0:0:
500,120,71862,2,0,L|515:17,1,89.9999972534181,10|0,0:3|0:0,0:0:0:0:
489,205,72116,1,2,0:3:0:0:
326,67,72243,1,10,0:0:0:0:
278,317,72370,6,0,B|335:358|384:313|384:313|364:303,1,134.999995880127,4|0,0:0|0:0,0:0:0:0:
241,256,72624,2,0,P|209:294|215:352,1,89.9999972534181,2|8,0:3|0:0,0:0:0:0:
454,330,72879,2,0,P|450:285|420:253,1,89.9999972534181,2|8,0:3|0:0,0:0:0:0:
263,156,73133,6,0,B|295:118|295:118|421:117,1,134.999995880127,2|0,0:3|0:0,0:0:0:0:
454,103,73387,2,0,P|450:147|420:179,1,89.9999972534181,10|4,0:3|3:0,0:0:0:0:
243,48,73641,2,0,L|335:48,1,89.9999972534181,6|0,3:3|3:0,0:0:0:0:
241,256,73896,6,0,B|167:256|167:256|135:230,1,100,6|0,3:2|0:0,0:0:0:0:
75,147,74150,1,2,3:2:0:0:
75,333,74277,1,0,0:0:0:0:
197,173,74404,2,0,B|271:173|271:173|303:199,1,100,2|0,3:2|0:0,0:0:0:0:
418,304,74658,5,2,3:2:0:0:
411,183,74785,1,0,0:0:0:0:
297,310,74913,1,2,3:2:0:0:
474,240,75040,1,0,0:0:0:0:
271,320,75167,1,2,3:2:0:0:
481,361,75294,1,0,0:0:0:0:
245,330,75421,6,0,B|226:338|226:338|244:251,1,100,2|0,3:2|0:0,0:0:0:0:
274,94,75675,1,2,3:2:0:0:
323,300,75802,1,0,0:0:0:0:
408,113,75930,2,0,B|427:105|427:105|409:192,1,100,2|0,3:2|0:0,0:0:0:0:
174,161,76184,5,2,3:2:0:0:
298,80,76311,1,0,0:0:0:0:
100,80,76438,1,2,3:2:0:0:
276,182,76565,1,0,0:0:0:0:
74,65,76692,1,2,3:2:0:0:
152,263,76819,1,0,0:0:0:0:
298,80,76946,6,0,B|378:80|378:80|352:113,1,100,2|0,3:2|0:0,0:0:0:0:
174,161,77201,1,2,3:2:0:0:
164,12,77328,1,0,0:0:0:0:
78,203,77455,2,0,P|106:244|152:263,1,100,2|0,3:2|0:0,0:0:0:0:
331,273,77709,5,2,3:2:0:0:
179,344,77836,1,0,0:0:0:0:
276,182,77963,1,2,3:2:0:0:
291,383,78091,1,0,0:0:0:0:
199,144,78218,5,2,3:2:0:0:
235,106,78302,1,2,0:2:0:0:
287,96,78387,1,2,0:2:0:0:
334,118,78472,1,8,3:0:0:0:
382,141,78557,1,8,3:0:0:0:
433,130,78642,1,8,3:0:0:0:
470,93,78726,5,8,3:0:0:0:
463,146,78811,1,8,3:0:0:0:
483,195,78896,1,8,3:0:0:0:
511,239,78980,1,12,3:3:0:0:
511,292,79065,1,12,3:3:0:0:
476,333,79150,1,12,3:0:0:0:
422,333,79235,5,10,0:0:0:0:
68,226,79489,1,10,0:0:0:0:
394,52,79743,6,0,L|345:78,1,55.0000016784668,2|2,0:0|0:0,0:0:0:0:
278,233,79870,6,0,L|279:178,1,55.0000016784668,2|2,0:0|0:0,0:0:0:0:
177,40,79997,6,0,L|226:70,1,56.9999993041992,2|0,0:0|0:0,0:0:0:0:
283,110,80251,5,4,0:0:0:0:
144,324,80378,2,0,B|118:227|118:227|59:176|59:176|26:57,1,279.999991455078,8|8,0:0|0:0,0:0:0:0:
352,241,80760,1,2,0:0:0:0:
331,285,80823,1,2,0:0:0:0:
286,307,80887,1,10,0:0:0:0:
238,297,80950,1,2,0:0:0:0:
209,256,81013,6,0,P|322:269|346:379,1,209.999993591309,2|0,0:0|0:0,0:0:0:0:
353,384,81268,1,2,0:0:0:0:
33,324,81395,2,0,B|58:227|58:227|117:176|117:176|150:57,1,279.999991455078,10|8,0:0|0:0,0:0:0:0:
167,319,81776,1,2,0:0:0:0:
212,335,81839,1,2,0:0:0:0:
260,319,81903,1,10,0:0:0:0:
287,277,81966,1,2,0:0:0:0:
278,228,82030,6,0,B|253:187|253:187|278:84,1,139.999995727539,2|8,0:0|0:0,0:0:0:0:
512,315,82285,2,0,B|488:357|488:357|387:387,1,139.999995727539,2|8,0:0|0:0,0:0:0:0:
471,69,82539,1,2,0:0:0:0:
178,113,82666,1,10,0:0:0:0:
420,204,82793,1,2,0:0:0:0:
256,0,82920,1,10,0:0:0:0:
212,291,83047,6,0,P|149:318|85:290,1,139.999995727539,2|8,0:0|0:0,0:0:0:0:
345,68,83302,2,0,P|407:41|470:68,1,139.999995727539,2|8,0:0|0:0,0:0:0:0:
150,232,83556,1,8,3:2:0:0:
120,193,83619,1,8,3:2:0:0:
119,143,83683,1,8,3:2:0:0:
149,105,83746,1,8,3:2:0:0:
196,91,83810,1,4,3:0:0:0:
241,108,83873,1,4,3:0:0:0:
266,150,83937,2,0,P|268:183|251:218,1,69.9999978637696,2|2,0:2|0:2,0:2:0:0:
210,320,84064,6,0,P|199:263|150:232,1,119.999996337891,6|0,0:0|0:0,0:0:0:0:
136,346,84255,2,0,B|181:346|181:346|225:367|225:367|273:367,1,135.000000514984,2|0,0:0|0:0,0:0:0:0:
46,232,84446,2,0,B|46:283|46:283|67:327|67:327|67:382,1,150.000005722046,6|0,0:0|0:0,0:0:0:0:
191,167,84700,1,2,0:0:0:0:
266,367,84827,1,10,0:0:0:0:
413,121,84954,1,2,0:0:0:0:
374,340,85081,6,0,B|352:361|352:361|352:253,1,119.999996337891,6|0,0:0|0:0,0:0:0:0:
472,215,85272,2,0,B|504:215|504:215|427:292,1,135.000000514984,2|0,0:0|0:0,0:0:0:0:
291,219,85463,2,0,B|270:196|270:196|388:196,1,150.000005722046,6|0,0:0|0:0,0:0:0:0:
512,349,85717,1,2,0:0:0:0:
496,140,85844,1,10,0:0:0:0:
352,271,85971,1,2,0:0:0:0:
306,298,86035,1,2,0:0:0:0:
254,290,86098,6,0,P|218:250|244:154,1,150.000005722046,14|0,0:0|0:0,0:0:0:0:
489,366,86352,2,0,B|422:366|422:366|379:396|321:370,1,150.000005722046,14|0,0:0|0:0,0:0:0:0:
85,184,86607,5,10,0:2:0:0:
487,0,86797,1,10,0:2:0:0:
489,366,86988,1,10,0:2:0:0:
348,124,87115,6,8,B|356:83|356:83|412:45,2,100.000003814697,10|10|10,0:2|0:2|0:2,0:0:0:0:
256,284,87369,2,8,L|256:389,2,100.000003814697,10|10|10,0:2|0:2|0:2,0:0:0:0:
164,124,87624,2,8,B|155:83|155:83|99:45,2,100.000003814697,10|10|10,0:2|0:2|0:2,0:0:0:0:
4,192,87878,5,2,3:2:0:0:
7,197,87941,1,2,3:2:0:0:
10,202,88005,1,2,3:2:0:0:
13,207,88069,1,2,3:2:0:0:
47,261,88132,6,0,P|86:178|12:111,1,194.999991073609,6|0,0:0|0:0,0:0:0:0:
0,310,88386,2,0,L|150:310,1,129.999994049073,6|0,0:0|0:0,0:0:0:0:
390,194,88641,6,0,B|318:139|248:195|248:195|248:257,1,194.999991073609,4|0,0:0|0:0,0:0:0:0:
176,243,88895,1,2,0:0:0:0:
199,285,88959,1,2,0:0:0:0:
244,303,89022,1,2,0:0:0:0:
290,291,89086,1,2,0:0:0:0:
319,253,89149,5,4,3:2:0:0:
318,266,89213,1,0,3:0:0:0:
317,278,89276,1,0,3:0:0:0:
316,291,89340,1,0,3:0:0:0:
315,303,89403,2,0,P|345:312|376:304,1,64.9999970245363,2|0,3:2|3:0,0:0:0:0:
472,236,89530,2,0,P|464:205|442:182,1,64.9999970245363,2|0,3:2|3:0,0:0:0:0:
336,134,89658,5,0,3:0:0:0:
335,147,89722,1,0,3:0:0:0:
334,159,89785,1,0,3:0:0:0:
333,172,89849,1,0,3:0:0:0:
332,184,89912,2,0,L|393:238,1,64.9999970245363,6|2,3:2|3:2,0:0:0:0:
461,70,90039,2,0,L|411:111,1,64.9999970245363,2|2,3:2|3:2,0:0:0:0:
315,303,90166,5,6,0:0:0:0:
200,96,90293,2,0,B|145:96|145:96|124:108,1,69.9999978637696,8|2,0:0|0:0,0:0:0:0:
6,167,90420,2,0,B|36:188|36:188|165:188,1,139.999995727539,0|10,0:0|0:0,0:0:0:0:
294,0,90674,1,2,0:0:0:0:
380,227,90802,2,0,P|398:261|394:298,1,69.9999978637696,8|2,0:0|0:0,0:0:0:0:
220,384,90929,2,0,P|184:328|209:248,1,139.999995727539,0|8,0:0|0:0,0:0:0:0:
427,59,91183,5,2,0:0:0:0:
458,86,91246,1,2,0:0:0:0:
416,102,91310,5,10,0:0:0:0:
437,137,91374,1,2,0:0:0:0:
392,139,91437,5,2,0:0:0:0:
401,179,91501,1,2,0:0:0:0:
357,166,91564,5,10,0:0:0:0:
353,207,91628,1,2,0:0:0:0:
315,180,91691,5,2,0:0:0:0:
298,218,91755,1,2,0:0:0:0:
270,181,91819,5,2,0:0:0:0:
242,212,91882,1,2,0:0:0:0:
226,168,91946,5,0,3:0:0:0:
188,142,92009,1,0,3:0:0:0:
159,105,92073,2,0,P|134:83|98:77,1,69.9999978637696,0|0,3:0|3:0,0:0:0:0:
51,257,92200,6,0,L|100:148,1,119.999996337891,6|0,0:0|0:0,0:0:0:0:
22,37,92391,2,0,L|100:148,1,135.000000514984,2|0,0:0|0:0,0:0:0:0:
249,134,92581,2,0,L|100:148,1,150.000005722046,6|0,0:0|0:0,0:0:0:0:
435,117,92835,1,2,0:0:0:0:
204,297,92963,1,2,0:0:0:0:
281,33,93090,1,2,0:0:0:0:
313,322,93217,6,0,P|371:315|407:269,1,119.999996337891,6|0,0:0|0:0,0:0:0:0:
418,152,93408,2,0,P|384:207|407:269,1,135.000000514984,2|0,0:0|0:0,0:0:0:0:
511,349,93598,2,0,P|477:284|407:269,1,150.000005722046,6|0,0:0|0:0,0:0:0:0:
126,369,93852,1,2,0:0:0:0:
426,352,93980,1,2,0:0:0:0:
126,241,94107,1,2,0:0:0:0:
99,219,94170,1,2,0:0:0:0:
84,184,94234,6,0,B|69:126|99:87|99:87|131:138,1,139.999995727539,14|0,0:0|0:0,0:0:0:0:
407,268,94488,5,10,0:0:0:0:
458,247,94573,1,2,0:0:0:0:
489,202,94658,1,2,0:0:0:0:
489,146,94742,1,10,0:0:0:0:
458,101,94827,1,2,0:0:0:0:
407,80,94912,1,2,0:0:0:0:
353,92,94996,1,10,0:0:0:0:
315,131,95081,1,2,0:0:0:0:
306,186,95166,1,2,0:0:0:0:
328,236,95251,6,0,B|396:192|396:192|400:164,1,93.3333304850261,14|2,0:0|0:0,0:0:0:0:
120,120,95420,1,2,0:0:0:0:
119,120,95505,2,0,B|51:164|51:164|47:192,1,93.3333304850261,10|2,0:0|0:0,0:0:0:0:
282,73,95674,1,2,0:0:0:0:
282,73,95759,2,0,B|237:5|237:5|209:1,1,93.3333304850261,10|2,0:0|0:0,0:0:0:0:
165,283,95929,1,2,0:0:0:0:
165,283,96013,2,0,B|209:350|209:350|237:354,1,93.3333304850261,10|2,0:0|0:0,0:0:0:0:
402,325,96183,1,2,0:0:0:0:
478,162,96268,6,2,B|431:214|359:171|359:171|279:192|251:278|251:278|242:193|165:170|113:175|41:229|43:303|76:382|166:389|224:350,1,750,6|2,0:0|0:0,0:0:0:0:
165,283,97285,5,2,1:2:0:0:
416,108,97475,1,2,1:2:0:0:
53,167,97666,1,2,1:2:0:0:
383,367,97857,1,2,1:2:0:0:
327,5,98047,1,2,1:2:0:0:
436,182,98174,1,2,1:2:0:0:
211,32,98303,5,12,0:0:0:0:
176,52,98386,1,0,0:0:0:0:
154,85,98471,1,0,0:0:0:0:
151,124,98557,1,8,0:0:0:0:
166,161,98640,1,0,0:0:0:0:
195,187,98725,1,0,0:0:0:0:
210,223,98811,1,8,0:0:0:0:
207,262,98895,1,0,0:0:0:0:
185,296,98980,1,0,0:0:0:0:
152,316,99065,5,8,0:0:0:0:
191,312,99149,1,0,0:0:0:0:
230,308,99234,1,0,0:0:0:0:
249,349,99319,5,8,0:0:0:0:
273,318,99403,1,0,0:0:0:0:
298,288,99488,1,0,0:0:0:0:
340,303,99574,5,8,0:0:0:0:
335,264,99657,1,0,0:0:0:0:
332,225,99742,1,0,0:0:0:0:
371,206,99828,5,8,0:0:0:0:
331,202,99911,1,0,0:0:0:0:
297,182,99996,1,0,0:0:0:0:
274,149,100082,1,8,0:0:0:0:
268,110,100165,1,0,0:0:0:0:
278,72,100250,1,0,0:0:0:0:
304,41,100335,1,8,0:0:0:0:
340,25,100420,1,0,0:0:0:0:
380,26,100505,1,0,0:0:0:0:
416,43,100591,5,8,0:0:0:0:
379,59,100674,1,0,0:0:0:0:
342,75,100759,1,0,0:0:0:0:
278,72,100845,5,8,0:0:0:0:
315,87,100929,1,0,0:0:0:0:
352,103,101014,1,0,0:0:0:0:
416,100,101099,5,8,0:0:0:0:
379,115,101183,1,0,0:0:0:0:
342,131,101268,1,0,0:0:0:0:
305,147,101353,5,8,0:0:0:0:
270,126,101436,1,0,0:0:0:0:
231,124,101521,1,0,0:0:0:0:
195,141,101607,1,8,0:0:0:0:
170,172,101690,1,0,0:0:0:0:
145,203,101776,1,0,0:0:0:0:
109,220,101861,1,8,0:0:0:0:
70,218,101946,1,0,0:0:0:0:
36,198,102030,1,0,0:0:0:0:
22,160,102115,5,8,0:0:0:0:
14,199,102200,1,0,0:0:0:0:
6,238,102285,1,0,0:0:0:0:
70,218,102369,5,8,0:0:0:0:
62,257,102454,1,0,0:0:0:0:
54,296,102539,1,0,0:0:0:0:
118,276,102624,5,8,0:0:0:0:
110,315,102708,1,0,0:0:0:0:
102,354,102793,1,0,0:0:0:0:
179,330,102878,6,0,P|215:308|259:310,1,66.6666666666667,8|0,0:0|0:0,0:0:0:0:
382,257,103047,1,0,0:0:0:0:
382,257,103132,2,0,P|345:235|301:237,1,66.6666666666667,8|0,0:0|0:0,0:0:0:0:
179,184,103302,1,0,0:0:0:0:
179,184,103386,2,0,P|216:162|260:164,1,66.6666666666667,8|0,0:0|0:0,0:0:0:0:
382,111,103556,1,0,0:0:0:0:
447,139,103640,5,2,0:0:0:0:
447,86,103725,1,2,0:0:0:0:
412,48,103810,1,2,0:0:0:0:
360,45,103895,1,2,0:0:0:0:
320,78,103979,1,2,0:0:0:0:
314,130,104064,2,0,P|336:163|371:177,1,66.6666666666667,2|2,0:0|0:0,0:0:0:0:
496,249,104234,2,0,P|479:277|451:293,1,66.6666666666667,2|2,0:0|0:0,0:0:0:0:
291,376,104403,5,4,0:0:0:0:
225,361,104489,1,0,0:0:0:0:
185,307,104573,1,0,0:0:0:0:
191,241,104658,1,2,0:3:0:0:
149,188,104743,1,0,0:0:0:0:
83,176,104828,1,0,0:0:0:0:
27,212,104912,1,2,0:3:0:0:
6,277,104997,1,0,0:0:0:0:
34,337,105082,1,0,0:0:0:0:
96,366,105166,6,0,P|152:348|170:314,1,79.9999975585938,2|0,0:3|0:0,0:0:0:0:
343,288,105335,1,0,0:0:0:0:
343,288,105420,2,0,P|299:248|260:249,1,79.9999975585938,2|0,0:3|0:0,0:0:0:0:
154,113,105590,1,0,0:0:0:0:
154,113,105674,2,0,P|139:149|148:187,1,79.9999975585938,2|0,0:3|0:0,0:0:0:0:
331,372,105844,1,0,0:0:0:0:
396,356,105929,5,2,0:3:0:0:
424,296,106013,1,0,0:0:0:0:
407,231,106098,1,0,0:0:0:0:
351,193,106183,1,2,0:3:0:0:
312,139,106267,1,0,0:0:0:0:
320,72,106352,1,0,0:0:0:0:
370,28,106437,1,2,0:3:0:0:
436,28,106521,1,0,0:0:0:0:
485,72,106606,1,0,0:0:0:0:
495,138,106691,6,0,P|453:146|403:124,1,79.9999975585938,2|0,0:3|0:0,0:0:0:0:
273,253,106861,1,0,0:0:0:0:
273,253,106946,2,0,P|287:212|331:180,1,79.9999975585938,2|0,0:3|0:0,0:0:0:0:
284,4,107115,1,0,0:0:0:0:
284,4,107200,2,0,P|311:36|317:90,1,79.9999975585938,2|0,0:3|0:0,0:0:0:0:
407,231,107369,1,0,0:0:0:0:
424,296,107454,5,2,0:3:0:0:
396,356,107539,1,0,0:0:0:0:
331,372,107624,1,0,0:0:0:0:
269,348,107708,1,2,0:3:0:0:
244,286,107793,1,0,0:0:0:0:
219,224,107879,1,0,0:0:0:0:
157,200,107963,1,2,0:3:0:0:
92,216,108048,1,0,0:0:0:0:
64,276,108133,1,0,0:0:0:0:
81,341,108217,6,0,P|124:331|149:296,1,79.9999975585938,2|0,0:3|0:0,0:0:0:0:
157,125,108386,1,0,0:0:0:0:
157,125,108471,2,0,P|144:167|161:206,1,79.9999975585938,2|0,0:3|0:0,0:0:0:0:
306,298,108640,1,0,0:0:0:0:
306,298,108725,2,0,P|275:265|233:261,1,79.9999975585938,2|0,0:3|0:0,0:0:0:0:
311,83,108895,1,0,0:0:0:0:
311,83,108979,6,0,L|241:173,1,79.9999975585938,2|0,0:3|0:0,0:0:0:0:
461,91,109149,1,0,0:0:0:0:
461,91,109234,2,0,L|418:-14,1,79.9999975585938,2|0,0:3|0:0,0:0:0:0:
379,216,109403,1,0,0:0:0:0:
379,216,109488,2,0,L|491:231,2,79.9999975585938,2|0|0,0:3|0:0|0:0,0:0:0:0:
184,32,109742,5,2,0:0:0:0:
150,44,109806,1,2,0:0:0:0:
125,70,109869,1,2,0:0:0:0:
113,103,109933,1,2,0:0:0:0:
116,139,109996,1,2,0:0:0:0:
133,170,110060,1,2,0:0:0:0:
162,191,110124,1,2,0:0:0:0:
192,211,110187,1,2,0:0:0:0:
209,243,110251,1,2,0:0:0:0:
213,278,110314,1,2,0:0:0:0:
200,311,110378,1,2,0:0:0:0:
175,337,110441,1,2,0:0:0:0:
143,350,110505,6,0,L|136:283,1,66.6666666666667,6|2,0:0|0:0,0:0:0:0:
240,98,110674,1,2,0:0:0:0:
240,98,110759,2,0,L|247:165,1,66.6666666666667,2|2,0:0|0:0,0:0:0:0:
66,176,110928,1,2,0:0:0:0:
66,176,111013,2,0,L|133:169,1,66.6666666666667,2|2,0:0|0:0,0:0:0:0:
318,273,111182,1,2,0:0:0:0:
318,273,111267,2,0,L|251:280,2,66.6666666666667,2|2|2,0:0|0:0|0:0,0:0:0:0:
509,252,111521,5,2,0:0:0:0:
18,181,112538,5,10,1:2:0:0:
161,308,112666,1,10,1:2:0:0:
104,31,112793,1,10,1:2:0:0:
5,312,112920,5,10,1:2:0:0:
282,254,113048,1,10,1:2:0:0:
132,169,113175,1,10,1:2:0:0:
268,384,113301,5,10,1:2:0:0:
302,77,113428,1,10,1:2:0:0:
161,308,113555,1,10,1:2:0:0:
403,200,113682,5,10,1:2:0:0:
171,38,113810,1,10,1:2:0:0:
388,332,113937,1,10,1:2:0:0:
418,68,114064,5,10,1:2:0:0:
132,169,114191,1,4,1:3:0:0:
510,279,114318,1,4,1:3:0:0:
302,0,114445,5,4,1:3:0:0:
302,0,114954,2,0,L|277:24,1,25,4|4,3:0|3:0,0:0:0:0:
119,106,115081,5,2,0:0:0:0:
92,137,115144,1,2,0:0:0:0:
119,115,115208,5,2,0:0:0:0:
92,146,115271,1,2,0:0:0:0:
119,124,115335,5,2,0:0:0:0:
92,155,115398,1,2,0:0:0:0:
119,133,115462,5,2,0:0:0:0:
92,164,115525,1,2,0:0:0:0:
119,142,115589,5,2,0:0:0:0:
92,173,115652,1,2,0:0:0:0:
119,151,115716,5,2,0:0:0:0:
92,182,115780,1,2,0:0:0:0:
119,160,115843,5,2,0:0:0:0:
92,191,115907,1,2,0:0:0:0:
119,169,115970,5,2,0:0:0:0:
92,200,116034,1,2,0:0:0:0:
119,178,116097,5,2,0:0:0:0:
92,209,116161,1,2,0:0:0:0:
119,187,116225,5,2,0:0:0:0:
92,218,116288,1,2,0:0:0:0:
119,196,116352,5,2,0:0:0:0:
92,227,116415,1,2,0:0:0:0:
119,205,116479,5,2,0:0:0:0:
92,236,116542,1,2,0:0:0:0:
119,214,116606,5,2,0:0:0:0:
92,245,116669,1,2,0:0:0:0:
119,223,116733,5,2,0:0:0:0:
92,254,116797,1,2,0:0:0:0:
119,232,116860,5,2,0:0:0:0:
92,263,116924,1,2,0:0:0:0:
119,241,116987,5,2,0:0:0:0:
92,272,117051,1,2,0:0:0:0:
119,250,117114,5,2,0:0:0:0:
92,281,117178,1,2,0:0:0:0:
119,259,117242,5,2,0:0:0:0:
92,290,117305,1,2,0:0:0:0:
119,268,117369,5,2,0:0:0:0:
92,299,117432,1,2,0:0:0:0:
119,277,117496,5,2,0:0:0:0:
92,308,117559,1,2,0:0:0:0:
119,286,117623,5,2,0:0:0:0:
92,317,117686,1,2,0:0:0:0:
119,295,117750,5,2,0:0:0:0:
92,326,117814,1,2,0:0:0:0:
119,304,117877,5,2,0:0:0:0:
92,335,117941,1,2,0:0:0:0:
119,313,118004,5,2,0:0:0:0:
92,344,118068,1,2,0:0:0:0:
116,364,118131,5,4,3:0:0:0:
