osu file format v14

[General]
AudioFilename: audio.mp3
AudioLeadIn: 0
PreviewTime: 20254
Countdown: 0
SampleSet: Soft
StackLeniency: 0.5
Mode: 0
LetterboxInBreaks: 0
WidescreenStoryboard: 0

[Editor]
DistanceSpacing: 1.1
BeatDivisor: 4
GridSize: 4
TimelineZoom: 1.9

[Metadata]
Title:Lachryma
TitleUnicode:Lachryma《Re:Queen'M》
Artist:Kaneko Chiharu
ArtistUnicode:かねこちはる
Creator:Kroytz
Version:EXHAUST
Source:SOUND VOLTEX III GRAVITY WARS
Tags:SDVX Grace The 5th KAC Original Song Contest KONAMI BEMANI Battle Ametrin Fizz Ponoyoshi Alheak toybot Smoothie World
BeatmapID:1231134
BeatmapSetID:475629

[Difficulty]
HPDrainRate:5
CircleSize:4
OverallDifficulty:8
ApproachRate:9.2
SliderMultiplier:1.89999995470047
SliderTickRate:1

[Events]
//Background and Video events
0,0,"BG.png",0,0
//Break Periods
//Storyboard Layer 0 (Background)
//Storyboard Layer 1 (Fail)
//Storyboard Layer 2 (Pass)
//Storyboard Layer 3 (Foreground)
//Storyboard Sound Samples

[TimingPoints]
678,254.237288135593,3,2,1,55,1,0
678,-125,3,2,1,55,0,0
5254,-153.846153846154,3,2,1,55,0,0
6016,-200,3,2,1,55,0,0
6779,-125,3,2,1,55,0,0
14406,-100,3,2,1,55,0,0
20508,254.237288135593,4,2,1,55,1,1
20508,-86.9565217391304,4,2,1,55,0,1
24575,-90.9090909090909,4,2,1,55,0,1
24702,-90.9090909090909,4,2,1,5,0,1
24766,-80,4,2,1,55,0,1
24893,-80,4,2,1,5,0,1
24957,-71.4285714285714,4,2,1,55,0,1
25338,-86.9565217391304,4,2,1,55,0,1
25592,-90.9090909090909,4,2,1,55,0,1
25719,-90.9090909090909,4,2,1,5,0,1
25783,-80,4,2,1,55,0,1
25910,-80,4,2,1,5,0,1
25974,-71.4285714285714,4,2,1,55,0,1
26355,-90.9090909090909,4,2,1,55,0,1
26609,-86.9565217391304,4,2,1,55,0,1
27118,-86.9565217391304,4,3,2,55,0,1
27880,-142.857142857143,4,2,2,55,0,0
28389,-90.9090909090909,4,2,1,55,0,0
28643,-86.9565217391304,4,2,1,55,0,1
30677,-71.4285714285714,4,2,1,55,0,1
32711,-90.9090909090909,4,2,1,55,0,1
32838,-90.9090909090909,4,2,1,5,0,1
32902,-80,4,2,1,55,0,1
33029,-80,4,2,1,5,0,1
33092,-71.4285714285714,4,2,1,55,0,1
33728,-90.9090909090909,4,2,1,55,0,1
33855,-90.9090909090909,4,2,1,5,0,1
33919,-80,4,2,1,55,0,1
34046,-80,4,2,1,5,0,1
34109,-71.4285714285714,4,2,1,55,0,1
34745,-74.0740740740741,4,2,1,55,0,1
36779,-100,4,2,1,55,0,0
59152,254.237288135593,3,2,1,55,1,0
62202,254.237288135593,4,2,1,55,1,0
62202,-333.333333333333,4,2,1,55,0,0
63218,-200,4,2,1,55,0,0
63727,-142.857142857143,4,2,1,55,0,0
64235,-83.3333333333333,4,2,1,55,0,0
66269,254.237288135593,3,2,1,55,1,0
66269,-111.111111111111,3,2,1,55,0,0
66459,-111.111111111111,3,2,1,5,0,0
66523,-111.111111111111,3,2,1,55,0,0
67222,-111.111111111111,3,2,1,5,0,0
67285,-111.111111111111,3,2,1,55,0,0
67985,-111.111111111111,3,2,1,5,0,0
68048,-111.111111111111,3,2,1,55,0,0
68747,-111.111111111111,3,2,1,5,0,0
68811,-111.111111111111,3,2,1,55,0,0
69510,-111.111111111111,3,2,1,5,0,0
69574,-111.111111111111,3,2,1,55,0,0
70273,-111.111111111111,3,2,1,5,0,0
70336,-111.111111111111,3,2,1,55,0,0
71035,-111.111111111111,3,2,1,5,0,0
71099,-111.111111111111,3,2,1,55,0,0
72561,-111.111111111111,3,2,1,5,0,0
72624,-111.111111111111,3,2,1,55,0,0
73324,-111.111111111111,3,2,1,5,0,0
73387,-111.111111111111,3,2,1,55,0,0
73896,-100,3,2,1,55,0,0
79743,-90.9090909090909,3,2,1,55,0,0
79997,254.237288135593,4,2,5,75,1,0
79997,-200,4,2,5,75,0,0
80187,-200,4,2,1,5,0,0
80251,-83.3333333333333,4,2,1,55,0,1
84191,-83.3333333333333,4,2,1,5,0,1
84255,-74.0740740740741,4,2,1,55,0,1
84382,-74.0740740740741,4,2,1,5,0,1
84446,-66.6666666666667,4,2,1,55,0,1
85081,-83.3333333333333,4,2,1,55,0,1
85208,-83.3333333333333,4,2,1,5,0,1
85272,-74.0740740740741,4,2,1,55,0,1
85399,-74.0740740740741,4,2,1,5,0,1
85463,-66.6666666666667,4,2,1,55,0,1
86098,-83.3333333333333,4,2,1,55,0,1
87115,-83.3333333333333,4,2,1,55,0,1
88132,-76.9230769230769,4,2,1,55,0,1
88323,-76.9230769230769,4,2,1,5,0,1
88386,-76.9230769230769,4,2,1,55,0,1
88577,-76.9230769230769,4,2,1,5,0,1
88641,-76.9230769230769,4,2,1,55,0,1
88831,-76.9230769230769,4,2,1,5,0,1
88895,-76.9230769230769,4,2,1,55,0,1
90166,-71.4285714285714,4,2,1,55,0,1
92200,-83.3333333333333,4,2,1,55,0,1
92327,-83.3333333333333,4,2,1,5,0,1
92391,-74.0740740740741,4,2,1,55,0,1
92518,-74.0740740740741,4,2,1,5,0,1
92581,-66.6666666666667,4,2,1,55,0,1
93217,-83.3333333333333,4,2,1,55,0,1
93344,-83.3333333333333,4,2,1,5,0,1
93408,-74.0740740740741,4,2,1,55,0,1
93535,-74.0740740740741,4,2,1,5,0,1
93598,-66.6666666666667,4,2,1,55,0,1
94234,-83.3333333333333,4,2,1,55,0,1
96268,-100,4,2,1,55,0,0
97221,-100,4,2,1,5,0,0
97285,-100,4,2,1,55,0,0
98302,254.237288135593,3,2,1,55,1,1
104340,-100,3,2,1,55,0,0
104403,-100,3,2,1,55,0,1
105166,-83.3333333333333,3,2,1,55,0,1
105929,-100,3,2,1,55,0,1
106691,-83.3333333333333,3,2,1,55,0,1
107454,-100,3,2,1,55,0,1
108217,-83.3333333333333,3,2,1,55,0,1
110505,254.237288135593,4,2,1,55,1,0
115081,254.237288135593,4,2,1,55,1,1
115081,-333.333333333333,4,2,1,55,0,1
118131,-100,4,2,1,55,0,0

[Colours]
Combo1 : 70,70,255
Combo2 : 255,62,62
Combo3 : 255,137,81
Combo4 : 0,174,174
Combo5 : 0,101,202

[HitObjects]
39,230,678,6,0,P|22:302|64:363,1,152,6|0,0:2|0:0,0:0:0:0:
189,340,1059,2,0,P|207:268|165:208,1,152,8|8,0:3|0:3,0:0:0:0:
80,90,1441,2,0,L|93:164,1,76,2|0,0:0|0:0,0:0:0:0:
195,62,1694,2,0,L|208:136,1,76,10|0,0:0|0:0,0:0:0:0:
310,34,1949,2,0,L|323:108,1,76,10|0,0:0|0:0,0:0:0:0:
326,320,2203,6,0,B|315:266|315:266|289:234|289:234|278:179,1,152,2|0,0:0|0:0,0:0:0:0:
408,341,2584,2,0,L|258:371,1,152,8|8,0:3|0:3,0:0:0:0:
409,251,2966,2,0,L|484:236,1,76,2|0,0:0|0:0,0:0:0:0:
410,161,3220,2,0,L|485:146,1,76,10|0,0:0|0:0,0:0:0:0:
411,71,3474,2,0,L|486:56,1,76,10|0,0:0|0:0,0:0:0:0:
332,206,3728,6,0,L|182:236,1,152,2|0,0:2|0:0,0:0:0:0:
183,86,4110,2,0,L|333:116,1,152,8|8,0:3|0:3,0:0:0:0:
107,160,4491,2,0,L|32:175,1,76,2|0,0:0|0:0,0:0:0:0:
96,255,4745,2,0,L|21:270,1,76,10|0,0:0|0:0,0:0:0:0:
85,350,5000,2,0,L|10:365,1,76,10|0,0:0|0:0,0:0:0:0:
237,354,5254,6,0,P|332:265|209:215,1,308.749985866547,2|0,0:0|0:0,0:0:0:0:
254,278,6016,6,0,B|349:261|349:261|384:287|384:287|485:269,1,237.5,2|0,0:0|0:0,0:0:0:0:
397,113,6779,6,0,L|417:211,1,76,4|0,0:0|0:0,0:0:0:0:
452,47,7033,1,0,0:0:0:0:
418,30,7097,1,0,0:0:0:0:
380,30,7161,1,8,0:0:0:0:
346,46,7224,1,0,0:0:0:0:
322,75,7288,2,0,P|294:95|232:93,1,76,0|8,0:0|0:0,0:0:0:0:
131,68,7542,6,0,L|143:130,3,38,2|0|0|0,0:0|0:0|0:0|0:0,0:0:0:0:
75,225,7796,2,0,L|123:182,3,38,10|0|0|0,0:0|0:0|0:0|0:0,0:0:0:0:
239,195,8050,2,0,L|178:174,3,38,10|0|0|0,0:0|0:0|0:0|0:0,0:0:0:0:
167,276,8305,6,0,L|182:350,1,76,2|0,0:0|0:0,0:0:0:0:
273,289,8559,1,0,0:0:0:0:
297,260,8622,1,0,0:0:0:0:
332,245,8686,1,8,0:0:0:0:
370,246,8749,1,0,0:0:0:0:
403,264,8813,2,0,P|446:267|477:253,1,76,0|8,0:0|0:0,0:0:0:0:
419,143,9067,6,0,L|427:181,3,38,2|0|0|0,0:0|0:0|0:0|0:0,0:0:0:0:
348,68,9322,2,0,L|312:59,3,38,10|0|0|0,0:0|0:0|0:0|0:0,0:0:0:0:
446,46,9576,2,0,L|474:20,3,38,10|0|8|0,0:0|0:0|0:0|0:0,0:0:0:0:
321,165,9830,6,0,L|241:143,1,76,4|0,0:0|0:0,0:0:0:0:
147,69,10084,2,0,L|226:47,1,76,0|8,0:0|0:0,0:0:0:0:
63,19,10339,1,0,0:0:0:0:
49,54,10402,1,0,0:0:0:0:
50,92,10466,1,8,0:0:0:0:
66,126,10529,1,0,0:0:0:0:
94,151,10593,6,0,P|105:188|86:237,1,76,2|0,0:0|0:0,0:0:0:0:
2,307,10847,1,8,0:0:0:0:
37,293,10910,1,0,0:0:0:0:
74,296,10974,1,0,0:0:0:0:
107,315,11037,1,0,0:0:0:0:
128,346,11101,2,0,P|155:369|211:367,1,50.6666654586792,8|0,0:0|0:0,0:0:0:0:
203,259,11355,6,0,L|180:323,3,38,2|0|0|0,0:0|0:0|0:0|0:0,0:0:0:0:
279,319,11610,2,0,L|322:370,3,38,2|0|8|0,0:0|0:0|0:0|0:0,0:0:0:0:
368,283,11864,2,0,L|434:270,3,38,2|0|8|0,0:0|0:0|0:0|0:0,0:0:0:0:
381,187,12118,6,0,L|393:151,3,38,2|0|0|0,0:0|0:0|0:0|0:0,0:0:0:0:
303,126,12372,2,0,L|279:97,3,38,10|0|0|0,0:0|0:0|0:0|0:0,0:0:0:0:
213,163,12627,6,0,L|175:169,1,38,10|0,0:0|0:0,0:0:0:0:
203,259,12754,2,0,L|190:294,1,38,8|0,0:0|0:0,0:0:0:0:
85,155,12881,6,0,L|110:226,1,76,4|0,0:0|0:0,0:0:0:0:
3,128,13135,1,0,0:0:0:0:
21,96,13199,1,0,0:0:0:0:
52,74,13262,1,8,0:0:0:0:
89,68,13326,1,0,0:0:0:0:
125,78,13389,2,0,L|100:7,1,76,0|8,0:0|0:0,0:0:0:0:
70,303,13644,5,2,0:0:0:0:
105,312,13708,1,0,0:0:0:0:
142,306,13772,1,0,0:0:0:0:
173,284,13835,1,0,0:0:0:0:
192,253,13898,5,10,3:2:0:0:
206,64,14025,1,0,3:0:0:0:
308,226,14152,1,0,3:0:0:0:
130,154,14279,1,0,3:0:0:0:
314,108,14406,6,0,P|370:122|426:237,1,190,6|2,3:2|3:2,0:0:0:0:
362,331,14788,1,0,0:0:0:0:
362,331,14915,2,0,L|455:350,1,95,2|0,3:2|0:0,0:0:0:0:
308,226,15169,2,0,L|215:245,1,95,2|0,3:2|0:0,0:0:0:0:
376,354,15423,2,0,L|469:373,1,95,2|0,3:2|0:0,0:0:0:0:
294,249,15677,2,0,L|201:268,1,95,2|0,3:2|0:0,0:0:0:0:
117,377,15932,6,0,B|101:304|101:304|113:262|113:262|99:191,1,190,2|2,3:2|3:2,0:0:0:0:
142,30,16313,1,0,0:0:0:0:
142,30,16440,2,0,L|161:130,1,95,2|0,3:2|0:0,0:0:0:0:
24,257,16694,2,0,L|5:163,1,95,2|0,3:2|0:0,0:0:0:0:
162,44,16949,2,0,L|181:144,1,95,2|0,3:2|0:0,0:0:0:0:
44,271,17203,2,0,L|24:170,1,95,2|0,3:2|0:0,0:0:0:0:
263,158,17457,6,0,P|199:222|114:194,1,190,2|2,3:2|3:2,0:0:0:0:
255,70,17839,1,0,0:0:0:0:
255,70,17966,2,0,P|303:77|343:117,1,95,2|0,3:2|0:0,0:0:0:0:
353,285,18220,2,0,P|335:239|349:185,1,95,2|0,3:2|0:0,0:0:0:0:
491,93,18474,2,0,P|460:131|406:145,1,95,2|0,3:2|0:0,0:0:0:0:
263,158,18728,6,0,P|229:160|198:184,1,63.3333333333333,2|2,3:2|0:0,0:0:0:0:
153,257,18898,1,2,0:0:0:0:
144,283,18983,2,0,L|115:218,2,63.3333333333333,0|0|0,3:0|3:0|3:0,0:0:0:0:
271,293,19237,1,0,3:0:0:0:
262,319,19322,2,0,L|233:254,2,63.3333333333333,0|0|0,3:0|3:0|3:0,0:0:0:0:
389,329,19576,1,0,3:0:0:0:
380,355,19661,1,0,3:0:0:0:
354,297,19745,5,8,1:3:0:0:
260,92,20000,1,8,1:3:0:0:
260,92,20254,5,2,0:0:0:0:
260,92,20317,1,2,0:0:0:0:
260,92,20381,1,2,0:0:0:0:
260,92,20444,1,2,0:0:0:0:
260,92,20508,6,0,B|324:63|324:63|403:72|403:72|476:40,1,218.500004167557,4|2,0:0|0:0,0:0:0:0:
183,0,20889,2,0,L|270:200,1,218.500004167557,8|8,0:2|0:0,0:0:0:0:
431,262,21270,5,2,0:0:0:0:
431,262,21333,1,2,0:0:0:0:
431,262,21397,1,10,0:0:0:0:
431,262,21460,1,2,0:0:0:0:
431,262,21524,6,0,B|367:291|367:291|288:282|288:282|215:314,1,218.500004167557,2|2,0:0|0:0,0:0:0:0:
421,154,21906,2,0,L|508:354,1,218.500004167557,10|8,0:0|0:0,0:0:0:0:
169,243,22287,1,2,0:0:0:0:
169,243,22351,1,2,0:0:0:0:
169,243,22414,1,10,0:0:0:0:
169,243,22478,1,2,0:0:0:0:
169,243,22541,6,0,L|270:200,1,109.250002083778,2|8,0:0|0:0,0:0:0:0:
87,330,22796,2,0,P|52:283|58:220,1,109.250002083778,2|8,0:2|0:0,0:0:0:0:
351,113,23050,2,0,P|386:160|380:223,1,109.250002083778,2|10,0:0|0:0,0:0:0:0:
172,109,23304,1,2,0:0:0:0:
266,334,23431,1,10,0:0:0:0:
266,334,23495,1,2,0:0:0:0:
266,334,23558,5,2,0:0:0:0:
269,200,23685,1,8,0:0:0:0:
388,331,23813,2,0,L|489:288,1,109.250002083778,2|8,0:0|0:0,0:0:0:0:
451,70,24067,1,2,3:2:0:0:
425,80,24130,1,0,3:0:0:0:
400,91,24194,1,0,3:0:0:0:
375,102,24257,1,0,3:0:0:0:
350,112,24321,2,0,L|388:202,1,54.6250010418892,4|4,3:0|3:0,0:0:0:0:
477,60,24448,2,0,L|438:-30,1,54.6250010418892,8|8,3:0|3:0,0:0:0:0:
262,119,24575,6,0,L|321:259,1,104.500003189087,6|0,0:0|0:0,0:0:0:0:
201,197,24766,2,0,L|155:88,1,118.75,2|0,0:0|0:0,0:0:0:0:
48,57,24957,2,0,L|107:197,1,132.999995941162,6|0,0:0|0:0,0:0:0:0:
176,362,25211,1,2,0:0:0:0:
176,362,25274,1,0,0:0:0:0:
176,362,25338,2,0,L|150:302,3,54.6250010418892,10|2|2|2,0:0|0:0|0:0|0:0,0:0:0:0:
297,319,25592,6,0,L|437:260,1,104.500003189087,14|0,0:0|0:0,0:0:0:0:
477,273,25783,2,0,L|337:214,1,118.75,2|0,0:0|0:0,0:0:0:0:
270,228,25974,2,0,L|393:176,1,132.999995941162,14|0,0:0|0:0,0:0:0:0:
448,347,26228,1,2,0:0:0:0:
448,347,26291,1,0,0:0:0:0:
448,347,26355,2,0,L|368:380,1,52.2500015945435,8|0,0:0|0:0,0:0:0:0:
154,312,26482,1,2,0:0:0:0:
154,312,26546,1,2,0:0:0:0:
154,312,26609,6,0,P|133:262|151:212,1,109.250002083778,14|0,0:0|0:0,0:0:0:0:
390,76,26863,2,0,P|410:125|392:175,1,109.250002083778,10|0,0:0|0:0,0:0:0:0:
131,72,27118,1,0,0:0:0:0:
157,78,27181,1,0,0:0:0:0:
184,84,27245,1,0,0:0:0:0:
210,90,27308,1,0,0:0:0:0:
237,97,27372,2,0,L|173:120,1,54.6250010418892,0|0,0:0|0:0,0:0:0:0:
28,167,27499,2,0,L|91:198,1,54.6249997395277
209,260,27626,5,8,1:2:0:0:
209,260,27880,6,0,B|268:277|313:247|313:247|283:302|283:302|321:279|383:299,1,265.999991882324,0|0,0:0|0:0,0:0:0:0:
454,348,28452,1,2,0:0:0:0:
454,348,28516,1,2,0:0:0:0:
454,348,28580,1,2,0:0:0:0:
453,348,28643,6,0,P|469:296|453:245,1,109.250002083778,4|8,0:0|0:0,0:0:0:0:
375,134,28897,1,0,0:0:0:0:
475,76,29024,2,0,B|412:103|412:103|333:94|333:94|269:123,1,218.500004167557,8|8,0:0|0:0,0:0:0:0:
92,196,29406,1,2,0:0:0:0:
100,215,29469,1,2,0:0:0:0:
108,235,29533,1,10,0:0:0:0:
116,254,29596,1,2,0:0:0:0:
125,274,29660,6,0,L|169:134,1,109.250002083778,2|8,0:0|0:0,0:0:0:0:
32,53,29914,1,2,0:0:0:0:
32,284,30041,2,0,P|74:351|202:327,1,218.500004167557,8|8,0:0|0:0,0:0:0:0:
315,216,30423,1,2,0:0:0:0:
296,224,30486,1,2,0:0:0:0:
276,232,30550,1,10,0:0:0:0:
257,240,30613,1,2,0:0:0:0:
237,249,30677,6,0,L|381:295,1,132.999995941162,2|8,0:0|0:0,0:0:0:0:
406,374,30868,2,0,P|449:318|420:224,1,132.999995941162,2|0,0:0|0:0,0:0:0:0:
404,178,31058,2,0,P|385:152|391:104,1,66.4999979705811,8|0,0:0|0:0,0:0:0:0:
434,56,31185,6,0,P|378:90|311:77,1,132.999995941162,2|8,0:0|0:0,0:0:0:0:
228,44,31376,2,0,P|163:33|108:66,1,132.999995941162,2|0,0:0|0:0,0:0:0:0:
17,67,31567,2,0,L|40:130,1,66.4999979705811,10|0,0:0|0:0,0:0:0:0:
103,221,31694,6,0,L|126:159,11,66.4999979705811,2|2|10|2|2|2|10|2|2|2|2|2,0:0|0:0|0:0|0:0|0:0|0:0|0:0|0:0|0:2|0:2|0:2|0:2,0:0:0:0:
42,291,32457,2,0,L|104:314,1,66.4999979705811,2|2,3:2|3:2,0:0:0:0:
187,266,32584,2,0,L|249:289,1,66.4999979705811,0|0,3:0|3:0,0:0:0:0:
324,372,32711,6,0,L|361:270,1,104.500003189087,6|0,0:0|0:0,0:0:0:0:
477,253,32902,2,0,L|359:273,1,118.75,2|0,0:0|0:0,0:0:0:0:
274,171,33092,2,0,L|359:273,1,132.999995941162,6|0,0:0|0:0,0:0:0:0:
418,107,33346,1,2,0:0:0:0:
314,67,33474,1,0,0:0:0:0:
458,3,33601,1,2,0:0:0:0:
210,27,33728,6,0,L|93:80,1,104.500003189087,6|0,0:0|0:0,0:0:0:0:
21,110,33919,2,0,L|137:163,1,118.75,2|0,0:0|0:0,0:0:0:0:
236,194,34109,2,0,L|115:249,1,132.999995941162,6|0,0:0|0:0,0:0:0:0:
38,375,34363,1,2,0:0:0:0:
13,273,34491,1,0,0:0:0:0:
139,350,34618,1,2,0:0:0:0:
139,350,34681,1,2,0:0:0:0:
139,350,34745,6,0,L|260:295,1,128.250000489235,12|0,0:0|0:0,0:0:0:0:
470,350,34999,2,0,L|349:295,1,128.250000489235,8|2,0:0|0:0,0:0:0:0:
138,310,35253,2,0,L|259:255,1,128.250000489235,8|0,0:0|0:0,0:0:0:0:
469,310,35507,2,0,L|348:255,1,128.250000489235,8|2,0:0|0:0,0:0:0:0:
303,108,35762,6,0,L|303:172,3,64.1250002446175,12|0|0|0,0:0|0:0|0:0|0:0,0:0:0:0:
365,48,36016,1,0,3:0:0:0:
337,31,36079,1,0,3:0:0:0:
306,25,36143,1,0,3:0:0:0:
274,31,36206,1,0,3:0:0:0:
246,46,36270,2,0,P|215:55|182:46,3,64.1250002446175,8|0|0|0,0:0|0:0|0:0|0:0,0:0:0:0:
87,19,36524,2,0,L|104:102,1,64.1250002446175,4|4,0:3|0:3,0:0:0:0:
170,136,36652,2,0,L|153:219,1,64.1250002446175,4|4,0:3|0:3,0:0:0:0:
92,278,36779,5,6,0:0:0:0:
256,192,36842,12,0,38685,0:0:0:0:
152,192,38813,6,0,B|120:136|120:136|140:76,1,94.9999977350235,10|10,1:2|1:2,0:0:0:0:
256,288,39067,1,10,1:2:0:0:
360,192,39194,6,0,B|392:136|392:136|372:76,1,94.9999977350235,10|10,1:2|1:2,0:0:0:0:
256,300,39448,1,10,1:2:0:0:
136,192,39575,6,0,B|104:136|104:136|124:76,1,94.9999977350235,10|10,1:2|1:2,0:0:0:0:
256,312,39830,1,10,1:2:0:0:
376,192,39957,6,0,B|408:136|408:136|388:76,1,94.9999977350235,10|10,1:2|1:2,0:0:0:0:
256,324,40211,1,10,1:2:0:0:
256,336,40338,1,10,1:2:0:0:
256,348,40465,5,4,3:0:0:0:
256,276,40592,1,4,3:0:0:0:
256,192,40719,1,4,3:0:0:0:
256,108,40846,1,4,0:0:0:0:
256,192,40910,12,0,42880,0:0:0:0:
120,204,43007,6,0,P|166:126|119:50,1,190,4|2,0:0|0:0,0:0:0:0:
19,219,43389,2,0,L|204:261,1,190,4|2,0:0|0:0,0:0:0:0:
282,176,43770,2,0,P|236:253|283:330,1,190,4|2,0:0|0:0,0:0:0:0:
383,161,44152,2,0,L|197:118,1,190,4|2,0:0|0:2,0:0:0:0:
323,253,44533,1,0,3:0:0:0:
323,253,44660,2,0,L|415:274,1,95,2|0,3:2|3:0,0:0:0:0:
182,346,44914,6,0,L|117:360,7,47.5,6|0|0|0|2|0|0|0,0:0|0:0|0:0|0:0|0:3|0:0|0:0|0:0,0:0:0:0:
20,299,45423,2,0,L|65:347,7,47.5,10|0|0|0|2|0|8|0,0:3|0:0|0:0|0:0|0:3|0:0|0:0|0:0,0:0:0:0:
128,228,45931,6,0,L|114:274,3,47.5,2|0|8|0,0:3|0:0|0:0|0:0,0:0:0:0:
91,154,46185,2,0,L|45:140,3,47.5,2|0|0|0,0:3|0:0|0:0|0:0,0:0:0:0:
164,118,46440,2,0,L|179:73,3,47.5,10|0|0|0,0:3|0:0|0:0|0:0,0:0:0:0:
201,191,46694,2,0,L|246:206,3,47.5,2|0|8|0,0:3|0:0|0:0|0:0,0:0:0:0:
272,113,46948,6,0,L|304:78,7,47.5,2|0|0|0|2|0|0|0,0:3|0:0|0:0|0:0|0:3|0:0|0:0|0:0,0:0:0:0:
434,66,47457,2,0,L|387:55,7,47.5,10|0|0|0|2|0|8|8,0:3|0:0|0:0|0:0|0:3|0:0|0:0|0:0,0:0:0:0:
380,184,47965,6,0,L|366:138,3,47.5,2|0|8|0,0:3|0:0|0:0|0:0,0:0:0:0:
453,221,48219,2,0,L|498:206,3,47.5,2|0|0|0,0:3|0:0|0:0|0:0,0:0:0:0:
416,294,48474,2,0,L|431:339,3,47.5,10|0|0|0,0:3|0:0|0:0|0:0,0:0:0:0:
343,258,48728,2,0,L|297:272,3,47.5,10|0|8|0,0:3|0:0|0:0|0:0,0:0:0:0:
323,384,48982,6,0,L|352:330,7,47.5,6|0|0|0|2|0|0|0,0:0|0:0|0:0|0:0|0:3|0:0|0:0|0:0,0:0:0:0:
189,384,49491,2,0,L|160:330,7,47.5,10|0|0|0|2|0|8|8,0:3|0:0|0:0|0:0|0:3|0:0|0:0|0:0,0:0:0:0:
235,280,49999,6,0,P|258:275|281:280,3,47.5,2|0|8|0,0:3|0:0|0:0|0:0,0:0:0:0:
343,213,50253,2,0,P|339:189|344:166,3,47.5,2|0|0|0,0:3|0:0|0:0|0:0,0:0:0:0:
277,103,50508,2,0,P|253:108|230:103,3,47.5,10|0|0|0,0:3|0:0|0:0|0:0,0:0:0:0:
167,170,50762,2,0,P|172:194|167:217,3,47.5,2|0|8|0,0:3|0:0|0:0|0:0,0:0:0:0:
43,252,51016,6,0,L|92:275,7,47.5,2|0|0|0|2|0|0|0,0:3|0:0|0:0|0:0|0:3|0:0|0:0|0:0,0:0:0:0:
43,132,51524,2,0,L|92:109,7,47.5,10|0|0|0|2|0|8|8,0:3|0:0|0:0|0:0|0:3|0:0|0:0|0:0,0:0:0:0:
144,192,52033,5,2,0:3:0:0:
174,209,52096,1,0,0:0:0:0:
209,215,52160,1,8,0:0:0:0:
244,209,52223,1,0,0:0:0:0:
275,191,52287,1,2,0:3:0:0:
306,173,52351,1,0,0:0:0:0:
341,167,52414,1,0,0:0:0:0:
376,173,52478,1,0,0:0:0:0:
407,191,52541,2,0,L|393:134,1,47.5,2|0,3:0|3:0,0:0:0:0:
483,255,52669,2,0,L|494:208,1,47.5,0|0,3:0|3:0,0:0:0:0:
409,319,52796,2,0,L|395:262,1,47.5,0|0,3:0|3:0,0:0:0:0:
481,383,52923,2,0,L|495:326,1,47.5,0|0,3:0|3:0,0:0:0:0:
151,279,53304,6,0,L|58:256,1,95,4|0,0:0|0:0,0:0:0:0:
242,208,53558,1,2,0:0:0:0:
59,163,53685,2,0,L|156:139,1,95,2|10,0:0|0:0,0:0:0:0:
299,58,53940,6,0,P|230:118|242:208,1,190,4|2,0:0|0:0,0:0:0:0:
324,152,54321,1,10,0:0:0:0:
405,95,54448,2,0,P|417:185|348:245,1,190,10|2,0:0|0:0,0:0:0:0:
238,381,54830,2,0,L|271:292,1,95,2|2,0:0|0:0,0:0:0:0:
324,152,55084,1,10,0:0:0:0:
44,157,55338,6,0,P|43:203|71:241,1,95,6|0,0:0|0:0,0:0:0:0:
73,49,55592,1,2,0:0:0:0:
190,200,55719,2,0,P|190:153|162:115,1,95,2|8,0:0|0:0,0:0:0:0:
85,355,55974,6,0,P|147:288|237:304,1,190,6|2,0:0|0:0,0:0:0:0:
179,382,56355,1,10,0:0:0:0:
390,253,56482,2,0,P|327:319|237:303,1,190,2|2,0:0|0:0,0:0:0:0:
296,226,56863,1,2,0:0:0:0:
366,158,56991,1,2,0:0:0:0:
417,361,57118,1,10,0:0:0:0:
438,94,57372,6,0,P|459:136|457:184,1,95,4|0,0:0|0:0,0:0:0:0:
332,32,57626,1,2,0:0:0:0:
295,225,57753,2,0,P|274:183|276:135,1,95,2|8,0:0|0:0,0:0:0:0:
390,253,58007,6,0,B|321:253|321:253|278:275|278:275|202:275,1,190,4|2,0:0|0:0,0:0:0:0:
50,182,58389,1,10,0:0:0:0:
125,322,58516,2,0,B|125:249|125:249|147:206|147:206|147:137,1,190,2|2,0:0|0:0,0:0:0:0:
50,87,58897,2,0,L|50:214,1,95,2|2,0:0|0:0,0:0:0:0:
184,55,59152,6,0,P|215:50|246:57,8,63.3333333333333,6|0|0|2|0|0|2|0|0,0:2|0:0|0:0|0:2|0:0|0:0|0:2|0:0|0:0,0:0:0:0:
249,140,59914,2,0,P|280:145|311:140,8,63.3333333333333,6|0|0|2|0|0|2|0|0,0:2|0:0|0:0|0:2|0:0|0:0|0:2|0:0|0:0,0:0:0:0:
362,57,60677,2,0,P|392:50|423:56,8,63.3333333333333,6|0|0|2|0|0|2|0|0,0:2|0:0|0:0|0:2|0:0|0:0|0:2|0:0|0:0,0:0:0:0:
425,138,61440,2,0,P|456:144|487:138,8,63.3333333333333,6|0|0|2|0|0|2|0|0,0:2|0:0|0:0|0:2|0:0|0:0|0:2|0:0|0:0,0:0:0:0:
485,267,62202,6,0,L|465:266,15,14.2499992253781,6|2|2|2|2|2|2|2|2|2|2|2|2|2|2|2,0:0|0:0|0:0|0:0|0:0|0:0|0:0|0:0|0:0|0:0|0:0|0:0|0:0|0:0|0:0|0:0,0:0:0:0:
408,335,63218,2,0,L|375:345,7,23.7499994337559,2|2|2|2|2|2|2|2,0:0|0:0|0:0|0:0|0:0|0:0|0:0|0:0,0:0:0:0:
351,256,63727,2,0,L|313:246,7,33.2499981925488,2|2|2|2|2|2|2|2,0:0|0:0|0:0|0:0|0:0|0:0|0:0|0:0,0:0:0:0:
257,325,64235,6,0,L|181:357,30,56.9999982604981,2|2|2|2|2|2|2|2|2|2|2|2|2|2|2|2|2|2|2|2|2|2|2|2|2|2|2|2|2|2|2,0:0|0:0|0:0|0:0|0:0|0:0|0:0|0:0|0:0|0:0|0:0|0:0|0:0|0:0|0:0|0:0|0:0|0:0|0:0|0:0|0:0|0:0|0:0|0:0|0:0|0:0|0:0|0:0|0:0|0:0|0:0,0:0:0:0:
64,359,66269,6,0,P|39:301|63:243,1,128.249996086121,4|0,0:0|0:0,0:0:0:0:
23,179,66523,2,0,P|63:167|104:178,1,85.4999973907472,2|8,0:3|0:0,0:0:0:0:
209,242,66777,2,0,P|249:252|290:241,1,85.4999973907472,2|8,0:3|0:0,0:0:0:0:
387,105,67031,6,0,L|418:251,1,128.249996086121,2|0,0:3|0:0,0:0:0:0:
454,323,67285,2,0,L|430:210,1,85.4999973907472,10|0,0:3|0:0,0:0:0:0:
497,130,67540,2,0,L|473:17,1,85.4999973907472,10|0,0:3|0:0,0:0:0:0:
354,11,67794,6,0,L|208:42,1,128.249996086121,2|0,0:3|0:0,0:0:0:0:
154,16,68048,2,0,P|154:63|187:103,1,85.4999973907472,2|8,0:3|0:0,0:0:0:0:
270,163,68302,2,0,P|292:198|290:241,1,85.4999973907472,2|10,0:3|0:0,0:0:0:0:
92,244,68557,6,0,L|218:218,1,128.249996086121,2|0,0:3|0:0,0:0:0:0:
283,163,68811,2,0,P|305:198|303:241,1,85.4999973907472,10|0,0:3|0:0,0:0:0:0:
224,384,69065,1,10,0:3:0:0:
158,314,69192,1,8,0:0:0:0:
209,135,69319,6,0,L|334:108,1,128.249996086121,4|0,0:0|0:0,0:0:0:0:
424,60,69574,2,0,L|340:77,1,85.4999973907472,2|8,0:3|0:0,0:0:0:0:
223,36,69828,2,0,L|139:53,1,85.4999973907472,2|8,0:3|0:0,0:0:0:0:
25,126,70082,6,0,L|52:251,1,128.249996086121,2|0,0:3|0:0,0:0:0:0:
27,324,70336,2,0,P|69:327|112:303,1,85.4999973907472,10|0,0:3|0:0,0:0:0:0:
217,218,70591,1,10,0:3:0:0:
194,383,70718,1,2,0:0:0:0:
305,294,70845,6,0,P|362:266|439:292,1,128.249996086121,2|0,0:3|0:0,0:0:0:0:
508,318,71099,2,0,L|498:227,1,85.4999973907472,2|8,0:3|0:0,0:0:0:0:
392,177,71353,2,0,L|382:86,1,85.4999973907472,10|0,0:3|0:0,0:0:0:0:
276,36,71607,5,2,0:3:0:0:
276,36,71671,1,2,0:0:0:0:
276,36,71735,1,2,0:0:0:0:
181,109,71862,2,0,L|186:195,1,85.4999973907472,10|0,0:3|0:0,0:0:0:0:
289,259,72116,1,2,0:3:0:0:
282,147,72243,1,10,0:0:0:0:
193,307,72370,6,0,L|56:313,1,128.249996086121,4|0,0:0|0:0,0:0:0:0:
5,359,72624,2,0,P|-9:319|0:277,1,85.4999973907472,2|8,0:3|0:0,0:0:0:0:
91,191,72879,2,0,P|100:149|86:110,1,85.4999973907472,2|8,0:3|0:0,0:0:0:0:
79,323,73133,6,0,L|207:317,1,128.249996086121,2|0,0:3|0:0,0:0:0:0:
319,339,73387,2,0,L|233:342,1,85.4999973907472,10|4,0:3|3:0,0:0:0:0:
379,223,73641,1,6,3:3:0:0:
449,332,73769,1,0,3:0:0:0:
423,146,73896,6,0,P|332:149|291:229,1,190,6|2,3:2|3:2,0:0:0:0:
467,222,74277,2,0,P|509:141|460:65,1,190,0|0,0:0|0:0,0:0:0:0:
279,10,74658,6,0,B|260:116,1,95,2|0,3:2|0:0,0:0:0:0:
160,65,74913,2,0,B|141:171,1,95,2|0,3:2|0:0,0:0:0:0:
41,120,75167,2,0,B|22:226,1,95,2|0,3:2|0:0,0:0:0:0:
57,331,75421,6,0,P|128:308|212:374,1,190,2|2,3:2|3:2,0:0:0:0:
290,300,75802,2,0,P|355:363|445:343,1,190,0|0,0:0|0:0,0:0:0:0:
364,175,76184,2,0,B|380:268,1,95,2|0,3:2|0:0,0:0:0:0:
245,120,76438,2,0,B|261:213,1,95,2|0,3:2|0:0,0:0:0:0:
472,100,76692,2,0,B|488:193,1,95,2|0,3:2|0:0,0:0:0:0:
315,49,76946,6,0,P|241:21|148:109,1,190,2|2,3:2|3:2,0:0:0:0:
205,290,77328,2,0,B|262:212|262:212|245:120,1,190,0|0,0:0|0:0,0:0:0:0:
82,176,77709,2,0,L|176:193,1,95,2|0,3:2|0:0,0:0:0:0:
21,119,77963,2,0,B|-4:155|-4:155|1:227,1,95,2|0,3:2|0:0,0:0:0:0:
29,374,78218,6,0,L|18:311,2,63.3333333333333,2|2|2,3:2|0:2|0:2,0:0:0:0:
122,363,78472,2,0,L|111:300,2,63.3333333333333,8|8|8,3:0|3:0|3:0,0:0:0:0:
215,352,78726,2,0,L|203:279,2,63.3333333333333,8|8|8,3:0|3:0|3:0,0:0:0:0:
308,341,78980,2,0,L|297:278,2,63.3333333333333,12|12|12,3:3|3:3|3:0,0:0:0:0:
401,330,79235,5,10,0:0:0:0:
205,218,79489,1,10,0:0:0:0:
424,60,79743,6,0,L|398:105,1,52.2500015945435,2|2,0:0|0:0,0:0:0:0:
383,237,79870,2,0,L|375:185,1,52.2500015945435,2|2,0:0|0:0,0:0:0:0:
251,104,79997,6,0,L|319:124,1,71.25,2|0,0:0|0:0,0:0:0:0:
365,142,80251,1,4,0:0:0:0:
247,0,80378,6,0,B|219:81|219:81|229:131|229:131|204:221,1,227.999993041992,8|8,0:0|0:0,0:0:0:0:
61,273,80759,1,2,0:0:0:0:
61,273,80823,1,2,0:0:0:0:
61,273,80886,1,10,0:0:0:0:
61,273,80950,1,2,0:0:0:0:
61,273,81013,6,0,L|291:337,1,227.999993041992,2|2,0:0|0:0,0:0:0:0:
489,187,81395,2,0,L|258:251,1,227.999993041992,10|8,0:0|0:0,0:0:0:0:
103,176,81776,1,2,0:0:0:0:
103,176,81840,1,2,0:0:0:0:
103,176,81903,1,10,0:0:0:0:
103,176,81967,1,2,0:0:0:0:
103,176,82030,6,0,P|71:130|74:74,1,113.999996520996,2|8,0:0|0:0,0:0:0:0:
340,6,82285,2,0,P|370:52|366:108,1,113.999996520996,2|8,0:0|0:0,0:0:0:0:
270,249,82539,1,2,0:0:0:0:
221,91,82666,1,10,0:0:0:0:
150,296,82793,1,2,0:0:0:0:
364,255,82920,1,10,0:0:0:0:
364,255,82984,1,0,0:0:0:0:
364,255,83047,6,0,L|391:395,1,113.999996520996,2|8,0:0|0:0,0:0:0:0:
150,296,83302,2,0,L|122:155,1,113.999996520996,2|8,0:0|0:0,0:0:0:0:
232,340,83556,1,8,3:2:0:0:
201,369,83619,1,8,3:2:0:0:
162,384,83683,1,8,3:2:0:0:
118,380,83746,1,8,3:2:0:0:
83,358,83810,2,0,P|61:335|55:303,1,56.9999982604981,4|4,3:0|3:0,0:0:0:0:
241,285,83937,2,0,P|242:313|230:339,1,56.9999982604981,2|2,0:2|0:2,0:0:0:0:
64,134,84064,6,0,P|110:106|172:117,1,113.999996520996,6|0,0:0|0:0,0:0:0:0:
166,80,84255,2,0,P|103:74|41:112,1,128.250000489235,2|0,0:0|0:0,0:0:0:0:
28,68,84446,2,0,P|100:35|183:50,1,142.500005435944,6|0,0:0|0:0,0:0:0:0:
318,100,84700,1,2,0:0:0:0:
430,0,84827,1,10,0:0:0:0:
430,0,84891,1,0,0:0:0:0:
430,0,84954,2,0,L|437:91,1,71.2500027179719,2|0,0:0|0:0,0:0:0:0:
448,250,85081,6,0,P|402:278|340:267,1,113.999996520996,6|0,0:0|0:0,0:0:0:0:
346,304,85272,2,0,P|409:310|471:272,1,128.250000489235,2|0,0:0|0:0,0:0:0:0:
484,316,85463,2,0,P|412:349|329:334,1,142.500005435944,6|0,0:0|0:0,0:0:0:0:
194,284,85717,1,2,0:0:0:0:
82,384,85844,1,10,0:0:0:0:
51,237,85971,1,2,0:0:0:0:
51,237,86035,1,2,0:0:0:0:
51,237,86098,6,0,L|25:102,1,113.999996520996,14|0,0:0|0:0,0:0:0:0:
329,231,86352,2,0,L|355:366,1,113.999996520996,14|0,0:0|0:0,0:0:0:0:
170,123,86607,5,10,0:2:0:0:
450,75,86797,1,10,0:2:0:0:
350,342,86988,1,10,0:2:0:0:
328,115,87115,6,0,B|340:73|340:73|408:31,2,75.9999976806641,10|10|10,0:2|0:2|0:2,0:0:0:0:
256,240,87369,2,0,L|256:316,2,75.9999976806641,10|10|10,0:2|0:2|0:2,0:0:0:0:
184,115,87624,2,0,B|172:73|172:73|144:56,2,75.9999976806641,10|10|10,0:2|0:2|0:2,0:0:0:0:
96,193,87878,2,0,L|40:206,3,56.9999982604981,2|2|2|2,3:2|3:2|3:2|3:2,0:0:0:0:
75,282,88132,6,0,L|274:235,1,185.249991519928,6|0,0:0|0:0,0:0:0:0:
46,312,88386,2,0,L|245:265,1,185.249991519928,6|0,0:0|0:0,0:0:0:0:
17,342,88641,2,0,L|216:295,1,185.249991519928,4|0,0:0|0:0,0:0:0:0:
303,351,88895,1,2,0:0:0:0:
303,351,88958,1,2,0:0:0:0:
303,351,89022,1,2,0:0:0:0:
303,351,89085,1,2,0:0:0:0:
303,351,89149,6,0,L|364:336,11,61.7499971733095,4|0|0|0|0|0|0|0|0|0|0|0,3:2|3:0|3:0|3:0|3:0|3:0|3:0|3:0|3:0|3:0|3:0|3:0,0:0:0:0:
397,253,89912,2,0,L|378:313,1,61.7499971733095,6|2,3:2|3:2,0:0:0:0:
434,383,90039,2,0,L|390:336,1,61.7499971733095,2|2,3:2|3:2,0:0:0:0:
270,200,90166,6,0,B|297:167|297:167|399:168,1,132.999995941162,6|8,0:0|0:0,0:0:0:0:
512,141,90357,2,0,L|372:141,1,132.999995941162,2|0,0:0|0:0,0:0:0:0:
309,78,90547,2,0,L|197:78,1,66.4999979705811,10|0,0:0|0:0,0:0:0:0:
179,16,90674,2,0,P|154:76|178:136,1,132.999995941162,2|8,0:0|0:0,0:0:0:0:
270,200,90865,2,0,P|294:260|269:320,1,132.999995941162,2|0,0:0|0:0,0:0:0:0:
182,361,91056,2,0,L|99:361,1,66.4999979705811,8|0,0:0|0:0,0:0:0:0:
19,249,91183,6,0,L|60:320,11,66.4999979705811,2|2|10|2|2|2|10|2|2|2|2|2,0:0|0:0|0:0|0:0|0:0|0:0|0:0|0:0|0:0|0:0|0:0|0:0,0:0:0:0:
115,361,91946,2,0,L|181:361,1,66.4999979705811,0|0,3:0|3:0,0:0:0:0:
268,320,92073,2,0,L|335:320,1,66.4999979705811,0|0,3:0|3:0,0:0:0:0:
421,360,92200,6,0,L|485:250,1,113.999996520996,6|0,0:0|0:0,0:0:0:0:
396,240,92391,2,0,L|459:128,1,128.250000489235,2|0,0:0|0:0,0:0:0:0:
370,119,92581,2,0,L|450:-21,1,142.500005435944,6|0,0:0|0:0,0:0:0:0:
276,65,92835,1,2,0:0:0:0:
277,174,92963,1,2,0:0:0:0:
183,120,93090,1,2,0:0:0:0:
88,66,93217,6,0,P|70:118|88:172,1,113.999996520996,6|0,0:0|0:0,0:0:0:0:
12,199,93408,2,0,P|48:240|122:245,1,128.250000489235,2|0,0:0|0:0,0:0:0:0:
103,326,93598,2,0,P|157:315|200:239,1,142.500005435944,6|0,0:0|0:0,0:0:0:0:
183,120,93852,1,2,0:0:0:0:
277,174,93980,1,2,0:0:0:0:
276,65,94107,1,2,0:0:0:0:
276,50,94170,1,2,0:0:0:0:
276,35,94234,5,14,0:0:0:0:
474,79,94488,6,0,L|495:0,2,75.9999976806641,10|2|2,0:0|0:0|0:0,0:0:0:0:
400,162,94742,2,0,L|379:83,2,75.9999976806641,10|2|2,0:0|0:0|0:0,0:0:0:0:
474,245,94996,2,0,L|495:166,2,75.9999976806641,10|2|2,0:0|0:0|0:0,0:0:0:0:
418,320,95251,6,0,L|497:341,2,75.9999976806641,14|2|2,0:0|0:0|0:0,0:0:0:0:
314,264,95505,2,0,L|391:238,2,75.9999976806641,10|2|2,0:0|0:0|0:0,0:0:0:0:
196,273,95759,2,0,L|247:209,2,75.9999976806641,10|2|2,0:0|0:0|0:0,0:0:0:0:
101,344,96013,2,0,L|109:262,2,75.9999976806641,10|2|2,0:0|0:0|0:0,0:0:0:0:
200,384,96268,5,6,0:0:0:0:
256,192,96331,12,0,97221,0:0:0:0:
372,192,97285,5,2,1:2:0:0:
162,260,97475,1,2,1:2:0:0:
291,81,97666,1,2,1:2:0:0:
291,302,97857,1,2,1:2:0:0:
162,123,98047,1,2,1:2:0:0:
255,190,98174,1,2,1:2:0:0:
69,193,98302,6,0,P|57:147|77:97,1,95,12|0,0:0|0:0,0:0:0:0:
214,33,98556,2,0,P|260:45|291:81,1,95,8|0,0:0|0:0,0:0:0:0:
162,123,98810,2,0,L|124:24,1,94.9999977350235,8|0,0:0|0:0,0:0:0:0:
255,190,99064,6,0,L|220:278,2,63.333331823349,8|0|0,0:0|0:0|0:0,0:0:0:0:
144,267,99318,2,0,L|237:252,2,63.333331823349,8|0|0,0:0|0:0|0:0,0:0:0:0:
267,325,99573,2,0,L|207:251,2,63.333331823349,8|0|0,0:0|0:0|0:0,0:0:0:0:
344,245,99827,6,0,L|471:224,1,94.9999977350235,8|0,0:0|0:0,0:0:0:0:
502,114,100081,2,0,L|374:134,1,94.9999977350235,8|0,0:0|0:0,0:0:0:0:
354,256,100335,2,0,L|481:235,1,94.9999977350235,8|0,0:0|0:0,0:0:0:0:
492,103,100590,6,0,L|389:119,2,63.333331823349,8|0|0,0:0|0:0|0:0,0:0:0:0:
361,37,100844,2,0,L|323:133,2,63.333331823349,8|0|0,0:0|0:0|0:0,0:0:0:0:
238,117,101098,2,0,L|303:197,2,63.333331823349,8|0|0,0:0|0:0|0:0,0:0:0:0:
236,35,101352,6,0,P|189:52|158:100,1,94.9999977350235,8|0,0:0|0:0,0:0:0:0:
45,139,101607,2,0,P|92:156|122:204,1,94.9999977350235,8|0,0:0|0:0,0:0:0:0:
241,239,101861,2,0,P|194:256|163:304,1,94.9999977350235,8|0,0:0|0:0,0:0:0:0:
286,374,102115,6,0,L|247:325,2,63.333331823349,8|0|0,0:0|0:0|0:0,0:0:0:0:
382,358,102369,2,0,L|343:309,2,63.333331823349,8|0|0,0:0|0:0|0:0,0:0:0:0:
478,342,102624,2,0,L|439:293,2,63.333331823349,8|0|0,0:0|0:0|0:0,0:0:0:0:
439,197,102878,6,0,L|478:147,2,63.333331823349,8|0|0,0:0|0:0|0:0,0:0:0:0:
343,181,103132,2,0,L|382:131,2,63.333331823349,8|0|0,0:0|0:0|0:0,0:0:0:0:
247,165,103387,2,0,L|286:115,2,63.333331823349,8|0|0,0:0|0:0|0:0,0:0:0:0:
167,245,103640,6,0,L|101:245,7,47.4999988675117,2|0|0|0|2|0|0|0,0:0|0:0|0:0|0:0|0:0|0:0|0:0|0:0,0:0:0:0:
75,183,104149,2,0,L|108:240,1,47.4999988675117,2|0,0:0|0:0,0:0:0:0:
68,294,104276,2,0,L|101:236,1,47.4999988675117,0|0,0:0|0:0,0:0:0:0:
81,103,104403,6,0,P|37:112|-6:172,1,94.9999977350235,4|0,0:0|0:0,0:0:0:0:
167,245,104657,1,2,0:3:0:0:
167,245,104785,2,0,P|211:236|254:176,1,94.9999977350235,0|2,0:0|0:3,0:0:0:0:
278,74,105039,1,0,0:0:0:0:
372,166,105166,6,0,P|400:185|447:185,2,75.999995868683,2|0|0,0:3|0:0|0:0,0:0:0:0:
509,104,105420,2,0,P|478:118|455:159,2,75.999995868683,2|0|0,0:3|0:0|0:0,0:0:0:0:
494,253,105674,2,0,P|496:219|472:178,2,75.999995868683,2|0|0,0:3|0:0|0:0,0:0:0:0:
427,332,105929,6,0,L|324:359,1,94.9999977350235,2|0,0:3|0:0,0:0:0:0:
208,254,106183,1,2,0:3:0:0:
146,332,106310,2,0,L|249:359,1,94.9999977350235,0|2,0:0|0:3,0:0:0:0:
365,254,106564,1,0,0:0:0:0:
281,128,106691,6,0,P|245:119|209:130,2,75.999995868683,2|0|0,0:3|0:0|0:0,0:0:0:0:
165,69,106946,2,0,P|138:96|129:132,2,75.999995868683,2|0|0,0:3|0:0|0:0,0:0:0:0:
54,140,107200,2,0,P|64:176|91:202,2,75.999995868683,2|0|0,0:3|0:0|0:0,0:0:0:0:
59,271,107454,6,0,P|102:278|147:252,1,94.9999977350235,2|0,0:3|0:0,0:0:0:0:
209,130,107708,1,2,0:3:0:0:
360,270,107835,2,0,P|313:277|273:253,1,94.9999977350235,0|2,0:0|0:3,0:0:0:0:
209,130,108090,1,0,0:0:0:0:
289,21,108217,6,0,L|352:86,2,75.999995868683,2|0|0,0:3|0:0|0:0,0:0:0:0:
434,40,108471,2,0,L|409:127,2,75.999995868683,2|0|0,0:3|0:0|0:0,0:0:0:0:
490,175,108725,2,0,L|402:197,2,75.999995868683,2|0|0,0:3|0:0|0:0,0:0:0:0:
400,290,108979,5,2,0:3:0:0:
375,307,109064,1,0,0:0:0:0:
345,316,109149,1,0,0:0:0:0:
314,316,109234,1,2,0:3:0:0:
284,307,109318,1,0,0:0:0:0:
258,289,109403,1,0,0:0:0:0:
228,280,109488,1,2,0:3:0:0:
197,280,109573,1,0,0:0:0:0:
167,289,109657,1,0,0:0:0:0:
142,307,109742,6,0,L|149:238,11,56.9999969015122,2|2|2|2|2|2|2|2|2|2|2|2,0:0|0:0|0:0|0:0|0:0|0:0|0:0|0:0|0:0|0:0|0:0|0:0,0:0:0:0:
155,161,110505,5,6,0:0:0:0:
360,192,112538,6,0,B|392:136|392:136|372:76,1,94.9999977350235,10|10,1:2|1:2,0:0:0:0:
256,288,112792,1,10,1:2:0:0:
152,192,112919,6,0,B|120:136|120:136|140:76,1,94.9999977350235,10|10,1:2|1:2,0:0:0:0:
256,300,113173,1,10,1:2:0:0:
376,192,113300,6,0,B|408:136|408:136|388:76,1,94.9999977350235,10|10,1:2|1:2,0:0:0:0:
256,312,113555,1,10,1:2:0:0:
136,192,113682,6,0,B|104:136|104:136|124:76,1,94.9999977350235,10|10,1:2|1:2,0:0:0:0:
256,324,113936,1,10,1:2:0:0:
256,336,114063,1,10,1:2:0:0:
256,348,114190,5,4,3:0:0:0:
256,276,114317,1,4,3:0:0:0:
256,192,114444,1,4,3:0:0:0:
256,192,115081,6,0,L|256:168,48,14.2499992253781,2|2|2|2|2|2|2|2|2|2|2|2|2|2|2|2|2|2|2|2|2|2|2|2|2|2|2|2|2|2|2|2|2|2|2|2|2|2|2|2|2|2|2|2|2|2|2|2|4,0:0|0:0|0:0|0:0|0:0|0:0|0:0|0:0|0:0|0:0|0:0|0:0|0:0|0:0|0:0|0:0|0:0|0:0|0:0|0:0|0:0|0:0|0:0|0:0|0:0|0:0|0:0|0:0|0:0|0:0|0:0|0:0|0:0|0:0|0:0|0:0|0:0|0:0|0:0|0:0|0:0|0:0|0:0|0:0|0:0|0:0|0:0|0:0|3:0,0:0:0:0:
