osu file format v14

[General]
AudioFilename: audio.mp3
AudioLeadIn: 0
PreviewTime: 20254
Countdown: 0
SampleSet: Soft
StackLeniency: 0.5
Mode: 0
LetterboxInBreaks: 0
WidescreenStoryboard: 0

[Editor]
Bookmarks: 6779,14279
DistanceSpacing: 1.1
BeatDivisor: 4
GridSize: 32
TimelineZoom: 2.2

[Metadata]
Title:Lachryma
TitleUnicode:Lachryma《Re:Queen'M》
Artist:Kaneko Chiharu
ArtistUnicode:かねこちはる
Creator:Kroytz
Version:Ametrin's NOVICE
Source:SOUND VOLTEX III GRAVITY WARS
Tags:SDVX Grace The 5th KAC Original Song Contest KONAMI BEMANI Battle Ametrin Fizz Ponoyoshi Alheak toybot Smoothie World
BeatmapID:1232526
BeatmapSetID:475629

[Difficulty]
HPDrainRate:3.5
CircleSize:3
OverallDifficulty:4
ApproachRate:6.5
SliderMultiplier:0.9
SliderTickRate:1

[Events]
//Background and Video events
0,0,"BG.png",0,0
//Break Periods
//Storyboard Layer 0 (Background)
//Storyboard Layer 1 (Fail)
//Storyboard Layer 2 (Pass)
//Storyboard Layer 3 (Foreground)
//Storyboard Sound Samples

[TimingPoints]
678,254.237288135593,3,2,1,55,1,0
5254,-100,4,2,1,55,0,0
18983,-100,4,3,2,55,0,0
19745,-100,4,2,1,55,0,0
20508,254.237288135593,4,2,1,55,1,1
27118,-100,4,3,2,55,0,1
27880,-100,4,2,4,55,0,0
28389,-100,4,2,1,55,0,0
28643,-100,4,2,1,55,0,1
36779,-100,4,2,1,55,0,0
59152,254.237288135593,3,3,1,55,1,0
62202,254.237288135593,4,2,1,55,1,0
66269,254.237288135593,3,2,1,55,1,0
79997,254.237288135593,4,2,5,75,1,0
79997,-100,4,2,5,75,0,0
80251,-100,4,2,1,55,0,1
96268,-100,4,2,1,55,0,0
98302,254.237288135593,3,2,1,55,1,0
104403,-100,3,2,1,55,0,1
110505,254.237288135593,4,2,1,55,1,0
115081,254.237288135593,4,2,1,55,1,0
118131,-100,4,2,1,55,0,0

[Colours]
Combo1 : 70,70,255
Combo2 : 255,62,62
Combo3 : 255,137,81
Combo4 : 0,174,174
Combo5 : 0,101,202

[HitObjects]
37,55,678,6,0,P|105:47|176:60,1,135,6|8,0:2|0:3,0:2:0:0:
244,186,1440,2,0,P|293:191|333:184,2,90,2|10|10,0:0|0:0|0:0,0:2:0:0:
149,154,2203,6,0,P|143:209|150:294,1,135,2|8,0:0|0:3,0:2:0:0:
266,379,2966,2,0,P|269:334|261:281,2,90,2|10|10,0:0|0:0|0:0,0:2:0:0:
357,341,3728,6,0,B|416:308|499:329,1,135,2|8,0:2|0:3,0:2:0:0:
435,187,4491,2,0,L|439:95,2,90,2|10|10,0:0|0:0|0:0,0:2:0:0:
341,153,5254,6,0,B|287:151|258:178|258:178|216:167|166:192,1,180,2|0,0:0|0:2,0:0:0:0:
141,95,6016,2,0,B|194:96|224:70|224:70|266:81|316:56,1,180,2|0,0:0|0:0,0:0:0:0:
410,42,6779,5,4,0:0:0:0:
410,42,7033,2,0,P|409:89|405:136,1,90
334,200,7542,1,2,0:0:0:0:
334,200,7796,2,0,P|287:196|240:189,1,90,10|10,0:0|0:0,0:0:0:0:
150,157,8305,6,0,P|162:229|167:341,1,180,2|0,0:0|0:0,0:0:0:0:
72,363,9067,2,0,P|56:274|48:178,1,180,2|10,0:0|0:0,0:0:0:0:
74,89,9830,5,4,0:0:0:0:
74,89,10084,2,0,L|164:76,1,90,0|0,0:0|0:0,0:0:0:0:
226,152,10593,1,2,0:0:0:0:
226,152,10847,2,0,L|335:157,1,90,8|8,0:0|0:0,0:0:0:0:
390,90,11355,6,0,B|452:70|452:70|480:44|480:44|515:33,2,135,2|8|2,0:0|0:0|0:0,0:0:0:0:
360,184,12372,1,10,0:0:0:0:
457,201,12627,1,10,0:0:0:0:
440,298,12881,5,4,0:0:0:0:
440,298,13135,2,0,L|350:311,1,90,0|0,0:0|0:0,0:0:0:0:
298,222,13644,1,2,0:0:0:0:
298,222,13898,2,0,L|189:217,1,90,10|0,3:2|3:0,0:0:0:0:
183,313,14406,6,0,L|50:338,1,135,6|0,3:2|0:0,0:2:0:0:
120,204,15169,2,0,P|160:204|216:222,2,90,2|2|2,3:2|3:2|3:2,0:2:0:0:
22,225,15932,6,0,P|32:159|32:86,1,135,2|0,3:2|0:0,0:2:0:0:
152,3,16694,2,0,P|154:43|162:94,1,90,2|2,3:2|3:2,0:2:0:0:
196,185,17203,1,0,0:0:0:0:
205,283,17457,6,0,P|271:253|337:259,1,135,2|0,3:2|0:0,0:2:0:0:
442,357,18220,2,0,L|346:349,2,90,2|2|2,3:2|3:2|3:2,0:2:0:0:
433,258,18983,6,0,P|447:204|448:117,1,135,0|0,3:0|0:2,0:2:0:0:
323,45,19745,2,0,P|323:87|329:141,1,90,8|8,1:3|1:3,0:2:0:0:
360,226,20254,2,0,B|357:221|360:227|378:272,1,45,2|2,0:0|0:0,0:0:0:0:
413,295,20508,6,0,P|328:287|263:301,1,135,4|8,0:0|0:2,1:2:0:0:
141,240,21270,2,0,B|144:245|141:239|123:194,1,45,2|10,0:0|0:0,1:2:0:0:
87,170,21524,6,0,P|172:178|237:164,1,135,2|10,0:0|0:0,1:2:0:0:
358,114,22287,2,0,B|355:119|358:113|376:68,1,45,2|10,0:0|0:0,1:2:0:0:
412,45,22541,6,0,P|343:46|296:36,1,90,2|2,0:0|0:2,1:2:0:0:
224,24,23050,2,0,L|231:81,1,45,2|10,0:0|0:0,1:2:0:0:
194,103,23304,2,0,L|198:178,1,45,2|10,0:0|0:0,1:2:0:0:
165,186,23558,2,0,B|157:218|173:250|173:250|157:290|157:290|174:321|165:362,1,180,2|2,0:0|3:2,1:2:0:0:
302,301,24448,1,8,3:0:0:0:
302,301,24575,6,0,P|334:302|382:312,2,67.5,6|2|6,0:0|0:0|0:0,1:2:0:0:
165,358,25338,1,10,0:0:0:0:
157,259,25592,2,0,P|162:226|177:183,2,67.5,14|2|14,0:0|0:0|0:0,1:2:0:0:
233,80,26482,1,2,0:0:0:0:
233,80,26609,6,0,L|341:69,1,90,14|10,0:0|0:0,1:2:0:0:
410,117,27118,2,0,P|412:148|401:200,2,67.5,0|0|0,0:0|0:0|0:0,1:2:0:0:
383,75,27626,1,8,1:2:0:0:
284,75,27880,6,0,L|85:95,1,180,2|0,0:0|0:0,1:2:0:0:
57,107,28516,1,2,0:0:0:0:
57,107,28643,6,0,P|52:150|69:206,1,90,4|0,0:0|0:0,0:0:0:0:
93,233,29024,1,2,0:0:0:0:
128,377,29406,2,0,L|190:380,1,45,2|10,0:0|0:0,0:0:0:0:
220,364,29660,6,0,P|215:321|232:265,1,90,2|2,0:0|0:0,0:0:0:0:
256,236,30041,1,2,0:0:0:0:
267,87,30423,2,0,L|321:82,1,45,2|10,0:0|0:0,0:0:0:0:
359,96,30677,6,0,L|359:172,2,67.5,2|2|8,0:0|0:0|0:0,0:0:0:0:
402,73,31185,2,0,L|405:2,2,67.5,2|2|10,0:0|0:0|0:0,0:0:0:0:
448,91,31694,2,0,B|453:115|464:131|464:131|460:153|448:171|448:171|464:219|464:219|460:240|448:259|448:259|461:281|464:307,1,225,2|2,0:0|0:2,0:0:0:0:
445,344,32457,2,0,L|396:341,1,45,2|0,3:2|3:0,0:0:0:0:
358,314,32711,6,0,P|357:281|363:230,2,67.5,6|2|6,0:0|0:0|0:0,1:2:0:0:
262,339,33346,2,0,L|266:388,2,45,2|0|2,0:0|0:0|0:0,1:2:0:0:
224,306,33728,2,0,P|189:309|138:317,2,67.5,6|2|6,0:0|0:0|0:0,1:2:0:0:
242,208,34363,2,0,L|287:207,2,45,2|0|2,0:0|0:0|0:0,1:2:0:0:
210,169,34745,5,12,0:0:0:0:
247,77,34999,2,0,P|303:77|344:85,1,90,8|8,0:0|0:0,1:2:0:0:
405,154,35507,2,0,P|410:201|400:246,1,90,8|12,0:0|0:0,1:2:0:0:
331,313,36016,2,0,P|275:313|234:305,1,90,0|8,3:0|0:0,1:2:0:0:
202,276,36397,2,0,P|201:254|206:218,2,45,0|4|4,0:0|0:3|0:3,1:2:0:0:
161,304,36779,5,4,0:0:0:0:
256,192,37033,12,0,38304,0:0:0:0:
299,329,38813,6,0,P|348:316|398:293,1,90,10|10,1:2|1:2,0:0:0:0:
365,254,39194,2,0,P|390:210|409:158,1,90,10|10,1:2|1:2,0:0:0:0:
358,155,39575,2,0,P|345:105|322:55,1,90,10|10,1:2|1:2,0:0:0:0:
284,91,39957,2,0,P|240:65|188:46,1,90,10|10,1:2|1:2,0:0:0:0:
179,93,40338,2,0,L|121:116,1,45,10|4,1:2|3:0,0:0:0:0:
141,158,40592,2,0,L|115:217,1,45,4|4,3:0|3:0,0:0:0:0:
157,234,40846,5,4,0:0:0:0:
256,192,41101,12,0,42372,0:0:0:0:
120,247,42880,6,0,L|65:205,1,45,2|4,0:0|0:0,0:0:0:0:
143,139,43262,2,0,L|131:73,1,45,2|4,0:0|0:0,0:0:0:0:
233,85,43643,2,0,L|270:19,1,45,2|4,0:0|0:0,0:0:0:0:
335,103,44024,2,0,L|391:83,1,45,2|4,0:0|0:0,0:0:0:0:
402,183,44406,2,0,P|444:191|484:242,1,90,2|2,0:2|3:2,0:0:0:0:
396,280,44914,6,0,L|216:287,1,180,6|10,0:0|0:3,0:0:0:0:
80,181,45931,2,0,L|260:174,1,180,2|10,0:3|0:3,0:0:0:0:
316,92,46694,1,2,0:3:0:0:
231,40,46948,6,0,P|224:93|223:147,1,90,2|2,0:3|0:3,0:0:0:0:
134,177,47457,2,0,P|129:129|119:83,1,90,10|2,0:3|0:3,0:0:0:0:
44,151,47965,2,0,P|42:196|46:249,1,90,2|2,0:3|0:3,0:0:0:0:
116,308,48474,1,10,0:3:0:0:
203,262,48728,1,10,0:3:0:0:
287,313,48982,6,0,B|338:324|381:309|381:309|346:265|357:226,1,180,6|10,0:0|0:3,0:0:0:0:
453,243,49745,1,2,0:3:0:0:
415,151,49999,2,0,P|371:135|323:135,1,90,2|2,0:3|0:3,0:0:0:0:
249,74,50507,2,0,P|202:78|155:66,1,90,10|2,0:3|0:3,0:0:0:0:
64,44,51016,6,0,B|131:174|1:173|63:314,1,270,2|2,0:3|0:3,0:0:0:0:
139,244,52033,2,0,P|183:244|235:257,1,90,2|2,0:3|0:3,0:0:0:0:
294,327,52541,2,0,P|335:339|389:341,1,90,2|0,3:0|3:0,0:0:0:0:
383,342,53304,5,4,0:0:0:0:
445,265,53558,1,2,0:0:0:0:
445,265,53685,2,0,B|405:244|405:244|345:241,1,90,2|4,0:0|0:0,1:2:0:0:
287,173,54194,2,0,L|231:175,2,45,2|10|10,0:0|0:0|0:0,1:2:0:0:
316,78,54702,2,0,L|371:74,2,45,2|2|2,0:0|0:0|0:0,1:2:0:0:
280,43,55084,1,10,0:0:0:0:
184,15,55338,5,6,0:0:0:0:
115,86,55592,1,2,0:0:0:0:
115,86,55719,2,0,P|109:133|111:181,1,90,2|6,0:0|0:0,0:0:0:0:
167,256,56228,2,0,P|171:285|172:324,2,45,2|10|2,0:0|0:0|0:0,0:0:0:0:
252,305,56736,2,0,P|247:336|238:370,2,45,2|2|2,0:0|0:0|0:0,0:0:0:0:
298,287,57118,1,10,0:0:0:0:
382,214,57372,5,4,0:0:0:0:
290,177,57626,1,2,0:0:0:0:
290,177,57753,2,0,B|245:180|245:180|195:162,1,90,2|4,0:0|0:0,1:2:0:0:
121,108,58262,2,0,L|50:83,2,45,2|10|2,0:0|0:0|0:0,1:2:0:0:
198,46,58770,2,0,L|248:62,2,45,2|2|2,0:0|0:0|0:0,1:2:0:0:
157,16,59152,6,0,P|163:80|156:157,1,135,6|2,0:2|0:2,0:2:0:0:
106,235,59787,1,8,0:2:0:0:
145,264,59914,2,0,P|194:273|242:279,1,90,6|2,0:2|0:2,0:2:0:0:
408,371,60677,6,0,P|402:307|409:230,1,135,6|2,0:2|0:2,0:2:0:0:
463,153,61313,1,8,0:2:0:0:
428,117,61440,2,0,P|379:108|331:102,1,90,6|2,0:2|0:2,0:2:0:0:
256,192,62202,12,0,65761,0:0:0:0:
424,31,66269,6,0,L|415:228,1,180,4|2,0:0|0:3,0:0:0:0:
332,265,67031,2,0,L|320:85,1,180,2|10,0:3|0:3,0:0:0:0:
230,128,67794,2,0,P|171:138|176:33,1,180,2|2,0:3|0:3,0:0:0:0:
206,28,68430,1,10,0:0:0:0:
206,28,68557,2,0,L|197:225,1,180,2|10,0:3|0:3,0:0:0:0:
260,284,69319,6,0,P|306:288|350:285,2,90,4|2|2,0:0|0:3|0:3,0:0:0:0:
197,207,70082,2,0,P|150:203|104:207,1,90,2|10,0:3|0:3,0:0:0:0:
30,268,70591,2,0,P|28:295|30:324,1,45,10|2,0:3|0:0,0:0:0:0:
46,359,70845,5,2,0:3:0:0:
135,317,71099,1,2,0:3:0:0:
226,354,71353,1,10,0:3:0:0:
315,310,71607,2,0,B|309:284|309:284|317:248|317:248|309:217,1,90,2|10,0:3|0:3,0:0:0:0:
383,155,72116,2,0,P|405:155|427:159,1,45,2|10,0:3|0:0,0:0:0:0:
467,188,72370,6,0,P|468:232|462:277,2,90,4|2|2,0:0|0:3|0:3,0:0:0:0:
389,126,73133,2,0,P|387:81|393:37,2,90,2|10|6,0:3|0:3|3:3,0:0:0:0:
296,89,73896,6,0,B|228:79|228:79|142:80,1,135,6|0,3:2|0:0,0:0:0:0:
83,140,74531,1,0,0:0:0:0:
110,181,74658,2,0,L|109:278,1,90,2|2,3:2|3:2,0:0:0:0:
193,323,75167,1,2,3:2:0:0:
282,367,75421,6,0,B|346:337|346:337|358:264,1,135,2|0,3:2|0:0,0:0:0:0:
377,176,76057,1,0,0:0:0:0:
413,142,76184,2,0,P|458:140|518:154,2,90,2|2|2,3:2|3:2|3:2,0:0:0:0:
324,185,76946,6,0,B|332:118|332:118|322:44,1,135,2|0,3:2|0:0,0:0:0:0:
228,19,77582,1,0,0:0:0:0:
202,61,77709,2,0,P|156:67|109:69,1,90,2|2,3:2|3:2,0:0:0:0:
25,239,78472,6,0,P|88:217|159:222,1,135,8|0,3:0|0:0,0:0:0:0:
249,250,79107,1,0,0:0:0:0:
284,284,79235,2,0,L|285:382,1,90,10|10,0:0|0:0,0:0:0:0:
376,335,79743,2,0,L|389:272,1,45,2|2,0:0|0:0,0:0:0:0:
422,259,79997,6,0,P|405:200|394:124,1,135,2|8,0:0|0:0,1:2:0:0:
287,24,80759,2,0,L|274:87,1,45,2|10,0:0|0:0,1:2:0:0:
241,101,81013,6,0,P|258:160|269:236,1,135,2|10,0:0|0:0,1:2:0:0:
168,342,81776,2,0,L|155:279,1,45,2|10,0:0|0:0,1:2:0:0:
121,265,82030,6,0,P|136:226|144:168,1,90,2|2,0:0|0:0,1:2:0:0:
87,96,82539,2,0,L|149:94,1,45,2|10,0:0|0:0,1:2:0:0:
148,47,82793,2,0,L|208:69,1,45,2|10,0:0|0:0,1:2:0:0:
223,25,83047,2,0,B|261:54|281:93|281:93|322:71|371:75,1,180,2|8,0:0|3:2,1:2:0:0:
452,196,83937,1,2,0:2:0:0:
452,196,84064,6,0,P|471:163|502:135,2,67.5,6|2|6,0:0|0:0|0:0,1:2:0:0:
306,165,84827,1,10,0:0:0:0:
274,71,85081,2,0,P|260:41|236:12,2,67.5,6|2|6,0:0|0:0|0:0,1:2:0:0:
317,267,85971,1,2,0:0:0:0:
317,267,86098,6,0,L|219:318,1,90,14|14,0:0|0:0,1:2:0:0:
141,325,86607,2,0,P|154:356|181:386,2,67.5,10|10|10,0:2|0:2|0:2,1:2:0:0:
148,276,87115,5,10,0:2:0:0:
218,205,87369,1,10,0:2:0:0:
148,135,87624,1,10,0:2:0:0:
77,205,87878,1,2,3:2:0:0:
148,276,88132,6,0,L|260:268,1,90,6|6,0:0|0:0,0:0:0:0:
285,255,88513,1,0,0:0:0:0:
285,255,88641,2,0,P|295:295|298:345,1,90,4|2,0:0|0:0,0:0:0:0:
386,299,89149,2,0,P|388:254|399:210,1,90,4|2,3:2|3:2,0:0:0:0:
432,173,89530,2,0,L|342:166,1,90,2|0,3:2|3:0,0:0:0:0:
292,168,89912,2,0,P|297:144|298:113,1,45,6|2,3:2|3:2,0:0:0:0:
264,87,90166,6,0,L|283:13,2,67.5,6|2|10,0:0|0:0|0:0,0:0:0:0:
214,111,90674,2,0,L|205:188,2,67.5,2|2|8,0:0|0:0|0:0,0:0:0:0:
172,82,91183,2,0,B|125:82|83:64|83:64|69:117|43:144|43:144|67:165|79:197,1,225,2|2,0:0|0:0,0:0:0:0:
96,221,91946,2,0,P|100:266|99:283,1,45,0|0,3:0|3:0,0:0:0:0:
89,313,92200,6,0,P|55:311|22:320,2,67.5,6|2|6,0:0|0:0|0:0,1:0:0:0:
184,339,92835,2,0,L|188:401,2,45,2|2|2,0:0|0:0|0:0,1:0:0:0:
223,308,93217,2,0,L|232:220,1,67.5,6|2,0:0|0:0,1:0:0:0:
290,197,93598,6,0,P|334:212|387:201,1,90,6|2,0:0|0:0,1:0:0:0:
421,227,93980,2,0,L|447:169,1,45,2|2,0:0|0:0,1:0:0:0:
486,171,94234,5,14,0:0:0:0:
418,67,94488,2,0,P|370:54|316:57,1,90,10|10,0:0|0:0,1:0:0:0:
256,120,94996,2,0,P|244:163|242:221,1,90,10|14,0:0|0:0,1:0:0:0:
298,288,95505,2,0,P|343:305|401:304,1,90,10|10,0:0|0:0,1:0:0:0:
433,298,95886,2,0,P|443:279|452:249,2,45,0|10|0,0:0|0:0|0:0,1:0:0:0:
456,342,96268,5,6,0:0:0:0:
102,158,97285,6,0,L|97:240,1,67.5,2|2,1:2|1:2,1:2:0:0:
93,299,97666,2,0,L|170:303,1,67.5,2|2,1:2|1:2,1:2:0:0:
234,309,98047,2,0,P|235:282|238:253,1,45,2|2,1:2|1:2,1:2:0:0:
215,218,98302,6,0,P|277:214|353:232,1,135,12|0,0:0|0:0,0:0:0:0:
438,273,98937,2,0,P|442:248|456:211,1,45,0|8,0:0|0:0,0:0:0:0:
497,143,99318,1,8,0:0:0:0:
497,143,99573,1,8,0:0:0:0:
416,86,99827,2,0,B|352:94|352:94|268:80,1,135,8|0,0:0|0:0,0:0:0:0:
187,54,100463,2,0,L|191:115,1,45,0|8,0:0|0:0,0:0:0:0:
253,174,100844,1,8,0:0:0:0:
253,174,101098,1,8,0:0:0:0:
254,272,101352,6,0,P|183:254|109:259,1,135,8|0,0:0|0:0,0:0:0:0:
68,340,101988,2,0,P|93:340|126:334,1,45,0|8,0:0|0:0,0:0:0:0:
209,359,102369,1,8,0:0:0:0:
209,359,102624,1,8,0:0:0:0:
254,272,102878,6,0,B|265:226|253:182|253:182|273:146|277:75,1,180,8|8,0:0|0:0,0:0:0:0:
373,105,103640,2,0,B|362:151|374:195|374:195|354:231|350:302,1,180,2|2,0:0|0:0,0:0:0:0:
425,346,104403,5,4,0:0:0:0:
425,346,104657,2,0,L|446:245,1,90,2|2,0:3|0:3,1:2:0:0:
370,190,105166,1,2,0:3:0:0:
370,190,105420,2,0,L|351:91,1,90,2|2,0:3|0:3,1:2:0:0:
388,9,105929,6,0,B|317:17|317:17|287:43|287:43|215:51,1,180,2|2,0:3|0:3,1:2:0:0:
172,32,106564,1,0,0:0:0:0:
172,32,106691,2,0,P|180:83|179:143,1,90,2|2,0:3|0:3,1:2:0:0:
273,155,107200,2,0,P|267:180|267:198,1,45,2|0,0:3|0:0,1:2:0:0:
295,239,107454,6,0,L|392:235,2,90,2|2|2,0:3|0:3|0:3,1:2:0:0:
196,246,108217,2,0,L|204:371,2,90,2|2|2,0:3|0:3|0:3,1:2:0:0:
189,147,108979,2,0,L|84:155,2,90,2|2|2,0:3|0:3|0:3,1:2:0:0:
287,138,109742,2,0,L|279:13,2,90,2|2|2,0:0|0:0|0:0,1:2:0:0:
256,192,110505,12,0,112030,0:0:0:0:
310,151,112538,6,0,B|306:104|306:104|249:121,1,90,10|10,1:2|1:2,0:0:0:0:
215,119,112920,2,0,B|172:98|172:98|158:156,1,90,10|10,1:2|1:2,0:0:0:0:
145,187,113301,2,0,B|106:213|106:213|149:254,1,90,10|10,1:2|1:2,0:0:0:0:
163,285,113683,2,0,B|167:332|167:332|224:315,1,90,10|10,1:2|1:2,0:0:0:0:
257,316,114064,2,0,L|308:289,1,45,10|4,1:2|1:3,0:0:0:0:
324,253,114318,2,0,L|327:189,1,45,4|4,1:3|1:3,0:0:0:0:
256,192,115081,12,4,118131,3:0:0:0:
