osu file format v14

[General]
AudioFilename: audio.mp3
AudioLeadIn: 0
PreviewTime: 20254
Countdown: 0
SampleSet: Soft
StackLeniency: 0.5
Mode: 0
LetterboxInBreaks: 0
WidescreenStoryboard: 0

[Editor]
Bookmarks: 6779,14279
DistanceSpacing: 1
BeatDivisor: 4
GridSize: 4
TimelineZoom: 3.099999

[Metadata]
Title:Lachryma
TitleUnicode:Lachryma《Re:Queen'M》
Artist:Kaneko Chiharu
ArtistUnicode:かねこちはる
Creator:Kroytz
Version:Alheak's INFINITE
Source:SOUND VOLTEX III GRAVITY WARS
Tags:SDVX Grace The 5th KAC Original Song Contest KONAMI BEMANI Battle Ametrin Fizz Ponoyoshi Alheak toybot Smoothie World
BeatmapID:1087428
BeatmapSetID:475629

[Difficulty]
HPDrainRate:5
CircleSize:3.2
OverallDifficulty:8.5
ApproachRate:9.5
SliderMultiplier:2
SliderTickRate:1

[Events]
//Background and Video events
0,0,"BG.png",0,0
//Break Periods
//Storyboard Layer 0 (Background)
//Storyboard Layer 1 (Fail)
//Storyboard Layer 2 (Pass)
//Storyboard Layer 3 (Foreground)
//Storyboard Sound Samples

[TimingPoints]
678,254.237288135593,3,2,1,55,1,0
678,-200,3,2,1,55,0,0
6779,-133.333333333333,3,2,1,55,0,0
14406,-200,3,2,1,55,0,0
18983,-200,3,3,2,55,0,0
19745,-200,3,2,1,55,0,0
20508,254.237288135593,4,2,1,55,1,1
20508,-76.9230769230769,4,2,1,55,0,1
20762,-76.9230769230769,4,2,1,55,0,1
27944,-76.9230769230769,4,3,2,5,0,1
28007,-250,4,2,4,55,0,0
28389,-250,4,2,1,55,0,0
28643,-90.9090909090909,4,2,1,55,0,1
36779,-500,4,2,1,55,0,0
44914,-133.333333333333,4,2,1,55,0,0
59152,254.237288135593,3,3,1,55,1,0
62202,254.237288135593,4,2,1,55,1,0
64235,-100,4,2,1,55,0,0
66269,254.237288135593,3,2,1,55,1,0
66269,-100,3,2,1,55,0,0
79997,254.237288135593,4,2,5,75,1,0
80251,-76.9230769230769,4,2,1,55,0,1
87115,-76.9230769230769,4,2,1,55,0,0
90166,-76.9230769230769,4,2,1,55,0,1
96268,-200,4,2,1,55,0,0
98302,254.237288135593,3,2,1,55,1,1
104340,-100,3,2,1,55,0,0
104403,-100,3,2,1,55,0,1
110505,254.237288135593,4,2,1,55,1,0
115081,254.237288135593,4,2,1,55,1,1
118131,-100,4,2,1,55,0,0

[Colours]
Combo1 : 70,70,255
Combo2 : 255,62,62
Combo3 : 255,137,81
Combo4 : 0,174,174
Combo5 : 0,101,202

[HitObjects]
333,131,678,6,0,L|436:120,1,100,6|0,0:2|0:0,0:0:0:0:
244,63,1059,1,8,0:3:0:0:
239,49,1313,1,8,0:3:0:0:
282,222,1440,2,0,P|288:265|288:280,1,50,2|0,0:0|0:0,0:0:0:0:
135,186,1694,2,0,P|136:161|141:136,1,50,10|0,0:0|0:0,0:0:0:0:
298,244,1949,2,0,P|297:287|295:302,1,50,10|0,0:0|0:0,0:0:0:0:
78,252,2203,6,0,P|127:274|172:266,1,100,2|0,0:0|0:0,0:0:0:0:
258,77,2585,1,8,0:3:0:0:
263,63,2839,1,8,0:3:0:0:
134,185,2966,2,0,L|140:136,1,50,2|0,0:0|0:0,0:0:0:0:
268,50,3220,2,0,L|274:99,1,50,10|0,0:0|0:0,0:0:0:0:
292,293,3474,2,0,L|298:243,1,50,10|0,0:0|0:0,0:0:0:0:
510,116,3728,6,0,P|473:148|424:150,1,100,2|0,0:2|0:0,0:0:0:0:
361,15,4110,1,8,0:3:0:0:
347,9,4364,1,8,0:3:0:0:
337,231,4491,2,0,L|331:280,1,50,2|0,0:0|0:0,0:0:0:0:
110,128,4745,2,0,P|128:109|158:99,1,50,2|0,0:0|0:0,0:0:0:0:
407,78,5000,2,0,L|401:127,1,50,2|0,0:0|0:0,0:0:0:0:
154,318,5254,6,0,B|171:175|171:175|154:197|125:204,1,200,2|0,0:0|0:0,0:0:0:0:
196,247,5889,1,0,0:0:0:0:
248,182,6016,2,0,P|199:103|110:127,1,200,2|0,0:0|0:0,0:0:0:0:
208,344,6779,6,0,P|255:353|294:348,1,75.0000028610231,4|0,0:0|0:0,0:0:0:0:
311,344,6970,1,0,0:0:0:0:
337,330,7033,1,0,0:0:0:0:
358,309,7097,1,0,0:0:0:0:
370,281,7161,2,0,P|376:259|378:233,1,37.5000014305115,8|0,0:0|0:0,0:0:0:0:
222,172,7288,1,0,0:0:0:0:
222,172,7351,1,0,0:0:0:0:
222,172,7415,2,0,P|224:190|229:208,1,37.5000014305115,8|0,0:0|0:0,0:0:0:0:
457,121,7542,6,0,L|419:115,3,37.5000014305115,2|0|0|0,0:0|0:0|0:0|0:0,0:0:0:0:
315,174,7796,2,0,L|338:144,3,37.5000014305115,10|0|0|0,0:0|0:0|0:0|0:0,0:0:0:0:
340,24,8050,2,0,L|353:58,3,37.5000014305115,10|0|0|0,0:0|0:0|0:0|0:0,0:0:0:0:
271,89,8305,5,2,0:0:0:0:
241,85,8368,1,0,0:0:0:0:
211,81,8432,1,0,0:0:0:0:
181,77,8495,1,0,0:0:0:0:
151,73,8559,2,0,L|103:66,1,37.5000014305115,0|0,0:0|0:0,0:0:0:0:
229,208,8686,2,0,P|233:230|234:253,3,37.5000014305115,8|0|0|0,0:0|0:0|0:0|0:0,0:0:0:0:
315,174,8940,2,0,L|363:167,1,37.5000014305115,8|0,0:0|0:0,0:0:0:0:
146,166,9067,5,2,0:0:0:0:
120,193,9131,1,0,0:0:0:0:
110,228,9194,1,0,0:0:0:0:
114,265,9258,1,0,0:0:0:0:
133,297,9322,2,0,L|127:334,3,37.5000014305115,10|0|0|0,0:0|0:0|0:0|0:0,0:0:0:0:
231,228,9576,2,0,P|212:229|193:233,1,37.5000014305115,10|0,0:0|0:0,0:0:0:0:
8,308,9703,2,0,P|26:309|45:313,1,37.5000014305115,8|0,0:0|0:0,0:0:0:0:
244,359,9830,5,4,0:0:0:0:
244,359,9894,1,0,0:0:0:0:
244,359,9957,1,0,0:0:0:0:
269,344,10020,1,0,0:0:0:0:
298,339,10083,1,0,0:0:0:0:
328,341,10147,1,0,0:0:0:0:
369,360,10211,1,8,0:0:0:0:
365,322,10275,1,0,0:0:0:0:
361,284,10339,1,0,0:0:0:0:
357,246,10402,1,0,0:0:0:0:
353,208,10466,2,0,P|354:189|358:170,1,37.5000014305115,8|0,0:0|0:0,0:0:0:0:
459,30,10593,5,2,0:0:0:0:
459,30,10656,1,0,0:0:0:0:
459,30,10720,1,0,0:0:0:0:
467,66,10783,1,0,0:0:0:0:
460,102,10847,1,8,0:0:0:0:
438,133,10910,1,0,0:0:0:0:
407,152,10974,1,0,0:0:0:0:
370,157,11037,1,0,0:0:0:0:
334,147,11101,1,8,0:0:0:0:
305,123,11164,1,0,0:0:0:0:
289,90,11228,2,0,P|285:71|283:52,1,37.5000014305115,0|0,0:0|0:0,0:0:0:0:
126,273,11355,5,2,0:0:0:0:
126,273,11419,1,0,0:0:0:0:
126,273,11483,1,0,0:0:0:0:
126,273,11546,1,0,0:0:0:0:
126,273,11610,2,0,L|122:319,1,37.5000014305115,2|0,0:0|0:0,0:0:0:0:
190,192,11737,2,0,L|231:172,1,37.5000014305115,8|0,0:0|0:0,0:0:0:0:
88,178,11864,1,2,0:0:0:0:
68,155,11927,1,0,0:0:0:0:
62,125,11991,1,8,0:0:0:0:
66,95,12055,1,0,0:0:0:0:
85,63,12118,6,0,P|88:44|90:25,3,37.5000014305115,2|0|0|0,0:0|0:0|0:0|0:0,0:0:0:0:
146,118,12372,1,10,0:0:0:0:
174,107,12436,1,0,0:0:0:0:
204,104,12500,1,0,0:0:0:0:
233,108,12563,1,0,0:0:0:0:
269,121,12627,2,0,P|287:119|306:115,1,37.5000014305115,10|0,0:0|0:0,0:0:0:0:
386,58,12754,2,0,P|393:41|399:22,1,37.5000014305115,10|0,0:0|0:0,0:0:0:0:
341,201,12881,6,0,P|340:238|352:273,1,75.0000028610231,4|0,0:0|0:0,0:0:0:0:
419,344,13072,1,0,0:0:0:0:
419,344,13135,1,0,0:0:0:0:
374,336,13199,1,0,0:0:0:0:
329,330,13262,1,8,0:0:0:0:
284,323,13326,1,0,0:0:0:0:
239,316,13389,1,0,0:0:0:0:
259,275,13453,1,0,0:0:0:0:
260,230,13516,2,0,P|254:209|244:194,1,37.5000014305115,8|0,0:0|0:0,0:0:0:0:
0,189,13644,6,0,P|37:184|73:192,1,75.0000028610231,2|0,0:0|0:0,0:0:0:0:
168,256,13834,1,0,0:0:0:0:
168,256,13898,2,0,L|161:207,1,37.5000014305115,10|0,3:2|3:0,0:0:0:0:
104,62,14025,2,0,L|97:111,1,37.5000014305115,0|0,3:0|3:0,0:0:0:0:
30,296,14152,2,0,P|48:300|70:300,1,37.5000014305115,0|0,3:0|3:0,0:0:0:0:
277,154,14279,2,0,P|258:153|239:157,1,37.5000014305115,0|0,3:0|3:0,0:0:0:0:
320,335,14406,6,0,B|307:282|307:282|310:235,1,100,6|2,3:2|3:2,0:0:0:0:
158,157,14788,2,0,B|171:210|171:210|168:255,1,100
309,236,15169,2,0,L|365:228,1,50,2|0,3:2|0:0,0:0:0:0:
234,24,15423,1,2,3:2:0:0:
472,106,15677,1,2,3:2:0:0:
228,183,15932,6,0,P|211:228|223:283,1,100,2|2,3:2|3:2,0:0:0:0:
393,199,16313,1,0,0:0:0:0:
314,156,16440,2,0,L|264:163,1,50,2|0,3:2|0:0,0:0:0:0:
391,107,16694,2,0,L|440:114,1,50,2|0,3:2|0:0,0:0:0:0:
234,24,16949,1,2,3:2:0:0:
32,185,17203,1,2,3:2:0:0:
273,298,17457,6,0,B|332:289|332:289|384:299,1,100,2|2,3:2|3:2,0:0:0:0:
205,369,17839,1,0,0:0:0:0:
240,203,17966,2,0,P|240:178|235:153,1,50,2|0,3:2|0:0,0:0:0:0:
74,255,18220,2,0,L|123:262,1,50,2|0,3:2|0:0,0:0:0:0:
155,65,18474,1,2,3:2:0:0:
348,132,18728,2,0,L|385:127,2,33.3333333333333,2|2|2,3:2|0:0|0:0,0:0:0:0:
445,193,18983,5,0,3:0:0:0:
436,217,19067,2,0,P|432:243|432:262,2,33.3333333333333,0|0|0,3:0|3:0|3:0,0:0:0:0:
308,279,19322,1,0,3:0:0:0:
317,303,19406,2,0,P|321:329|321:348,1,33.3333333333333,0|0,3:0|3:0,0:0:0:0:
182,236,19576,1,0,3:0:0:0:
149,242,19661,1,0,3:0:0:0:
241,172,19745,5,8,1:3:0:0:
67,338,20000,2,0,P|56:289|61:245,1,87.5,8|0,1:3|0:0,0:0:0:0:
97,174,20317,2,0,L|94:141,1,25,2|2,0:0|0:0,0:0:0:0:
149,242,20444,1,2,0:0:0:0:
182,236,20508,6,0,B|227:256|227:256|312:245,1,129.999994049073,4|8,0:0|0:0,0:0:0:0:
485,188,20762,1,2,0:0:0:0:
241,172,20889,2,0,P|234:106|391:64,1,259.999988098145,8|8,0:2|0:0,0:0:0:0:
322,244,21270,1,2,0:0:0:0:
334,220,21334,1,2,0:0:0:0:
338,194,21397,1,10,0:0:0:0:
337,167,21461,1,2,0:0:0:0:
324,130,21524,6,0,P|273:85|212:83,1,129.999994049073,2|10,0:0|0:0,0:0:0:0:
21,178,21778,1,2,0:0:0:0:
241,172,21906,2,0,B|228:239|228:239|249:355|249:355|231:319|191:308,1,259.999988098145,10|8,0:0|0:0,0:0:0:0:
358,327,22287,1,2,0:0:0:0:
397,334,22351,1,2,0:0:0:0:
435,331,22414,1,10,0:0:0:0:
470,313,22478,1,2,0:0:0:0:
498,270,22541,6,0,P|508:230|503:132,1,129.999994049073,2|8,0:0|0:0,0:0:0:0:
270,128,22796,2,0,P|260:168|265:266,1,129.999994049073,2|8,0:2|0:0,0:0:0:0:
397,65,23050,1,2,0:0:0:0:
142,130,23177,2,0,B|208:140|208:140|270:128,1,129.999994049073,10|2,0:0|0:0,0:0:0:0:
61,68,23431,1,10,0:0:0:0:
61,68,23495,1,2,0:0:0:0:
61,68,23558,6,0,P|46:116|65:193,1,129.999994049073,2|8,0:0|0:0,0:0:0:0:
299,342,23813,2,0,P|315:286|292:214,1,129.999994049073,2|8,0:0|0:0,0:0:0:0:
81,285,24067,2,0,B|144:273|144:273|210:283,1,129.999994049073,2|0,3:2|3:0,0:0:0:0:
429,382,24321,1,4,3:0:0:0:
429,382,24385,1,4,3:0:0:0:
429,382,24448,2,0,L|420:318,1,64.9999970245363,8|8,3:0|3:0,0:0:0:0:
457,147,24575,5,6,0:0:0:0:
119,107,24766,1,2,0:0:0:0:
385,228,24957,2,0,B|350:243|336:277|336:277|348:82,1,259.999988098145,6|2,0:0|0:0,0:0:0:0:
506,24,25338,2,0,P|481:45|451:55,1,64.9999970245363,10|0,0:0|0:0,0:0:0:0:
233,67,25465,1,2,0:0:0:0:
419,317,25592,6,0,L|428:382,1,64.9999970245363,14|0,0:0|0:0,0:0:0:0:
223,237,25719,2,0,P|163:224|89:229,1,129.999994049073
348,89,25974,2,0,B|360:176|360:176|348:262|348:262|379:225|426:231,1,259.999988098145,14|2,0:0|0:0,0:0:0:0:
422,230,26291,1,0,0:0:0:0:
422,230,26355,1,8,0:0:0:0:
261,158,26482,2,0,L|193:149,1,64.9999970245363,2|0,0:0|0:0,0:0:0:0:
449,134,26609,6,0,P|472:88|471:9,1,129.999994049073,14|0,0:0|0:0,0:0:0:0:
219,26,26863,2,0,P|192:84|196:149,1,129.999994049073,10|0,0:0|0:0,0:0:0:0:
412,311,27118,2,0,B|365:298|365:298|276:309,1,129.999994049073,10|0,0:0|0:0,0:0:0:0:
209,357,27308,2,0,P|235:298|231:233,1,129.999994049073,2|0,0:0|0:0,0:0:0:0:
196,149,27499,2,0,L|122:140,1,64.9999970245363,2|0,0:0|0:0,0:0:0:0:
375,90,27626,5,10,1:2:0:0:
391,86,27880,2,0,L|318:72,1,64.9999970245363
122,50,28007,2,0,P|68:74|39:129,1,120,0|0,0:0|0:0,0:0:0:0:
39,149,28452,1,2,0:0:0:0:
44,172,28516,1,2,0:0:0:0:
54,193,28580,1,2,0:0:0:0:
87,221,28643,6,0,B|157:211|157:211|201:221,1,110.000003356934,4|8,0:0|0:0,0:0:0:0:
297,359,28897,1,0,0:0:0:0:
231,121,29024,2,0,P|261:61|395:94,1,220.000006713867,8|8,0:0|0:0,0:0:0:0:
391,269,29406,1,2,0:0:0:0:
359,279,29469,1,2,0:0:0:0:
325,282,29533,1,10,0:0:0:0:
292,277,29596,1,2,0:0:0:0:
251,258,29660,6,0,P|196:247|137:253,1,110.000003356934,2|8,0:0|0:0,0:0:0:0:
8,364,29914,1,2,0:0:0:0:
16,105,30041,2,0,P|106:132|240:117,1,220.000006713867,8|8,0:0|0:0,0:0:0:0:
452,23,30423,1,2,0:0:0:0:
431,61,30486,1,2,0:0:0:0:
425,104,30550,1,10,0:0:0:0:
432,146,30613,1,2,0:0:0:0:
460,196,30677,6,0,P|471:254|461:314,1,110.000003356934,2|8,0:0|0:0,0:0:0:0:
370,340,30868,2,0,P|326:306|296:260,1,110.000003356934,2|0,0:0|0:0,0:0:0:0:
357,183,31058,1,8,0:0:0:0:
52,196,31185,6,0,P|41:254|51:314,1,110.000003356934,2|8,0:0|0:0,0:0:0:0:
142,340,31376,2,0,P|185:306|215:260,1,110.000003356934,2|0,0:0|0:0,0:0:0:0:
155,183,31566,1,10,0:0:0:0:
263,63,31694,5,2,0:0:0:0:
263,63,31757,1,2,0:0:0:0:
300,70,31821,5,10,0:0:0:0:
300,70,31884,1,2,0:0:0:0:
337,77,31949,5,2,0:0:0:0:
337,77,32012,1,2,0:0:0:0:
374,84,32076,5,10,0:0:0:0:
374,84,32139,1,2,0:0:0:0:
411,91,32203,5,2,0:2:0:0:
411,91,32266,1,2,0:2:0:0:
448,98,32330,5,2,0:2:0:0:
448,98,32393,1,2,0:2:0:0:
469,137,32457,6,0,P|480:195|470:255,1,110.000003356934,2|0,3:2|3:0,0:0:0:0:
427,307,32647,1,0,3:0:0:0:
427,307,32711,5,6,0:0:0:0:
114,202,32902,1,2,0:0:0:0:
337,99,33092,2,0,B|351:261|351:261|367:232|394:225,1,220.000006713867,6|2,0:0|0:0,0:0:0:0:
223,82,33474,1,0,0:0:0:0:
426,31,33601,1,2,0:0:0:0:
265,218,33728,6,0,P|259:242|260:275,1,55.0000016784668,6|0,0:0|0:0,0:0:0:0:
172,172,33855,2,0,B|115:180|115:180|61:168,1,110.000003356934,0|0,0:0|0:0,0:0:0:0:
242,52,34109,1,6,0:0:0:0:
253,43,34363,1,2,0:0:0:0:
396,104,34491,1,0,0:0:0:0:
169,221,34618,1,2,0:0:0:0:
169,221,34681,1,2,0:0:0:0:
169,221,34745,6,0,P|156:277|172:327,1,110.000003356934,12|0,0:0|0:0,0:0:0:0:
259,272,34999,1,8,0:0:0:0:
433,294,35127,1,2,0:0:0:0:
457,266,35190,2,0,B|457:246|465:227|465:227|437:169|450:97,1,165.000005035401,2|0,0:0|0:0,0:0:0:0:
352,227,35507,1,8,0:0:0:0:
169,221,35635,1,2,0:0:0:0:
145,193,35698,6,0,B|145:172|137:154|137:154|165:96|152:24,1,165.000005035401,2|0,0:0|0:0,0:0:0:0:
249,159,36016,1,0,3:0:0:0:
364,33,36143,1,0,3:0:0:0:
401,41,36207,2,0,P|449:107|424:180,1,165.000005035401,0|0,3:0|0:0,0:0:0:0:
197,254,36524,2,0,L|251:248,1,55.0000016784668,4|4,0:3|0:3,0:0:0:0:
367,118,36652,2,0,L|312:112,1,55.0000016784668,4|4,0:3|0:3,0:0:0:0:
153,31,36779,5,6,0:0:0:0:
256,192,36842,12,0,38685,0:0:0:0:
325,96,38813,5,10,1:2:0:0:
141,72,38940,1,10,1:2:0:0:
341,68,39067,1,10,1:2:0:0:
206,203,39194,5,10,1:2:0:0:
390,187,39321,1,10,1:2:0:0:
190,175,39448,1,10,1:2:0:0:
252,306,39575,5,10,1:2:0:0:
269,101,39702,1,10,1:2:0:0:
85,181,39830,1,10,1:2:0:0:
277,295,39957,5,10,1:2:0:0:
250,85,40084,1,10,1:2:0:0:
454,168,40211,1,10,1:2:0:0:
194,150,40338,5,10,1:2:0:0:
301,285,40465,1,4,3:0:0:0:
325,140,40592,1,4,3:0:0:0:
325,275,40719,1,4,3:0:0:0:
441,190,40846,5,4,0:0:0:0:
256,192,40910,12,0,42753,0:0:0:0:
124,121,42880,5,2,0:0:0:0:
427,60,43007,1,4,0:0:0:0:
412,190,43262,5,2,0:0:0:0:
138,107,43389,1,4,0:0:0:0:
153,237,43643,5,2,0:0:0:0:
399,173,43770,1,4,0:0:0:0:
388,309,44024,5,2,0:0:0:0:
167,223,44152,1,4,0:0:0:0:
180,348,44406,6,0,L|182:373,1,20,2|0,0:2|3:0,0:0:0:0:
372,297,44660,2,0,L|371:317,1,20,2|0,3:2|3:0,0:0:0:0:
41,299,44914,5,6,0:0:0:0:
43,294,44978,1,0,0:0:0:0:
45,289,45041,1,0,0:0:0:0:
47,284,45105,1,0,0:0:0:0:
49,279,45169,1,2,0:3:0:0:
51,274,45232,1,0,0:0:0:0:
53,269,45296,1,0,0:0:0:0:
55,264,45360,1,0,0:0:0:0:
56,259,45423,2,0,L|53:210,4,37.5000014305115,10|0|0|0|2,0:3|0:0|0:0|0:0|0:3,0:0:0:0:
148,176,45741,1,0,0:0:0:0:
148,176,45804,2,0,P|182:168|222:168,2,75.0000028610231,8|2|8,0:0|0:3|0:0,0:0:0:0:
80,99,46185,6,0,P|46:91|6:91,1,75.0000028610231,2|0,0:0|0:3,0:0:0:0:
287,251,46440,1,10,0:3:0:0:
320,267,46503,1,0,0:0:0:0:
357,264,46567,1,0,0:0:0:0:
388,244,46630,1,0,0:0:0:0:
405,211,46694,1,2,0:3:0:0:
404,174,46757,1,0,0:0:0:0:
385,143,46821,1,8,0:0:0:0:
353,124,46884,1,0,0:0:0:0:
380,79,46948,6,0,L|385:35,7,37.5000014305115,2|0|0|0|2|0|0|0,0:3|0:0|0:0|0:0|0:3|0:0|0:0|0:0,0:0:0:0:
249,105,47457,2,0,L|253:142,4,37.5000014305115,10|0|0|0|2,0:3|0:0|0:0|0:0|0:3,0:0:0:0:
127,53,47774,1,0,0:0:0:0:
127,53,47838,2,0,P|93:45|53:45,2,75.0000028610231,8|2|8,0:0|0:3|0:0,0:0:0:0:
94,184,48219,6,0,P|128:176|168:176,1,75.0000028610231,2|0,0:0|0:3,0:0:0:0:
262,261,48474,1,10,0:3:0:0:
291,269,48537,1,0,0:0:0:0:
320,265,48601,1,0,0:0:0:0:
345,250,48664,1,0,0:0:0:0:
364,219,48728,1,10,0:3:0:0:
359,182,48791,1,0,0:0:0:0:
354,145,48855,1,8,0:0:0:0:
349,107,48919,1,0,0:0:0:0:
346,56,48982,6,0,P|349:31|356:8,7,37.5000014305115,6|0|0|0|2|0|0|0,0:0|0:0|0:0|0:0|0:3|0:0|0:0|0:0,0:0:0:0:
448,130,49491,2,0,P|472:126|495:119,4,37.5000014305115,10|0|0|0|2,0:3|0:0|0:0|0:0|0:3,0:0:0:0:
249,105,49808,1,0,0:0:0:0:
249,105,49872,2,0,L|259:187,2,75.0000028610231,8|2|8,0:0|0:3|0:0,0:0:0:0:
93,149,50253,6,0,L|84:224,1,75.0000028610231,2|0,0:0|0:3,0:0:0:0:
177,314,50507,1,10,0:3:0:0:
206,310,50571,1,0,0:0:0:0:
235,306,50635,1,0,0:0:0:0:
264,302,50698,1,0,0:0:0:0:
299,313,50762,1,2,0:3:0:0:
283,279,50825,1,0,0:0:0:0:
282,241,50889,1,8,0:0:0:0:
289,203,50952,1,0,0:0:0:0:
324,163,51016,6,0,P|342:158|360:156,7,37.5000014305115,2|0|0|0|2|0|0|0,0:3|0:0|0:0|0:0|0:3|0:0|0:0|0:0,0:0:0:0:
439,258,51524,2,0,P|420:253|402:251,4,37.5000014305115,10|0|0|0|2,0:3|0:0|0:0|0:0|0:3,0:0:0:0:
477,119,51842,1,0,0:0:0:0:
477,119,51906,2,0,P|474:68|461:33,2,75.0000028610231,8|2|8,0:0|0:3|0:0,0:0:0:0:
321,68,52287,6,0,P|311:32|293:0,1,75.0000028610231,2|0,0:0|0:3,0:0:0:0:
168,100,52541,1,2,3:0:0:0:
148,111,52605,1,0,3:0:0:0:
129,129,52669,1,0,3:0:0:0:
114,155,52732,1,0,3:0:0:0:
109,188,52796,1,0,3:0:0:0:
114,224,52859,1,0,3:0:0:0:
132,261,52923,1,0,3:0:0:0:
167,287,52986,1,0,3:0:0:0:
218,299,53050,5,0,0:0:0:0:
232,282,53304,2,0,P|281:274|314:277,1,75.0000028610231,4|0,0:0|0:0,0:0:0:0:
449,323,53558,1,2,0:0:0:0:
388,145,53685,2,0,P|386:107|394:70,1,75.0000028610231,2|10,0:0|0:0,0:0:0:0:
247,265,53940,1,4,0:0:0:0:
263,250,54194,5,2,0:0:0:0:
405,160,54321,1,10,0:0:0:0:
149,173,54448,2,0,P|112:164|79:147,1,75.0000028610231,10|0,0:0|0:0,0:0:0:0:
252,78,54702,1,2,0:0:0:0:
92,25,54830,1,2,0:0:0:0:
269,65,54957,1,2,0:0:0:0:
143,286,55084,5,10,0:0:0:0:
157,303,55338,2,0,P|193:310|230:309,1,75.0000028610231,6|0,0:0|0:0,0:0:0:0:
326,156,55592,1,2,0:0:0:0:
149,173,55719,2,0,P|112:164|78:148,1,75.0000028610231,2|8,0:0|0:0,0:0:0:0:
257,8,55974,1,6,0:0:0:0:
279,2,56228,5,2,0:0:0:0:
121,48,56355,1,10,0:0:0:0:
342,144,56482,2,0,P|379:140|414:129,1,75.0000028610231,2|0,0:0|0:0,0:0:0:0:
257,8,56736,1,2,0:0:0:0:
326,158,56863,1,2,0:0:0:0:
86,127,56991,1,2,0:0:0:0:
286,305,57118,5,10,0:0:0:0:
303,319,57372,2,0,P|338:330|375:333,1,75.0000028610231,4|0,0:0|0:0,0:0:0:0:
224,189,57626,1,2,0:0:0:0:
113,292,57753,2,0,P|77:303|40:306,1,75.0000028610231,2|8,0:0|0:0,0:0:0:0:
156,80,58007,1,4,0:0:0:0:
166,59,58262,5,2,0:0:0:0:
49,197,58389,1,10,0:0:0:0:
290,112,58516,2,0,P|327:115|362:126,1,75.0000028610231,2|0,0:0|0:0,0:0:0:0:
226,265,58770,1,2,0:0:0:0:
419,233,58897,1,2,0:0:0:0:
219,247,59024,1,2,0:0:0:0:
435,320,59152,5,6,0:2:0:0:
422,293,59236,1,0,0:0:0:0:
416,263,59321,1,0,0:0:0:0:
419,233,59406,1,2,0:2:0:0:
427,204,59490,1,0,0:0:0:0:
426,173,59575,1,0,0:0:0:0:
411,146,59660,2,0,L|420:73,2,66.6666666666667,2|0|0,0:2|0:0|0:0,0:0:0:0:
312,62,59914,5,6,0:2:0:0:
272,66,59999,1,0,0:0:0:0:
232,70,60084,1,0,0:0:0:0:
192,75,60168,1,2,0:2:0:0:
158,112,60253,1,0,0:0:0:0:
148,161,60338,1,0,0:0:0:0:
168,208,60423,2,0,P|190:227|226:239,2,66.6666666666667,2|0|0,0:2|0:0|0:0,0:0:0:0:
296,176,60677,5,6,0:2:0:0:
260,211,60762,1,0,0:0:0:0:
251,260,60846,1,0,0:0:0:0:
269,307,60931,1,2,0:2:0:0:
229,312,61016,1,0,0:0:0:0:
189,317,61101,1,0,0:0:0:0:
140,323,61185,2,0,L|68:332,2,66.6666666666667,2|0|0,0:2|0:0|0:0,0:0:0:0:
4,250,61440,5,6,0:2:0:0:
12,201,61524,1,0,0:0:0:0:
46,164,61609,1,0,0:0:0:0:
94,151,61694,1,2,0:2:0:0:
143,160,61779,1,0,0:0:0:0:
190,146,61863,1,0,0:0:0:0:
225,110,61948,2,0,P|239:84|241:42,2,66.6666666666667
359,192,62202,6,0,L|423:186,31,50,6|2|2|2|2|2|2|2|2|2|2|2|2|2|2|2|2|2|2|2|2|2|2|2|2|2|2|2|2|2|2|2,0:0|0:0|0:0|0:0|0:0|0:0|0:0|0:0|0:0|0:0|0:0|0:0|0:0|0:0|0:0|0:0|0:0|0:0|0:0|0:0|0:0|0:0|0:0|0:0|0:0|0:0|0:0|0:0|0:0|0:0|0:0|0:0,0:0:0:0:
204,248,64235,6,0,L|140:242,31,50,2|2|2|2|2|2|2|2|2|2|2|2|2|2|2|2|2|2|2|2|2|2|2|2|2|2|2|2|2|2|2|2,0:0|0:0|0:0|0:0|0:0|0:0|0:0|0:0|0:0|0:0|0:0|0:0|0:0|0:0|0:0|0:0|0:0|0:0|0:0|0:0|0:0|0:0|0:0|0:0|0:0|0:0|0:0|0:0|0:0|0:0|0:0|0:0,0:0:0:0:
328,204,66269,6,0,P|303:122|321:8,1,200,4|2,0:0|0:3,0:0:0:0:
432,265,66650,2,0,B|335:238|335:238|237:251,1,200,8|8,0:0|0:0,0:0:0:0:
70,320,67031,2,0,P|86:271|82:214,1,100,2|0,0:3|0:0,0:0:0:0:
27,32,67285,2,0,P|25:81|41:128,1,100,10|0,0:3|0:0,0:0:0:0:
248,127,67540,2,0,L|146:140,1,100,10|0,0:3|0:0,0:0:0:0:
341,34,67794,6,0,P|406:14|477:117,1,200,2|2,0:3|0:3,0:0:0:0:
344,224,68175,1,8,0:0:0:0:
501,269,68302,1,2,0:3:0:0:
396,98,68430,1,10,0:0:0:0:
240,239,68557,2,0,P|191:250|141:248,1,100,2|0,0:3|0:0,0:0:0:0:
125,89,68811,2,0,P|173:78|223:79,1,100,10|0,0:3|0:0,0:0:0:0:
407,112,69065,1,10,0:3:0:0:
255,218,69192,1,8,0:0:0:0:
462,267,69319,6,0,B|472:316|472:316|462:367,1,100,4|0,0:0|0:0,0:0:0:0:
378,196,69574,2,0,L|400:74,1,100,2|8,0:3|0:0,0:0:0:0:
274,233,69828,2,0,B|247:275|247:275|239:326,1,100,2|8,0:3|0:0,0:0:0:0:
190,131,70082,2,0,P|139:115|91:120,1,100,2|0,0:3|0:0,0:0:0:0:
49,267,70336,2,0,P|98:270|145:255,1,100,10|0,0:3|0:0,0:0:0:0:
303,100,70591,1,10,0:3:0:0:
351,293,70718,1,2,0:0:0:0:
168,152,70845,6,0,P|114:149|69:166,1,100,2|0,0:3|0:0,0:0:0:0:
240,333,71099,2,0,L|256:220,1,100,2|8,0:3|0:0,0:0:0:0:
270,14,71353,2,0,L|286:127,1,100,10|0,0:3|0:0,0:0:0:0:
429,278,71607,1,2,0:3:0:0:
448,282,71671,1,2,0:0:0:0:
467,286,71735,1,2,0:0:0:0:
420,144,71862,2,0,P|417:90|434:45,1,100,10|0,0:3|0:0,0:0:0:0:
332,219,72116,1,2,0:3:0:0:
481,302,72243,1,10,0:0:0:0:
240,333,72370,6,0,L|130:318,1,100,4|0,0:0|0:0,0:0:0:0:
332,219,72624,2,0,P|378:202|428:206,1,100,2|8,0:3|0:0,0:0:0:0:
286,93,72879,2,0,P|239:76|189:80,1,100,2|8,0:3|0:0,0:0:0:0:
86,227,73133,2,0,P|135:230|182:214,1,100,2|0,0:3|0:0,0:0:0:0:
47,100,73387,1,10,0:3:0:0:
0,287,73514,1,4,3:0:0:0:
30,86,73641,1,6,3:3:0:0:
95,256,73769,1,0,3:0:0:0:
264,115,73896,6,0,P|191:174|223:266,1,200,6|2,3:2|3:2,0:0:0:0:
469,195,74277,2,0,B|401:204|401:204|338:189|338:189|271:198,1,200,0|0,0:0|0:0,0:0:0:0:
411,15,74658,2,0,P|418:64|408:113,1,100,2|0,3:2|0:0,0:0:0:0:
331,377,74913,2,0,P|324:328|335:280,1,100,2|0,3:2|0:0,0:0:0:0:
505,226,75167,2,0,L|398:212,1,100,2|0,3:2|0:0,0:0:0:0:
281,114,75421,6,0,P|354:173|322:265,1,200,2|2,3:2|3:2,0:0:0:0:
151,164,75802,1,0,0:0:0:0:
300,103,75930,2,0,P|321:58|322:6,1,100,2|0,3:2|0:0,0:0:0:0:
86,46,76184,2,0,L|185:58,1,100,2|0,3:2|0:0,0:0:0:0:
271,197,76438,2,0,L|171:209,1,100,2|0,3:2|0:0,0:0:0:0:
407,246,76692,2,0,P|406:197|385:152,1,100,2|0,3:2|0:0,0:0:0:0:
249,298,76946,6,0,B|350:287|350:287|446:314,1,200,2|2,3:2|3:2,0:0:0:0:
148,370,77328,1,0,0:0:0:0:
171,208,77455,2,0,L|183:94,1,100,2|0,3:2|0:0,0:0:0:0:
11,165,77709,2,0,P|13:218|33:263,1,100,2|0,3:2|0:0,0:0:0:0:
208,316,77963,2,0,P|206:263|186:218,1,100,2|0,3:2|0:0,0:0:0:0:
28,139,78218,2,0,L|38:67,2,66.6666666666667,2|2|2,3:2|0:2|0:2,0:0:0:0:
140,63,78472,6,0,P|173:54|208:53,1,66.6666666666667,8|8,3:0|3:0,0:0:0:0:
208,187,78641,1,8,3:0:0:0:
219,163,78726,2,0,P|243:138|272:120,1,66.6666666666667,8|8,3:0|3:0,0:0:0:0:
340,237,78895,1,8,3:0:0:0:
338,211,78980,2,0,P|346:177|363:147,1,66.6666666666667,12|12,3:3|3:3,0:0:0:0:
479,214,79150,1,8,3:0:0:0:
446,83,79235,5,10,0:0:0:0:
241,302,79489,2,0,P|171:315|70:288,1,175,10|0,0:0|0:0,0:0:0:0:
59,209,79785,2,0,P|54:237|61:280,1,66.6666666666667,0|2,0:0|0:0,0:0:0:0:
66,193,79934,1,2,0:0:0:0:
73,177,79997,6,0,P|83:126|71:74,1,100,2|0,0:0|0:0,0:0:0:0:
280,20,80251,1,4,0:0:0:0:
182,208,80378,2,0,B|236:180|321:173|376:197|376:197|359:223|322:222,1,259.999988098145,8|8,0:0|0:0,0:0:0:0:
172,14,80759,1,2,0:0:0:0:
179,39,80823,1,2,0:0:0:0:
179,64,80886,1,10,0:0:0:0:
176,90,80950,1,2,0:0:0:0:
156,123,81013,6,0,P|98:151|24:144,1,129.999994049073,2|10,0:0|0:0,0:0:0:0:
265,9,81268,1,2,0:0:0:0:
282,242,81395,2,0,P|319:311|467:269,1,259.999988098145,10|8,0:0|0:0,0:0:0:0:
267,108,81776,1,2,0:0:0:0:
228,116,81840,1,2,0:0:0:0:
189,111,81903,1,10,0:0:0:0:
152,97,81967,1,2,0:0:0:0:
115,61,82030,6,0,P|133:129|125:191,1,129.999994049073,2|8,0:0|0:0,0:0:0:0:
10,372,82285,2,0,P|3:307|21:245,1,129.999994049073,2|8,0:0|0:0,0:0:0:0:
241,215,82539,1,2,0:0:0:0:
124,355,82666,2,0,B|190:339|190:339|254:351,1,129.999994049073,10|2,0:0|0:0,0:0:0:0:
93,156,82920,1,10,0:0:0:0:
93,156,82984,1,0,0:0:0:0:
93,156,83047,6,0,L|74:18,1,129.999994049073,2|8,0:0|0:0,0:0:0:0:
267,131,83302,2,0,L|249:259,1,129.999994049073,2|8,0:0|0:0,0:0:0:0:
212,14,83556,2,0,P|280:0|342:9,1,129.999994049073,8|8,3:2|3:2,0:0:0:0:
409,297,83810,1,4,3:0:0:0:
409,297,83874,1,4,3:0:0:0:
409,297,83937,2,0,L|404:233,1,64.9999970245363,8|8,3:0|3:0,0:0:0:0:
241,125,84064,5,6,0:0:0:0:
490,78,84255,1,2,0:0:0:0:
282,237,84446,2,0,B|268:278|280:319|280:319|199:283|105:300,1,259.999988098145,6|2,0:0|0:0,0:0:0:0:
29,371,84827,1,10,0:0:0:0:
178,193,84954,1,2,0:0:0:0:
433,290,85081,6,0,P|400:291|368:286,1,64.9999970245363,6|0,0:0|0:0,0:0:0:0:
268,107,85208,2,0,L|282:241,1,129.999994049073,0|0,0:0|0:0,0:0:0:0:
191,12,85463,2,0,B|168:94|168:94|177:192|177:192|151:159|111:160,1,259.999988098145,6|2,0:0|0:0,0:0:0:0:
111,160,85780,1,0,0:0:0:0:
111,160,85844,1,10,0:0:0:0:
268,107,85971,2,0,P|302:101|341:105,1,64.9999970245363,2|2,0:0|0:0,0:0:0:0:
228,259,86098,6,0,P|167:275|112:244,1,129.999994049073,14|0,0:0|0:0,0:0:0:0:
4,8,86352,2,0,L|17:149,1,129.999994049073,14|0,0:0|0:0,0:0:0:0:
323,201,86607,1,10,0:2:0:0:
9,329,86797,1,10,0:2:0:0:
203,36,86988,1,10,0:2:0:0:
178,193,87115,6,0,P|149:229|110:244,2,86.6666626993817,10|10|10,0:2|0:2|0:2,0:0:0:0:
22,125,87370,2,0,P|67:132|100:158,2,86.6666626993817,10|10|10,0:2|0:2|0:2,0:0:0:0:
42,296,87624,2,0,P|25:252|31:211,2,86.6666626993817,10|10|8,0:2|0:2|0:2,0:0:0:0:
170,352,87878,1,2,3:2:0:0:
207,344,87941,1,2,3:2:0:0:
245,336,88005,1,2,3:2:0:0:
283,328,88069,1,2,3:2:0:0:
334,339,88132,6,0,P|316:275|320:208,1,129.999994049073,6|0,0:0|0:0,0:0:0:0:
429,36,88386,2,0,P|431:100|414:162,1,129.999994049073,6|0,0:0|0:0,0:0:0:0:
133,133,88641,2,0,P|132:68|152:7,1,129.999994049073,6|0,0:0|0:0,0:0:0:0:
213,205,88895,2,0,P|199:268|166:324,1,129.999994049073,6|2,0:0|0:0,0:0:0:0:
437,274,89149,6,0,L|511:267,11,64.9999970245363,4|0|0|0|0|0|0|0|0|0|0|0,3:2|3:0|3:0|3:0|3:0|3:0|3:0|3:0|3:0|3:0|3:0|3:0,0:0:0:0:
440,167,89912,1,6,3:2:0:0:
431,142,89975,1,2,3:2:0:0:
430,115,90039,1,2,3:2:0:0:
434,89,90102,1,2,3:2:0:0:
450,54,90166,6,0,P|385:50|322:66,1,129.999994049073,6|8,0:0|0:0,0:0:0:0:
322,205,90357,2,0,P|384:220|449:217,1,129.999994049073,2|0,0:0|0:0,0:0:0:0:
512,136,90547,1,10,0:0:0:0:
109,109,90674,2,0,B|152:159|152:159|215:173,1,129.999994049073,2|8,0:0|0:0,0:0:0:0:
193,265,90865,2,0,B|129:251|129:251|70:277,1,129.999994049073,2|0,0:0|0:0,0:0:0:0:
47,184,91056,1,8,0:0:0:0:
247,358,91183,5,2,0:0:0:0:
247,358,91246,1,2,0:0:0:0:
284,351,91310,5,10,0:0:0:0:
284,351,91373,1,2,0:0:0:0:
321,344,91438,5,2,0:0:0:0:
321,344,91501,1,2,0:0:0:0:
358,337,91565,5,10,0:0:0:0:
358,337,91628,1,2,0:0:0:0:
395,330,91692,5,2,0:0:0:0:
395,330,91755,1,2,0:0:0:0:
432,323,91819,5,2,0:0:0:0:
432,323,91882,1,2,0:0:0:0:
457,290,91946,6,0,P|471:231|451:160,1,129.999994049073,0|0,3:0|0:0,0:0:0:0:
409,103,92136,1,0,3:0:0:0:
409,103,92200,5,6,0:0:0:0:
215,244,92391,1,2,0:0:0:0:
200,9,92581,2,0,B|206:97|206:97|168:175|168:175|209:146|262:173,1,259.999988098145,6|2,0:0|0:0,0:0:0:0:
58,95,92963,1,2,0:0:0:0:
304,69,93090,1,2,0:0:0:0:
26,301,93217,6,0,P|20:334|23:372,1,64.9999970245363,6|0,0:0|0:0,0:0:0:0:
68,221,93344,2,0,P|74:157|58:95,1,129.999994049073
317,154,93598,2,0,P|242:122|304:69,1,194.999991073609,6|0,0:0|0:0,0:0:0:0:
386,100,93852,1,2,0:0:0:0:
164,168,93980,1,2,0:0:0:0:
425,233,94107,1,2,0:0:0:0:
425,233,94170,1,2,0:0:0:0:
425,233,94234,6,0,L|440:365,1,129.999994049073,14|0,0:0|0:0,0:0:0:0:
286,336,94488,1,10,0:0:0:0:
234,326,94573,1,2,0:0:0:0:
182,316,94658,1,2,0:0:0:0:
148,256,94742,1,10,0:0:0:0:
161,187,94827,1,2,0:0:0:0:
218,148,94912,1,2,0:0:0:0:
303,149,94996,1,10,0:0:0:0:
303,149,95081,2,0,P|316:105|320:61,1,86.6666626993817,2|2,0:0|0:0,0:0:0:0:
126,19,95251,5,14,0:0:0:0:
126,19,95336,2,0,P|130:62|144:104,1,86.6666626993817,2|2,0:0|0:0,0:0:0:0:
236,239,95505,1,10,0:0:0:0:
236,239,95590,2,0,L|334:230,1,86.6666626993817,2|2,0:0|0:0,0:0:0:0:
141,202,95759,1,10,0:0:0:0:
141,202,95844,2,0,L|43:193,1,86.6666626993817,2|2,0:0|0:0,0:0:0:0:
215,154,96013,1,10,0:0:0:0:
292,108,96098,1,2,0:0:0:0:
374,144,96183,1,2,0:0:0:0:
453,72,96268,5,6,0:0:0:0:
256,192,96331,12,0,97221,0:0:0:0:
416,110,97285,5,2,1:2:0:0:
110,141,97475,5,2,1:2:0:0:
376,307,97666,5,2,1:2:0:0:
255,17,97857,5,2,1:2:0:0:
177,315,98047,5,2,1:2:0:0:
269,182,98174,1,2,1:2:0:0:
92,149,98302,6,0,P|58:105|128:-6,1,200,12|8,0:0|0:0,0:0:0:0:
298,65,98683,1,0,0:0:0:0:
205,162,98809,2,0,P|196:196|193:236,2,66.6666666666667,8|0|0,0:0|0:0|0:0,0:0:0:0:
455,121,99064,6,0,L|389:130,2,66.6666666666667,8|0|0,0:0|0:0|0:0,0:0:0:0:
286,48,99318,2,0,L|219:39,2,66.6666666666667,8|0|0,0:0|0:0|0:0,0:0:0:0:
389,245,99573,2,0,P|397:277|397:310,2,66.6666666666667,8|0|0,0:0|0:0|0:0,0:0:0:0:
164,380,99827,6,0,P|230:312|192:227,1,200,8|8,0:0|0:0,0:0:0:0:
21,337,100166,1,0,0:0:0:0:
70,257,100251,2,0,P|72:224|65:192,1,66.6666666666667,0|8,0:0|0:0,0:0:0:0:
34,73,100420,1,0,0:0:0:0:
15,53,100505,1,0,0:0:0:0:
145,93,100590,6,0,L|214:104,2,66.6666666666667,8|0|0,0:0|0:0|0:0,0:0:0:0:
285,171,100844,2,0,L|354:160,2,66.6666666666667,8|0|0,0:0|0:0|0:0,0:0:0:0:
459,47,101098,2,0,P|449:78|449:112,2,66.6666666666667,8|0|0,0:0|0:0|0:0,0:0:0:0:
370,252,101352,6,0,P|361:335|464:376,1,200,8|8,0:0|0:0,0:0:0:0:
461,130,101734,1,0,0:0:0:0:
349,259,101861,2,0,P|316:261|284:254,2,66.6666666666667,8|0|0,0:0|0:0|0:0,0:0:0:0:
314,100,102115,6,0,L|323:166,2,66.6666666666667,8|0|0,0:0|0:0|0:0,0:0:0:0:
164,269,102369,2,0,L|173:203,2,66.6666666666667,8|0|0,0:0|0:0|0:0,0:0:0:0:
25,116,102624,2,0,P|57:109|91:111,2,66.6666666666667,8|0|0,0:0|0:0|0:0,0:0:0:0:
285,220,102878,6,0,B|270:110,1,100,8|0,0:0|0:0,0:0:0:0:
405,9,103132,2,0,B|390:119,1,100,8|0,0:0|0:0,0:0:0:0:
203,39,103386,1,8,0:0:0:0:
512,92,103513,1,0,0:0:0:0:
366,289,103640,5,2,3:2:0:0:
363,283,103704,1,0,3:2:0:0:
360,277,103768,1,0,3:2:0:0:
357,271,103831,1,0,3:2:0:0:
354,265,103895,1,2,3:2:0:0:
316,298,103958,1,0,3:2:0:0:
265,301,104022,1,0,3:2:0:0:
222,276,104085,1,0,3:2:0:0:
203,230,104149,1,2,3:2:0:0:
210,169,104213,1,0,3:2:0:0:
222,110,104276,2,0,L|236:37,1,50,0|0,3:2|3:2,0:0:0:0:
453,111,104403,6,0,P|364:79|303:151,1,200,4|2,0:0|0:3,0:0:0:0:
321,381,104785,1,0,0:0:0:0:
393,226,104912,2,0,P|393:193|387:161,2,66.6666666666667,2|0|0,0:3|0:0|0:0,0:0:0:0:
156,310,105166,5,2,0:3:0:0:
156,310,105251,2,0,L|221:299,1,66.6666666666667,0|0,0:0|0:0,0:0:0:0:
24,190,105420,1,2,0:3:0:0:
24,190,105505,2,0,L|95:201,1,66.6666666666667,0|0,0:0|0:0,0:0:0:0:
180,43,105674,1,2,0:3:0:0:
180,43,105759,2,0,P|165:82|171:128,1,66.6666666666667,0|0,0:0|0:0,0:0:0:0:
288,99,105929,6,0,B|405:81|405:81|430:42|475:38,1,200,2|2,0:3|0:3,0:0:0:0:
267,13,106310,1,0,0:0:0:0:
478,122,106437,2,0,P|486:154|484:191,2,66.6666666666667,2|0|0,0:3|0:0|0:0,0:0:0:0:
348,257,106691,5,2,0:3:0:0:
348,257,106776,2,0,L|426:249,1,66.6666666666667,0|0,0:0|0:0,0:0:0:0:
179,287,106946,1,2,0:3:0:0:
179,287,107031,2,0,L|246:294,1,66.6666666666667,0|0,0:0|0:0,0:0:0:0:
260,117,107200,1,2,0:3:0:0:
260,117,107285,2,0,P|268:149|267:183,1,66.6666666666667,0|0,0:0|0:0,0:0:0:0:
53,184,107454,6,0,P|53:104|166:69,1,200,2|2,0:3|0:3,0:0:0:0:
264,206,107835,1,0,0:0:0:0:
136,305,107963,2,0,P|128:337|129:371,2,66.6666666666667,2|0|0,0:3|0:0|0:0,0:0:0:0:
289,76,108217,5,2,0:3:0:0:
289,76,108301,2,0,L|372:65,1,66.6666666666667,0|0,0:0|0:0,0:0:0:0:
126,143,108471,1,2,0:3:0:0:
127,144,108555,2,0,L|193:152,1,66.6666666666667,0|0,0:0|0:0,0:0:0:0:
290,306,108725,1,2,0:3:0:0:
290,306,108810,2,0,P|290:272|282:240,1,66.6666666666667,0|0,0:0|0:0,0:0:0:0:
172,46,108979,6,0,B|123:36|123:36|73:47,1,100,2|0,0:3|0:0,0:0:0:0:
50,221,109234,2,0,B|92:246|92:246|142:253,1,100,2|0,0:3|0:0,0:0:0:0:
445,92,109488,1,2,0:3:0:0:
236,161,109615,1,0,0:0:0:0:
458,335,109742,5,2,0:0:0:0:
458,335,109806,1,2,0:0:0:0:
458,335,109869,1,2,0:0:0:0:
458,335,109933,1,2,0:0:0:0:
458,335,109996,1,2,0:0:0:0:
428,342,110060,1,2,0:0:0:0:
398,349,110124,1,2,0:0:0:0:
368,355,110187,1,2,0:0:0:0:
338,362,110251,1,2,0:0:0:0:
300,330,110314,1,2,0:0:0:0:
293,280,110378,1,2,0:0:0:0:
319,238,110441,1,2,0:0:0:0:
367,226,110505,5,6,0:0:0:0:
256,192,110568,12,0,112475,0:0:0:0:
138,81,112538,5,10,1:2:0:0:
166,254,112666,1,10,1:2:0:0:
156,72,112793,1,10,1:2:0:0:
301,226,112920,5,10,1:2:0:0:
316,92,113048,1,10,1:2:0:0:
320,234,113175,1,10,1:2:0:0:
129,174,113301,5,10,1:2:0:0:
334,103,113428,1,10,1:2:0:0:
243,333,113555,1,10,1:2:0:0:
402,181,113682,5,10,1:2:0:0:
136,154,113810,1,10,1:2:0:0:
257,347,113937,1,10,1:2:0:0:
227,66,114064,5,10,1:2:0:0:
252,234,114191,1,4,1:3:0:0:
472,121,114318,1,4,1:3:0:0:
376,264,114445,1,4,1:3:0:0:
376,264,114954,2,0,L|444:253,1,50,4|4,3:0|3:0,0:0:0:0:
256,192,115081,6,0,P|251:162|252:131,48,50,2|2|2|2|2|2|2|2|2|2|2|2|2|2|2|2|2|2|2|2|2|2|2|2|2|2|2|2|2|2|2|2|2|2|2|2|2|2|2|2|2|2|2|2|2|2|2|2|4,0:0|0:0|0:0|0:0|0:0|0:0|0:0|0:0|0:0|0:0|0:0|0:0|0:0|0:0|0:0|0:0|0:0|0:0|0:0|0:0|0:0|0:0|0:0|0:0|0:0|0:0|0:0|0:0|0:0|0:0|0:0|0:0|0:0|0:0|0:0|0:0|0:0|0:0|0:0|0:0|0:0|0:0|0:0|0:0|0:0|0:0|0:0|0:0|3:0,0:0:0:0:
