osu file format v14

[General]
AudioFilename: audio.mp3
AudioLeadIn: 0
PreviewTime: 20190
Countdown: 0
SampleSet: Soft
StackLeniency: 0.7
Mode: 2
LetterboxInBreaks: 0
WidescreenStoryboard: 0

[Editor]
DistanceSpacing: 1.2
BeatDivisor: 4
GridSize: 16
TimelineZoom: 2.2

[Metadata]
Title:Lachryma
TitleUnicode:Lachryma《Re:Queen'M》
Artist:Kaneko Chiharu
ArtistUnicode:かねこちはる
Creator:Lacrima
Version:REQUIEM
Source:SOUND VOLTEX III GRAVITY WARS
Tags:spectator kukkai [_-kukkai-_] myle kroytz SDVX Grace The 5th KAC Original Song Contest KONAMI BEMANI video game instrumental
BeatmapID:3151535
BeatmapSetID:1541749

[Difficulty]
HPDrainRate:6
CircleSize:4
OverallDifficulty:9.8
ApproachRate:9.8
SliderMultiplier:1.92
SliderTickRate:2

[Events]
//Background and Video events
0,0,"d98a2baae3283654fd9de6f35f82de4302b37f5d_s2_n0 (1).jpg",0,0
//Break Periods
//Storyboard Layer 0 (Background)
//Storyboard Layer 1 (Fail)
//Storyboard Layer 2 (Pass)
//Storyboard Layer 3 (Foreground)
//Storyboard Layer 4 (Overlay)
//Storyboard Sound Samples

[TimingPoints]
678,254.237288135593,3,2,1,55,1,0
18983,-100,3,3,2,55,0,0
19745,-100,3,2,1,55,0,0
20234,254.237288135593,3,2,1,55,1,0
20508,254.237288135593,4,2,1,55,1,1
20698,-100,4,2,1,5,0,1
20762,-100,4,2,1,55,0,1
21715,-100,4,2,1,5,0,1
21779,-100,4,2,1,55,0,1
24702,-100,4,2,1,5,0,1
24766,-100,4,2,1,55,0,1
24893,-100,4,2,1,5,0,1
24957,-100,4,2,1,55,0,1
25719,-100,4,2,1,5,0,1
25783,-100,4,2,1,55,0,1
25910,-100,4,2,1,5,0,1
25974,-100,4,2,1,55,0,1
27118,-100,4,3,2,55,0,1
27880,-33.3333333333333,4,2,4,55,0,1
28389,-33.3333333333333,4,2,1,55,0,1
28643,-100,4,2,1,55,0,1
32838,-100,4,2,1,5,0,1
32902,-100,4,2,1,55,0,1
33029,-100,4,2,1,5,0,1
33092,-100,4,2,1,55,0,1
33855,-100,4,2,1,5,0,1
33919,-100,4,2,1,55,0,1
34046,-100,4,2,1,5,0,1
34109,-100,4,2,1,55,0,1
36779,-100,4,2,1,55,0,0
43198,-100,4,2,1,5,0,0
43262,-100,4,2,1,55,0,0
43580,-100,4,2,1,5,0,0
43643,-100,4,2,1,55,0,0
43961,-100,4,2,1,5,0,0
44024,-100,4,2,1,55,0,0
44342,-100,4,2,1,5,0,0
44406,-100,4,2,1,55,0,0
53495,-100,4,2,1,5,0,0
53558,-100,4,2,1,55,0,0
54130,-100,4,2,1,5,0,0
54194,-100,4,2,1,55,0,0
54639,-100,4,2,1,5,0,0
54702,-100,4,2,1,55,0,0
55529,-100,4,2,1,5,0,0
55592,-100,4,2,1,55,0,0
56164,-100,4,2,1,5,0,0
56228,-100,4,2,1,55,0,0
56673,-100,4,2,1,5,0,0
56736,-100,4,2,1,55,0,0
57563,-100,4,2,1,5,0,0
57626,-100,4,2,1,55,0,0
58198,-100,4,2,1,5,0,0
58262,-100,4,2,1,55,0,0
58707,-100,4,2,1,5,0,0
58770,-100,4,2,1,55,0,0
59152,254.237288135593,3,3,1,55,1,0
62202,254.237288135593,4,2,1,55,1,0
66269,254.237288135593,3,2,1,55,1,0
66459,-100,3,2,1,5,0,0
66523,-100,3,2,1,55,0,0
67222,-100,3,2,1,5,0,0
67285,-100,3,2,1,55,0,0
67985,-100,3,2,1,5,0,0
68048,-100,3,2,1,55,0,0
68747,-100,3,2,1,5,0,0
68811,-100,3,2,1,55,0,0
69510,-100,3,2,1,5,0,0
69574,-100,3,2,1,55,0,0
70273,-100,3,2,1,5,0,0
70336,-100,3,2,1,55,0,0
71035,-100,3,2,1,5,0,0
71099,-100,3,2,1,55,0,0
72561,-100,3,2,1,5,0,0
72624,-100,3,2,1,55,0,0
73324,-100,3,2,1,5,0,0
73387,-100,3,2,1,55,0,0
79997,254.237288135593,4,2,5,75,1,0
80187,-100,4,2,1,5,0,0
80251,-100,4,2,1,55,0,1
81204,-100,4,2,1,5,0,1
81268,-100,4,2,1,55,0,1
84191,-100,4,2,1,5,0,1
84255,-100,4,2,1,55,0,1
84382,-100,4,2,1,5,0,1
84446,-100,4,2,1,55,0,1
85208,-100,4,2,1,5,0,1
85272,-100,4,2,1,55,0,1
85399,-100,4,2,1,5,0,1
85463,-100,4,2,1,55,0,1
88323,-100,4,2,1,5,0,1
88386,-100,4,2,1,55,0,1
88831,-100,4,2,1,5,0,1
88895,-100,4,2,1,55,0,1
92327,-100,4,2,1,5,0,1
92391,-100,4,2,1,55,0,1
92518,-100,4,2,1,5,0,1
92581,-100,4,2,1,55,0,1
93344,-100,4,2,1,5,0,1
93408,-100,4,2,1,55,0,1
93535,-100,4,2,1,5,0,1
93598,-100,4,2,1,55,0,1
96268,-100,4,2,1,55,0,0
97221,-100,4,2,1,5,0,0
97285,-40,4,2,1,55,0,0
97459,-40,4,2,1,5,0,0
97475,-43.4782608695652,4,2,1,55,0,0
97650,-43.4782608695652,4,2,1,5,0,0
97666,-50,4,2,1,55,0,0
97841,-50,4,2,1,5,0,0
97857,-76.9230769230769,4,2,1,55,0,0
98031,-76.9230769230769,4,2,1,5,0,0
98047,-45.4545454545455,4,2,1,55,0,0
98159,-45.4545454545455,4,2,1,5,0,0
98174,-45.4545454545455,4,2,1,55,0,0
98302,254.237288135593,3,2,1,55,1,1
110505,254.237288135593,4,2,1,55,1,0
115081,254.237288135593,4,2,1,55,1,1
115081,-90.9090909090909,4,2,1,55,0,1
118131,-90.9090909090909,4,2,1,55,0,0

[Colours]
Combo1 : 255,255,128
Combo2 : 255,128,255
Combo3 : 255,0,255
Combo4 : 255,0,0

[HitObjects]
94,184,678,6,0,L|317:185,1,192,6|0,0:2|0:0,0:0:0:0:
161,188,1059,1,8,0:3:0:0:
352,186,1313,1,8,0:3:0:0:
110,89,1440,6,0,L|317:91,2,192,2|10|10,0:0|0:0|0:0,0:0:0:0:
423,295,2203,6,0,P|480:251|410:165,1,192,2|0,0:0|0:0,0:0:0:0:
300,160,2584,1,8,0:3:0:0:
492,164,2839,1,8,0:3:0:0:
268,160,2966,6,0,L|267:364,1,192,2|10,0:0|0:0,0:0:0:0:
484,279,3474,1,10,0:0:0:0:
131,186,3728,6,0,L|362:187,1,192,2|0,0:2|0:0,0:0:0:0:
191,130,4110,1,8,0:3:0:0:
382,130,4364,1,8,0:3:0:0:
149,77,4491,6,0,L|343:77,1,192,2|10,0:0|0:0,0:0:0:0:
80,154,5000,1,10,0:0:0:0:
424,88,5254,6,0,P|330:103|430:274,1,384,2|0,0:0|0:0,0:0:0:0:
330,277,5889,1,0,0:0:0:0:
41,376,6016,5,2,0:0:0:0:
88,369,6079,1,0,0:0:0:0:
132,350,6143,1,0,0:0:0:0:
168,319,6206,1,0,0:0:0:0:
194,279,6270,1,0,0:0:0:0:
208,233,6333,1,0,0:0:0:0:
207,185,6397,1,0,0:0:0:0:
194,139,6460,1,0,0:0:0:0:
167,99,6524,1,0,0:0:0:0:
131,68,6588,1,0,0:0:0:0:
87,49,6651,1,0,0:0:0:0:
39,43,6715,1,0,0:0:0:0:
302,300,6779,5,4,0:0:0:0:
345,282,6842,1,0,0:0:0:0:
372,242,6906,1,0,0:0:0:0:
371,195,6969,1,0,0:0:0:0:
345,156,7033,1,0,0:0:0:0:
301,138,7096,1,0,0:0:0:0:
137,142,7161,1,8,0:0:0:0:
301,138,7224,2,0,L|380:139,2,48
137,142,7415,2,0,L|228:142,1,48,8|0,0:0|0:0,0:0:0:0:
401,94,7542,6,0,L|477:94,1,48,2|0,0:0|0:0,0:0:0:0:
394,44,7669,2,0,L|312:44,1,48
209,229,7796,2,0,L|283:229,1,48,10|0,0:0|0:0,0:0:0:0:
308,267,7923,2,0,L|234:267,1,48
121,87,8050,2,0,L|45:87,1,48,10|0,0:0|0:0,0:0:0:0:
128,37,8177,2,0,L|210:37,1,48
332,316,8305,5,2,0:0:0:0:
313,271,8368,1,0,0:0:0:0:
287,231,8432,1,0,0:0:0:0:
253,197,8495,1,0,0:0:0:0:
213,170,8559,1,0,0:0:0:0:
169,152,8622,1,0,0:0:0:0:
341,149,8686,1,8,0:0:0:0:
169,152,8750,2,0,L|99:152,2,48
341,149,8940,2,0,L|417:149,1,48,8|0,0:0|0:0,0:0:0:0:
244,66,9067,6,0,L|183:66,1,48,2|0,0:0|0:0,0:0:0:0:
258,96,9194,2,0,L|319:96,1,48
151,99,9322,2,0,L|90:99,1,48,10|0,0:0|0:0,0:0:0:0:
165,129,9449,2,0,L|226:129,1,48
373,243,9576,2,0,L|306:243,1,48,10|0,0:0|0:0,0:0:0:0:
170,285,9703,2,0,L|103:285,1,48,8|0,0:0|0:0,0:0:0:0:
327,285,9830,5,4,0:0:0:0:
371,269,9893,1,0,0:0:0:0:
398,230,9957,1,0,0:0:0:0:
398,183,10020,1,0,0:0:0:0:
371,144,10084,1,0,0:0:0:0:
327,129,10147,1,0,0:0:0:0:
166,128,10211,1,8,0:0:0:0:
327,129,10275,2,0,L|410:130,2,48
166,128,10466,2,0,L|256:128,1,48,8|0,0:0|0:0,0:0:0:0:
449,62,10593,6,0,L|507:62,1,48,2|0,0:0|0:0,0:0:0:0:
437,109,10720,2,0,L|379:109,1,48
262,152,10847,2,0,L|320:152,1,48,8|0,0:0|0:0,0:0:0:0:
250,199,10974,2,0,L|192:199,1,48
73,50,11101,2,0,L|15:50,1,48,8|0,0:0|0:0,0:0:0:0:
85,97,11228,2,0,L|143:97,1,48
311,212,11355,6,0,L|362:212,1,48,2|0,0:0|0:0,0:0:0:0:
301,165,11483,2,0,L|241:165,1,48
381,70,11610,2,0,L|449:70,1,48,2|0,0:0|0:0,0:0:0:0:
219,88,11737,1,8,0:0:0:0:
174,101,11800,1,0,0:0:0:0:
156,144,11864,1,2,0:0:0:0:
177,185,11927,1,0,0:0:0:0:
223,196,11991,1,8,0:0:0:0:
388,199,12055,1,0,0:0:0:0:
223,196,12118,6,0,L|163:196,1,48,2|0,0:0|0:0,0:0:0:0:
234,261,12245,2,0,L|294:260,1,48
129,74,12372,2,0,L|68:73,1,48,10|0,0:0|0:0,0:0:0:0:
139,138,12499,2,0,L|199:137,1,48
358,191,12627,2,0,L|293:191,1,48,10|0,0:0|0:0,0:0:0:0:
96,256,12754,2,0,L|167:256,1,48,8|0,0:0|0:0,0:0:0:0:
357,288,12881,5,4,0:0:0:0:
400,271,12944,1,0,0:0:0:0:
418,227,13008,1,0,0:0:0:0:
398,185,13071,1,0,0:0:0:0:
354,170,13135,1,0,0:0:0:0:
182,172,13199,1,0,0:0:0:0:
354,170,13262,2,0,L|427:166,1,48,8|0,0:0|0:0,0:0:0:0:
336,120,13389,2,0,L|283:120,1,48
161,213,13516,2,0,L|96:214,1,48,8|0,0:0|0:0,0:0:0:0:
263,268,13644,6,0,L|314:268,1,48,2|0,0:0|0:0,0:0:0:0:
249,268,13771,2,0,L|198:268,1,48
343,148,13898,1,10,3:2:0:0:
145,144,13961,1,0,3:0:0:0:
99,156,14024,1,0,3:0:0:0:
65,190,14088,1,0,3:0:0:0:
53,236,14151,1,0,3:0:0:0:
64,282,14215,1,0,3:0:0:0:
97,316,14278,1,0,3:0:0:0:
142,330,14342,1,0,3:0:0:0:
410,334,14406,6,0,L|306:333,2,96,6|0|2,3:2|0:0|3:2,0:0:0:0:
195,249,14788,1,0,0:0:0:0:
410,334,14915,2,0,L|417:223,1,96,2|0,3:2|0:0,0:0:0:0:
195,96,15169,6,0,L|98:96,1,96,2|0,3:2|0:0,0:0:0:0:
373,190,15423,2,0,L|470:190,1,96,2|0,3:2|0:0,0:0:0:0:
345,124,15677,2,0,L|442:124,1,96,2|0,3:2|0:0,0:0:0:0:
102,334,15932,6,0,L|206:333,2,96,2|0|2,3:2|0:0|3:2,0:0:0:0:
317,249,16314,1,0,0:0:0:0:
102,334,16441,2,0,L|95:223,1,96,2|0,3:2|0:0,0:0:0:0:
317,96,16695,6,0,L|414:96,1,96,2|0,3:2|0:0,0:0:0:0:
139,190,16949,2,0,L|42:190,1,96,2|0,3:2|0:0,0:0:0:0:
167,124,17203,2,0,L|70:124,1,96,2|0,3:2|0:0,0:0:0:0:
294,238,17457,5,2,3:2:0:0:
296,180,17521,1,0,0:0:0:0:
299,123,17584,1,0,0:0:0:0:
185,105,17711,1,0,3:2:0:0:
414,57,17839,2,0,L|316:59,2,96,0|2|0,0:0|3:2|0:0,0:0:0:0:
219,226,18220,6,0,L|123:225,1,96,2|0,3:2|0:0,0:0:0:0:
257,290,18474,2,0,L|353:289,1,96,2|0,3:2|0:0,0:0:0:0:
97,166,18728,1,2,3:2:0:0:
20,169,18813,1,2,0:0:0:0:
97,166,18898,1,2,0:0:0:0:
334,219,18983,5,0,0:0:0:0:
257,222,19068,1,0,0:0:0:0:
334,219,19153,1,0,0:0:0:0:
185,116,19237,2,0,L|97:116,1,64
311,174,19406,2,0,L|223:174,1,64
439,69,19576,2,0,L|351:69,1,64
204,307,19745,5,8,1:3:0:0:
410,246,20000,1,8,1:3:0:0:
233,173,20234,1,2,0:0:0:0:
319,173,20297,2,2,L|385:174,2,48
62,157,20508,6,0,L|168:156,2,96,4|0|2,0:0|0:0|0:0,0:0:0:0:
275,266,20889,2,0,P|337:236|257:171,1,192,8|8,0:2|0:0,0:0:0:0:
157,97,21270,2,0,L|94:97,1,48,2|2,0:0|0:0,0:0:0:0:
261,86,21397,2,0,L|324:86,1,48,10|2,0:0|0:0,0:0:0:0:
62,157,21524,6,0,L|168:156,2,96,2|0|2,0:0|0:0|0:0,0:0:0:0:
313,277,21906,2,0,L|99:278,1,192,10|8,0:0|0:0,0:0:0:0:
231,158,22287,2,0,L|288:157,1,48,2|2,0:0|0:0,0:0:0:0:
119,109,22414,2,0,L|58:110,1,48,10|2,0:0|0:0,0:0:0:0:
304,100,22541,6,0,L|422:99,1,96,2|8,0:0|0:0,0:0:0:0:
270,190,22796,2,0,L|399:190,1,96,2|8,0:2|0:0,0:0:0:0:
108,267,23050,2,0,L|238:266,2,96,2|10|2,0:0|0:0|0:0,0:0:0:0:
334,339,23431,1,10,0:0:0:0:
95,210,23558,6,0,L|87:106,1,96,2|8,0:0|0:0,0:0:0:0:
217,327,23813,2,0,L|209:223,1,96,2|8,0:0|0:0,0:0:0:0:
341,131,24067,1,2,3:2:0:0:
175,156,24130,1,0,3:0:0:0:
130,148,24193,1,0,3:0:0:0:
109,107,24257,1,0,3:0:0:0:
129,65,24320,1,4,3:0:0:0:
175,57,24384,1,4,3:0:0:0:
341,131,24448,2,0,L|407:131,1,48,8|8,3:0|3:0,0:0:0:0:
205,232,24575,6,0,L|91:231,1,96,6|0,0:0|0:0,0:0:0:0:
284,123,24766,2,0,L|388:124,1,96,2|0,0:0|0:0,0:0:0:0:
195,125,24957,2,0,P|143:154|222:235,1,192,6|2,0:0|0:0,0:0:0:0:
327,288,25338,2,0,L|381:289,2,48,10|2|2,0:0|0:0|0:0,0:0:0:0:
130,215,25592,6,0,L|132:106,1,96,14|0,0:0|0:0,0:0:0:0:
263,205,25783,1,2,0:0:0:0:
393,77,25846,1,0,0:0:0:0:
142,57,25974,2,0,P|95:86|176:173,1,192,14|2,0:0|0:0,0:0:0:0:
266,176,26355,1,8,0:0:0:0:
151,182,26482,2,0,L|236:182,1,48,2|0,0:0|0:0,0:0:0:0:
401,240,26609,6,0,L|295:238,1,96,14|0,0:0|0:0,0:0:0:0:
423,150,26863,2,0,L|317:148,1,96,10|0,0:0|0:0,0:0:0:0:
138,91,27118,1,0,0:0:0:0:
195,92,27181,1,0,0:0:0:0:
252,93,27245,1,0,0:0:0:0:
85,182,27308,2,0,L|18:183,2,48
252,93,27499,1,0,0:0:0:0:
195,92,27563,1,0,0:0:0:0:
138,91,27626,1,8,1:2:0:0:
490,74,27880,6,2,B|198:114|198:114|175:287|175:287|157:23|157:23|182:348|182:348|209:189,1,1152.00004394531
223,207,28452,1,2,0:0:0:0:
281,167,28516,1,2,0:0:0:0:
431,149,28580,1,2,0:0:0:0:
196,56,28643,6,0,L|88:58,2,96,4|8|0,0:0|0:0|0:0,0:0:0:0:
320,253,29024,2,0,L|102:251,1,192,8|8,0:0|0:0,0:0:0:0:
253,143,29406,2,0,L|336:142,1,48,2|2,0:0|0:0,0:0:0:0:
234,104,29533,2,0,L|151:103,1,48,10|2,0:0|0:0,0:0:0:0:
387,272,29660,6,0,L|391:162,1,96,2|8,0:0|0:0,0:0:0:0:
275,167,29914,1,2,0:0:0:0:
389,162,30041,2,0,P|452:129|384:61,1,192,8|8,0:0|0:0,0:0:0:0:
274,56,30423,2,0,L|214:57,1,48,2|2,0:0|0:0,0:0:0:0:
290,87,30550,2,0,L|350:88,1,48,10|2,0:0|0:0,0:0:0:0:
152,292,30677,6,0,L|146:162,1,96,2|8,0:0|0:0,0:0:0:0:
293,170,30868,2,0,L|287:40,1,96,2|0,0:0|0:0,0:0:0:0:
198,52,31058,1,8,0:0:0:0:
405,328,31185,2,0,L|411:198,1,96,2|8,0:0|0:0,0:0:0:0:
264,206,31376,2,0,L|270:76,1,96,2|0,0:0|0:0,0:0:0:0:
359,88,31566,1,10,0:0:0:0:
153,99,31694,6,0,L|84:98,1,48,2|2,0:0|0:0,0:0:0:0:
257,162,31821,2,0,L|312:162,1,48,10|2,0:0|0:0,0:0:0:0:
255,162,31948,2,0,L|200:162,1,48,2|2,0:0|0:0,0:0:0:0:
359,99,32075,2,0,L|428:98,1,48,10|2,0:0|0:0,0:0:0:0:
239,139,32202,5,2,0:2:0:0:
406,98,32266,1,2,0:2:0:0:
452,106,32329,1,2,0:2:0:0:
474,147,32393,1,2,0:2:0:0:
454,189,32456,1,2,3:2:0:0:
409,200,32520,1,2,3:2:0:0:
275,222,32584,1,0,3:0:0:0:
143,223,32647,1,0,3:0:0:0:
307,278,32711,6,0,L|414:282,1,96,6|0,0:0|0:0,0:0:0:0:
205,278,32902,2,0,L|98:282,1,96,2|0,0:0|0:0,0:0:0:0:
307,278,33092,2,0,P|367:236|288:163,1,192,6|2,0:0|0:0,0:0:0:0:
109,152,33474,1,0,0:0:0:0:
308,158,33601,1,2,0:0:0:0:
109,152,33728,6,0,L|230:153,1,96,6|0,0:0|0:0,0:0:0:0:
61,238,33919,2,0,L|59:183,1,48,2|0,0:0|0:0,0:0:0:0:
301,259,34109,2,0,P|371:221|299:164,1,192,6|2,0:0|0:0,0:0:0:0:
194,164,34491,1,0,0:0:0:0:
309,166,34618,1,2,0:0:0:0:
101,206,34745,6,0,L|208:206,1,96,12|0,0:0|0:0,0:0:0:0:
319,269,34999,2,0,L|257:268,1,48,8|0,0:0|0:0,0:0:0:0:
219,323,35126,2,0,L|281:322,1,48,2|2,0:0|0:0,0:0:0:0:
411,206,35253,2,0,L|304:206,1,96,8|0,0:0|0:0,0:0:0:0:
436,136,35507,2,0,L|502:135,2,48,8|0|2,0:0|0:0|0:0,0:0:0:0:
173,137,35762,5,12,0:0:0:0:
349,313,35825,1,0,0:0:0:0:
395,306,35889,1,0,0:0:0:0:
431,275,35952,1,0,0:0:0:0:
445,230,36016,1,0,3:0:0:0:
432,185,36080,1,0,3:0:0:0:
396,154,36143,1,0,3:0:0:0:
349,147,36207,1,0,3:0:0:0:
173,137,36270,5,8,0:0:0:0:
349,313,36334,1,0,0:0:0:0:
395,306,36397,1,0,0:0:0:0:
431,275,36461,1,0,0:0:0:0:
445,230,36524,1,4,0:3:0:0:
432,185,36588,1,4,0:3:0:0:
396,154,36652,1,4,0:3:0:0:
349,147,36715,1,4,0:3:0:0:
107,222,36779,5,6,0:0:0:0:
256,192,36906,12,2,38558,0:0:0:0:
314,245,38813,5,10,1:2:0:0:
198,245,38940,1,10,1:2:0:0:
433,257,39067,1,10,1:2:0:0:
198,245,39194,5,10,1:2:0:0:
314,245,39321,1,10,1:2:0:0:
96,255,39448,1,10,1:2:0:0:
314,245,39575,5,10,1:2:0:0:
198,245,39702,1,10,1:2:0:0:
383,324,39830,1,10,1:2:0:0:
198,245,39957,5,10,1:2:0:0:
314,245,40084,1,10,1:2:0:0:
129,324,40212,1,10,1:2:0:0:
314,245,40338,5,10,1:2:0:0:
198,245,40465,1,4,3:0:0:0:
314,245,40592,1,4,3:0:0:0:
129,324,40719,1,4,3:0:0:0:
433,257,40846,5,4,0:0:0:0:
256,192,40974,12,0,42626,0:0:0:0:
406,176,42880,5,2,0:0:0:0:
136,174,43007,2,0,L|136:371,1,192,4|2,0:0|0:0,0:0:0:0:
360,124,43389,2,0,L|360:321,1,192,4|2,0:0|0:0,0:0:0:0:
169,113,43770,6,0,L|169:310,1,192,4|2,0:0|0:0,0:0:0:0:
306,74,44152,1,4,0:0:0:0:
83,100,44406,6,0,L|196:103,3,96,2|0|2|0,3:2|3:0|3:2|3:0,0:0:0:0:
378,196,44914,6,0,L|312:195,1,48,6|0,0:0|0:0,0:0:0:0:
129,262,45041,2,0,L|72:262,1,48
242,114,45169,2,0,L|310:114,1,48,2|0,0:3|0:0,0:0:0:0:
235,160,45296,2,0,L|167:160,1,48
375,165,45423,5,10,0:3:0:0:
420,174,45486,1,0,0:0:0:0:
441,215,45550,1,0,0:0:0:0:
421,257,45613,1,0,0:0:0:0:
376,267,45677,2,0,L|308:268,1,48,2|0,0:3|0:0,0:0:0:0:
464,308,45804,2,0,L|519:308,1,48,8|0,0:0|0:0,0:0:0:0:
376,267,45931,6,0,L|301:266,1,48,2|0,0:3|0:0,0:0:0:0:
131,119,46058,5,8,0:0:0:0:
86,133,46121,1,0,0:0:0:0:
59,172,46185,1,2,0:3:0:0:
61,219,46248,1,0,0:0:0:0:
90,256,46312,1,0,0:0:0:0:
136,267,46375,1,0,0:0:0:0:
315,262,46440,5,10,0:3:0:0:
136,267,46503,1,0,0:0:0:0:
91,254,46566,1,0,0:0:0:0:
72,212,46630,1,0,0:0:0:0:
92,170,46693,1,2,0:3:0:0:
138,160,46757,1,0,0:0:0:0:
335,165,46821,2,0,L|403:165,1,48,8|0,0:0|0:0,0:0:0:0:
181,77,46948,6,0,L|109:77,1,48,2|0,0:3|0:0,0:0:0:0:
355,60,47075,2,0,L|420:60,1,48
237,95,47202,2,0,L|165:95,1,48,2|0,0:3|0:0,0:0:0:0:
245,138,47329,2,0,L|310:138,1,48
87,342,47457,5,10,0:3:0:0:
130,323,47520,1,0,0:0:0:0:
150,281,47584,1,0,0:0:0:0:
136,236,47647,1,0,0:0:0:0:
96,212,47711,2,0,L|31:213,1,48,2|0,0:3|0:0,0:0:0:0:
195,96,47838,2,0,L|268:96,1,48,8|8,0:0|0:0,0:0:0:0:
392,245,47965,6,0,L|341:244,1,48,2|0,0:3|0:0,0:0:0:0:
174,212,48092,1,8,0:0:0:0:
372,213,48156,1,0,0:0:0:0:
416,198,48219,1,2,0:3:0:0:
434,155,48283,1,0,0:0:0:0:
415,113,48346,1,0,0:0:0:0:
371,98,48410,1,0,0:0:0:0:
152,198,48474,6,0,L|80:199,1,48,10|0,0:3|0:0,0:0:0:0:
272,172,48601,2,0,L|337:172,1,48
264,132,48728,2,0,L|192:133,1,48,10|0,0:3|0:0,0:0:0:0:
393,100,48855,2,0,L|458:100,1,48,8|0,0:0|0:0,0:0:0:0:
266,55,48982,6,0,L|323:54,1,48,6|0,0:0|0:0,0:0:0:0:
258,96,49109,2,0,L|193:96,1,48
66,167,49236,2,0,L|9:166,1,48,2|0,0:3|0:0,0:0:0:0:
77,221,49363,2,0,L|142:221,1,48
295,221,49491,5,10,0:3:0:0:
287,173,49554,1,0,0:0:0:0:
262,133,49618,1,0,0:0:0:0:
223,106,49681,1,0,0:0:0:0:
176,97,49745,2,0,L|246:94,1,48,2|0,0:3|0:0,0:0:0:0:
370,158,49872,2,0,L|451:156,1,48,8|8,0:0|0:0,0:0:0:0:
250,273,49999,6,0,L|167:276,1,48,2|0,0:3|0:0,0:0:0:0:
366,226,50126,1,8,0:0:0:0:
220,333,50190,1,0,0:0:0:0:
176,315,50253,1,2,0:3:0:0:
159,272,50317,1,0,0:0:0:0:
178,229,50380,1,0,0:0:0:0:
221,213,50444,1,0,0:0:0:0:
403,171,50507,6,0,L|491:171,1,48,10|0,0:3|0:0,0:0:0:0:
246,119,50635,2,0,L|185:119,1,48
266,119,50762,2,0,L|327:119,1,48,2|0,0:3|0:0,0:0:0:0:
246,119,50889,2,0,L|185:119,1,48,8|0,0:0|0:0,0:0:0:0:
394,60,51016,6,0,L|335:59,1,48,2|0,0:3|0:0,0:0:0:0:
135,47,51143,2,0,L|48:47,1,48
276,60,51270,2,0,L|363:60,1,48,2|0,0:3|0:0,0:0:0:0:
263,112,51397,2,0,L|176:112,1,48
386,186,51524,5,10,0:3:0:0:
340,196,51587,1,0,0:0:0:0:
321,238,51651,1,0,0:0:0:0:
342,279,51714,1,0,0:0:0:0:
388,287,51779,2,0,L|449:289,1,48,2|0,0:3|0:0,0:0:0:0:
260,339,51906,2,0,L|190:340,1,48,8|8,0:0|0:0,0:0:0:0:
77,246,52033,6,0,L|164:246,1,48,2|0,0:3|0:0,0:0:0:0:
299,246,52160,1,8,0:0:0:0:
126,115,52224,1,0,0:0:0:0:
82,130,52287,1,2,0:3:0:0:
64,173,52351,1,0,0:0:0:0:
83,216,52414,1,0,0:0:0:0:
128,230,52478,1,0,0:0:0:0:
331,209,52541,6,0,L|389:208,1,48,2|0,3:0|3:0,0:0:0:0:
181,209,52669,2,0,L|123:208,1,48,0|0,3:0|3:0,0:0:0:0:
368,121,52796,2,0,L|433:120,1,48,0|0,3:0|3:0,0:0:0:0:
246,168,52923,1,0,3:0:0:0:
58,174,52986,1,0,3:0:0:0:
474,307,53304,6,0,L|264:306,1,192,4|2,0:0|0:0,0:0:0:0:
404,221,53685,2,0,L|414:92,1,96,2|10,0:0|0:0,0:0:0:0:
140,231,53940,6,0,L|350:230,1,192,4|2,0:0|0:0,0:0:0:0:
208,228,54321,1,10,0:0:0:0:
331,225,54448,2,0,P|394:157|327:129,1,192,10|2,0:0|0:0,0:0:0:0:
88,120,54830,2,0,L|193:118,2,96,2|2|10,0:0|0:0|0:0,0:0:0:0:
471,313,55338,6,0,L|475:117,1,192,6|2,0:0|0:0,0:0:0:0:
359,116,55719,1,2,0:0:0:0:
474,116,55846,1,8,0:0:0:0:
184,297,55974,6,0,L|180:101,1,192,6|2,0:0|0:0,0:0:0:0:
402,102,56355,1,10,0:0:0:0:
181,100,56482,2,0,P|124:130|216:194,1,192,2|2,0:0|0:0,0:0:0:0:
466,243,56863,2,0,L|364:243,2,96,2|2|10,0:0|0:0|0:0,0:0:0:0:
96,197,57372,6,0,L|293:195,1,192,4|2,0:0|0:0,0:0:0:0:
160,127,57753,2,0,L|151:16,1,96,2|8,0:0|0:0,0:0:0:0:
358,283,58007,6,0,L|138:280,1,192,4|2,0:0|0:0,0:0:0:0:
296,189,58389,1,10,0:0:0:0:
166,280,58516,2,0,P|110:251|169:165,1,192,2|2,0:0|0:0,0:0:0:0:
330,165,58834,1,0,0:0:0:0:
164,164,58897,2,0,L|111:165,1,48,2|0,0:0|0:0,0:0:0:0:
176,100,59024,2,0,L|240:100,1,48,2|0,0:0|0:0,0:0:0:0:
399,108,59152,5,6,0:2:0:0:
450,144,59236,1,0,0:0:0:0:
472,203,59321,1,0,0:0:0:0:
457,264,59406,1,2,0:2:0:0:
410,306,59490,1,0,0:0:0:0:
347,315,59575,1,0,0:0:0:0:
426,353,59660,2,0,L|511:354,2,64,2|0|0,0:2|0:0|0:0,0:0:0:0:
211,197,59914,6,0,L|126:198,2,64,6|0|0,0:2|0:0|0:0,0:0:0:0:
301,197,60168,2,0,L|386:198,2,64,2|0|0,0:2|0:0|0:0,0:0:0:0:
211,197,60423,1,2,0:2:0:0:
287,197,60507,1,0,0:0:0:0:
364,197,60592,1,0,0:0:0:0:
99,150,60677,6,0,L|15:147,2,64,6|0|0,0:2|0:0|0:0,0:0:0:0:
186,226,60931,2,0,L|270:223,2,64,2|0|0,0:2|0:0|0:0,0:0:0:0:
370,284,61185,2,0,L|454:281,2,64,2|0|0,0:2|0:0|0:0,0:0:0:0:
191,168,61440,6,0,L|119:167,2,64,6|0|0,0:2|0:0|0:0,0:0:0:0:
348,143,61694,2,0,L|420:142,2,64,2|0|0,0:2|0:0|0:0,0:0:0:0:
112,256,61948,1,2,0:2:0:0:
256,192,62033,1,0,0:0:0:0:
400,256,62118,1,0,0:0:0:0:
76,177,62202,6,0,L|5:177,1,48,6|2,0:0|0:0,0:0:0:0:
104,216,62329,2,0,L|181:216,1,48,2|2,0:0|0:0,0:0:0:0:
76,177,62456,2,0,L|5:177,1,48,2|2,0:0|0:0,0:0:0:0:
104,216,62583,2,0,L|181:216,1,48,2|2,0:0|0:0,0:0:0:0:
76,177,62710,6,0,L|5:177,1,48,2|2,0:0|0:0,0:0:0:0:
104,216,62837,2,0,L|181:216,1,48,2|2,0:0|0:0,0:0:0:0:
76,177,62964,2,0,L|5:177,1,48,2|2,0:0|0:0,0:0:0:0:
104,216,63091,2,0,L|181:216,1,48,2|2,0:0|0:0,0:0:0:0:
76,177,63218,6,0,L|5:177,1,48,2|2,0:0|0:0,0:0:0:0:
104,216,63346,2,0,L|181:216,1,48,2|2,0:0|0:0,0:0:0:0:
76,177,63473,2,0,L|5:177,1,48,2|2,0:0|0:0,0:0:0:0:
104,216,63600,2,0,L|181:216,1,48,2|2,0:0|0:0,0:0:0:0:
76,177,63727,6,0,L|5:177,1,48,2|2,0:0|0:0,0:0:0:0:
104,216,63854,2,0,L|181:216,1,48,2|2,0:0|0:0,0:0:0:0:
76,177,63981,2,0,L|5:177,1,48,2|2,0:0|0:0,0:0:0:0:
207,241,64108,2,0,L|284:241,1,48,2|2,0:0|0:0,0:0:0:0:
436,177,64235,6,0,L|507:177,1,48,2|2,0:0|0:0,0:0:0:0:
408,216,64363,2,0,L|331:216,1,48,2|2,0:0|0:0,0:0:0:0:
436,177,64490,2,0,L|507:177,1,48,2|2,0:0|0:0,0:0:0:0:
408,216,64617,2,0,L|331:216,1,48,2|2,0:0|0:0,0:0:0:0:
436,177,64744,6,0,L|507:177,1,48,2|2,0:0|0:0,0:0:0:0:
408,216,64871,2,0,L|334:215,1,48,2|2,0:0|0:0,0:0:0:0:
436,177,64998,2,0,L|507:177,1,48,2|2,0:0|0:0,0:0:0:0:
408,216,65125,2,0,L|331:216,1,48,2|2,0:0|0:0,0:0:0:0:
436,177,65252,6,0,L|507:177,1,48,2|2,0:0|0:0,0:0:0:0:
408,216,65379,2,0,L|331:216,1,48,2|2,0:0|0:0,0:0:0:0:
436,177,65507,2,0,L|507:177,1,48,2|2,0:0|0:0,0:0:0:0:
408,216,65634,2,0,L|331:216,1,48,2|2,0:0|0:0,0:0:0:0:
436,177,65761,6,0,L|507:177,1,48,2|2,0:0|0:0,0:0:0:0:
408,216,65888,2,0,L|331:216,1,48,2|2,0:0|0:0,0:0:0:0:
436,177,66015,2,0,L|507:177,1,48,2|2,0:0|0:0,0:0:0:0:
305,241,66142,2,0,L|228:241,1,48,2|2,0:0|0:0,0:0:0:0:
26,174,66269,6,0,L|141:172,2,96,4|0|2,0:0|0:0|0:3,0:0:0:0:
165,293,66650,2,0,L|168:95,1,192,8|8,0:0|0:0,0:0:0:0:
358,189,67031,6,0,L|471:190,1,96,2|0,0:3|0:0,0:0:0:0:
321,269,67285,2,0,L|208:270,1,96,10|0,0:3|0:0,0:0:0:0:
417,332,67540,2,0,L|530:333,1,96,10|0,0:3|0:0,0:0:0:0:
240,347,67794,6,0,P|184:313|243:226,1,192,2|2,0:3|0:3,0:0:0:0:
353,225,68175,1,8,0:0:0:0:
149,171,68302,2,0,L|276:171,1,96,2|10,0:3|0:0,0:0:0:0:
39,238,68557,6,0,L|38:30,1,192,2|10,0:3|0:3,0:0:0:0:
153,43,68938,1,0,0:0:0:0:
340,230,69065,2,0,L|461:228,1,96,10|8,0:3|0:0,0:0:0:0:
183,305,69319,6,0,L|79:306,1,96,4|0,0:0|0:0,0:0:0:0:
224,246,69574,2,0,L|230:142,1,96,2|8,0:3|0:0,0:0:0:0:
101,132,69828,2,0,L|107:28,1,96,2|8,0:3|0:0,0:0:0:0:
303,243,70082,6,0,L|409:243,1,96,2|0,0:3|0:0,0:0:0:0:
281,162,70336,2,0,L|158:161,1,96,10|0,0:3|0:0,0:0:0:0:
300,163,70591,1,10,0:3:0:0:
184,164,70718,1,2,0:0:0:0:
403,275,70845,6,0,L|409:167,1,96,2|0,0:3|0:0,0:0:0:0:
280,335,71099,2,0,L|286:227,1,96,2|8,0:3|0:0,0:0:0:0:
158,193,71353,2,0,L|164:85,1,96,10|0,0:3|0:0,0:0:0:0:
357,128,71607,5,2,0:3:0:0:
359,80,71670,1,2,0:0:0:0:
362,32,71734,1,2,0:0:0:0:
246,167,71862,2,0,L|117:169,1,96,10|0,0:3|0:0,0:0:0:0:
405,300,72116,2,0,L|534:302,1,96,2|10,0:3|0:0,0:0:0:0:
236,338,72370,6,0,L|133:335,1,96,4|0,0:0|0:0,0:0:0:0:
276,338,72624,2,0,L|379:335,1,96,2|8,0:3|0:0,0:0:0:0:
141,243,72879,2,0,L|38:240,1,96,2|8,0:3|0:0,0:0:0:0:
277,209,73133,6,0,L|380:206,1,96,2|0,0:3|0:0,0:0:0:0:
249,138,73387,2,0,L|352:135,1,96,10|4,0:3|3:0,0:0:0:0:
110,80,73641,2,0,L|7:77,1,96,6|0,3:3|3:0,0:0:0:0:
290,304,73896,6,0,L|292:191,1,96,6|0,3:2|0:0,0:0:0:0:
177,193,74150,1,2,3:2:0:0:
412,127,74277,2,0,L|284:128,2,96,0|2|0,0:0|3:2|0:0,0:0:0:0:
187,216,74658,6,0,L|81:215,1,96,2|0,3:2|0:0,0:0:0:0:
237,216,74913,2,0,L|343:215,1,96,2|0,3:2|0:0,0:0:0:0:
187,216,75167,2,0,L|81:215,1,96,2|0,3:2|0:0,0:0:0:0:
352,323,75421,6,0,L|236:325,2,96,2|0|2,3:2|0:0|3:2,0:0:0:0:
146,251,75802,2,0,L|135:129,1,96,0|2,0:0|3:2,0:0:0:0:
21,145,76057,1,0,0:0:0:0:
264,206,76184,6,0,L|364:205,1,96,2|0,3:2|0:0,0:0:0:0:
226,142,76438,2,0,L|326:141,1,96,2|0,3:2|0:0,0:0:0:0:
191,237,76692,2,0,L|291:236,1,96,2|0,3:2|0:0,0:0:0:0:
46,200,76946,6,0,L|40:144,2,48,2|0|0,3:2|0:0|0:0,0:0:0:0:
161,202,77201,1,2,3:2:0:0:
388,278,77328,2,0,L|267:272,2,96,0|2|0,0:0|3:2|0:0,0:0:0:0:
171,333,77709,6,0,L|160:220,1,96,2|0,3:2|0:0,0:0:0:0:
286,188,77963,2,0,L|275:75,1,96,2|0,3:2|0:0,0:0:0:0:
66,89,78218,2,0,L|153:85,2,64,2|2|2,3:2|0:2|0:2,0:0:0:0:
310,270,78472,6,0,L|308:191,1,64,8|8,3:0|3:0,0:0:0:0:
232,192,78641,1,8,3:0:0:0:
310,270,78726,2,0,L|308:191,1,64,8|8,3:0|3:0,0:0:0:0:
151,142,78896,1,8,3:0:0:0:
337,108,78980,2,0,L|416:108,2,64,12|12|12,3:3|3:3|3:0,0:0:0:0:
111,277,79235,5,10,0:0:0:0:
312,265,79489,1,10,0:0:0:0:
126,143,79743,2,0,L|71:142,1,48,2|2,0:0|0:0,0:0:0:0:
138,194,79870,2,0,L|187:194,1,48,2|2,0:0|0:0,0:0:0:0:
34,244,79997,5,2,0:0:0:0:
355,261,80251,1,4,0:0:0:0:
154,120,80378,2,0,L|259:114,2,96,8|0|8,0:0|0:0|0:0,0:0:0:0:
267,192,80759,2,0,L|318:193,1,48,2|2,0:0|0:0,0:0:0:0:
148,225,80886,2,0,L|97:226,1,48,10|2,0:0|0:0,0:0:0:0:
329,297,81013,6,0,L|431:297,2,96,2|0|2,0:0|0:0|0:0,0:0:0:0:
116,168,81395,2,0,L|325:166,1,192,10|8,0:0|0:0,0:0:0:0:
190,79,81776,2,0,L|127:77,1,48,2|2,0:0|0:0,0:0:0:0:
314,122,81903,2,0,L|386:124,1,48,10|2,0:0|0:0,0:0:0:0:
116,299,82030,6,0,L|101:182,1,96,2|8,0:0|0:0,0:0:0:0:
236,149,82285,2,0,L|221:32,1,96,2|8,0:0|0:0,0:0:0:0:
422,278,82539,1,2,0:0:0:0:
307,262,82666,1,10,0:0:0:0:
303,204,82730,1,0,0:0:0:0:
299,147,82793,1,2,0:0:0:0:
496,94,82920,1,10,0:0:0:0:
206,151,83047,6,0,L|108:152,1,96,2|8,0:0|0:0,0:0:0:0:
243,222,83302,2,0,L|341:223,1,96,2|8,0:0|0:0,0:0:0:0:
107,293,83556,1,8,3:2:0:0:
271,281,83619,1,8,3:2:0:0:
313,262,83682,1,8,3:2:0:0:
331,218,83746,1,8,3:2:0:0:
314,175,83809,1,4,3:0:0:0:
272,155,83873,1,4,3:0:0:0:
124,128,83937,2,0,L|176:128,1,48,2|2,0:2|0:2,0:2:0:0:
387,70,84064,6,0,L|282:68,1,96,6|0,0:0|0:0,0:0:0:0:
109,230,84255,2,0,L|216:231,1,96,2|0,0:0|0:0,0:0:0:0:
412,343,84446,2,0,P|468:308|404:224,1,192,6|2,0:0|0:0,0:0:0:0:
190,209,84827,2,0,L|71:209,1,96,10|2,0:0|0:0,0:0:0:0:
346,267,85081,6,0,L|354:145,1,96,6|0,0:0|0:0,0:0:0:0:
210,129,85272,1,2,0:0:0:0:
70,118,85335,1,0,0:0:0:0:
349,209,85463,2,0,P|418:157|340:104,1,192,6|2,0:0|0:0,0:0:0:0:
243,102,85844,1,10,0:0:0:0:
357,90,85971,2,0,L|270:82,1,48,2|2,0:0|0:0,0:0:0:0:
126,233,86098,6,0,L|15:229,1,96,14|0,0:0|0:0,0:0:0:0:
276,308,86352,2,0,L|157:309,1,96,14|0,0:0|0:0,0:0:0:0:
393,204,86607,2,0,L|506:205,1,96,10|0,0:2|0:0,0:0:0:0:
260,279,86797,2,0,L|136:283,1,96,10|0,0:2|0:0,0:0:0:0:
363,353,86988,2,0,L|444:348,1,48,10|0,0:2|0:0,0:0:0:0:
214,150,87115,6,8,L|141:150,2,64,10|10|10,0:2|0:2|0:2,0:0:0:0:
135,220,87369,2,8,L|62:220,2,64,10|10|10,0:2|0:2|0:2,0:0:0:0:
298,150,87624,2,8,L|371:150,2,64,10|10|10,0:2|0:2|0:2,0:0:0:0:
446,228,87878,2,0,L|519:228,2,64,2|0|0,3:2|0:0|0:0,0:0:0:0:
108,162,88132,6,0,L|-20:163,1,96,6|0,0:0|0:0,0:0:0:0:
255,104,88386,2,0,L|127:105,1,96,6|0,0:0|0:0,0:0:0:0:
404,162,88641,2,0,L|532:163,1,96,4|0,0:0|0:0,0:0:0:0:
257,104,88895,2,0,L|385:105,1,96,2|2,0:0|0:0,0:0:0:0:
140,254,89149,5,4,3:2:0:0:
356,244,89213,2,0,L|414:245,2,48,0|0|0,3:0|3:0|3:0,0:0:0:0:
308,243,89403,2,0,L|365:244,1,48,2|0,3:2|3:0,0:0:0:0:
435,140,89530,1,2,3:2:0:0:
394,164,89593,1,0,3:0:0:0:
371,205,89657,1,0,3:0:0:0:
372,253,89720,1,0,3:0:0:0:
397,293,89784,1,0,3:0:0:0:
438,315,89847,1,0,3:0:0:0:
227,221,89912,2,0,L|168:222,1,48,6|2,3:2|3:2,0:0:0:0:
334,108,90039,2,0,L|393:109,1,48,2|2,3:2|3:2,0:0:0:0:
121,291,90166,6,0,L|106:187,1,96,6|8,0:0|0:0,0:0:0:0:
277,183,90357,2,0,L|292:79,1,96,2|0,0:0|0:0,0:0:0:0:
211,63,90547,1,10,0:0:0:0:
428,286,90674,2,0,L|443:182,1,96,2|8,0:0|0:0,0:0:0:0:
272,178,90865,2,0,L|257:74,1,96,2|0,0:0|0:0,0:0:0:0:
338,58,91055,1,8,0:0:0:0:
90,193,91183,6,0,L|37:194,1,48,2|2,0:0|0:0,0:0:0:0:
230,257,91310,2,0,L|285:257,1,48,10|2,0:0|0:0,0:0:0:0:
218,198,91437,2,0,L|163:198,1,48,2|2,0:0|0:0,0:0:0:0:
356,120,91564,2,0,L|411:120,1,48,10|2,0:0|0:0,0:0:0:0:
218,120,91691,5,2,0:0:0:0:
404,120,91755,1,2,0:0:0:0:
447,137,91818,1,2,0:0:0:0:
466,180,91882,1,2,0:0:0:0:
449,224,91945,1,0,3:0:0:0:
406,243,92009,1,0,3:0:0:0:
251,255,92073,1,0,3:0:0:0:
95,253,92136,1,0,3:0:0:0:
341,327,92200,6,0,L|456:325,1,96,6|0,0:0|0:0,0:0:0:0:
171,327,92391,2,0,L|56:325,1,96,2|0,0:0|0:0,0:0:0:0:
304,326,92581,2,0,P|366:298|301:212,1,192,6|2,0:0|0:0,0:0:0:0:
202,209,92963,1,2,0:0:0:0:
317,209,93090,1,2,0:0:0:0:
62,165,93217,6,0,L|179:164,1,96,6|0,0:0|0:0,0:0:0:0:
16,279,93408,2,0,L|16:230,1,48,2|0,0:0|0:0,0:0:0:0:
278,251,93598,2,0,P|343:209|278:133,1,192,6|2,0:0|0:0,0:0:0:0:
55,177,93980,2,0,L|48:55,1,96,2|2,0:0|0:0,0:0:0:0:
266,308,94234,6,0,L|259:186,1,96,14|0,0:0|0:0,0:0:0:0:
391,141,94488,2,0,L|464:141,2,64,10|2|2,0:0|0:0|0:0,0:0:0:0:
235,242,94742,2,0,L|162:242,2,64,10|2|2,0:0|0:0|0:0,0:0:0:0:
426,299,94996,2,0,L|353:299,2,64,10|2|2,0:0|0:0|0:0,0:0:0:0:
246,145,95251,6,0,L|178:146,1,48,14|0,0:0|0:0,0:0:0:0:
261,97,95378,2,0,L|322:97,1,48
152,186,95505,2,0,L|84:187,1,48,10|0,0:0|0:0,0:0:0:0:
167,138,95632,2,0,L|228:138,1,48
59,291,95759,6,0,L|-9:292,1,48,10|0,0:0|0:0,0:0:0:0:
74,243,95886,2,0,L|135:243,1,48
304,177,96013,2,0,L|384:178,1,48,10|0,0:0|0:0,0:0:0:0:
128,125,96141,2,0,L|65:125,1,48
317,363,96268,6,2,P|353:333|198:366,1,672,6|0,0:0|0:0,0:0:0:0:
444,167,97285,6,0,B|204:166|204:166|125:218,1,330,2|0,1:2|0:0,0:0:0:0:
128,215,97475,2,0,B|375:216|375:216|409:145,1,303.600005790711,2|0,1:2|0:0,0:0:0:0:
399,164,97666,2,0,B|207:164|207:164|155:110,1,264,2|0,1:2|0:0,0:0:0:0:
157,112,97857,2,0,B|281:112|281:112|316:64,1,171.599992144776,2|0,1:2|0:0,0:0:0:0:
309,73,98047,1,2,1:2:0:0:
84,122,98159,1,0,0:0:0:0:
84,122,98174,1,2,1:2:0:0:
387,182,98302,6,0,L|487:182,2,64,12|0|0,0:0|0:0|0:0,0:0:0:0:
204,284,98556,2,0,L|104:284,2,64,8|0|0,0:0|0:0|0:0,0:0:0:0:
308,284,98810,2,0,L|408:284,2,64,8|0|0,0:0|0:0|0:0,0:0:0:0:
97,190,99064,6,0,L|26:191,1,64,8|0,0:0|0:0,0:0:0:0:
230,187,99234,1,0,0:0:0:0:
33,190,99318,2,0,L|34:121,1,64,8|0,0:0|0:0,0:0:0:0:
230,187,99488,1,0,0:0:0:0:
33,126,99573,2,0,L|121:125,2,64,8|0|0,0:0|0:0|0:0,0:0:0:0:
287,139,99827,6,0,L|361:138,2,64,8|0|0,0:0|0:0|0:0,0:0:0:0:
124,261,100081,2,0,L|50:260,2,64,8|0|0,0:0|0:0|0:0,0:0:0:0:
220,322,100335,2,0,L|294:321,2,64,8|0|0,0:0|0:0|0:0,0:0:0:0:
415,190,100590,6,0,L|486:191,1,64,8|0,0:0|0:0,0:0:0:0:
282,187,100760,1,0,0:0:0:0:
479,190,100844,2,0,L|478:121,1,64,8|0,0:0|0:0,0:0:0:0:
282,187,101014,1,0,0:0:0:0:
479,126,101099,2,0,L|391:125,2,64,8|0|0,0:0|0:0|0:0,0:0:0:0:
228,191,101352,6,0,L|138:191,2,64,8|0|0,0:0|0:0|0:0,0:0:0:0:
305,192,101607,1,8,0:0:0:0:
228,192,101691,1,0,0:0:0:0:
150,192,101776,1,0,0:0:0:0:
387,266,101861,2,0,L|477:266,2,64,8|0|0,0:0|0:0|0:0,0:0:0:0:
150,192,102115,5,8,0:0:0:0:
312,269,102200,2,0,L|314:187,1,64
150,192,102369,1,8,0:0:0:0:
313,205,102454,2,0,L|230:203,1,64
70,107,102624,2,0,L|149:107,2,64,8|0|0,0:0|0:0|0:0,0:0:0:0:
353,179,102878,6,0,L|441:178,2,64,8|0|0,0:0|0:0|0:0,0:0:0:0:
121,238,103132,2,0,L|209:237,2,64,8|0|0,0:0|0:0|0:0,0:0:0:0:
390,277,103386,2,0,L|478:276,2,64,8|0|0,0:0|0:0|0:0,0:0:0:0:
121,237,103640,5,2,0:0:0:0:
325,322,103704,1,0,0:0:0:0:
369,305,103767,1,0,0:0:0:0:
401,270,103831,1,0,0:0:0:0:
415,224,103894,1,2,0:0:0:0:
407,177,103958,1,0,0:0:0:0:
379,139,104021,1,0,0:0:0:0:
337,117,104085,1,0,0:0:0:0:
167,118,104149,1,2,0:0:0:0:
337,117,104234,1,2,0:0:0:0:
496,112,104318,1,2,0:0:0:0:
178,230,104403,6,0,L|87:231,2,64,4|0|0,0:0|0:0|0:0,0:0:0:0:
372,310,104657,2,0,L|463:311,2,64,2|0|0,0:3|0:0|0:0,0:0:0:0:
96,160,104912,1,2,0:3:0:0:
256,192,104996,1,0,0:0:0:0:
416,160,105081,1,0,0:0:0:0:
256,192,105166,5,2,0:3:0:0:
416,160,105251,1,0,0:0:0:0:
256,192,105335,1,0,0:0:0:0:
96,160,105420,1,2,0:3:0:0:
256,192,105505,2,0,L|263:117,1,64
96,160,105674,1,2,0:3:0:0:
256,192,105759,2,0,L|263:117,1,64
96,160,105929,6,0,L|20:159,2,64,2|0|0,0:3|0:0|0:0,0:0:0:0:
335,241,106183,2,0,L|411:240,2,64,2|0|0,0:3|0:0|0:0,0:0:0:0:
96,160,106437,1,2,0:3:0:0:
256,192,106521,1,0,0:0:0:0:
416,160,106606,1,0,0:0:0:0:
256,192,106691,5,2,0:3:0:0:
96,160,106776,1,0,0:0:0:0:
256,192,106861,1,0,0:0:0:0:
96,160,106946,1,2,0:3:0:0:
256,192,107030,2,0,L|272:112,1,64
96,160,107200,1,2,0:3:0:0:
256,192,107284,2,0,L|272:112,1,64
96,160,107454,6,0,L|32:160,2,64,2|0|0,0:3|0:0|0:0,0:0:0:0:
352,272,107708,2,0,L|416:272,2,64,2|0|0,0:3|0:0|0:0,0:0:0:0:
176,320,107963,1,2,0:3:0:0:
16,272,108047,1,0,0:0:0:0:
176,320,108132,1,0,0:0:0:0:
336,320,108217,5,2,0:3:0:0:
176,320,108301,1,0,0:0:0:0:
336,320,108386,1,0,0:0:0:0:
176,320,108471,1,2,0:3:0:0:
336,320,108556,2,0,L|352:256,1,64
176,320,108725,1,2,0:3:0:0:
336,320,108810,2,0,L|352:256,1,64
160,96,108979,6,0,L|64:96,2,64,2|0|0,0:3|0:0|0:0,0:0:0:0:
352,96,109234,1,2,0:3:0:0:
160,96,109318,2,0,L|80:96,1,64
272,240,109488,1,2,0:3:0:0:
96,240,109573,1,0,0:0:0:0:
272,240,109657,1,0,0:0:0:0:
448,240,109742,5,2,0:0:0:0:
272,240,109806,1,2,0:0:0:0:
225,230,109869,1,2,0:0:0:0:
187,202,109933,1,2,0:0:0:0:
166,159,109996,1,2,0:0:0:0:
166,111,110060,1,2,0:0:0:0:
187,69,110123,1,2,0:0:0:0:
225,40,110187,1,2,0:0:0:0:
380,121,110251,2,0,L|460:118,2,64,2|0|0,0:0|0:0|0:0,0:0:0:0:
79,258,110505,5,6,0:0:0:0:
256,192,110632,12,0,112284,0:0:0:0:
314,245,112538,5,10,1:2:0:0:
198,245,112665,1,10,1:2:0:0:
464,256,112792,1,10,1:2:0:0:
198,245,112919,5,10,1:2:0:0:
314,245,113046,1,10,1:2:0:0:
71,256,113173,1,10,1:2:0:0:
314,245,113300,5,10,1:2:0:0:
198,245,113427,1,10,1:2:0:0:
400,320,113555,1,10,1:2:0:0:
198,245,113682,5,10,1:2:0:0:
314,245,113809,1,10,1:2:0:0:
112,320,113937,1,10,1:2:0:0:
314,245,114063,5,10,1:2:0:0:
198,245,114190,1,4,1:3:0:0:
314,245,114317,1,4,1:3:0:0:
112,320,114444,1,4,1:3:0:0:
402,316,114954,6,0,L|404:260,1,48,4|4,3:0|3:0,0:0:0:0:
165,157,115081,6,0,L|93:157,1,52.8000016113282,2|2,0:0|0:0,0:0:0:0:
347,157,115208,2,0,L|425:157,1,52.8000016113282,2|2,0:0|0:0,0:0:0:0:
198,214,115335,2,0,L|139:214,1,52.8000016113282,2|2,0:0|0:0,0:0:0:0:
314,214,115462,2,0,L|376:214,1,52.8000016113282,2|2,0:0|0:0,0:0:0:0:
165,157,115589,6,0,L|93:157,1,52.8000016113282,2|2,0:0|0:0,0:0:0:0:
347,157,115716,2,0,L|425:157,1,52.8000016113282,2|2,0:0|0:0,0:0:0:0:
198,214,115843,2,0,L|139:214,1,52.8000016113282,2|2,0:0|0:0,0:0:0:0:
314,214,115970,2,0,L|376:214,1,52.8000016113282,2|2,0:0|0:0,0:0:0:0:
165,157,116098,6,0,L|93:157,1,52.8000016113282,2|2,0:0|0:0,0:0:0:0:
347,157,116225,2,0,L|425:157,1,52.8000016113282,2|2,0:0|0:0,0:0:0:0:
198,214,116352,2,0,L|139:214,1,52.8000016113282,2|2,0:0|0:0,0:0:0:0:
314,214,116479,2,0,L|376:214,1,52.8000016113282,2|2,0:0|0:0,0:0:0:0:
165,157,116606,6,0,L|93:157,1,52.8000016113282,2|2,0:0|0:0,0:0:0:0:
347,157,116733,2,0,L|425:157,1,52.8000016113282,2|2,0:0|0:0,0:0:0:0:
198,214,116860,2,0,L|139:214,1,52.8000016113282,2|2,0:0|0:0,0:0:0:0:
314,214,116987,2,0,L|376:214,1,52.8000016113282,2|2,0:0|0:0,0:0:0:0:
165,157,117115,6,0,L|93:157,1,52.8000016113282,2|2,0:0|0:0,0:0:0:0:
347,157,117242,2,0,L|425:157,1,52.8000016113282,2|2,0:0|0:0,0:0:0:0:
198,214,117369,2,0,L|139:214,1,52.8000016113282,2|2,0:0|0:0,0:0:0:0:
314,214,117496,2,0,L|376:214,1,52.8000016113282,2|2,0:0|0:0,0:0:0:0:
165,157,117623,6,0,L|93:157,1,52.8000016113282,2|2,0:0|0:0,0:0:0:0:
347,157,117750,2,0,L|425:157,1,52.8000016113282,2|2,0:0|0:0,0:0:0:0:
198,214,117877,2,0,L|139:214,1,52.8000016113282,2|2,0:0|0:0,0:0:0:0:
314,214,118004,2,0,L|376:214,1,52.8000016113282,2|2,0:0|0:0,0:0:0:0:
112,157,118131,1,4,3:0:0:0:
