osu file format v14

[General]
AudioFilename: audio.mp3
AudioLeadIn: 0
PreviewTime: 20190
Countdown: 0
SampleSet: Soft
StackLeniency: 0.7
Mode: 2
LetterboxInBreaks: 0
WidescreenStoryboard: 1

[Editor]
Bookmarks: 104234,115716,116479,117242
DistanceSpacing: 1.2
BeatDivisor: 4
GridSize: 16
TimelineZoom: 2.2

[Metadata]
Title:Lachryma
TitleUnicode:Lachryma《Re:Queen'M》
Artist:Kaneko Chiharu
ArtistUnicode:かねこちはる
Creator:Lacrima
Version:BASIC
Source:SOUND VOLTEX III GRAVITY WARS
Tags:spectator kukkai [_-kukkai-_] myle kroytz SDVX Grace The 5th KAC Original Song Contest KONAMI BEMANI video game instrumental
BeatmapID:3154619
BeatmapSetID:1541749

[Difficulty]
HPDrainRate:3
CircleSize:2.5
OverallDifficulty:6
ApproachRate:6
SliderMultiplier:0.9
SliderTickRate:1

[Events]
//Background and Video events
0,0,"d98a2baae3283654fd9de6f35f82de4302b37f5d_s2_n0 (1).jpg",0,0
//Break Periods
//Storyboard Layer 0 (Background)
//Storyboard Layer 1 (Fail)
//Storyboard Layer 2 (Pass)
//Storyboard Layer 3 (Foreground)
//Storyboard Layer 4 (Overlay)
//Storyboard Sound Samples

[TimingPoints]
678,254.237288135593,3,2,1,55,1,0
18983,-100,3,3,2,55,0,0
19745,-100,3,2,1,55,0,0
20234,254.237288135593,3,2,1,55,1,0
20508,254.237288135593,4,2,1,55,1,1
20698,-100,4,2,1,5,0,1
20762,-100,4,2,1,55,0,1
21715,-100,4,2,1,5,0,1
21779,-100,4,2,1,55,0,1
24702,-100,4,2,1,5,0,1
24766,-100,4,2,1,55,0,1
24893,-100,4,2,1,5,0,1
24957,-100,4,2,1,55,0,1
25719,-100,4,2,1,5,0,1
25783,-100,4,2,1,55,0,1
25910,-100,4,2,1,5,0,1
25974,-100,4,2,1,55,0,1
27118,-100,4,3,2,55,0,1
27880,-100,4,2,4,55,0,1
28389,-100,4,2,1,55,0,1
28643,-100,4,2,1,55,0,1
32838,-100,4,2,1,5,0,1
32902,-100,4,2,1,55,0,1
33029,-100,4,2,1,5,0,1
33092,-100,4,2,1,55,0,1
33855,-100,4,2,1,5,0,1
33919,-100,4,2,1,55,0,1
34046,-100,4,2,1,5,0,1
34109,-100,4,2,1,55,0,1
36779,-100,4,2,1,55,0,0
43198,-100,4,2,1,5,0,0
43262,-100,4,2,1,55,0,0
43580,-100,4,2,1,5,0,0
43643,-100,4,2,1,55,0,0
43961,-100,4,2,1,5,0,0
44024,-100,4,2,1,55,0,0
44342,-100,4,2,1,5,0,0
44406,-100,4,2,1,55,0,0
53495,-100,4,2,1,5,0,0
53558,-100,4,2,1,55,0,0
54130,-100,4,2,1,5,0,0
54194,-100,4,2,1,55,0,0
54639,-100,4,2,1,5,0,0
54702,-100,4,2,1,55,0,0
55529,-100,4,2,1,5,0,0
55592,-100,4,2,1,55,0,0
56164,-100,4,2,1,5,0,0
56228,-100,4,2,1,55,0,0
56673,-100,4,2,1,5,0,0
56736,-100,4,2,1,55,0,0
57563,-100,4,2,1,5,0,0
57626,-100,4,2,1,55,0,0
58198,-100,4,2,1,5,0,0
58262,-100,4,2,1,55,0,0
58707,-100,4,2,1,5,0,0
58770,-100,4,2,1,55,0,0
59152,254.237288135593,3,3,1,55,1,0
62202,254.237288135593,4,2,1,55,1,0
66269,254.237288135593,3,2,1,55,1,0
66459,-100,3,2,1,5,0,0
66523,-100,3,2,1,55,0,0
67222,-100,3,2,1,5,0,0
67285,-100,3,2,1,55,0,0
67985,-100,3,2,1,5,0,0
68048,-100,3,2,1,55,0,0
68747,-100,3,2,1,5,0,0
68811,-100,3,2,1,55,0,0
69510,-100,3,2,1,5,0,0
69574,-100,3,2,1,55,0,0
70273,-100,3,2,1,5,0,0
70336,-100,3,2,1,55,0,0
71035,-100,3,2,1,5,0,0
71099,-100,3,2,1,55,0,0
72561,-100,3,2,1,5,0,0
72624,-100,3,2,1,55,0,0
73324,-100,3,2,1,5,0,0
73387,-100,3,2,1,55,0,0
79997,254.237288135593,4,2,5,75,1,0
80187,-100,4,2,1,5,0,0
80251,-100,4,2,1,55,0,1
81204,-100,4,2,1,5,0,1
81268,-100,4,2,1,55,0,1
84191,-100,4,2,1,5,0,1
84255,-100,4,2,1,55,0,1
84382,-100,4,2,1,5,0,1
84446,-100,4,2,1,55,0,1
85208,-100,4,2,1,5,0,1
85272,-100,4,2,1,55,0,1
85399,-100,4,2,1,5,0,1
85463,-100,4,2,1,55,0,1
88323,-100,4,2,1,5,0,1
88386,-100,4,2,1,55,0,1
88831,-100,4,2,1,5,0,1
88895,-100,4,2,1,55,0,1
92327,-100,4,2,1,5,0,1
92391,-100,4,2,1,55,0,1
92518,-100,4,2,1,5,0,1
92581,-100,4,2,1,55,0,1
93344,-100,4,2,1,5,0,1
93408,-100,4,2,1,55,0,1
93535,-100,4,2,1,5,0,1
93598,-100,4,2,1,55,0,1
96268,-100,4,2,1,55,0,0
97221,-100,4,2,1,5,0,0
97285,-100,4,2,1,55,0,0
97475,-100,4,2,1,55,0,0
97666,-100,4,2,1,55,0,0
97857,-100,4,2,1,55,0,0
98047,-100,4,2,1,55,0,0
98302,254.237288135593,3,2,1,55,1,1
110505,254.237288135593,4,2,1,55,1,0
115081,254.237288135593,4,2,1,55,1,1
115081,-100,4,2,1,55,0,1
118131,-83.3333333333333,4,2,1,55,0,0

[Colours]
Combo1 : 255,255,128
Combo2 : 255,128,255
Combo3 : 255,0,255
Combo4 : 255,0,0

[HitObjects]
116,285,678,6,0,L|109:130,1,135,6|8,0:2|0:3,0:0:0:0:
268,119,1440,2,0,L|270:24,1,90,2|10,0:0|0:0,0:0:0:0:
163,6,1949,1,10,0:0:0:0:
271,332,2203,6,0,L|278:177,1,135,2|8,0:0|0:3,0:0:0:0:
119,166,2965,2,0,L|117:71,1,90,2|10,0:0|0:0,0:0:0:0:
224,53,3474,1,10,0:0:0:0:
334,215,3728,6,0,L|186:199,1,135,2|8,0:2|0:3,0:0:0:0:
342,122,4491,2,0,L|441:111,2,90,2|10|10,0:0|0:0|0:0,0:0:0:0:
234,108,5254,6,0,P|181:150|236:227,1,180,2|0,0:0|0:0,0:0:0:0:
342,223,6016,6,0,P|395:265|340:342,1,180,2|0,0:0|0:0,0:0:0:0:
214,352,6779,6,0,L|70:343,2,135,4|8|2,0:0|0:0|0:0,0:0:0:0:
322,352,7796,1,10,0:0:0:0:
214,348,8050,1,10,0:0:0:0:
322,352,8305,6,0,L|328:212,1,135,2|8,0:0|0:0,0:0:0:0:
167,198,9067,2,0,L|168:93,1,90,2|10,0:0|0:0,0:0:0:0:
274,91,9576,1,10,0:0:0:0:
146,62,9830,6,0,L|286:52,2,135,4|8|2,0:0|0:0|0:0,0:0:0:0:
253,78,10847,2,0,L|259:180,1,90,8|8,0:0|0:0,0:0:0:0:
365,176,11355,6,0,L|358:314,1,135,2|8,0:0|0:0,0:0:0:0:
197,330,12118,1,2,0:0:0:0:
304,332,12372,2,0,L|315:238,1,90,10|10,0:0|0:0,0:0:0:0:
188,189,12881,6,0,L|45:199,2,135,4|8|2,0:0|0:0|0:0,0:0:0:0:
295,175,13898,2,0,L|302:273,1,90,10|0,3:2|3:0,0:0:0:0:
174,67,14406,6,0,L|165:217,1,135,6|0,3:2|0:0,0:0:0:0:
313,269,15169,1,2,3:2:0:0:
205,260,15423,2,0,L|201:150,1,90,2|2,3:2|3:2,0:0:0:0:
313,345,15932,6,0,L|322:197,1,135,2|0,3:2|0:0,0:0:0:0:
160,191,16694,2,0,L|64:192,2,90,2|2|2,3:2|3:2|3:2,0:0:0:0:
267,176,17457,6,0,L|270:319,1,135,2|0,3:2|0:0,0:0:0:0:
430,334,18220,1,2,3:2:0:0:
322,331,18474,2,0,L|221:333,1,90,2|2,3:2|3:2,0:0:0:0:
336,362,18983,6,0,L|436:366,2,90
210,356,19745,2,0,L|200:245,1,90,8|8,1:3|1:3,0:0:0:0:
405,109,20508,6,0,L|265:96,2,135,4|8|2,0:0|0:2|0:0,0:0:0:0:
294,318,21524,2,0,L|281:173,1,135,2|10,0:0|0:0,0:0:0:0:
443,174,22287,1,2,0:0:0:0:
335,164,22541,6,0,L|230:160,1,90,2|2,0:0|0:2,0:0:0:0:
137,152,23050,2,0,L|134:248,1,90,2|2,0:0|0:0,0:0:0:0:
241,254,23558,2,0,L|341:257,2,90,2|2|2,0:0|0:0|3:2,0:0:0:0:
27,285,24575,6,0,L|30:139,1,135,6|6,0:0|0:0,0:0:0:0:
190,126,25338,1,10,0:0:0:0:
316,300,25592,2,0,L|313:154,1,135,14|14,0:0|0:0,0:0:0:0:
153,141,26355,1,8,0:0:0:0:
281,253,26609,6,0,L|384:251,1,90,14|10,0:0|0:0,0:0:0:0:
262,255,27118,1,0,0:0:0:0:
221,237,27245,1,0,0:0:0:0:
204,197,27372,1,0,0:0:0:0:
220,156,27499,1,0,0:0:0:0:
260,137,27626,1,8,1:2:0:0:
386,137,27880,5,2,0:0:0:0:
142,159,28643,6,0,L|0:167,2,135,4|8|2,0:0|0:0|0:0,0:0:0:0:
248,179,29660,2,0,L|390:187,2,135,2|8|2,0:0|0:0|0:0,0:0:0:0:
356,184,30677,6,0,L|355:90,1,90,2|2,0:0|0:0,0:0:0:0:
247,89,31185,2,0,L|246:-5,1,90,2|2,0:0|0:0,0:0:0:0:
354,3,31694,2,0,P|402:27|346:114,1,180,2|2,0:0|0:2,0:0:0:0:
245,123,32457,1,2,3:2:0:0:
372,134,32711,6,0,L|377:278,1,135,6|6,0:0|0:0,0:0:0:0:
214,269,33474,1,0,0:0:0:0:
87,73,33728,2,0,L|82:217,1,135,6|6,0:0|0:0,0:0:0:0:
190,214,34491,1,0,0:0:0:0:
320,281,34745,6,0,L|321:172,1,90,12|8,0:0|0:0,0:0:0:0:
213,176,35253,2,0,L|110:170,1,90,8|8,0:0|0:0,0:0:0:0:
255,113,35762,6,0,L|313:111,2,45,12|0|0,0:0|0:0|3:0,0:0:0:0:
147,110,36270,2,0,L|89:108,2,45,8|0|4,0:0|0:0|0:3,0:0:0:0:
274,111,36779,5,6,0:0:0:0:
256,192,37033,12,2,38558,0:0:0:0:
199,240,38813,6,0,L|196:102,1,135,10|10,1:2|1:2,0:0:0:0:
358,348,39575,2,0,L|355:210,1,135,10|10,1:2|1:2,0:0:0:0:
191,247,40338,2,0,L|189:146,1,90,10|4,1:2|3:0,0:0:0:0:
320,108,40846,5,4,0:0:0:0:
256,192,41101,12,0,42626,0:0:0:0:
104,134,43007,6,0,L|101:285,1,135,4|4,0:0|0:0,0:0:0:0:
267,93,43770,2,0,L|264:244,1,135,4|4,0:0|0:0,0:0:0:0:
372,234,44406,2,0,L|370:326,1,90,2|2,3:2|3:2,0:0:0:0:
243,330,44914,6,0,L|146:328,1,90,6|2,0:0|0:3,0:0:0:0:
261,329,45423,2,0,P|312:303|260:215,1,180,10|2,0:3|0:3,0:0:0:0:
158,219,46185,1,2,0:3:0:0:
266,217,46440,2,0,L|272:128,1,90,10|2,0:3|0:3,0:0:0:0:
164,120,46948,6,0,L|267:113,1,90,2|2,0:3|0:3,0:0:0:0:
361,107,47457,2,0,P|322:109|251:221,1,180,10|2,0:3|0:3,0:0:0:0:
357,209,48219,1,2,0:3:0:0:
248,212,48474,2,0,L|148:213,1,90,10|10,0:3|0:3,0:0:0:0:
286,323,48982,6,0,L|386:324,1,90,6|2,0:0|0:3,0:0:0:0:
267,322,49491,2,0,P|216:298|275:212,1,180,10|2,0:3|0:3,0:0:0:0:
369,212,50253,1,2,0:3:0:0:
261,206,50507,2,0,L|258:108,1,90,10|2,0:3|0:3,0:0:0:0:
150,102,51016,6,0,L|147:4,1,90,2|2,0:3|0:3,0:0:0:0:
255,348,51524,2,0,P|309:304|250:227,1,180,10|2,0:3|0:3,0:0:0:0:
148,222,52287,1,2,0:3:0:0:
255,216,52541,5,2,3:0:0:0:
295,199,52668,1,0,3:0:0:0:
313,159,52795,1,0,3:0:0:0:
298,117,52922,1,0,3:0:0:0:
259,98,53049,1,0,0:0:0:0:
132,99,53304,6,0,L|139:246,1,135,4|2,0:0|0:0,0:0:0:0:
246,241,53940,2,0,L|242:96,1,135,4|10,0:0|0:0,0:0:0:0:
188,111,54448,1,10,0:0:0:0:
298,336,54702,2,0,L|294:191,1,135,2|10,0:0|0:0,0:0:0:0:
175,307,55338,6,0,L|165:166,1,135,6|2,0:0|0:0,0:0:0:0:
277,277,55974,2,0,L|269:133,1,135,6|10,0:0|0:0,0:0:0:0:
215,140,56482,1,2,0:0:0:0:
107,135,56736,2,0,L|99:0,1,135,2|10,0:0|0:0,0:0:0:0:
226,293,57372,6,0,P|270:258|231:192,1,135,4|2,0:0|0:0,0:0:0:0:
132,127,58007,2,0,L|285:128,1,135,4|10,0:0|0:0,0:0:0:0:
321,129,58516,1,2,0:0:0:0:
213,127,58770,1,2,0:0:0:0:
402,172,59152,6,0,P|473:200|402:331,1,270,6|6,0:2|0:2,0:0:0:0:
110,172,60677,6,0,P|39:200|110:331,1,270,6|6,0:2|0:2,0:0:0:0:
421,192,62202,5,6,0:0:0:0:
256,192,62456,12,2,63981,0:0:0:0:
256,192,64235,12,2,66015,0:0:0:0:
213,108,66269,6,0,L|77:115,2,135,4|8|2,0:0|0:0|0:3,0:0:0:0:
320,117,67285,1,10,0:3:0:0:
211,120,67540,1,10,0:3:0:0:
331,235,67794,6,0,L|467:224,1,135,2|8,0:3|0:0,0:0:0:0:
303,228,68557,2,0,L|296:118,1,90,2|10,0:3|0:3,0:0:0:0:
190,125,69065,1,10,0:3:0:0:
317,76,69319,6,0,L|423:69,2,90,4|2|2,0:0|0:3|0:3,0:0:0:0:
211,84,70082,2,0,L|208:181,1,90,2|10,0:3|0:3,0:0:0:0:
312,202,70591,1,10,0:3:0:0:
209,234,70845,6,0,L|119:234,2,90,2|2|10,0:3|0:3|0:3,0:0:0:0:
293,240,71607,1,2,0:3:0:0:
297,185,71735,1,2,0:0:0:0:
301,131,71862,1,10,0:3:0:0:
193,119,72116,1,2,0:3:0:0:
322,87,72370,6,0,L|464:83,2,135,4|8|2,0:0|0:0|0:3,0:0:0:0:
215,104,73387,1,10,0:3:0:0:
322,109,73641,1,6,3:3:0:0:
195,335,73896,6,0,L|190:183,1,135,6|0,3:2|0:0,0:0:0:0:
351,187,74658,1,2,3:2:0:0:
242,187,74913,2,0,L|238:94,1,90,2|2,3:2|3:2,0:0:0:0:
350,327,75421,6,0,L|355:175,1,135,2|0,3:2|0:0,0:0:0:0:
194,179,76183,1,2,3:2:0:0:
303,179,76438,2,0,L|307:86,1,90,2|2,3:2|3:2,0:0:0:0:
196,92,76946,6,0,P|155:121|202:190,1,135,2|0,3:2|0:0,0:0:0:0:
347,191,77709,1,2,3:2:0:0:
239,190,77963,2,0,L|338:192,1,90,2|2,3:2|3:2,0:0:0:0:
227,228,78472,6,0,L|119:236,2,90,8|8|12,3:0|3:0|3:3,0:0:0:0:
356,326,79235,2,0,L|356:229,1,90,10|10,0:0|0:0,0:0:0:0:
128,173,79997,5,2,0:0:0:0:
289,178,80378,2,0,L|300:332,1,135,8|2,0:0|0:0,0:0:0:0:
192,333,81013,2,0,L|342:336,2,135,2|10|2,0:0|0:0|0:0,0:0:0:0:
298,314,82030,6,0,L|306:214,1,90,2|2,0:0|0:0,0:0:0:0:
198,203,82539,2,0,L|96:197,1,90,2|2,0:0|0:0,0:0:0:0:
216,200,83047,2,0,L|316:203,2,90,2|2|8,0:0|0:0|3:2,0:0:0:0:
428,316,84064,6,0,L|440:170,1,135,6|6,0:0|0:0,0:0:0:0:
278,160,84827,1,10,0:0:0:0:
150,331,85081,2,0,L|138:185,1,135,6|6,0:0|0:0,0:0:0:0:
300,175,85844,1,10,0:0:0:0:
172,83,86098,6,0,L|81:83,1,90,14|14,0:0|0:0,0:0:0:0:
193,159,86607,2,0,L|272:161,2,67.5,10|10|10,0:2|0:2|0:2,0:0:0:0:
139,157,87115,5,10,0:2:0:0:
136,264,87369,1,10,0:2:0:0:
244,259,87624,1,10,0:2:0:0:
241,366,87878,1,2,3:2:0:0:
115,353,88132,6,0,L|221:348,1,90,6|6,0:0|0:0,0:0:0:0:
333,250,88641,2,0,L|227:245,1,90,4|2,0:0|0:0,0:0:0:0:
116,281,89149,6,0,P|59:263|136:123,1,270,4|6,3:2|3:2,0:0:0:0:
246,169,90166,6,0,L|383:164,2,135,6|10|0,0:0|0:0|0:0,0:0:0:0:
353,154,91183,2,0,L|360:253,1,90,2|2,0:0|0:0,0:0:0:0:
251,250,91691,2,0,L|258:349,1,90,2|0,0:0|3:0,0:0:0:0:
382,347,92200,6,0,L|246:339,1,135,6|6,0:0|0:0,0:0:0:0:
85,343,92963,1,2,0:0:0:0:
192,340,93217,2,0,L|205:187,1,135,6|6,0:0|0:0,0:0:0:0:
41,211,93980,1,2,0:0:0:0:
168,291,94234,6,0,L|181:195,1,90,14|10,0:0|0:0,0:0:0:0:
294,180,94742,2,0,L|281:84,1,90,10|10,0:0|0:0,0:0:0:0:
173,90,95251,5,14,0:0:0:0:
280,86,95505,1,10,0:0:0:0:
347,169,95759,1,10,0:0:0:0:
280,86,96013,1,10,0:0:0:0:
152,216,96268,5,6,0:0:0:0:
380,166,97285,6,0,L|225:162,2,135,2|2|2,1:2|1:2|1:2,0:0:0:0:
254,304,98302,6,0,L|246:197,1,90,12|8,0:0|0:0,0:0:0:0:
349,180,98810,1,8,0:0:0:0:
241,174,99064,2,0,L|146:176,2,90,8|8|8,0:0|0:0|0:0,0:0:0:0:
348,163,99827,6,0,L|356:56,1,90,8|8,0:0|0:0,0:0:0:0:
253,39,100335,1,8,0:0:0:0:
361,33,100589,2,0,L|456:35,2,90,8|8|8,0:0|0:0|0:0,0:0:0:0:
252,29,101352,5,8,0:0:0:0:
143,26,101607,2,0,L|136:119,1,90,8|8,0:0|0:0,0:0:0:0:
242,135,102115,2,0,L|353:133,2,90,8|8|8,0:0|0:0|0:0,0:0:0:0:
135,153,102878,6,0,L|246:151,2,90,8|8|8,0:0|0:0|0:0,0:0:0:0:
242,148,103640,2,0,P|299:209|231:263,1,180,2|2,0:0|0:0,0:0:0:0:
115,267,104403,5,4,0:0:0:0:
222,261,104657,2,0,L|231:167,1,90,2|2,0:3|0:3,0:0:0:0:
338,158,105166,2,0,L|430:158,2,90,2|2|2,0:3|0:3|0:3,0:0:0:0:
230,147,105929,5,2,0:3:0:0:
337,149,106183,2,0,L|339:248,1,90,2|2,0:3|0:3,0:0:0:0:
232,255,106691,2,0,L|141:258,2,90,2|2|2,0:3|0:3|0:3,0:0:0:0:
339,268,107454,6,0,L|344:170,1,90,2|2,0:3|0:3,0:0:0:0:
235,169,107963,1,2,0:3:0:0:
127,164,108217,2,0,L|235:158,2,90,2|2|2,0:3|0:3|0:3,0:0:0:0:
234,157,108979,6,0,L|126:151,2,90,2|2|2,0:3|0:3|0:3,0:0:0:0:
342,162,109742,2,0,L|450:156,2,90,2|2|2,0:0|0:0|0:0,0:0:0:0:
214,207,110505,5,6,0:0:0:0:
256,192,110759,12,0,112284,0:0:0:0:
201,108,112538,6,0,L|67:109,1,135,10|10,1:2|1:2,0:0:0:0:
228,111,113301,2,0,L|94:112,1,135,10|10,1:2|1:2,0:0:0:0:
255,115,114064,2,0,L|355:115,1,90,10|4,1:2|1:3,0:0:0:0:
291,113,114445,1,4,1:3:0:0:
110,202,114954,6,0,L|172:203,1,45,4|2,3:0|0:0,0:0:0:0:
256,192,115335,12,4,118131,3:0:0:0:
