osu file format v14

[General]
AudioFilename: audio.mp3
AudioLeadIn: 0
PreviewTime: 96623
Countdown: 0
SampleSet: Normal
StackLeniency: 0.7
Mode: 3
LetterboxInBreaks: 0
SpecialStyle: 0
WidescreenStoryboard: 0

[Editor]
DistanceSpacing: 2.7
BeatDivisor: 4
GridSize: 4
TimelineZoom: 2.1

[Metadata]
Title:Kai Dan
TitleUnicode:χ談
Artist:Kaneko Chiharu
ArtistUnicode:かねこちはる
Creator:Tofu1222
Version:Kantan
Source:太鼓の達人
Tags:Taiko no Tatsujin Yellow Ver. イエローVer. Eedow Critical_Star Interlude- Lude Wonki
BeatmapID:1317017
BeatmapSetID:623951

[Difficulty]
HPDrainRate:6.5
CircleSize:4
OverallDifficulty:6.5
ApproachRate:5
SliderMultiplier:1.4
SliderTickRate:1

[Events]
//Background and Video events
0,0,"bg.jpg",0,0
//Break Periods
//Storyboard Layer 0 (Background)
//Storyboard Layer 1 (Fail)
//Storyboard Layer 2 (Pass)
//Storyboard Layer 3 (Foreground)
//Storyboard Sound Samples
Sample,33696,0,"C6S.wav",70
Sample,34585,0,"C6S.wav",70
Sample,35474,0,"B5S.wav",70
Sample,36363,0,"B4S.wav",70
Sample,37252,0,"E6S.wav",70
Sample,38141,0,"E6S.wav",70
Sample,39030,0,"C6S.wav",70
Sample,39363,0,"C6S.wav",70
Sample,39585,0,"D6S.wav",70
Sample,39919,0,"B5S.wav",70
Sample,40252,0,"C6S.wav",70
Sample,40474,0,"B5S.wav",70
Sample,40696,0,"C6S.wav",70
Sample,45252,0,"B5S.wav",70
Sample,47030,0,"B5S.wav",70
Sample,47474,0,"E5S.wav",70
Sample,51474,0,"A#4S_Bb4S.wav",70
Sample,74478,0,"LR_Clap_Fast_Low.wav",40

[TimingPoints]
808,222.222222222222,4,1,1,40,1,0
55030,413.793103448276,4,1,1,40,1,1
55030,-53.763440860215,4,1,1,40,0,1
81512,222.222222222222,4,1,1,40,1,0
81512,-100,4,1,1,40,0,0
97511,-100,4,1,1,40,0,1
122402,240.963855421687,4,1,1,15,1,0
122402,-92.5925925925926,4,1,1,15,0,0
122643,367.197062423501,4,1,1,15,1,0
122643,-60.6060606060606,4,1,1,15,0,0
123010,259.74025974026,4,1,1,15,1,0
123010,-85.4700854700855,4,1,1,15,0,0
123417,276.497695852535,4,1,1,15,1,0
123417,-80.6451612903226,4,1,1,15,0,0
123693,451.127819548872,4,1,1,15,1,0
123693,-49.2610837438424,4,1,1,15,0,0
124142,458.015267175573,4,1,1,15,1,0
124142,-48.5436893203883,4,1,1,15,0,0
124600,709.219858156028,4,1,1,15,1,0
124600,-31.3479623824451,4,1,1,15,0,0
125309,269.058295964126,4,1,1,15,1,0
125309,-82.6446280991736,4,1,1,15,0,0
125577,267.857142857143,4,1,1,15,1,0
125577,-82.6446280991736,4,1,1,15,0,0
125845,267.857142857143,4,1,1,15,1,0
125845,-82.6446280991736,4,1,1,15,0,0
126101,500,4,1,1,15,1,0
126101,-44.4444444444444,4,1,1,15,0,0

[HitObjects]
64,192,808,5,0,0:0:0:70:LR4_DrumRevBassImpact.wav
448,192,808,1,0,0:0:0:0:
64,192,5252,5,0,0:0:0:40:LR_Drum Kick Low.wav
448,192,5252,1,0,0:0:0:40:LR_CymbalSSD.wav
320,192,5696,1,0,0:0:0:40:LR_Drum Kick Low.wav
192,192,6141,1,0,0:0:0:40:LR_Drum Kick Low.wav
64,192,6585,1,0,0:0:0:40:LR_Drum Kick Low.wav
320,192,7030,1,0,0:0:0:40:LR_Drum Kick Low.wav
448,192,7474,1,0,0:0:0:40:LR_Drum Kick Low.wav
192,192,7919,1,0,0:0:0:40:LR_Drum Kick Low.wav
64,192,8363,1,0,0:0:0:40:LR_Drum Kick Low.wav
320,192,8807,1,0,0:0:0:40:LR_Drum Kick Low.wav
192,192,9252,1,0,0:0:0:40:LR_Drum Kick Low.wav
320,192,9696,1,0,0:0:0:40:LR_Drum Kick Low.wav
448,192,10141,1,0,0:0:0:40:LR_Drum Kick Low.wav
64,192,10585,128,0,11030:0:0:0:40:LR_Drum Kick Low.wav
448,192,11030,1,0,0:0:0:40:LR_Drum Kick Low.wav
320,192,11474,128,0,11696:0:0:0:30:LR4_DrumKickHat.wav
192,192,11807,128,0,12030:0:0:0:30:LR4_DrumKickHat.wav
320,192,12141,128,0,12363:0:0:0:30:LR4_DrumKickHat.wav
64,192,12363,1,0,0:0:0:40:LR_Drum Kick Low.wav
448,192,12363,1,0,0:0:0:40:LR_CymbalSSD.wav
320,192,12807,1,0,0:0:0:40:LR_Drum Kick Low.wav
192,192,13252,1,0,0:0:0:40:LR_Drum Kick Low.wav
64,192,13696,1,0,0:0:0:40:LR_Drum Kick Low.wav
320,192,14141,1,0,0:0:0:40:LR_Drum Kick Low.wav
448,192,14585,1,0,0:0:0:40:LR_Drum Kick Low.wav
192,192,15030,1,0,0:0:0:40:LR_Drum Kick Low.wav
64,192,15474,1,0,0:0:0:40:LR_Drum Kick Low.wav
192,192,15919,1,0,0:0:0:40:LR_Drum Kick Low.wav
320,192,16363,1,0,0:0:0:40:LR_Drum Kick Low.wav
192,192,16807,1,0,0:0:0:40:LR_Drum Kick Low.wav
448,192,17252,1,0,0:0:0:40:LR_Drum Kick Low.wav
64,192,17696,128,0,18141:0:0:0:30:LR4_DrumKickHat.wav
192,192,18252,128,0,18585:0:0:0:30:LR4_DrumKickHat.wav
448,192,18585,128,0,19474:0:0:0:30:LR4_DrumKickHat.wav
320,192,19030,128,0,19474:0:0:0:30:LR4_DrumKickHat.wav
64,192,19474,128,0,20807:0:0:0:40:LR_CymbalSSD.wav
192,192,20807,128,0,21252:0:0:0:0:
320,192,21252,128,0,22585:0:0:0:0:
448,192,22585,128,0,23030:0:0:0:0:
64,192,23030,128,0,23919:0:0:0:0:
192,192,23919,128,0,24363:0:0:0:0:
320,192,24363,128,0,24807:0:0:0:0:
448,192,24807,128,0,25696:0:0:0:0:
320,192,25696,128,0,26585:0:0:0:0:
64,192,26585,1,0,0:0:0:70:A6S.wav
448,192,26585,1,0,0:0:0:40:LR_CymbalSSD.wav
320,192,26919,1,0,0:0:0:70:G#6S_Ab6S.wav
192,192,27141,1,0,0:0:0:70:F#6S_Gb6S.wav
448,192,27474,1,0,0:0:0:70:A6S.wav
320,192,27807,1,0,0:0:0:70:G#6S_Ab6S.wav
192,192,28030,1,0,0:0:0:70:F#6S_Gb6S.wav
448,192,28252,1,0,0:0:0:70:A6S.wav
64,192,28363,1,0,0:0:0:70:G#6S_Ab6S.wav
320,192,28696,1,0,0:0:0:70:F#6S_Gb6S.wav
192,192,28919,1,0,0:0:0:70:E6S.wav
64,192,29252,128,0,29585:0:0:0:70:B5S.wav
320,192,29807,1,0,0:0:0:70:E6S.wav
64,192,30030,1,0,0:0:0:70:A6S.wav
448,192,30141,1,0,0:0:0:70:C#7S_Db7S.wav
320,192,30474,1,0,0:0:0:70:B6S.wav
192,192,30696,1,0,0:0:0:70:A6S.wav
320,192,31030,1,0,0:0:0:70:C#7S_Db7S.wav
448,192,31252,1,0,0:0:0:70:D7S.wav
192,192,31363,1,0,0:0:0:70:B6S.wav
64,192,31585,1,0,0:0:0:70:A6S.wav
192,192,31919,1,0,0:0:0:70:A6S.wav
192,192,32252,1,0,0:0:0:70:A6S.wav
320,192,32474,1,0,0:0:0:70:B6S.wav
64,192,32807,1,0,0:0:0:70:E7S.wav
448,192,32807,1,0,0:0:0:0:
64,192,33696,1,0,0:0:0:40:LR_Drum Kick Low.wav
448,192,33696,1,0,0:0:0:40:LR_CymbalSSD.wav
320,192,34030,1,0,0:0:0:70:B5S.wav
64,192,34252,1,0,0:0:0:70:A5S.wav
448,192,34585,1,0,0:0:0:40:LR_Drum Kick Low.wav
320,192,34919,1,0,0:0:0:70:B5S.wav
64,192,35141,1,0,0:0:0:70:A5S.wav
448,192,35363,1,0,0:0:0:70:C6S.wav
192,192,35474,1,0,0:0:0:40:LR_Drum Kick Low.wav
320,192,35807,1,0,0:0:0:70:A5S.wav
64,192,36030,1,0,0:0:0:70:G5S.wav
320,192,36363,128,0,36696:0:0:0:40:LR_Drum Kick Low.wav
64,192,36919,1,0,0:0:0:70:G5S.wav
192,192,37141,1,0,0:0:0:70:C6S.wav
448,192,37252,1,0,0:0:0:40:LR_Drum Kick Low.wav
320,192,37585,1,0,0:0:0:70:D6S.wav
192,192,37807,1,0,0:0:0:70:C6S.wav
320,192,38141,1,0,0:0:0:40:LR_Drum Kick Low.wav
448,192,38363,1,0,0:0:0:70:F6S.wav
192,192,38474,1,0,0:0:0:70:D6S.wav
64,192,38696,1,0,0:0:0:70:C6S.wav
192,192,39030,1,0,0:0:0:40:LR_Drum Kick Low.wav
192,192,39363,1,0,0:0:0:40:LR4_DrumKickHat.wav
320,192,39585,1,0,0:0:0:40:LR4_DrumKickHat.wav
64,192,39919,1,0,0:0:0:40:LR4_DrumKickHat.wav
320,192,40252,1,0,0:0:0:40:LR4_DrumKickHat.wav
64,192,40474,1,0,0:0:0:40:LR4_DrumKickHat.wav
320,192,40696,1,0,0:0:0:40:LR4_DrumKickHat.wav
64,192,40807,128,0,42141:0:0:0:40:LR4_DrumKickHat.wav
448,192,40807,1,0,0:0:0:40:LR_CymbalSSD.wav
192,192,42141,128,0,42585:0:0:0:0:
320,192,42585,128,0,43474:0:0:0:0:
448,192,43474,128,0,44363:0:0:0:0:
64,192,44363,128,0,47919:0:0:0:40:LR_Drum Kick Low.wav
320,192,44363,1,0,0:0:0:40:LR_CymbalSSD.wav
448,192,44807,1,0,0:0:0:40:LR_Drum Kick Low.wav
192,192,45252,1,0,0:0:0:40:LR_Drum Kick Low.wav
320,192,45696,1,0,0:0:0:40:LR_Drum Kick Low.wav
192,192,46141,1,0,0:0:0:40:LR_Drum Kick Low.wav
448,192,46585,1,0,0:0:0:40:LR_Drum Kick Low.wav
192,192,47030,1,0,0:0:0:40:LR_Drum Kick Low.wav
320,192,47474,1,0,0:0:0:60:LR4_SnareDropDwS.wav
192,192,47919,1,0,0:0:0:60:LR4_SnareDropDwS.wav
448,192,47919,128,0,49030:0:0:0:40:LR_CymbalSSD.wav
320,192,49030,128,0,49252:0:0:0:0:
192,192,49252,128,0,49474:0:0:0:0:
64,192,49474,128,0,49696:0:0:0:0:
320,192,49696,128,0,50141:0:0:0:0:
448,192,50141,128,0,50585:0:0:0:0:
192,192,50585,128,0,51030:0:0:0:0:
64,192,51030,128,0,51474:0:0:0:0:
448,192,51474,128,0,54104:0:0:0:0:
64,192,53252,128,0,54104:0:0:0:0:
320,192,54104,1,0,0:0:0:40:LR_CymbalSSD.wav
192,192,54104,1,0,0:0:0:40:LR_DS - Snare Wet High.wav
64,192,55030,1,0,0:0:0:40:LR_Drum Kick Low.wav
448,192,55030,1,0,0:0:0:40:LR_CymbalSSD.wav
192,192,55443,1,0,0:0:0:40:LR_Clap_Fast_Low.wav
320,192,55857,1,0,0:0:0:40:LR_DS - Snare Wet High.wav
448,192,55857,1,0,0:0:0:0:
192,192,56271,1,0,0:0:0:40:LR_Clap_Fast_Low.wav
64,192,56685,128,0,57098:0:0:0:40:LR_Drum Kick Low.wav
448,192,56685,1,0,0:0:0:0:
448,192,57098,128,0,57512:0:0:0:40:LR_Clap_Fast_Low.wav
64,192,57512,1,0,0:0:0:40:LR_DS - Snare Wet High.wav
192,192,57512,128,0,58340:0:0:0:0:
320,192,57926,1,0,0:0:0:40:LR_Clap_Fast_Low.wav
64,192,58340,1,0,0:0:0:40:LR_Drum Kick Low.wav
448,192,58340,1,0,0:0:0:0:
320,192,58754,1,0,0:0:0:40:LR_Clap_Fast_Low.wav
64,192,59167,128,0,59581:0:0:0:40:LR_DS - Snare Wet High.wav
448,192,59167,1,0,0:0:0:0:
192,192,59581,1,0,0:0:0:40:LR_Clap_Fast_Low.wav
64,192,59995,1,0,0:0:0:40:LR_Drum Kick Low.wav
448,192,59995,1,0,0:0:0:0:
320,192,60409,1,0,0:0:0:40:LR_Clap_Fast_Low.wav
64,192,60823,128,0,61236:0:0:0:40:LR_DS - Snare Wet High.wav
448,192,60823,1,0,0:0:0:0:
320,192,61236,128,0,61650:0:0:0:40:LR_Clap_Fast_Low.wav
64,192,61650,1,0,0:0:0:40:LR_Drum Kick Low.wav
192,192,61650,1,0,0:0:0:40:LR_CymbalSSD.wav
448,192,62064,1,0,0:0:0:40:LR_Clap_Fast_Low.wav
64,192,62478,1,0,0:0:0:40:LR_DS - Snare Wet High.wav
320,192,62478,128,0,62892:0:0:0:0:
192,192,62892,128,0,63305:0:0:0:40:LR_Clap_Fast_Low.wav
64,192,63305,1,0,0:0:0:40:LR_Drum Kick Low.wav
448,192,63305,128,0,63719:0:0:0:0:
320,192,63719,1,0,0:0:0:40:LR_Clap_Fast_Low.wav
64,192,64133,1,0,0:0:0:40:LR_DS - Snare Wet High.wav
448,192,64133,1,0,0:0:0:0:
320,192,64443,1,0,0:0:0:0:
192,192,64754,1,0,0:0:0:0:
64,192,64961,1,0,0:0:0:40:LR_Drum Kick Low.wav
448,192,64961,1,0,0:0:0:0:
320,192,65167,128,0,65374:0:0:0:0:
320,192,65581,128,0,65788:0:0:0:40:LR_Drum Kick Low.wav
64,192,65788,128,0,65995:0:0:0:40:LR_DS - Snare Wet High.wav
192,192,65788,1,0,0:0:0:0:
192,192,66202,128,0,66616:0:0:0:40:LR_Clap_Fast_Low.wav
64,192,66616,1,0,0:0:0:40:LR_Drum Kick Low.wav
320,192,66616,128,0,67030:0:0:0:0:
448,192,66616,1,0,0:0:0:0:
192,192,67030,128,0,67443:0:0:0:40:LR_Clap_Fast_Low.wav
64,192,67443,1,0,0:0:0:40:LR_DS - Snare Wet High.wav
320,192,67443,128,0,67857:0:0:0:0:
64,192,67857,128,0,68685:0:0:0:30:LR4_DrumKickHat.wav
448,192,68685,128,0,69512:0:0:0:30:LR4_DrumKickHat.wav
192,192,69512,128,0,69926:0:0:0:30:LR4_DrumKickHat.wav
64,192,69926,1,0,0:0:0:40:LR_Drum Kick Low.wav
448,192,69926,1,0,0:0:0:40:LR_CymbalSSD.wav
320,192,70340,128,0,70754:0:0:0:40:LR_Clap_Fast_Low.wav
64,192,70754,1,0,0:0:0:40:LR_DS - Snare Wet High.wav
448,192,70754,1,0,0:0:0:0:
192,192,71167,128,0,71581:0:0:0:40:LR_Clap_Fast_Low.wav
320,192,71581,1,0,0:0:0:40:LR_Drum Kick Low.wav
448,192,71581,1,0,0:0:0:0:
64,192,71788,128,0,71995:0:0:0:40:LR_Drum Kick Low.wav
448,192,71995,128,0,73236:0:0:0:0:
64,192,73236,1,0,0:0:0:40:LR_Drum Kick Low.wav
192,192,73236,1,0,0:0:0:40:LR_CymbalSSD.wav
320,192,73650,128,0,74064:0:0:0:40:LR_Clap_Fast_Low.wav
64,192,74064,128,0,74478:0:0:0:40:LR_DS - Snare Wet High.wav
448,192,74064,1,0,0:0:0:0:
448,192,74478,128,0,74892:0:0:0:40:LR_Drum Kick Low.wav
64,192,74892,1,0,0:0:0:40:LR_Drum Kick Low.wav
320,192,74892,1,0,0:0:0:40:LR_CymbalSSD.wav
192,192,75305,1,0,0:0:0:40:LR_Clap_Fast_Low.wav
64,192,75719,128,0,76133:0:0:0:40:LR_DS - Snare Wet High.wav
448,192,75719,1,0,0:0:0:0:
320,192,76133,128,0,76547:0:0:0:40:LR_Clap_Fast_Low.wav
64,192,76547,128,0,76961:0:0:0:40:LR_Drum Kick Low.wav
192,192,76547,1,0,0:0:0:0:
320,192,76961,1,0,0:0:0:40:LR_Clap_Fast_Low.wav
192,192,77374,1,0,0:0:0:40:LR_DS - Snare Wet High.wav
448,192,77374,1,0,0:0:0:0:
320,192,77685,1,0,0:0:0:0:
192,192,77995,1,0,0:0:0:0:
64,192,78202,1,0,0:0:0:40:LR_Drum Kick Low.wav
448,192,78202,128,0,78409:0:0:0:0:
448,192,78616,128,0,78823:0:0:0:40:LR_Clap_Fast_Low.wav
64,192,79030,1,0,0:0:0:40:LR_DS - Snare Wet High.wav
192,192,79030,128,0,79443:0:0:0:0:
320,192,79443,128,0,79857:0:0:0:40:LR_Clap_Fast_Low.wav
64,192,79857,128,0,80271:0:0:0:40:LR_Drum Kick Low.wav
448,192,79857,1,0,0:0:0:0:
448,192,80271,128,0,80685:0:0:0:40:LR_Clap_Fast_Low.wav
192,192,80685,1,0,0:0:0:40:LR_DS - Snare Wet High.wav
320,192,80685,128,0,81098:0:0:0:0:
64,192,81098,1,0,0:0:0:40:LR_Clap_Fast_Low.wav
64,192,81512,128,0,83289:0:0:0:40:LR_Drum Kick Low.wav
448,192,81512,1,0,0:0:0:40:LR_CymbalSSD.wav
320,192,82845,128,0,83289:0:0:0:30:LR4_DrumKickHat.wav
192,192,83289,128,0,85067:0:0:0:40:LR_Drum Kick Low.wav
448,192,84623,128,0,85067:0:0:0:30:LR4_DrumKickHat.wav
320,192,85067,128,0,86845:0:0:0:40:LR_Drum Kick Low.wav
64,192,86400,128,0,86845:0:0:0:30:LR4_DrumKickHat.wav
448,192,86845,128,0,88178:0:0:0:40:LR_Drum Kick Low.wav
192,192,87734,128,0,88178:0:0:0:30:LR4_DrumKickHat.wav
64,192,88623,128,0,89512:0:0:0:40:LR_Drum Kick Low.wav
448,192,88623,1,0,0:0:0:40:LR_CymbalSSD.wav
448,192,89067,128,0,89512:0:0:0:30:LR4_DrumKickHat.wav
192,192,89512,128,0,90400:0:0:0:30:LR4_DrumKickHat.wav
64,192,89956,128,0,90400:0:0:0:30:LR4_DrumKickHat.wav
320,192,90400,128,0,91289:0:0:0:30:LR4_DrumKickHat.wav
192,192,90845,128,0,91289:0:0:0:30:LR4_DrumKickHat.wav
64,192,91289,128,0,92178:0:0:0:30:LR4_DrumKickHat.wav
448,192,91289,128,0,91734:0:0:0:0:
448,192,92178,1,0,0:0:0:30:LR4_DrumKickHat.wav
320,192,92400,1,0,0:0:0:30:LR4_DrumKickHat.wav
192,192,92623,1,0,0:0:0:30:LR4_DrumKickHat.wav
64,192,92845,1,0,0:0:0:30:LR4_DrumKickHat.wav
448,192,93067,1,0,0:0:0:30:LR4_DrumKickHat.wav
320,192,93289,1,0,0:0:0:30:LR4_DrumKickHat.wav
192,192,93511,1,0,0:0:0:30:LR4_DrumKickHat.wav
64,192,93734,1,0,0:0:0:30:LR4_DrumKickHat.wav
192,192,93956,1,0,0:0:0:40:LR_Drum Kick Low.wav
320,192,93956,128,0,95734:0:0:0:0:
64,192,95734,128,0,96623:0:0:0:0:
448,192,96623,128,0,97511:0:0:0:0:
64,192,97511,1,0,0:0:0:40:LR_Drum Kick Low.wav
320,192,97511,1,0,0:0:0:40:LR_CymbalSSD.wav
192,192,97734,1,0,0:0:0:60:LR4_SnareDropDwS.wav
448,192,97956,1,0,0:0:0:40:LR_Drum Kick Low.wav
320,192,98178,1,0,0:0:0:60:LR4_SnareDropDwS.wav
64,192,98400,1,0,0:0:0:40:LR_Drum Kick Low.wav
192,192,98623,1,0,0:0:0:60:LR4_SnareDropDwS.wav
448,192,98845,1,0,0:0:0:40:LR_Drum Kick Low.wav
64,192,99067,1,0,0:0:0:60:LR4_SnareDropDwS.wav
192,192,99289,1,0,0:0:0:40:LR_Drum Kick Low.wav
448,192,99511,1,0,0:0:0:60:LR4_SnareDropDwS.wav
64,192,99734,1,0,0:0:0:40:LR_Drum Kick Low.wav
320,192,99956,1,0,0:0:0:60:LR4_SnareDropDwS.wav
64,192,100178,1,0,0:0:0:40:LR_Drum Kick Low.wav
448,192,100400,1,0,0:0:0:60:LR4_SnareDropDwS.wav
192,192,100623,1,0,0:0:0:40:LR_Drum Kick Low.wav
320,192,100845,1,0,0:0:0:60:LR4_SnareDropDwS.wav
64,192,101067,1,0,0:0:0:40:LR_Drum Kick Low.wav
192,192,101289,1,0,0:0:0:60:LR4_SnareDropDwS.wav
448,192,101511,1,0,0:0:0:40:LR_Drum Kick Low.wav
320,192,101734,1,0,0:0:0:60:LR4_SnareDropDwS.wav
64,192,101956,1,0,0:0:0:40:LR_Drum Kick Low.wav
192,192,102178,1,0,0:0:0:60:LR4_SnareDropDwS.wav
448,192,102400,1,0,0:0:0:40:LR_Drum Kick Low.wav
64,192,102623,1,0,0:0:0:60:LR4_SnareDropDwS.wav
320,192,102845,1,0,0:0:0:40:LR_Drum Kick Low.wav
192,192,103067,1,0,0:0:0:60:LR4_SnareDropDwS.wav
448,192,103289,1,0,0:0:0:40:LR_Drum Kick Low.wav
64,192,103511,1,0,0:0:0:60:LR4_SnareDropDwS.wav
320,192,103734,1,0,0:0:0:40:LR_Drum Kick Low.wav
192,192,103956,1,0,0:0:0:60:LR4_SnareDropDwS.wav
64,192,104178,128,0,104623:0:0:0:40:LR_Drum Kick Low.wav
192,192,104623,1,0,0:0:0:40:LR_Drum Kick Low.wav
448,192,104623,1,0,0:0:0:40:LR_CymbalSSD.wav
320,192,104845,1,0,0:0:0:60:LR4_SnareDropDwS.wav
192,192,105067,1,0,0:0:0:40:LR_Drum Kick Low.wav
64,192,105289,1,0,0:0:0:60:LR4_SnareDropDwS.wav
448,192,105511,1,0,0:0:0:40:LR_Drum Kick Low.wav
64,192,105734,1,0,0:0:0:60:LR4_SnareDropDwS.wav
320,192,105956,1,0,0:0:0:40:LR_Drum Kick Low.wav
192,192,106178,1,0,0:0:0:60:LR4_SnareDropDwS.wav
448,192,106400,1,0,0:0:0:40:LR_Drum Kick Low.wav
64,192,106623,1,0,0:0:0:60:LR4_SnareDropDwS.wav
320,192,106845,1,0,0:0:0:40:LR_Drum Kick Low.wav
192,192,107067,1,0,0:0:0:60:LR4_SnareDropDwS.wav
448,192,107289,1,0,0:0:0:40:LR_Drum Kick Low.wav
320,192,107511,1,0,0:0:0:60:LR4_SnareDropDwS.wav
64,192,107734,1,0,0:0:0:40:LR_Drum Kick Low.wav
192,192,107956,1,0,0:0:0:60:LR4_SnareDropDwS.wav
448,192,108178,1,0,0:0:0:40:LR_Drum Kick Low.wav
192,192,108400,1,0,0:0:0:60:LR4_SnareDropDwS.wav
320,192,108623,1,0,0:0:0:40:LR_Drum Kick Low.wav
64,192,108845,1,0,0:0:0:60:LR4_SnareDropDwS.wav
192,192,109067,1,0,0:0:0:40:LR_Drum Kick Low.wav
320,192,109289,1,0,0:0:0:60:LR4_SnareDropDwS.wav
64,192,109511,1,0,0:0:0:40:LR_Drum Kick Low.wav
448,192,109734,1,0,0:0:0:60:LR4_SnareDropDwS.wav
192,192,109956,128,0,111734:0:0:0:40:LR4_DrumKickHat.wav
320,192,110845,128,0,111734:0:0:0:30:LR4_DrumKickHat.wav
64,192,111734,1,0,0:0:0:40:LR_Drum Kick Low.wav
448,192,111734,1,0,0:0:0:40:LR_CymbalSSD.wav
320,192,111956,1,0,0:0:0:60:LR4_SnareDropDwS.wav
192,192,112178,1,0,0:0:0:40:LR_Drum Kick Low.wav
64,192,112400,1,0,0:0:0:60:LR4_SnareDropDwS.wav
320,192,112623,1,0,0:0:0:40:LR_Drum Kick Low.wav
192,192,112845,1,0,0:0:0:60:LR4_SnareDropDwS.wav
448,192,113067,1,0,0:0:0:40:LR_Drum Kick Low.wav
64,192,113289,1,0,0:0:0:60:LR4_SnareDropDwS.wav
320,192,113511,1,0,0:0:0:40:LR_Drum Kick Low.wav
448,192,113734,1,0,0:0:0:60:LR4_SnareDropDwS.wav
192,192,113956,1,0,0:0:0:40:LR_Drum Kick Low.wav
64,192,114178,1,0,0:0:0:60:LR4_SnareDropDwS.wav
448,192,114400,1,0,0:0:0:40:LR_Drum Kick Low.wav
192,192,114623,1,0,0:0:0:60:LR4_SnareDropDwS.wav
320,192,114845,1,0,0:0:0:40:LR_Drum Kick Low.wav
64,192,115067,1,0,0:0:0:60:LR4_SnareDropDwS.wav
192,192,115289,1,0,0:0:0:40:LR_Drum Kick Low.wav
448,192,115511,1,0,0:0:0:60:LR4_SnareDropDwS.wav
64,192,115734,1,0,0:0:0:40:LR_Drum Kick Low.wav
320,192,115956,1,0,0:0:0:60:LR4_SnareDropDwS.wav
192,192,116178,1,0,0:0:0:40:LR_Drum Kick Low.wav
448,192,116400,1,0,0:0:0:60:LR4_SnareDropDwS.wav
64,192,116623,1,0,0:0:0:40:LR_Drum Kick Low.wav
192,192,116845,1,0,0:0:0:60:LR4_SnareDropDwS.wav
448,192,117067,1,0,0:0:0:40:LR_Drum Kick Low.wav
64,192,117289,1,0,0:0:0:40:LR_Drum Kick Low.wav
320,192,117511,1,0,0:0:0:40:LR_Drum Kick Low.wav
192,192,117734,1,0,0:0:0:40:LR_Drum Kick Low.wav
448,192,117956,128,0,118845:0:0:0:30:LR4_DrumKickHat.wav
64,192,118400,128,0,118845:0:0:0:30:LR4_DrumKickHat.wav
192,192,118845,1,0,0:0:0:40:LR_Drum Kick Low.wav
320,192,118845,1,0,0:0:0:40:LR_CymbalSSD.wav
448,192,119067,1,0,0:0:0:30:LR4_DrumKickHat.wav
64,192,119289,1,0,0:0:0:30:LR4_DrumKickHat.wav
192,192,119511,1,0,0:0:0:30:LR4_DrumKickHat.wav
448,192,119734,1,0,0:0:0:30:LR4_DrumKickHat.wav
64,192,119956,1,0,0:0:0:30:LR4_DrumKickHat.wav
320,192,120178,1,0,0:0:0:30:LR4_DrumKickHat.wav
192,192,120400,1,0,0:0:0:30:LR4_DrumKickHat.wav
448,192,120623,128,0,121511:0:0:0:30:LR4_DrumKickHat.wav
192,192,121067,1,0,0:0:0:30:LR4_DrumKickHat.wav
64,192,121511,128,0,122400:0:0:0:30:LR4_DrumKickHat.wav
320,192,121956,1,0,0:0:0:30:LR4_DrumKickHat.wav
192,192,122400,1,0,0:0:0:40:LR_CymbalSSD.wav
448,192,122400,1,0,0:0:0:70:F7S.wav
320,192,122642,1,0,0:0:0:70:C8S.wav
448,192,123010,128,0,123417:0:0:0:70:A#7S_Bb7S.wav
192,192,123417,128,0,123843:0:0:0:70:G7S.wav
320,192,124142,128,0,124600:0:0:0:70:F7S.wav
64,192,124600,1,0,0:0:0:70:C8S.wav
448,192,125309,1,0,0:0:0:70:A#7S_Bb7S.wav
320,192,125577,1,0,0:0:0:70:G#7S_Ab7S.wav
192,192,125845,1,0,0:0:0:70:G7S.wav
64,192,126101,1,0,0:0:0:70:LR4_DrumRevBassImpact.wav
448,192,126101,1,0,0:0:0:70:F7S.wav
