osu file format v14

[General]
AudioFilename: audio.mp3
AudioLeadIn: 0
PreviewTime: 96623
Countdown: 0
SampleSet: Normal
StackLeniency: 0.7
Mode: 3
LetterboxInBreaks: 0
SpecialStyle: 0
WidescreenStoryboard: 0

[Editor]
DistanceSpacing: 2.7
BeatDivisor: 4
GridSize: 4
TimelineZoom: 2.000001

[Metadata]
Title:Kai Dan
TitleUnicode:χ談
Artist:Kaneko Chiharu
ArtistUnicode:かねこちはる
Creator:Tofu1222
Version:Daitatsujin
Source:太鼓の達人
Tags:Taiko no Tatsujin Yellow Ver. イエローVer. Eedow Critical_Star Interlude- Lude Wonki
BeatmapID:1315053
BeatmapSetID:623951

[Difficulty]
HPDrainRate:9
CircleSize:4
OverallDifficulty:9
ApproachRate:5
SliderMultiplier:1.4
SliderTickRate:1

[Events]
//Background and Video events
0,0,"bg.jpg",0,0
//Break Periods
//Storyboard Layer 0 (Background)
//Storyboard Layer 1 (Fail)
//Storyboard Layer 2 (Pass)
//Storyboard Layer 3 (Foreground)
//Storyboard Sound Samples
Sample,8919,0,"normal-hitnormal.wav",50
Sample,9141,0,"normal-hitnormal.wav",50
Sample,9252,0,"normal-hitnormal.wav",50
Sample,9474,0,"normal-hitnormal.wav",50
Sample,9585,0,"normal-hitnormal.wav",50
Sample,9807,0,"normal-hitnormal.wav",50
Sample,9919,0,"normal-hitnormal.wav",50
Sample,16030,0,"normal-hitnormal.wav",50
Sample,16252,0,"normal-hitnormal.wav",50
Sample,16363,0,"normal-hitnormal.wav",50
Sample,16585,0,"normal-hitnormal.wav",50
Sample,16696,0,"normal-hitnormal.wav",50
Sample,16919,0,"normal-hitnormal.wav",50
Sample,17030,0,"normal-hitnormal.wav",50
Sample,26585,0,"F#5S_Gb5S.wav",40
Sample,32363,0,"LR4_RevCyCV5.wav",70
Sample,118067,0,"F7S.wav",70
Sample,121178,0,"A#6S_Bb6S.wav",70
Sample,121400,0,"G6S.wav",70
Sample,121586,0,"G#6S_Ab6S.wav",70
Sample,121660,0,"G6S.wav",70
Sample,121956,0,"C7S.wav",70
Sample,122030,0,"C#7S_Db7S.wav",70
Sample,122104,0,"C7S.wav",70
Sample,122178,0,"G#6S_Ab6S.wav",70
Sample,122289,0,"A#6S_Bb6S.wav",70

[TimingPoints]
808,222.222222222222,4,1,1,40,1,0
55030,413.793103448276,4,1,1,40,1,1
55030,-53.763440860215,4,1,1,40,0,1
81512,222.222222222222,4,1,1,40,1,0
97511,-100,4,1,1,40,0,1
122402,240.963855421687,4,1,1,15,1,0
122402,-92.5925925925926,4,1,1,15,0,0
122643,367.197062423501,4,1,1,15,1,0
122643,-60.6060606060606,4,1,1,15,0,0
123010,259.74025974026,4,1,1,15,1,0
123010,-85.4700854700855,4,1,1,15,0,0
123417,276.497695852535,4,1,1,15,1,0
123417,-80.6451612903226,4,1,1,15,0,0
123693,451.127819548872,4,1,1,15,1,0
123693,-49.2610837438424,4,1,1,15,0,0
124142,458.015267175573,4,1,1,15,1,0
124142,-48.5436893203883,4,1,1,15,0,0
124600,709.219858156028,4,1,1,15,1,0
124600,-31.3479623824451,4,1,1,15,0,0
125309,269.058295964126,4,1,1,15,1,0
125309,-82.6446280991736,4,1,1,15,0,0
125577,267.857142857143,4,1,1,15,1,0
125577,-82.6446280991736,4,1,1,15,0,0
125845,267.857142857143,4,1,1,15,1,0
125845,-82.6446280991736,4,1,1,15,0,0
126101,500,4,1,1,15,1,0
126101,-44.4444444444444,4,1,1,15,0,0

[HitObjects]
64,192,808,5,0,0:0:0:70:LR4_DrumRevBassImpact.wav
448,192,808,1,0,0:0:0:0:
320,192,808,1,0,0:0:0:0:
64,192,1696,1,0,0:0:0:40:LR_J Hit.wav
448,192,2141,1,0,0:0:0:40:LR_J Hit.wav
64,192,2530,1,0,0:0:0:40:LR_J Hit.wav
448,192,2863,1,0,0:0:0:40:LR_J Hit.wav
64,192,3141,1,0,0:0:0:40:LR_J Hit.wav
448,192,3363,1,0,0:0:0:40:LR_J Hit.wav
64,192,3530,1,0,0:0:0:40:LR_J Hit.wav
448,192,3696,1,0,0:0:0:40:LR_J Hit.wav
64,192,3807,1,0,0:0:0:40:LR_J Hit.wav
448,192,3919,1,0,0:0:0:40:LR_J Hit.wav
64,192,3993,1,0,0:0:0:40:LR_J Hit.wav
448,192,4067,1,0,0:0:0:40:LR_J Hit.wav
64,192,4141,1,0,0:0:0:40:LR_J Hit.wav
448,192,4196,1,0,0:0:0:40:LR_J Hit.wav
64,192,4252,1,0,0:0:0:40:LR_J Hit.wav
448,192,4307,1,0,0:0:0:40:LR_J Hit.wav
64,192,4363,1,0,0:0:0:40:LR_J Hit.wav
64,192,5252,1,0,0:0:0:40:LR_Drum Kick Low.wav
320,192,5252,1,0,0:0:0:40:LR_CymbalSSD.wav
448,192,5252,1,0,0:0:0:0:
192,192,5252,1,0,0:0:0:0:
192,192,5363,1,0,0:0:0:0:
64,192,5474,1,0,0:0:0:40:LR_Drum Kick Low.wav
448,192,5474,1,0,0:0:0:0:
320,192,5585,1,0,0:0:0:0:
64,192,5696,1,0,0:0:0:40:LR_Drum Kick Low.wav
192,192,5696,1,0,0:0:0:0:
320,192,5807,1,0,0:0:0:0:
64,192,5919,1,0,0:0:0:40:LR_Drum Kick Low.wav
448,192,5919,1,0,0:0:0:0:
192,192,6030,1,0,0:0:0:0:
64,192,6141,1,0,0:0:0:40:LR_Drum Kick Low.wav
320,192,6141,1,0,0:0:0:0:
448,192,6141,1,0,0:0:0:0:
320,192,6252,1,0,0:0:0:0:
64,192,6363,1,0,0:0:0:40:LR_Drum Kick Low.wav
448,192,6363,1,0,0:0:0:0:
192,192,6474,1,0,0:0:0:0:
320,192,6585,1,0,0:0:0:40:LR_Drum Kick Low.wav
448,192,6585,1,0,0:0:0:0:
192,192,6696,1,0,0:0:0:0:
64,192,6807,1,0,0:0:0:40:LR_Drum Kick Low.wav
448,192,6807,1,0,0:0:0:0:
320,192,6919,1,0,0:0:0:0:
64,192,7030,1,0,0:0:0:40:LR_Drum Kick Low.wav
192,192,7030,1,0,0:0:0:0:
448,192,7030,1,0,0:0:0:0:
192,192,7141,1,0,0:0:0:0:
64,192,7252,1,0,0:0:0:40:LR_Drum Kick Low.wav
448,192,7252,1,0,0:0:0:0:
320,192,7363,1,0,0:0:0:0:
64,192,7474,1,0,0:0:0:40:LR_Drum Kick Low.wav
192,192,7474,1,0,0:0:0:0:
320,192,7585,1,0,0:0:0:0:
64,192,7696,1,0,0:0:0:40:LR_Drum Kick Low.wav
448,192,7696,1,0,0:0:0:0:
192,192,7807,1,0,0:0:0:0:
64,192,7919,1,0,0:0:0:40:LR_Drum Kick Low.wav
320,192,7919,1,0,0:0:0:0:
448,192,7919,1,0,0:0:0:0:
320,192,8030,1,0,0:0:0:0:
64,192,8141,1,0,0:0:0:40:LR_Drum Kick Low.wav
448,192,8141,1,0,0:0:0:0:
192,192,8252,1,0,0:0:0:0:
320,192,8363,1,0,0:0:0:40:LR_Drum Kick Low.wav
448,192,8363,1,0,0:0:0:0:
192,192,8474,1,0,0:0:0:0:
64,192,8585,1,0,0:0:0:40:LR_Drum Kick Low.wav
448,192,8585,1,0,0:0:0:0:
320,192,8696,1,0,0:0:0:0:
64,192,8807,128,0,8919:0:0:0:40:LR_Drum Kick Low.wav
192,192,8807,1,0,0:0:0:70:D7S.wav
448,192,8807,1,0,0:0:0:0:
320,192,8919,128,0,9030:0:0:0:70:A7S.wav
192,192,9030,1,0,0:0:0:40:LR_Drum Kick Low.wav
448,192,9030,1,0,0:0:0:0:
64,192,9141,128,0,9252:0:0:0:70:D7S.wav
192,192,9252,128,0,9363:0:0:0:40:LR_Drum Kick Low.wav
448,192,9252,1,0,0:0:0:70:G7S.wav
320,192,9363,1,0,0:0:0:0:
64,192,9474,128,0,9585:0:0:0:40:LR_Drum Kick Low.wav
448,192,9474,1,0,0:0:0:70:D7S.wav
320,192,9585,128,0,9696:0:0:0:70:A7S.wav
64,192,9696,1,0,0:0:0:40:LR_Drum Kick Low.wav
192,192,9696,1,0,0:0:0:0:
448,192,9696,1,0,0:0:0:0:
64,192,9807,128,0,9919:0:0:0:70:D7S.wav
192,192,9919,1,0,0:0:0:40:LR_Drum Kick Low.wav
448,192,9919,128,0,10030:0:0:0:70:C8S.wav
320,192,10030,1,0,0:0:0:0:
64,192,10141,1,0,0:0:0:40:LR_Drum Kick Low.wav
192,192,10141,1,0,0:0:0:0:
448,192,10252,1,0,0:0:0:0:
64,192,10363,1,0,0:0:0:40:LR_Drum Kick Low.wav
192,192,10363,1,0,0:0:0:0:
320,192,10474,1,0,0:0:0:0:
448,192,10585,1,0,0:0:0:40:LR_Drum Kick Low.wav
64,192,10585,128,0,11252:0:0:0:0:
192,192,10585,1,0,0:0:0:0:
320,192,10696,1,0,0:0:0:0:
192,192,10807,1,0,0:0:0:40:LR_Drum Kick Low.wav
448,192,10807,1,0,0:0:0:0:
448,192,10919,1,0,0:0:0:0:
320,192,11030,1,0,0:0:0:40:LR_Drum Kick Low.wav
192,192,11030,1,0,0:0:0:0:
320,192,11141,1,0,0:0:0:0:
448,192,11252,1,0,0:0:0:40:LR_Drum Kick Low.wav
192,192,11252,1,0,0:0:0:0:
192,192,11363,1,0,0:0:0:0:
320,192,11474,1,0,0:0:0:30:LR4_DrumKickHat.wav
448,192,11474,1,0,0:0:0:0:
192,192,11530,1,0,0:0:0:30:LR4_DrumKickHat.wav
320,192,11585,1,0,0:0:0:30:LR4_DrumKickHat.wav
448,192,11585,1,0,0:0:0:0:
64,192,11641,1,0,0:0:0:30:LR4_DrumKickHat.wav
192,192,11696,1,0,0:0:0:30:LR4_DrumKickHat.wav
448,192,11696,1,0,0:0:0:0:
64,192,11807,1,0,0:0:0:30:LR4_DrumKickHat.wav
320,192,11807,1,0,0:0:0:0:
448,192,11863,1,0,0:0:0:30:LR4_DrumKickHat.wav
192,192,11919,1,0,0:0:0:30:LR4_DrumKickHat.wav
64,192,11919,1,0,0:0:0:0:
320,192,11974,1,0,0:0:0:30:LR4_DrumKickHat.wav
192,192,12030,1,0,0:0:0:30:LR4_DrumKickHat.wav
64,192,12030,1,0,0:0:0:0:
448,192,12085,1,0,0:0:0:30:LR4_DrumKickHat.wav
64,192,12141,1,0,0:0:0:30:LR4_DrumKickHat.wav
320,192,12141,1,0,0:0:0:0:
448,192,12252,1,0,0:0:0:0:
192,192,12252,1,0,0:0:0:0:
64,192,12363,1,0,0:0:0:40:LR_Drum Kick Low.wav
320,192,12363,1,0,0:0:0:40:LR_CymbalSSD.wav
448,192,12363,1,0,0:0:0:0:
192,192,12363,1,0,0:0:0:0:
320,192,12474,1,0,0:0:0:0:
64,192,12585,1,0,0:0:0:40:LR_Drum Kick Low.wav
448,192,12585,1,0,0:0:0:0:
192,192,12696,1,0,0:0:0:0:
320,192,12807,1,0,0:0:0:40:LR_Drum Kick Low.wav
448,192,12807,1,0,0:0:0:0:
192,192,12919,1,0,0:0:0:0:
64,192,13030,1,0,0:0:0:40:LR_Drum Kick Low.wav
448,192,13030,1,0,0:0:0:0:
320,192,13141,1,0,0:0:0:0:
64,192,13252,1,0,0:0:0:40:LR_Drum Kick Low.wav
192,192,13252,1,0,0:0:0:0:
448,192,13252,1,0,0:0:0:0:
192,192,13363,1,0,0:0:0:0:
64,192,13474,1,0,0:0:0:40:LR_Drum Kick Low.wav
448,192,13474,1,0,0:0:0:0:
320,192,13585,1,0,0:0:0:0:
64,192,13696,1,0,0:0:0:40:LR_Drum Kick Low.wav
192,192,13696,1,0,0:0:0:0:
320,192,13807,1,0,0:0:0:0:
64,192,13919,1,0,0:0:0:40:LR_Drum Kick Low.wav
448,192,13919,1,0,0:0:0:0:
192,192,14030,1,0,0:0:0:0:
64,192,14141,1,0,0:0:0:40:LR_Drum Kick Low.wav
320,192,14141,1,0,0:0:0:0:
448,192,14141,1,0,0:0:0:0:
320,192,14252,1,0,0:0:0:0:
64,192,14363,1,0,0:0:0:40:LR_Drum Kick Low.wav
448,192,14363,1,0,0:0:0:0:
192,192,14474,1,0,0:0:0:0:
320,192,14585,1,0,0:0:0:40:LR_Drum Kick Low.wav
448,192,14585,1,0,0:0:0:0:
192,192,14696,1,0,0:0:0:0:
64,192,14807,1,0,0:0:0:40:LR_Drum Kick Low.wav
448,192,14807,1,0,0:0:0:0:
320,192,14919,1,0,0:0:0:0:
64,192,15030,1,0,0:0:0:40:LR_Drum Kick Low.wav
192,192,15030,1,0,0:0:0:0:
448,192,15030,1,0,0:0:0:0:
192,192,15141,1,0,0:0:0:0:
64,192,15252,1,0,0:0:0:40:LR_Drum Kick Low.wav
448,192,15252,1,0,0:0:0:0:
320,192,15363,1,0,0:0:0:0:
64,192,15474,1,0,0:0:0:40:LR_Drum Kick Low.wav
192,192,15474,1,0,0:0:0:0:
320,192,15585,1,0,0:0:0:0:
64,192,15696,1,0,0:0:0:40:LR_Drum Kick Low.wav
448,192,15696,1,0,0:0:0:0:
192,192,15807,1,0,0:0:0:0:
64,192,15919,1,0,0:0:0:40:LR_Drum Kick Low.wav
320,192,15919,1,0,0:0:0:70:C7S.wav
448,192,15919,128,0,16030:0:0:0:0:
192,192,16030,128,0,16141:0:0:0:70:G7S.wav
64,192,16141,1,0,0:0:0:40:LR_Drum Kick Low.wav
320,192,16141,1,0,0:0:0:0:
448,192,16252,128,0,16363:0:0:0:70:C7S.wav
64,192,16363,1,0,0:0:0:40:LR_Drum Kick Low.wav
320,192,16363,128,0,16474:0:0:0:70:F7S.wav
192,192,16474,1,0,0:0:0:0:
448,192,16585,128,0,16696:0:0:0:40:LR_Drum Kick Low.wav
64,192,16585,1,0,0:0:0:70:C7S.wav
192,192,16696,128,0,16807:0:0:0:70:G7S.wav
64,192,16807,1,0,0:0:0:40:LR_Drum Kick Low.wav
448,192,16807,1,0,0:0:0:0:
320,192,16807,1,0,0:0:0:0:
448,192,16919,128,0,17030:0:0:0:70:C7S.wav
320,192,17030,1,0,0:0:0:40:LR_Drum Kick Low.wav
64,192,17030,128,0,17141:0:0:0:70:A#7S_Bb7S.wav
192,192,17141,1,0,0:0:0:0:
64,192,17252,1,0,0:0:0:40:LR_Drum Kick Low.wav
448,192,17252,1,0,0:0:0:0:
320,192,17363,1,0,0:0:0:0:
64,192,17474,1,0,0:0:0:40:LR_Drum Kick Low.wav
192,192,17474,1,0,0:0:0:0:
320,192,17585,1,0,0:0:0:0:
64,192,17696,1,0,0:0:0:30:LR4_DrumKickHat.wav
192,192,17696,1,0,0:0:0:0:
448,192,17696,1,0,0:0:0:0:
320,192,17807,1,0,0:0:0:30:LR4_DrumKickHat.wav
448,192,17807,1,0,0:0:0:0:
64,192,17863,1,0,0:0:0:30:LR4_DrumKickHat.wav
448,192,17919,1,0,0:0:0:30:LR4_DrumKickHat.wav
320,192,17919,1,0,0:0:0:0:
192,192,17974,1,0,0:0:0:30:LR4_DrumKickHat.wav
448,192,18030,1,0,0:0:0:30:LR4_DrumKickHat.wav
64,192,18030,1,0,0:0:0:0:
320,192,18085,1,0,0:0:0:30:LR4_DrumKickHat.wav
192,192,18141,1,0,0:0:0:30:LR4_DrumKickHat.wav
64,192,18141,1,0,0:0:0:0:
320,192,18252,1,0,0:0:0:30:LR4_DrumKickHat.wav
448,192,18252,1,0,0:0:0:0:
64,192,18307,1,0,0:0:0:30:LR4_DrumKickHat.wav
320,192,18363,1,0,0:0:0:30:LR4_DrumKickHat.wav
448,192,18363,1,0,0:0:0:0:
192,192,18419,1,0,0:0:0:30:LR4_DrumKickHat.wav
64,192,18474,1,0,0:0:0:30:LR4_DrumKickHat.wav
448,192,18474,1,0,0:0:0:0:
320,192,18530,1,0,0:0:0:30:LR4_DrumKickHat.wav
192,192,18585,1,0,0:0:0:30:LR4_DrumKickHat.wav
64,192,18585,1,0,0:0:0:0:
448,192,18641,1,0,0:0:0:30:LR4_DrumKickHat.wav
192,192,18696,1,0,0:0:0:30:LR4_DrumKickHat.wav
64,192,18696,1,0,0:0:0:0:
320,192,18752,1,0,0:0:0:30:LR4_DrumKickHat.wav
448,192,18807,1,0,0:0:0:30:LR4_DrumKickHat.wav
64,192,18807,1,0,0:0:0:0:
192,192,18863,1,0,0:0:0:30:LR4_DrumKickHat.wav
320,192,18919,1,0,0:0:0:30:LR4_DrumKickHat.wav
448,192,18919,1,0,0:0:0:0:
64,192,18974,1,0,0:0:0:30:LR4_DrumKickHat.wav
448,192,19030,1,0,0:0:0:30:LR4_DrumKickHat.wav
320,192,19057,1,0,0:0:0:30:LR4_DrumKickHat.wav
192,192,19085,1,0,0:0:0:30:LR4_DrumKickHat.wav
64,192,19113,1,0,0:0:0:30:LR4_DrumKickHat.wav
448,192,19141,1,0,0:0:0:30:LR4_DrumKickHat.wav
320,192,19169,1,0,0:0:0:30:LR4_DrumKickHat.wav
64,192,19196,1,0,0:0:0:30:LR4_DrumKickHat.wav
192,192,19224,1,0,0:0:0:30:LR4_DrumKickHat.wav
320,192,19252,1,0,0:0:0:30:LR4_DrumKickHat.wav
448,192,19280,1,0,0:0:0:30:LR4_DrumKickHat.wav
64,192,19307,1,0,0:0:0:30:LR4_DrumKickHat.wav
192,192,19335,1,0,0:0:0:30:LR4_DrumKickHat.wav
448,192,19363,1,0,0:0:0:30:LR4_DrumKickHat.wav
320,192,19391,1,0,0:0:0:30:LR4_DrumKickHat.wav
192,192,19419,1,0,0:0:0:30:LR4_DrumKickHat.wav
64,192,19446,1,0,0:0:0:30:LR4_DrumKickHat.wav
320,192,19474,1,0,0:0:0:40:LR_CymbalSSD.wav
448,192,19474,1,0,0:0:0:0:
192,192,19585,1,0,0:0:0:0:
64,192,19696,1,0,0:0:0:0:
320,192,19807,1,0,0:0:0:0:
64,192,19919,1,0,0:0:0:40:LR4_KickTBCD.wav
192,192,19919,1,0,0:0:0:0:
448,192,19919,1,0,0:0:0:0:
320,192,20030,1,0,0:0:0:0:
192,192,20141,1,0,0:0:0:0:
448,192,20252,1,0,0:0:0:40:LR4_KickTBCD.wav
320,192,20252,1,0,0:0:0:0:
192,192,20307,1,0,0:0:0:40:LR4_KickTBCD.wav
64,192,20307,1,0,0:0:0:0:
448,192,20363,1,0,0:0:0:40:LR4_KickTBCD.wav
320,192,20363,1,0,0:0:0:0:
448,192,20474,1,0,0:0:0:0:
64,192,20474,1,0,0:0:0:40:LR4_KickTBCD.wav
192,192,20474,1,0,0:0:0:0:
320,192,20585,1,0,0:0:0:0:
64,192,20696,1,0,0:0:0:0:
448,192,20807,1,0,0:0:0:0:
192,192,20919,1,0,0:0:0:0:
64,192,21030,1,0,0:0:0:40:LR4_KickTBCD.wav
320,192,21030,1,0,0:0:0:0:
448,192,21030,1,0,0:0:0:0:
192,192,21252,1,0,0:0:0:0:
64,192,21363,1,0,0:0:0:0:
320,192,21474,1,0,0:0:0:40:LR4_KickTBCD.wav
448,192,21474,1,0,0:0:0:0:
192,192,21585,1,0,0:0:0:0:
320,192,21641,1,0,0:0:0:0:
64,192,21696,1,0,0:0:0:40:LR4_KickTBCD.wav
192,192,21696,1,0,0:0:0:0:
448,192,21696,1,0,0:0:0:0:
192,192,21919,1,0,0:0:0:0:
320,192,22030,1,0,0:0:0:40:LR4_KickTBCD.wav
448,192,22030,1,0,0:0:0:0:
192,192,22141,1,0,0:0:0:0:
64,192,22141,1,0,0:0:0:40:LR4_KickTBCD.wav
320,192,22252,1,0,0:0:0:0:
448,192,22252,1,0,0:0:0:0:
64,192,22252,1,0,0:0:0:40:LR4_KickTBCD.wav
192,192,22363,1,0,0:0:0:0:
448,192,22474,1,0,0:0:0:0:
64,192,22585,1,0,0:0:0:40:LR4_KickTBCD.wav
192,192,22585,1,0,0:0:0:0:
320,192,22696,1,0,0:0:0:0:
192,192,22807,1,0,0:0:0:0:
64,192,22807,1,0,0:0:0:40:LR4_KickTBCD.wav
320,192,22919,1,0,0:0:0:40:LR4_KickTBCD.wav
448,192,22919,1,0,0:0:0:0:
64,192,22974,1,0,0:0:0:0:
192,192,22974,1,0,0:0:0:40:LR4_KickTBCD.wav
448,192,23030,1,0,0:0:0:0:
320,192,23030,1,0,0:0:0:40:LR4_KickTBCD.wav
192,192,23141,1,0,0:0:0:0:
64,192,23252,1,0,0:0:0:0:
320,192,23363,1,0,0:0:0:0:
64,192,23474,1,0,0:0:0:40:LR4_KickTBCD.wav
192,192,23474,1,0,0:0:0:0:
448,192,23474,1,0,0:0:0:0:
320,192,23585,1,0,0:0:0:0:
192,192,23696,1,0,0:0:0:0:
320,192,23807,1,0,0:0:0:40:LR4_KickTBCD.wav
448,192,23807,1,0,0:0:0:0:
64,192,23863,1,0,0:0:0:40:LR4_KickTBCD.wav
192,192,23863,1,0,0:0:0:0:
320,192,23919,1,0,0:0:0:40:LR4_KickTBCD.wav
448,192,23919,1,0,0:0:0:0:
64,192,24030,1,0,0:0:0:40:LR4_KickTBCD.wav
192,192,24030,1,0,0:0:0:0:
448,192,24030,1,0,0:0:0:0:
320,192,24141,1,0,0:0:0:0:
192,192,24252,1,0,0:0:0:0:
64,192,24363,1,0,0:0:0:40:LR4_KickTBCD.wav
448,192,24363,1,0,0:0:0:0:
320,192,24474,1,0,0:0:0:0:
64,192,24585,1,0,0:0:0:40:LR4_KickTBCD.wav
192,192,24585,1,0,0:0:0:0:
192,192,24696,1,0,0:0:0:0:
64,192,24696,1,0,0:0:0:40:LR4_KickTBCD.wav
448,192,24807,128,0,25696:0:0:0:0:
64,192,25696,128,0,26585:0:0:0:0:
320,192,26585,1,0,0:0:0:70:A6S.wav
448,192,26585,1,0,0:0:0:40:LR_CymbalSSD.wav
192,192,26696,1,0,0:0:0:70:C#6S_Db6S.wav
64,192,26807,1,0,0:0:0:40:F#6S_Gb6S.wav
320,192,26919,1,0,0:0:0:70:G#6S_Ab6S.wav
448,192,26919,1,0,0:0:0:40:B5S.wav
192,192,27030,1,0,0:0:0:40:C#6S_Db6S.wav
64,192,27141,1,0,0:0:0:70:F#6S_Gb6S.wav
448,192,27141,1,0,0:0:0:40:F#6S_Gb6S.wav
320,192,27252,1,0,0:0:0:40:B5S.wav
192,192,27363,1,0,0:0:0:40:C#6S_Db6S.wav
320,192,27456,1,0,0:0:0:70:G#6S_Ab6S.wav
64,192,27474,1,0,0:0:0:70:A6S.wav
448,192,27474,1,0,0:0:0:40:F#5S_Gb5S.wav
320,192,27585,1,0,0:0:0:70:C#6S_Db6S.wav
192,192,27696,1,0,0:0:0:40:F#6S_Gb6S.wav
64,192,27807,1,0,0:0:0:70:G#6S_Ab6S.wav
448,192,27807,1,0,0:0:0:40:B5S.wav
320,192,27919,1,0,0:0:0:40:C#6S_Db6S.wav
64,192,28030,1,0,0:0:0:70:F#6S_Gb6S.wav
192,192,28030,1,0,0:0:0:40:F#6S_Gb6S.wav
448,192,28141,1,0,0:0:0:40:B5S.wav
192,192,28252,1,0,0:0:0:70:A6S.wav
320,192,28252,1,0,0:0:0:40:C#6S_Db6S.wav
64,192,28363,1,0,0:0:0:70:G#6S_Ab6S.wav
448,192,28363,1,0,0:0:0:40:E5S.wav
320,192,28474,1,0,0:0:0:40:B5S.wav
192,192,28585,1,0,0:0:0:40:E6S.wav
64,192,28696,1,0,0:0:0:70:F#6S_Gb6S.wav
448,192,28696,1,0,0:0:0:40:C#6S_Db6S.wav
320,192,28807,1,0,0:0:0:40:B5S.wav
64,192,28919,1,0,0:0:0:70:E6S.wav
192,192,28919,1,0,0:0:0:40:C#6S_Db6S.wav
448,192,29030,1,0,0:0:0:40:B5S.wav
320,192,29141,1,0,0:0:0:40:C#6S_Db6S.wav
64,192,29252,1,0,0:0:0:70:B5S.wav
192,192,29252,1,0,0:0:0:40:E5S.wav
320,192,29363,1,0,0:0:0:70:C#6S_Db6S.wav
448,192,29474,1,0,0:0:0:70:E6S.wav
64,192,29585,1,0,0:0:0:70:F#6S_Gb6S.wav
192,192,29585,1,0,0:0:0:40:B5S.wav
320,192,29696,1,0,0:0:0:40:C#6S_Db6S.wav
64,192,29807,1,0,0:0:0:70:E6S.wav
448,192,29807,1,0,0:0:0:0:
192,192,29919,1,0,0:0:0:40:B5S.wav
320,192,30030,1,0,0:0:0:70:A6S.wav
448,192,30030,1,0,0:0:0:40:C#6S_Db6S.wav
192,192,30122,1,0,0:0:0:70:C7S.wav
64,192,30141,1,0,0:0:0:70:C#7S_Db7S.wav
448,192,30141,1,0,0:0:0:40:D5S.wav
320,192,30252,1,0,0:0:0:40:C#6S_Db6S.wav
192,192,30363,1,0,0:0:0:40:D6S.wav
64,192,30474,1,0,0:0:0:70:B6S.wav
448,192,30474,1,0,0:0:0:40:B5S.wav
320,192,30585,1,0,0:0:0:40:C#6S_Db6S.wav
64,192,30696,1,0,0:0:0:70:A6S.wav
192,192,30696,1,0,0:0:0:40:D6S.wav
448,192,30807,1,0,0:0:0:40:B5S.wav
320,192,30919,1,0,0:0:0:40:C#6S_Db6S.wav
64,192,31030,1,0,0:0:0:70:C#7S_Db7S.wav
192,192,31030,1,0,0:0:0:40:D5S.wav
320,192,31141,1,0,0:0:0:40:C#6S_Db6S.wav
64,192,31252,1,0,0:0:0:70:D7S.wav
448,192,31252,1,0,0:0:0:40:D6S.wav
192,192,31363,1,0,0:0:0:70:B6S.wav
320,192,31363,1,0,0:0:0:40:B5S.wav
64,192,31474,1,0,0:0:0:40:C#6S_Db6S.wav
192,192,31585,1,0,0:0:0:70:A6S.wav
448,192,31585,1,0,0:0:0:40:D6S.wav
320,192,31696,1,0,0:0:0:40:B5S.wav
64,192,31807,1,0,0:0:0:70:F#6S_Gb6S.wav
192,192,31807,1,0,0:0:0:40:C#6S_Db6S.wav
320,192,31919,1,0,0:0:0:70:A6S.wav
448,192,31919,1,0,0:0:0:40:E5S.wav
192,192,32030,1,0,0:0:0:40:D6S.wav
320,192,32141,1,0,0:0:0:40:E6S.wav
64,192,32252,1,0,0:0:0:70:A6S.wav
448,192,32252,1,0,0:0:0:40:D6S.wav
192,192,32363,1,0,0:0:0:40:B5S.wav
320,192,32456,1,0,0:0:0:70:A#6S_Bb6S.wav
64,192,32474,1,0,0:0:0:70:B6S.wav
448,192,32474,1,0,0:0:0:40:E6S.wav
192,192,32585,1,0,0:0:0:40:B5S.wav
320,192,32696,1,0,0:0:0:40:E6S.wav
192,192,32770,1,0,0:0:0:70:D7S.wav
448,192,32807,1,0,0:0:0:70:E7S.wav
320,192,32807,1,0,0:0:0:40:E5S.wav
64,192,32807,128,0,33585:0:0:0:0:
64,192,33696,1,0,0:0:0:40:LR_Drum Kick Low.wav
192,192,33696,1,0,0:0:0:40:LR_CymbalSSD.wav
320,192,33696,1,0,0:0:0:0:
448,192,33696,128,0,33807:0:0:0:70:C6S.wav
64,192,33919,1,0,0:0:0:60:LR4_SnareDropDwS.wav
192,192,33919,1,0,0:0:0:0:
448,192,33919,1,0,0:0:0:0:
320,192,34030,128,0,34141:0:0:0:70:B5S.wav
64,192,34141,1,0,0:0:0:40:LR_Drum Kick Low.wav
448,192,34141,1,0,0:0:0:0:
192,192,34252,128,0,34363:0:0:0:70:A5S.wav
64,192,34363,1,0,0:0:0:60:LR4_SnareDropDwS.wav
320,192,34363,1,0,0:0:0:0:
448,192,34363,1,0,0:0:0:0:
64,192,34585,1,0,0:0:0:40:LR_Drum Kick Low.wav
320,192,34585,1,0,0:0:0:0:
448,192,34585,128,0,34696:0:0:0:70:C6S.wav
64,192,34807,1,0,0:0:0:60:LR4_SnareDropDwS.wav
192,192,34807,1,0,0:0:0:0:
448,192,34807,1,0,0:0:0:0:
320,192,34919,128,0,35030:0:0:0:70:B5S.wav
64,192,35030,1,0,0:0:0:40:LR_Drum Kick Low.wav
448,192,35030,1,0,0:0:0:0:
192,192,35141,128,0,35252:0:0:0:70:A5S.wav
320,192,35252,1,0,0:0:0:60:LR4_SnareDropDwS.wav
64,192,35252,1,0,0:0:0:0:
448,192,35252,1,0,0:0:0:0:
448,192,35363,128,0,35474:0:0:0:70:C6S.wav
64,192,35474,1,0,0:0:0:40:LR_Drum Kick Low.wav
192,192,35474,1,0,0:0:0:0:
320,192,35474,128,0,35585:0:0:0:70:B5S.wav
64,192,35696,1,0,0:0:0:60:LR4_SnareDropDwS.wav
320,192,35696,1,0,0:0:0:0:
448,192,35696,1,0,0:0:0:0:
192,192,35807,128,0,35919:0:0:0:70:A5S.wav
320,192,35919,1,0,0:0:0:40:LR_Drum Kick Low.wav
448,192,35919,1,0,0:0:0:0:
64,192,36030,128,0,36141:0:0:0:70:G5S.wav
320,192,36141,1,0,0:0:0:60:LR4_SnareDropDwS.wav
192,192,36141,1,0,0:0:0:0:
448,192,36141,1,0,0:0:0:0:
320,192,36363,1,0,0:0:0:40:LR_Drum Kick Low.wav
448,192,36363,1,0,0:0:0:0:
64,192,36363,128,0,36474:0:0:0:70:B4S.wav
192,192,36474,128,0,36585:0:0:0:70:E5S.wav
64,192,36585,1,0,0:0:0:60:LR4_SnareDropDwS.wav
320,192,36585,128,0,36696:0:0:0:70:G5S.wav
448,192,36585,1,0,0:0:0:0:
448,192,36696,128,0,36807:0:0:0:70:A5S.wav
64,192,36807,1,0,0:0:0:40:LR_Drum Kick Low.wav
192,192,36807,1,0,0:0:0:0:
320,192,36807,1,0,0:0:0:0:
192,192,36919,1,0,0:0:0:60:LR4_SnareDropDwS.wav
320,192,36919,128,0,37030:0:0:0:70:G5S.wav
448,192,37030,1,0,0:0:0:40:LR_Drum Kick Low.wav
64,192,37030,1,0,0:0:0:0:
192,192,37030,1,0,0:0:0:0:
64,192,37141,128,0,37252:0:0:0:70:C6S.wav
320,192,37141,1,0,0:0:0:60:LR4_SnareDropDwS.wav
192,192,37252,1,0,0:0:0:40:LR_Drum Kick Low.wav
448,192,37252,1,0,0:0:0:0:
320,192,37252,128,0,37363:0:0:0:70:E6S.wav
64,192,37474,1,0,0:0:0:60:LR4_SnareDropDwS.wav
320,192,37474,1,0,0:0:0:0:
448,192,37474,1,0,0:0:0:0:
192,192,37585,128,0,37696:0:0:0:70:D6S.wav
320,192,37696,1,0,0:0:0:40:LR_Drum Kick Low.wav
448,192,37696,1,0,0:0:0:0:
64,192,37807,128,0,37919:0:0:0:70:C6S.wav
320,192,37919,1,0,0:0:0:60:LR4_SnareDropDwS.wav
192,192,37919,1,0,0:0:0:0:
448,192,37919,1,0,0:0:0:0:
64,192,38141,1,0,0:0:0:40:LR_Drum Kick Low.wav
448,192,38141,1,0,0:0:0:0:
320,192,38141,128,0,38252:0:0:0:70:E6S.wav
64,192,38363,1,0,0:0:0:60:LR4_SnareDropDwS.wav
320,192,38363,1,0,0:0:0:0:
448,192,38363,128,0,38474:0:0:0:70:F6S.wav
192,192,38474,128,0,38585:0:0:0:70:D6S.wav
320,192,38585,1,0,0:0:0:40:LR_Drum Kick Low.wav
448,192,38585,1,0,0:0:0:0:
64,192,38696,128,0,38807:0:0:0:70:C6S.wav
192,192,38807,1,0,0:0:0:60:LR4_SnareDropDwS.wav
320,192,38807,1,0,0:0:0:0:
448,192,38807,1,0,0:0:0:0:
64,192,39030,1,0,0:0:0:40:LR_Drum Kick Low.wav
192,192,39030,1,0,0:0:0:70:C6S.wav
320,192,39141,1,0,0:0:0:40:LR4_DrumKickHat.wav
448,192,39141,1,0,0:0:0:0:
192,192,39196,1,0,0:0:0:40:LR4_DrumKickHat.wav
64,192,39252,1,0,0:0:0:40:LR4_DrumKickHat.wav
448,192,39252,1,0,0:0:0:0:
192,192,39363,1,0,0:0:0:40:LR4_DrumKickHat.wav
320,192,39363,1,0,0:0:0:70:C6S.wav
64,192,39474,1,0,0:0:0:40:LR4_DrumKickHat.wav
192,192,39474,1,0,0:0:0:0:
448,192,39585,1,0,0:0:0:40:LR4_DrumKickHat.wav
320,192,39585,1,0,0:0:0:70:D6S.wav
64,192,39696,1,0,0:0:0:40:LR4_DrumKickHat.wav
192,192,39696,1,0,0:0:0:0:
64,192,39770,1,0,0:0:0:40:LR4_DrumKickHat.wav
192,192,39770,1,0,0:0:0:0:
320,192,39845,1,0,0:0:0:40:LR4_DrumKickHat.wav
448,192,39845,1,0,0:0:0:0:
320,192,39919,1,0,0:0:0:40:LR4_DrumKickHat.wav
448,192,39919,1,0,0:0:0:70:B5S.wav
64,192,40030,1,0,0:0:0:40:LR4_DrumKickHat.wav
192,192,40030,1,0,0:0:0:0:
320,192,40141,1,0,0:0:0:40:LR4_DrumKickHat.wav
448,192,40141,1,0,0:0:0:0:
192,192,40252,1,0,0:0:0:40:LR4_DrumKickHat.wav
320,192,40252,1,0,0:0:0:70:C6S.wav
64,192,40363,1,0,0:0:0:40:LR4_DrumKickHat.wav
192,192,40363,1,0,0:0:0:0:
320,192,40474,1,0,0:0:0:40:LR4_DrumKickHat.wav
448,192,40474,1,0,0:0:0:70:B5S.wav
64,192,40585,1,0,0:0:0:40:LR4_DrumKickHat.wav
192,192,40585,1,0,0:0:0:0:
192,192,40696,1,0,0:0:0:40:LR4_DrumKickHat.wav
320,192,40696,1,0,0:0:0:70:C6S.wav
64,192,40807,1,0,0:0:0:40:LR4_DrumKickHat.wav
320,192,40807,1,0,0:0:0:40:LR_CymbalSSD.wav
448,192,40807,1,0,0:0:0:0:
192,192,40919,1,0,0:0:0:0:
448,192,41030,1,0,0:0:0:0:
320,192,41030,1,0,0:0:0:0:
192,192,41141,1,0,0:0:0:0:
64,192,41252,1,0,0:0:0:70:E5S.wav
448,192,41252,1,0,0:0:0:0:
192,192,41326,1,0,0:0:0:70:A5S.wav
320,192,41400,1,0,0:0:0:70:B5S.wav
64,192,41474,1,0,0:0:0:70:E6S.wav
192,192,41474,1,0,0:0:0:0:
320,192,41548,1,0,0:0:0:70:A6S.wav
448,192,41622,1,0,0:0:0:70:B6S.wav
64,192,41696,1,0,0:0:0:70:E7S.wav
192,192,41696,1,0,0:0:0:0:
320,192,41807,1,0,0:0:0:0:
448,192,41919,1,0,0:0:0:0:
64,192,41919,1,0,0:0:0:0:
192,192,42030,1,0,0:0:0:0:
320,192,42030,1,0,0:0:0:0:
64,192,42141,1,0,0:0:0:0:
320,192,42141,1,0,0:0:0:0:
448,192,42141,1,0,0:0:0:0:
192,192,42252,1,0,0:0:0:0:
448,192,42252,1,0,0:0:0:0:
320,192,42363,1,0,0:0:0:0:
192,192,42474,1,0,0:0:0:0:
64,192,42474,1,0,0:0:0:0:
448,192,42530,1,0,0:0:0:0:
320,192,42530,1,0,0:0:0:0:
192,192,42585,1,0,0:0:0:0:
64,192,42585,1,0,0:0:0:0:
320,192,42696,1,0,0:0:0:0:
192,192,42807,1,0,0:0:0:0:
320,192,42919,1,0,0:0:0:0:
448,192,42919,1,0,0:0:0:0:
64,192,42974,1,0,0:0:0:0:
192,192,42974,1,0,0:0:0:0:
320,192,43030,1,0,0:0:0:70:A5S.wav
448,192,43030,1,0,0:0:0:0:
64,192,43104,1,0,0:0:0:70:B5S.wav
192,192,43178,1,0,0:0:0:70:E6S.wav
320,192,43252,1,0,0:0:0:70:A6S.wav
448,192,43252,1,0,0:0:0:0:
192,192,43326,1,0,0:0:0:70:B6S.wav
320,192,43400,1,0,0:0:0:70:E7S.wav
448,192,43474,1,0,0:0:0:0:
64,192,43474,1,0,0:0:0:0:
192,192,43585,1,0,0:0:0:0:
448,192,43696,1,0,0:0:0:0:
320,192,43696,1,0,0:0:0:0:
64,192,43807,1,0,0:0:0:0:
192,192,43807,1,0,0:0:0:0:
64,192,43919,1,0,0:0:0:0:
320,192,43919,1,0,0:0:0:0:
448,192,43919,1,0,0:0:0:0:
192,192,44030,1,0,0:0:0:0:
320,192,44030,1,0,0:0:0:0:
448,192,44141,128,0,44252:0:0:0:0:
320,192,44252,128,0,44363:0:0:0:0:
64,192,44363,1,0,0:0:0:40:LR_Drum Kick Low.wav
192,192,44363,1,0,0:0:0:40:LR_CymbalSSD.wav
448,192,44363,1,0,0:0:0:0:
64,192,44585,1,0,0:0:0:60:LR4_SnareDropDwS.wav
320,192,44585,1,0,0:0:0:70:E6S.wav
448,192,44585,1,0,0:0:0:0:
64,192,44807,1,0,0:0:0:40:LR_Drum Kick Low.wav
192,192,44807,1,0,0:0:0:0:
320,192,44919,1,0,0:0:0:70:D6S.wav
64,192,45030,1,0,0:0:0:60:LR4_SnareDropDwS.wav
192,192,45030,1,0,0:0:0:70:C6S.wav
448,192,45030,1,0,0:0:0:0:
320,192,45141,1,0,0:0:0:70:B5S.wav
64,192,45252,1,0,0:0:0:40:LR_Drum Kick Low.wav
448,192,45252,1,0,0:0:0:70:B5S.wav
192,192,45326,1,0,0:0:0:70:C6S.wav
320,192,45400,1,0,0:0:0:70:B5S.wav
64,192,45474,1,0,0:0:0:60:LR4_SnareDropDwS.wav
192,192,45474,1,0,0:0:0:70:G5S.wav
448,192,45474,1,0,0:0:0:0:
320,192,45585,1,0,0:0:0:70:E5S.wav
64,192,45696,1,0,0:0:0:40:LR_Drum Kick Low.wav
192,192,45696,1,0,0:0:0:0:
192,192,45807,1,0,0:0:0:60:LR4_SnareDropDwS.wav
320,192,45807,1,0,0:0:0:70:A5S.wav
448,192,45807,1,0,0:0:0:0:
64,192,45919,1,0,0:0:0:40:LR_Drum Kick Low.wav
320,192,45919,1,0,0:0:0:70:C6S.wav
64,192,46030,1,0,0:0:0:60:LR4_SnareDropDwS.wav
192,192,46030,1,0,0:0:0:70:G6S.wav
448,192,46030,1,0,0:0:0:0:
448,192,46141,1,0,0:0:0:40:LR_Drum Kick Low.wav
320,192,46141,1,0,0:0:0:0:
64,192,46363,1,0,0:0:0:60:LR4_SnareDropDwS.wav
192,192,46363,1,0,0:0:0:70:E6S.wav
448,192,46363,1,0,0:0:0:0:
320,192,46585,1,0,0:0:0:40:LR_Drum Kick Low.wav
448,192,46585,1,0,0:0:0:0:
192,192,46696,1,0,0:0:0:70:D6S.wav
64,192,46807,1,0,0:0:0:60:LR4_SnareDropDwS.wav
320,192,46807,1,0,0:0:0:70:C6S.wav
448,192,46807,1,0,0:0:0:0:
192,192,46919,1,0,0:0:0:70:B5S.wav
64,192,47030,1,0,0:0:0:40:LR_Drum Kick Low.wav
320,192,47030,1,0,0:0:0:70:B5S.wav
448,192,47104,1,0,0:0:0:70:C6S.wav
64,192,47141,1,0,0:0:0:40:LR_Drum Kick Low.wav
192,192,47141,1,0,0:0:0:0:
320,192,47178,1,0,0:0:0:70:B5S.wav
448,192,47252,1,0,0:0:0:70:G5S.wav
64,192,47363,1,0,0:0:0:40:LR_Drum Kick Low.wav
320,192,47363,1,0,0:0:0:70:A5S.wav
64,192,47474,1,0,0:0:0:60:LR4_SnareDropDwS.wav
192,192,47474,1,0,0:0:0:70:E5S.wav
448,192,47474,1,0,0:0:0:0:
320,192,47548,1,0,0:0:0:70:F5S.wav
192,192,47622,1,0,0:0:0:70:E5S.wav
64,192,47696,1,0,0:0:0:40:LR_Drum Kick Low.wav
448,192,47696,1,0,0:0:0:70:C5S.wav
320,192,47807,1,0,0:0:0:70:D5S.wav
64,192,47919,1,0,0:0:0:60:LR4_SnareDropDwS.wav
192,192,47919,1,0,0:0:0:40:LR_CymbalSSD.wav
448,192,47919,1,0,0:0:0:0:
320,192,48030,1,0,0:0:0:0:
192,192,48141,1,0,0:0:0:0:
64,192,48141,1,0,0:0:0:0:
320,192,48252,1,0,0:0:0:0:
64,192,48363,1,0,0:0:0:70:E5S.wav
448,192,48363,1,0,0:0:0:0:
192,192,48437,1,0,0:0:0:70:A5S.wav
320,192,48511,1,0,0:0:0:70:B5S.wav
64,192,48585,1,0,0:0:0:70:E6S.wav
448,192,48585,1,0,0:0:0:0:
192,192,48659,1,0,0:0:0:70:A6S.wav
320,192,48733,1,0,0:0:0:70:B6S.wav
64,192,48807,1,0,0:0:0:70:E7S.wav
448,192,48807,1,0,0:0:0:0:
192,192,48919,1,0,0:0:0:0:
448,192,49030,1,0,0:0:0:40:LR4_KickTBCD.wav
320,192,49030,128,0,49252:0:0:0:0:
64,192,49141,1,0,0:0:0:40:LR4_KickTBCD.wav
192,192,49252,128,0,49474:0:0:0:40:LR4_KickTBCD.wav
448,192,49252,1,0,0:0:0:0:
320,192,49363,1,0,0:0:0:0:
64,192,49474,128,0,49696:0:0:0:0:
448,192,49474,1,0,0:0:0:0:
320,192,49585,1,0,0:0:0:40:LR4_KickTBCD.wav
448,192,49641,1,0,0:0:0:40:LR4_KickTBCD.wav
192,192,49696,128,0,50141:0:0:0:40:LR4_KickTBCD.wav
320,192,49696,1,0,0:0:0:0:
64,192,49807,1,0,0:0:0:0:
320,192,49919,1,0,0:0:0:0:
64,192,50030,1,0,0:0:0:40:LR4_KickTBCD.wav
320,192,50141,128,0,50585:0:0:0:0:
448,192,50141,1,0,0:0:0:0:
192,192,50215,1,0,0:0:0:70:E5S.wav
64,192,50289,1,0,0:0:0:70:A5S.wav
448,192,50363,1,0,0:0:0:70:B5S.wav
192,192,50437,1,0,0:0:0:70:E6S.wav
64,192,50511,1,0,0:0:0:70:A6S.wav
192,192,50585,128,0,51030:0:0:0:0:
448,192,50585,1,0,0:0:0:0:
320,192,50696,1,0,0:0:0:0:
64,192,50807,1,0,0:0:0:40:LR4_KickTBCD.wav
448,192,50807,1,0,0:0:0:0:
320,192,50919,1,0,0:0:0:0:
64,192,51030,128,0,51474:0:0:0:40:LR4_KickTBCD.wav
448,192,51030,1,0,0:0:0:0:
192,192,51141,1,0,0:0:0:0:
448,192,51252,1,0,0:0:0:0:
192,192,51363,1,0,0:0:0:0:
320,192,51474,1,0,0:0:0:40:D5S.wav
448,192,51474,128,0,53252:0:0:0:70:A#4S_Bb4S.wav
192,192,51585,1,0,0:0:0:70:F4S.wav
64,192,51696,1,0,0:0:0:40:C5S.wav
320,192,51807,1,0,0:0:0:40:D5S.wav
64,192,51919,1,0,0:0:0:40:A#4S_Bb4S.wav
192,192,52030,1,0,0:0:0:70:E5S.wav
320,192,52141,1,0,0:0:0:40:A5S.wav
64,192,52252,1,0,0:0:0:40:A#5S_Bb5S.wav
320,192,52363,1,0,0:0:0:40:A5S.wav
192,192,52474,1,0,0:0:0:40:A#5S_Bb5S.wav
64,192,52585,1,0,0:0:0:40:D6S.wav
320,192,52696,1,0,0:0:0:40:E6S.wav
64,192,52807,1,0,0:0:0:40:D6S.wav
192,192,52919,1,0,0:0:0:40:E6S.wav
320,192,53030,1,0,0:0:0:40:A6S.wav
64,192,53141,1,0,0:0:0:40:A#6S_Bb6S.wav
192,192,53252,1,0,0:0:0:40:A6S.wav
320,192,53326,1,0,0:0:0:40:A#6S_Bb6S.wav
448,192,53400,1,0,0:0:0:40:D7S.wav
64,192,53474,1,0,0:0:0:40:E7S.wav
192,192,53548,1,0,0:0:0:40:F7S.wav
320,192,53622,1,0,0:0:0:40:A7S.wav
64,192,53696,1,0,0:0:0:40:E7S.wav
192,192,53770,1,0,0:0:0:40:F7S.wav
320,192,53845,1,0,0:0:0:40:A7S.wav
192,192,53919,1,0,0:0:0:40:A#7S_Bb7S.wav
320,192,53993,1,0,0:0:0:40:D8S.wav
448,192,54067,1,0,0:0:0:40:E8S.wav
64,192,54104,128,0,54919:0:0:0:40:LR_DS - Snare Wet High.wav
192,192,54104,128,0,54919:0:0:0:40:LR_CymbalSSD.wav
448,192,54585,128,0,54919:0:0:0:0:
64,192,55030,128,0,55236:0:0:0:40:LR_Drum Kick Low.wav
192,192,55030,1,0,0:0:0:40:LR_CymbalSSD.wav
448,192,55030,128,0,55236:0:0:0:0:
192,192,55443,128,0,55857:0:0:0:40:LR_Clap_Fast_Low.wav
448,192,55443,128,0,55650:0:0:0:0:
64,192,55650,1,0,0:0:0:0:
320,192,55650,1,0,0:0:0:0:
64,192,55857,1,0,0:0:0:40:LR_DS - Snare Wet High.wav
320,192,55857,128,0,56271:0:0:0:0:
448,192,55857,1,0,0:0:0:0:
192,192,56271,128,0,56685:0:0:0:40:LR_Clap_Fast_Low.wav
448,192,56271,128,0,56581:0:0:0:0:
64,192,56685,1,0,0:0:0:0:
448,192,56685,1,0,0:0:0:0:
448,192,56788,1,0,0:0:0:0:
192,192,56892,128,0,56995:0:0:0:0:
64,192,56995,128,0,57098:0:0:0:0:
448,192,57098,128,0,57150:0:0:0:0:
320,192,57098,128,0,57150:0:0:0:40:LR_Clap_Fast_Low.wav
448,192,57202,128,0,57254:0:0:0:0:
320,192,57202,128,0,57254:0:0:0:0:
448,192,57305,128,0,57357:0:0:0:0:
320,192,57305,128,0,57357:0:0:0:0:
448,192,57409,128,0,57461:0:0:0:0:
320,192,57409,128,0,57461:0:0:0:0:
64,192,57512,1,0,0:0:0:40:LR_DS - Snare Wet High.wav
192,192,57512,1,0,0:0:0:0:
448,192,57512,1,0,0:0:0:0:
320,192,57581,1,0,0:0:0:0:
64,192,57650,1,0,0:0:0:0:
192,192,57719,1,0,0:0:0:0:
320,192,57788,1,0,0:0:0:0:
448,192,57857,1,0,0:0:0:0:
64,192,57926,1,0,0:0:0:40:LR_Clap_Fast_Low.wav
192,192,57926,1,0,0:0:0:0:
448,192,57995,1,0,0:0:0:0:
320,192,58064,1,0,0:0:0:0:
192,192,58133,1,0,0:0:0:0:
64,192,58202,1,0,0:0:0:0:
320,192,58271,1,0,0:0:0:0:
64,192,58340,1,0,0:0:0:40:LR_Drum Kick Low.wav
192,192,58340,1,0,0:0:0:0:
448,192,58340,128,0,58754:0:0:0:0:
320,192,58547,128,0,58754:0:0:0:0:
64,192,58754,1,0,0:0:0:40:LR_Clap_Fast_Low.wav
192,192,58754,1,0,0:0:0:0:
192,192,58961,1,0,0:0:0:40:LR_Drum Kick Low.wav
320,192,58961,1,0,0:0:0:0:
64,192,59167,1,0,0:0:0:40:LR_DS - Snare Wet High.wav
320,192,59167,128,0,59271:0:0:0:0:
448,192,59167,128,0,59271:0:0:0:0:
192,192,59323,128,0,59426:0:0:0:0:
320,192,59323,128,0,59426:0:0:0:0:
64,192,59478,128,0,59581:0:0:0:0:
192,192,59478,128,0,59581:0:0:0:0:
320,192,59581,128,0,59995:0:0:0:40:LR_Clap_Fast_Low.wav
448,192,59581,128,0,59892:0:0:0:0:
64,192,59995,1,0,0:0:0:40:LR_Drum Kick Low.wav
448,192,59995,1,0,0:0:0:0:
192,192,60202,1,0,0:0:0:0:
192,192,60305,1,0,0:0:0:0:
320,192,60409,1,0,0:0:0:40:LR_Clap_Fast_Low.wav
448,192,60409,1,0,0:0:0:0:
64,192,60512,1,0,0:0:0:0:
320,192,60616,1,0,0:0:0:40:LR_Drum Kick Low.wav
192,192,60719,1,0,0:0:0:0:
64,192,60823,1,0,0:0:0:40:LR_DS - Snare Wet High.wav
320,192,60823,1,0,0:0:0:0:
448,192,60823,1,0,0:0:0:0:
192,192,60892,1,0,0:0:0:0:
320,192,60961,1,0,0:0:0:0:
448,192,61030,1,0,0:0:0:0:
320,192,61098,1,0,0:0:0:0:
192,192,61167,1,0,0:0:0:0:
64,192,61236,128,0,61374:0:0:0:40:LR_Clap_Fast_Low.wav
448,192,61236,1,0,0:0:0:0:
448,192,61374,1,0,0:0:0:0:
192,192,61443,1,0,0:0:0:0:
320,192,61495,1,0,0:0:0:0:
192,192,61581,1,0,0:0:0:0:
64,192,61650,128,0,61857:0:0:0:40:LR_Drum Kick Low.wav
320,192,61650,1,0,0:0:0:40:LR_CymbalSSD.wav
448,192,61650,128,0,61857:0:0:0:0:
192,192,61857,128,0,62064:0:0:0:0:
64,192,62064,128,0,62271:0:0:0:40:LR_Clap_Fast_Low.wav
320,192,62064,128,0,62478:0:0:0:0:
192,192,62271,1,0,0:0:0:40:LR_Drum Kick Low.wav
448,192,62271,1,0,0:0:0:0:
448,192,62478,1,0,0:0:0:0:
64,192,62478,128,0,62530:0:0:0:40:LR_DS - Snare Wet High.wav
192,192,62478,128,0,62530:0:0:0:0:
64,192,62581,128,0,62633:0:0:0:0:
192,192,62581,128,0,62633:0:0:0:0:
64,192,62685,128,0,62736:0:0:0:0:
192,192,62685,128,0,62736:0:0:0:0:
64,192,62788,128,0,62840:0:0:0:0:
192,192,62788,128,0,62840:0:0:0:0:
320,192,62892,1,0,0:0:0:40:LR_Clap_Fast_Low.wav
448,192,62892,1,0,0:0:0:0:
320,192,62961,1,0,0:0:0:0:
448,192,62961,1,0,0:0:0:0:
192,192,63030,1,0,0:0:0:0:
64,192,63030,1,0,0:0:0:0:
64,192,63098,1,0,0:0:0:0:
192,192,63098,1,0,0:0:0:0:
320,192,63167,1,0,0:0:0:0:
448,192,63167,1,0,0:0:0:0:
320,192,63236,1,0,0:0:0:0:
448,192,63236,1,0,0:0:0:0:
64,192,63305,1,0,0:0:0:40:LR_Drum Kick Low.wav
192,192,63305,128,0,63409:0:0:0:0:
320,192,63409,128,0,63512:0:0:0:0:
64,192,63512,128,0,63616:0:0:0:0:
192,192,63616,128,0,63719:0:0:0:0:
320,192,63719,128,0,64133:0:0:0:40:LR_Clap_Fast_Low.wav
448,192,63719,1,0,0:0:0:0:
64,192,63926,1,0,0:0:0:40:LR_Drum Kick Low.wav
192,192,63926,1,0,0:0:0:0:
64,192,64133,1,0,0:0:0:40:LR_DS - Snare Wet High.wav
192,192,64133,1,0,0:0:0:0:
448,192,64133,128,0,64340:0:0:0:0:
320,192,64236,1,0,0:0:0:0:
192,192,64443,1,0,0:0:0:0:
64,192,64443,128,0,64650:0:0:0:0:
320,192,64547,1,0,0:0:0:40:LR_Clap_Fast_Low.wav
448,192,64547,1,0,0:0:0:0:
192,192,64754,128,0,64961:0:0:0:0:
64,192,64961,1,0,0:0:0:40:LR_Drum Kick Low.wav
448,192,64961,1,0,0:0:0:0:
192,192,65064,1,0,0:0:0:0:
320,192,65167,1,0,0:0:0:0:
448,192,65167,1,0,0:0:0:0:
64,192,65236,1,0,0:0:0:0:
192,192,65236,1,0,0:0:0:0:
320,192,65305,1,0,0:0:0:0:
448,192,65305,1,0,0:0:0:0:
64,192,65374,1,0,0:0:0:40:LR_Clap_Fast_Low.wav
192,192,65374,1,0,0:0:0:0:
320,192,65478,1,0,0:0:0:0:
64,192,65581,1,0,0:0:0:40:LR_Drum Kick Low.wav
192,192,65581,1,0,0:0:0:0:
320,192,65650,1,0,0:0:0:0:
448,192,65650,1,0,0:0:0:0:
192,192,65719,1,0,0:0:0:0:
64,192,65788,1,0,0:0:0:40:LR_DS - Snare Wet High.wav
320,192,65788,1,0,0:0:0:0:
448,192,65788,128,0,65892:0:0:0:0:
192,192,65892,128,0,65995:0:0:0:0:
320,192,65995,128,0,66202:0:0:0:0:
192,192,66098,1,0,0:0:0:0:
64,192,66202,128,0,66409:0:0:0:40:LR_Clap_Fast_Low.wav
448,192,66202,1,0,0:0:0:0:
320,192,66409,128,0,66616:0:0:0:0:
64,192,66616,1,0,0:0:0:40:LR_Drum Kick Low.wav
192,192,66616,128,0,66823:0:0:0:0:
448,192,66823,128,0,67030:0:0:0:0:
64,192,67030,1,0,0:0:0:40:LR_Clap_Fast_Low.wav
320,192,67030,1,0,0:0:0:0:
192,192,67133,1,0,0:0:0:0:
320,192,67236,1,0,0:0:0:40:LR_Drum Kick Low.wav
448,192,67340,1,0,0:0:0:0:
192,192,67443,1,0,0:0:0:40:LR_DS - Snare Wet High.wav
320,192,67443,1,0,0:0:0:0:
64,192,67443,1,0,0:0:0:0:
448,192,67547,1,0,0:0:0:0:
192,192,67650,1,0,0:0:0:0:
320,192,67754,1,0,0:0:0:0:
64,192,67857,1,0,0:0:0:30:LR4_DrumKickHat.wav
192,192,67857,1,0,0:0:0:0:
320,192,67926,1,0,0:0:0:30:LR4_DrumKickHat.wav
448,192,67926,1,0,0:0:0:0:
64,192,67995,1,0,0:0:0:30:LR4_DrumKickHat.wav
192,192,67995,1,0,0:0:0:0:
320,192,68064,1,0,0:0:0:30:LR4_DrumKickHat.wav
448,192,68064,1,0,0:0:0:0:
64,192,68133,1,0,0:0:0:30:LR4_DrumKickHat.wav
192,192,68133,1,0,0:0:0:0:
320,192,68202,1,0,0:0:0:30:LR4_DrumKickHat.wav
448,192,68202,1,0,0:0:0:0:
64,192,68271,1,0,0:0:0:30:LR4_DrumKickHat.wav
192,192,68271,1,0,0:0:0:0:
320,192,68340,1,0,0:0:0:30:LR4_DrumKickHat.wav
448,192,68340,1,0,0:0:0:0:
64,192,68409,1,0,0:0:0:30:LR4_DrumKickHat.wav
192,192,68409,1,0,0:0:0:0:
320,192,68478,1,0,0:0:0:30:LR4_DrumKickHat.wav
448,192,68478,1,0,0:0:0:0:
64,192,68547,1,0,0:0:0:30:LR4_DrumKickHat.wav
192,192,68547,1,0,0:0:0:0:
320,192,68616,1,0,0:0:0:30:LR4_DrumKickHat.wav
64,192,68685,1,0,0:0:0:30:LR4_DrumKickHat.wav
448,192,68685,1,0,0:0:0:0:
192,192,68788,1,0,0:0:0:30:LR4_DrumKickHat.wav
320,192,68788,1,0,0:0:0:0:
64,192,68892,1,0,0:0:0:30:LR4_DrumKickHat.wav
448,192,68892,1,0,0:0:0:0:
192,192,68995,1,0,0:0:0:30:LR4_DrumKickHat.wav
320,192,68995,1,0,0:0:0:0:
64,192,69098,1,0,0:0:0:30:LR4_DrumKickHat.wav
448,192,69098,1,0,0:0:0:0:
192,192,69202,1,0,0:0:0:30:LR4_DrumKickHat.wav
320,192,69202,1,0,0:0:0:0:
64,192,69305,1,0,0:0:0:30:LR4_DrumKickHat.wav
448,192,69305,1,0,0:0:0:0:
192,192,69409,1,0,0:0:0:30:LR4_DrumKickHat.wav
320,192,69512,1,0,0:0:0:30:LR4_DrumKickHat.wav
448,192,69512,1,0,0:0:0:0:
64,192,69650,1,0,0:0:0:30:LR4_DrumKickHat.wav
192,192,69650,1,0,0:0:0:0:
320,192,69788,1,0,0:0:0:30:LR4_DrumKickHat.wav
448,192,69788,1,0,0:0:0:0:
64,192,69926,128,0,70236:0:0:0:40:LR_Drum Kick Low.wav
192,192,69926,128,0,70236:0:0:0:40:LR_CymbalSSD.wav
448,192,69926,1,0,0:0:0:0:
320,192,70133,128,0,70236:0:0:0:0:
448,192,70133,128,0,70236:0:0:0:0:
448,192,70340,1,0,0:0:0:40:LR_Clap_Fast_Low.wav
64,192,70340,1,0,0:0:0:0:
448,192,70547,1,0,0:0:0:40:LR_Drum Kick Low.wav
320,192,70547,1,0,0:0:0:0:
192,192,70650,1,0,0:0:0:0:
64,192,70650,1,0,0:0:0:40:LR_Drum Kick Low.wav
64,192,70754,1,0,0:0:0:40:LR_DS - Snare Wet High.wav
320,192,70754,1,0,0:0:0:0:
448,192,70754,1,0,0:0:0:0:
320,192,70857,1,0,0:0:0:0:
192,192,70857,1,0,0:0:0:0:
64,192,70961,1,0,0:0:0:0:
192,192,70961,1,0,0:0:0:0:
320,192,71064,1,0,0:0:0:0:
64,192,71167,1,0,0:0:0:40:LR_Clap_Fast_Low.wav
448,192,71167,1,0,0:0:0:0:
320,192,71236,1,0,0:0:0:0:
192,192,71305,1,0,0:0:0:0:
448,192,71374,1,0,0:0:0:0:
320,192,71443,1,0,0:0:0:0:
192,192,71512,1,0,0:0:0:0:
448,192,71581,128,0,71788:0:0:0:0:
64,192,71581,1,0,0:0:0:40:LR_Drum Kick Low.wav
192,192,71788,1,0,0:0:0:0:
64,192,71788,1,0,0:0:0:40:LR_Drum Kick Low.wav
448,192,71857,1,0,0:0:0:0:
320,192,71857,1,0,0:0:0:40:LR_Drum Kick Low.wav
64,192,71926,1,0,0:0:0:40:LR_Drum Kick Low.wav
192,192,71926,1,0,0:0:0:0:
320,192,71995,128,0,73236:0:0:0:0:
448,192,71995,1,0,0:0:0:0:
64,192,73236,1,0,0:0:0:40:LR_Drum Kick Low.wav
192,192,73236,1,0,0:0:0:40:LR_CymbalSSD.wav
448,192,73236,128,0,73443:0:0:0:0:
64,192,73443,1,0,0:0:0:40:LR_Drum Kick Low.wav
192,192,73443,128,0,73650:0:0:0:0:
320,192,73547,1,0,0:0:0:0:
64,192,73650,1,0,0:0:0:40:LR_Clap_Fast_Low.wav
448,192,73650,1,0,0:0:0:0:
192,192,73754,1,0,0:0:0:0:
320,192,73857,1,0,0:0:0:40:LR_Drum Kick Low.wav
448,192,73857,128,0,73961:0:0:0:0:
64,192,73961,1,0,0:0:0:40:LR_Drum Kick Low.wav
192,192,73961,1,0,0:0:0:0:
64,192,74064,1,0,0:0:0:40:LR_DS - Snare Wet High.wav
448,192,74064,1,0,0:0:0:0:
320,192,74064,1,0,0:0:0:0:
192,192,74133,1,0,0:0:0:0:
320,192,74202,1,0,0:0:0:0:
448,192,74271,1,0,0:0:0:0:
320,192,74340,1,0,0:0:0:0:
192,192,74374,1,0,0:0:0:0:
64,192,74374,1,0,0:0:0:40:LR_Drum Kick Low.wav
448,192,74409,1,0,0:0:0:0:
64,192,74478,128,0,74616:0:0:0:40:LR_Clap_Fast_Low.wav
320,192,74478,1,0,0:0:0:40:LR_Drum Kick Low.wav
192,192,74616,1,0,0:0:0:0:
320,192,74685,1,0,0:0:0:0:
192,192,74736,1,0,0:0:0:0:
64,192,74788,1,0,0:0:0:40:LR_Drum Kick Low.wav
448,192,74788,1,0,0:0:0:0:
320,192,74823,1,0,0:0:0:0:
64,192,74892,128,0,75098:0:0:0:40:LR_Drum Kick Low.wav
192,192,74892,1,0,0:0:0:40:LR_CymbalSSD.wav
448,192,74892,128,0,75098:0:0:0:0:
192,192,75098,128,0,75305:0:0:0:0:
320,192,75305,1,0,0:0:0:40:LR_Clap_Fast_Low.wav
448,192,75305,128,0,75409:0:0:0:0:
64,192,75409,128,0,75512:0:0:0:0:
192,192,75512,1,0,0:0:0:40:LR_Drum Kick Low.wav
320,192,75512,128,0,75719:0:0:0:0:
64,192,75719,1,0,0:0:0:40:LR_DS - Snare Wet High.wav
192,192,75719,1,0,0:0:0:0:
448,192,75719,1,0,0:0:0:0:
320,192,75823,1,0,0:0:0:0:
64,192,75926,1,0,0:0:0:0:
192,192,76030,1,0,0:0:0:0:
320,192,76133,1,0,0:0:0:40:LR_Clap_Fast_Low.wav
448,192,76133,128,0,76547:0:0:0:0:
64,192,76202,1,0,0:0:0:0:
320,192,76271,1,0,0:0:0:0:
64,192,76340,1,0,0:0:0:0:
320,192,76409,1,0,0:0:0:0:
64,192,76478,1,0,0:0:0:0:
192,192,76547,1,0,0:0:0:40:LR_Drum Kick Low.wav
320,192,76547,128,0,76650:0:0:0:0:
64,192,76650,128,0,76754:0:0:0:0:
448,192,76754,128,0,76857:0:0:0:0:
192,192,76857,128,0,76961:0:0:0:0:
64,192,76961,128,0,77374:0:0:0:40:LR_Clap_Fast_Low.wav
448,192,76961,1,0,0:0:0:0:
192,192,77167,1,0,0:0:0:40:LR_Drum Kick Low.wav
320,192,77167,1,0,0:0:0:0:
192,192,77374,128,0,77581:0:0:0:40:LR_DS - Snare Wet High.wav
320,192,77374,1,0,0:0:0:0:
448,192,77374,1,0,0:0:0:0:
448,192,77685,128,0,77892:0:0:0:0:
320,192,77685,1,0,0:0:0:0:
64,192,77788,1,0,0:0:0:40:LR_Clap_Fast_Low.wav
192,192,77788,1,0,0:0:0:0:
192,192,77995,128,0,78098:0:0:0:0:
320,192,78098,128,0,78202:0:0:0:0:
64,192,78202,1,0,0:0:0:40:LR_Drum Kick Low.wav
448,192,78202,128,0,78409:0:0:0:0:
192,192,78271,1,0,0:0:0:0:
320,192,78340,1,0,0:0:0:0:
64,192,78409,128,0,78512:0:0:0:0:
192,192,78512,128,0,78616:0:0:0:0:
64,192,78616,1,0,0:0:0:40:LR_Clap_Fast_Low.wav
448,192,78616,128,0,78823:0:0:0:0:
320,192,78685,1,0,0:0:0:0:
192,192,78754,1,0,0:0:0:0:
320,192,78823,1,0,0:0:0:40:LR_Drum Kick Low.wav
64,192,78823,128,0,78926:0:0:0:0:
192,192,78926,128,0,79030:0:0:0:0:
64,192,79030,1,0,0:0:0:40:LR_DS - Snare Wet High.wav
320,192,79030,1,0,0:0:0:0:
448,192,79030,128,0,79133:0:0:0:0:
192,192,79133,128,0,79236:0:0:0:0:
320,192,79236,128,0,79443:0:0:0:0:
192,192,79340,1,0,0:0:0:0:
448,192,79443,1,0,0:0:0:40:LR_Clap_Fast_Low.wav
64,192,79443,128,0,79650:0:0:0:0:
320,192,79650,128,0,79857:0:0:0:0:
64,192,79857,1,0,0:0:0:40:LR_Drum Kick Low.wav
192,192,79857,128,0,80064:0:0:0:0:
448,192,80064,128,0,80271:0:0:0:0:
64,192,80271,1,0,0:0:0:40:LR_Clap_Fast_Low.wav
320,192,80271,1,0,0:0:0:0:
192,192,80340,1,0,0:0:0:0:
320,192,80409,1,0,0:0:0:0:
64,192,80478,1,0,0:0:0:40:LR_Drum Kick Low.wav
448,192,80478,1,0,0:0:0:0:
320,192,80547,1,0,0:0:0:0:
192,192,80616,1,0,0:0:0:0:
320,192,80685,1,0,0:0:0:40:LR_DS - Snare Wet High.wav
448,192,80685,1,0,0:0:0:0:
64,192,80685,128,0,80788:0:0:0:0:
192,192,80788,128,0,80892:0:0:0:0:
448,192,80892,128,0,80995:0:0:0:0:
320,192,80995,128,0,81098:0:0:0:0:
192,192,81098,128,0,81409:0:0:0:40:LR_Clap_Fast_Low.wav
64,192,81202,128,0,81409:0:0:0:0:
448,192,81512,1,0,0:0:0:0:
192,192,81512,1,0,0:0:0:0:
320,192,81512,1,0,0:0:0:40:LR_CymbalSSD.wav
64,192,81512,1,0,0:0:0:40:LR_Drum Kick Low.wav
64,192,81623,1,0,0:0:0:60:LR4_SnareDropDwS.wav
320,192,81623,1,0,0:0:0:0:
192,192,81734,1,0,0:0:0:40:LR_Drum Kick Low.wav
448,192,81734,1,0,0:0:0:0:
192,192,81845,1,0,0:0:0:60:LR4_SnareDropDwS.wav
64,192,81845,1,0,0:0:0:0:
448,192,81956,1,0,0:0:0:40:LR_Drum Kick Low.wav
320,192,81956,1,0,0:0:0:0:
192,192,82067,1,0,0:0:0:60:LR4_SnareDropDwS.wav
448,192,82067,1,0,0:0:0:0:
320,192,82178,1,0,0:0:0:40:LR_Drum Kick Low.wav
64,192,82178,1,0,0:0:0:0:
320,192,82289,1,0,0:0:0:60:LR4_SnareDropDwS.wav
448,192,82289,1,0,0:0:0:0:
192,192,82400,1,0,0:0:0:40:LR_Drum Kick Low.wav
64,192,82400,1,0,0:0:0:0:
64,192,82512,1,0,0:0:0:60:LR4_SnareDropDwS.wav
320,192,82512,1,0,0:0:0:0:
448,192,82623,1,0,0:0:0:40:LR_Drum Kick Low.wav
192,192,82623,1,0,0:0:0:0:
64,192,82734,1,0,0:0:0:0:
192,192,82734,1,0,0:0:0:60:LR4_SnareDropDwS.wav
448,192,82845,1,0,0:0:0:30:LR4_DrumKickHat.wav
320,192,82845,1,0,0:0:0:0:
192,192,82919,1,0,0:0:0:30:LR4_DrumKickHat.wav
64,192,82919,1,0,0:0:0:0:
320,192,82993,1,0,0:0:0:30:LR4_DrumKickHat.wav
448,192,82993,1,0,0:0:0:0:
192,192,83067,1,0,0:0:0:30:LR4_DrumKickHat.wav
64,192,83067,1,0,0:0:0:0:
320,192,83141,1,0,0:0:0:30:LR4_DrumKickHat.wav
448,192,83141,1,0,0:0:0:0:
192,192,83215,1,0,0:0:0:30:LR4_DrumKickHat.wav
64,192,83289,1,0,0:0:0:40:LR_Drum Kick Low.wav
448,192,83289,1,0,0:0:0:0:
320,192,83289,1,0,0:0:0:0:
192,192,83400,1,0,0:0:0:60:LR4_SnareDropDwS.wav
448,192,83400,1,0,0:0:0:0:
64,192,83512,1,0,0:0:0:40:LR_Drum Kick Low.wav
320,192,83512,1,0,0:0:0:0:
320,192,83623,1,0,0:0:0:60:LR4_SnareDropDwS.wav
448,192,83623,1,0,0:0:0:0:
64,192,83734,1,0,0:0:0:40:LR_Drum Kick Low.wav
192,192,83734,1,0,0:0:0:0:
320,192,83845,1,0,0:0:0:60:LR4_SnareDropDwS.wav
64,192,83845,1,0,0:0:0:0:
192,192,83956,1,0,0:0:0:40:LR_Drum Kick Low.wav
448,192,83956,1,0,0:0:0:0:
64,192,84067,1,0,0:0:0:60:LR4_SnareDropDwS.wav
192,192,84067,1,0,0:0:0:0:
320,192,84178,1,0,0:0:0:40:LR_Drum Kick Low.wav
448,192,84178,1,0,0:0:0:0:
192,192,84289,1,0,0:0:0:60:LR4_SnareDropDwS.wav
448,192,84289,1,0,0:0:0:0:
64,192,84400,1,0,0:0:0:40:LR_Drum Kick Low.wav
320,192,84400,1,0,0:0:0:0:
320,192,84512,1,0,0:0:0:60:LR4_SnareDropDwS.wav
448,192,84512,1,0,0:0:0:0:
64,192,84623,1,0,0:0:0:30:LR4_DrumKickHat.wav
192,192,84623,1,0,0:0:0:0:
320,192,84697,1,0,0:0:0:30:LR4_DrumKickHat.wav
448,192,84697,1,0,0:0:0:0:
64,192,84771,1,0,0:0:0:30:LR4_DrumKickHat.wav
192,192,84771,1,0,0:0:0:0:
320,192,84845,1,0,0:0:0:30:LR4_DrumKickHat.wav
448,192,84845,1,0,0:0:0:0:
64,192,84919,1,0,0:0:0:30:LR4_DrumKickHat.wav
192,192,84919,1,0,0:0:0:0:
320,192,84993,1,0,0:0:0:30:LR4_DrumKickHat.wav
192,192,85067,1,0,0:0:0:40:LR_Drum Kick Low.wav
448,192,85067,1,0,0:0:0:0:
64,192,85067,1,0,0:0:0:0:
320,192,85178,1,0,0:0:0:60:LR4_SnareDropDwS.wav
64,192,85178,1,0,0:0:0:0:
192,192,85289,1,0,0:0:0:40:LR_Drum Kick Low.wav
448,192,85289,1,0,0:0:0:0:
64,192,85400,1,0,0:0:0:60:LR4_SnareDropDwS.wav
192,192,85400,1,0,0:0:0:0:
320,192,85512,1,0,0:0:0:40:LR_Drum Kick Low.wav
448,192,85512,1,0,0:0:0:0:
192,192,85623,1,0,0:0:0:60:LR4_SnareDropDwS.wav
448,192,85623,1,0,0:0:0:0:
320,192,85734,1,0,0:0:0:40:LR_Drum Kick Low.wav
64,192,85734,1,0,0:0:0:0:
320,192,85845,1,0,0:0:0:60:LR4_SnareDropDwS.wav
448,192,85845,1,0,0:0:0:0:
64,192,85956,1,0,0:0:0:40:LR_Drum Kick Low.wav
192,192,85956,1,0,0:0:0:0:
320,192,86067,1,0,0:0:0:60:LR4_SnareDropDwS.wav
64,192,86067,1,0,0:0:0:0:
192,192,86178,1,0,0:0:0:40:LR_Drum Kick Low.wav
448,192,86178,1,0,0:0:0:0:
192,192,86289,1,0,0:0:0:60:LR4_SnareDropDwS.wav
320,192,86289,1,0,0:0:0:0:
448,192,86400,1,0,0:0:0:30:LR4_DrumKickHat.wav
64,192,86400,1,0,0:0:0:0:
192,192,86474,1,0,0:0:0:30:LR4_DrumKickHat.wav
320,192,86474,1,0,0:0:0:0:
448,192,86549,1,0,0:0:0:30:LR4_DrumKickHat.wav
64,192,86549,1,0,0:0:0:0:
192,192,86623,1,0,0:0:0:30:LR4_DrumKickHat.wav
320,192,86623,1,0,0:0:0:0:
448,192,86697,1,0,0:0:0:30:LR4_DrumKickHat.wav
64,192,86697,1,0,0:0:0:0:
192,192,86771,1,0,0:0:0:30:LR4_DrumKickHat.wav
64,192,86845,1,0,0:0:0:40:LR_Drum Kick Low.wav
448,192,86845,1,0,0:0:0:0:
320,192,86845,1,0,0:0:0:0:
192,192,86956,1,0,0:0:0:60:LR4_SnareDropDwS.wav
448,192,86956,1,0,0:0:0:0:
320,192,87067,1,0,0:0:0:40:LR_Drum Kick Low.wav
64,192,87067,1,0,0:0:0:0:
320,192,87178,1,0,0:0:0:60:LR4_SnareDropDwS.wav
448,192,87178,1,0,0:0:0:0:
64,192,87289,1,0,0:0:0:40:LR_Drum Kick Low.wav
192,192,87289,1,0,0:0:0:0:
64,192,87400,1,0,0:0:0:60:LR4_SnareDropDwS.wav
320,192,87400,1,0,0:0:0:0:
192,192,87512,1,0,0:0:0:40:LR_Drum Kick Low.wav
448,192,87512,1,0,0:0:0:0:
192,192,87623,1,0,0:0:0:60:LR4_SnareDropDwS.wav
64,192,87623,1,0,0:0:0:0:
448,192,87734,1,0,0:0:0:30:LR4_DrumKickHat.wav
320,192,87734,1,0,0:0:0:0:
192,192,87789,1,0,0:0:0:30:LR4_DrumKickHat.wav
64,192,87789,1,0,0:0:0:0:
448,192,87845,1,0,0:0:0:30:LR4_DrumKickHat.wav
320,192,87845,1,0,0:0:0:0:
192,192,87900,1,0,0:0:0:30:LR4_DrumKickHat.wav
64,192,87900,1,0,0:0:0:0:
448,192,87956,1,0,0:0:0:30:LR4_DrumKickHat.wav
320,192,87956,1,0,0:0:0:0:
192,192,88012,1,0,0:0:0:30:LR4_DrumKickHat.wav
64,192,88012,1,0,0:0:0:0:
448,192,88067,1,0,0:0:0:30:LR4_DrumKickHat.wav
320,192,88067,1,0,0:0:0:0:
192,192,88123,1,0,0:0:0:30:LR4_DrumKickHat.wav
64,192,88123,1,0,0:0:0:0:
448,192,88178,128,0,88567:0:0:0:0:
320,192,88400,128,0,88567:0:0:0:0:
64,192,88623,1,0,0:0:0:40:LR_Drum Kick Low.wav
320,192,88623,1,0,0:0:0:40:LR_CymbalSSD.wav
448,192,88623,1,0,0:0:0:0:
192,192,88623,1,0,0:0:0:0:
64,192,88734,1,0,0:0:0:40:LR_Drum Kick Low.wav
192,192,88734,1,0,0:0:0:0:
448,192,88845,1,0,0:0:0:40:LR_Drum Kick Low.wav
192,192,88845,1,0,0:0:0:0:
64,192,88956,1,0,0:0:0:40:LR_Drum Kick Low.wav
320,192,88956,1,0,0:0:0:0:
320,192,89067,1,0,0:0:0:30:LR4_DrumKickHat.wav
448,192,89067,1,0,0:0:0:0:
64,192,89123,1,0,0:0:0:30:LR4_DrumKickHat.wav
320,192,89178,1,0,0:0:0:30:LR4_DrumKickHat.wav
448,192,89178,1,0,0:0:0:0:
192,192,89234,1,0,0:0:0:30:LR4_DrumKickHat.wav
64,192,89289,1,0,0:0:0:30:LR4_DrumKickHat.wav
448,192,89289,1,0,0:0:0:0:
320,192,89345,1,0,0:0:0:30:LR4_DrumKickHat.wav
64,192,89400,1,0,0:0:0:30:LR4_DrumKickHat.wav
192,192,89400,1,0,0:0:0:0:
448,192,89456,1,0,0:0:0:30:LR4_DrumKickHat.wav
64,192,89511,1,0,0:0:0:30:LR4_DrumKickHat.wav
192,192,89511,1,0,0:0:0:0:
320,192,89623,1,0,0:0:0:30:LR4_DrumKickHat.wav
448,192,89623,1,0,0:0:0:0:
64,192,89734,1,0,0:0:0:30:LR4_DrumKickHat.wav
320,192,89734,1,0,0:0:0:0:
192,192,89845,1,0,0:0:0:30:LR4_DrumKickHat.wav
448,192,89845,1,0,0:0:0:0:
64,192,89956,1,0,0:0:0:30:LR4_DrumKickHat.wav
192,192,89956,1,0,0:0:0:0:
448,192,90011,1,0,0:0:0:30:LR4_DrumKickHat.wav
64,192,90067,1,0,0:0:0:30:LR4_DrumKickHat.wav
192,192,90067,1,0,0:0:0:0:
320,192,90123,1,0,0:0:0:30:LR4_DrumKickHat.wav
64,192,90178,1,0,0:0:0:30:LR4_DrumKickHat.wav
448,192,90178,1,0,0:0:0:0:
192,192,90234,1,0,0:0:0:30:LR4_DrumKickHat.wav
320,192,90289,1,0,0:0:0:30:LR4_DrumKickHat.wav
448,192,90289,1,0,0:0:0:0:
64,192,90345,1,0,0:0:0:30:LR4_DrumKickHat.wav
320,192,90400,1,0,0:0:0:30:LR4_DrumKickHat.wav
448,192,90400,1,0,0:0:0:0:
64,192,90511,1,0,0:0:0:30:LR4_DrumKickHat.wav
192,192,90511,1,0,0:0:0:0:
192,192,90623,1,0,0:0:0:30:LR4_DrumKickHat.wav
448,192,90623,1,0,0:0:0:0:
64,192,90734,1,0,0:0:0:30:LR4_DrumKickHat.wav
320,192,90734,1,0,0:0:0:0:
320,192,90845,1,0,0:0:0:30:LR4_DrumKickHat.wav
448,192,90845,1,0,0:0:0:0:
64,192,90900,1,0,0:0:0:30:LR4_DrumKickHat.wav
320,192,90956,1,0,0:0:0:30:LR4_DrumKickHat.wav
448,192,90956,1,0,0:0:0:0:
192,192,91011,1,0,0:0:0:30:LR4_DrumKickHat.wav
64,192,91067,1,0,0:0:0:30:LR4_DrumKickHat.wav
448,192,91067,1,0,0:0:0:0:
320,192,91123,1,0,0:0:0:30:LR4_DrumKickHat.wav
64,192,91178,1,0,0:0:0:30:LR4_DrumKickHat.wav
192,192,91178,1,0,0:0:0:0:
448,192,91234,1,0,0:0:0:30:LR4_DrumKickHat.wav
64,192,91289,1,0,0:0:0:30:LR4_DrumKickHat.wav
192,192,91317,1,0,0:0:0:30:LR4_DrumKickHat.wav
320,192,91345,1,0,0:0:0:30:LR4_DrumKickHat.wav
448,192,91373,1,0,0:0:0:30:LR4_DrumKickHat.wav
64,192,91400,1,0,0:0:0:30:LR4_DrumKickHat.wav
192,192,91428,1,0,0:0:0:30:LR4_DrumKickHat.wav
448,192,91456,1,0,0:0:0:30:LR4_DrumKickHat.wav
320,192,91484,1,0,0:0:0:30:LR4_DrumKickHat.wav
192,192,91511,1,0,0:0:0:30:LR4_DrumKickHat.wav
64,192,91539,1,0,0:0:0:30:LR4_DrumKickHat.wav
448,192,91567,1,0,0:0:0:30:LR4_DrumKickHat.wav
320,192,91595,1,0,0:0:0:30:LR4_DrumKickHat.wav
64,192,91623,1,0,0:0:0:30:LR4_DrumKickHat.wav
192,192,91650,1,0,0:0:0:30:LR4_DrumKickHat.wav
320,192,91678,1,0,0:0:0:30:LR4_DrumKickHat.wav
448,192,91706,1,0,0:0:0:30:LR4_DrumKickHat.wav
64,192,91734,128,0,92178:0:0:0:0:
192,192,91845,128,0,92178:0:0:0:0:
320,192,92178,1,0,0:0:0:30:LR4_DrumKickHat.wav
448,192,92178,1,0,0:0:0:0:
64,192,92234,1,0,0:0:0:30:LR4_DrumKickHat.wav
192,192,92234,1,0,0:0:0:0:
320,192,92289,1,0,0:0:0:30:LR4_DrumKickHat.wav
448,192,92289,1,0,0:0:0:0:
64,192,92345,1,0,0:0:0:30:LR4_DrumKickHat.wav
192,192,92345,1,0,0:0:0:0:
320,192,92400,1,0,0:0:0:30:LR4_DrumKickHat.wav
448,192,92400,1,0,0:0:0:0:
64,192,92456,1,0,0:0:0:30:LR4_DrumKickHat.wav
192,192,92456,1,0,0:0:0:0:
448,192,92511,1,0,0:0:0:30:LR4_DrumKickHat.wav
320,192,92511,1,0,0:0:0:0:
64,192,92567,1,0,0:0:0:30:LR4_DrumKickHat.wav
192,192,92567,1,0,0:0:0:0:
320,192,92623,1,0,0:0:0:30:LR4_DrumKickHat.wav
448,192,92623,1,0,0:0:0:0:
64,192,92678,1,0,0:0:0:30:LR4_DrumKickHat.wav
192,192,92678,1,0,0:0:0:0:
320,192,92734,1,0,0:0:0:30:LR4_DrumKickHat.wav
448,192,92734,1,0,0:0:0:0:
64,192,92789,1,0,0:0:0:30:LR4_DrumKickHat.wav
192,192,92789,1,0,0:0:0:0:
320,192,92845,1,0,0:0:0:30:LR4_DrumKickHat.wav
448,192,92845,1,0,0:0:0:0:
64,192,92900,1,0,0:0:0:30:LR4_DrumKickHat.wav
192,192,92900,1,0,0:0:0:0:
448,192,92956,1,0,0:0:0:30:LR4_DrumKickHat.wav
320,192,92956,1,0,0:0:0:0:
64,192,93011,1,0,0:0:0:30:LR4_DrumKickHat.wav
192,192,93011,1,0,0:0:0:0:
320,192,93067,1,0,0:0:0:30:LR4_DrumKickHat.wav
448,192,93067,1,0,0:0:0:0:
64,192,93123,1,0,0:0:0:30:LR4_DrumKickHat.wav
192,192,93123,1,0,0:0:0:0:
320,192,93178,1,0,0:0:0:30:LR4_DrumKickHat.wav
448,192,93178,1,0,0:0:0:0:
64,192,93234,1,0,0:0:0:30:LR4_DrumKickHat.wav
192,192,93234,1,0,0:0:0:0:
320,192,93289,1,0,0:0:0:30:LR4_DrumKickHat.wav
448,192,93289,1,0,0:0:0:0:
64,192,93345,1,0,0:0:0:30:LR4_DrumKickHat.wav
192,192,93345,1,0,0:0:0:0:
448,192,93400,1,0,0:0:0:30:LR4_DrumKickHat.wav
320,192,93400,1,0,0:0:0:0:
64,192,93456,1,0,0:0:0:30:LR4_DrumKickHat.wav
192,192,93456,1,0,0:0:0:0:
320,192,93511,1,0,0:0:0:30:LR4_DrumKickHat.wav
448,192,93511,1,0,0:0:0:0:
64,192,93567,1,0,0:0:0:30:LR4_DrumKickHat.wav
192,192,93567,1,0,0:0:0:0:
320,192,93623,1,0,0:0:0:30:LR4_DrumKickHat.wav
448,192,93623,1,0,0:0:0:0:
64,192,93678,1,0,0:0:0:30:LR4_DrumKickHat.wav
192,192,93678,1,0,0:0:0:0:
320,192,93734,1,0,0:0:0:30:LR4_DrumKickHat.wav
448,192,93734,1,0,0:0:0:0:
64,192,93789,1,0,0:0:0:30:LR4_DrumKickHat.wav
192,192,93789,1,0,0:0:0:0:
448,192,93845,1,0,0:0:0:30:LR4_DrumKickHat.wav
320,192,93845,1,0,0:0:0:0:
64,192,93900,1,0,0:0:0:30:LR4_DrumKickHat.wav
192,192,93900,1,0,0:0:0:0:
448,192,93956,128,0,95734:0:0:0:0:
320,192,93956,1,0,0:0:0:40:LR_Drum Kick Low.wav
64,192,95734,1,0,0:0:0:0:
320,192,95734,1,0,0:0:0:0:
448,192,95808,1,0,0:0:0:0:
192,192,95808,1,0,0:0:0:0:
64,192,95882,1,0,0:0:0:0:
320,192,95956,1,0,0:0:0:0:
448,192,95956,1,0,0:0:0:0:
64,192,96030,1,0,0:0:0:0:
192,192,96030,1,0,0:0:0:0:
320,192,96104,1,0,0:0:0:0:
448,192,96178,1,0,0:0:0:0:
192,192,96178,1,0,0:0:0:0:
320,192,96252,1,0,0:0:0:0:
64,192,96252,1,0,0:0:0:0:
448,192,96326,1,0,0:0:0:0:
64,192,96400,1,0,0:0:0:0:
192,192,96400,1,0,0:0:0:0:
448,192,96474,1,0,0:0:0:0:
320,192,96474,1,0,0:0:0:0:
192,192,96549,1,0,0:0:0:0:
64,192,96623,128,0,96845:0:0:0:0:
192,192,96697,128,0,96919:0:0:0:0:
320,192,96771,128,0,96993:0:0:0:0:
448,192,96845,128,0,97067:0:0:0:0:
64,192,96919,128,0,97141:0:0:0:0:
192,192,96993,128,0,97215:0:0:0:0:
320,192,97067,128,0,97289:0:0:0:0:
448,192,97141,128,0,97363:0:0:0:0:
64,192,97215,128,0,97437:0:0:0:0:
192,192,97289,128,0,97437:0:0:0:0:
320,192,97363,128,0,97437:0:0:0:0:
448,192,97437,128,0,97511:0:0:0:0:
64,192,97511,1,0,0:0:0:40:LR_Drum Kick Low.wav
192,192,97511,1,0,0:0:0:40:LR_CymbalSSD.wav
320,192,97511,1,0,0:0:0:0:
64,192,97734,1,0,0:0:0:60:LR4_SnareDropDwS.wav
192,192,97734,1,0,0:0:0:70:C7S.wav
448,192,97734,128,0,97845:0:0:0:0:
320,192,97845,128,0,97956:0:0:0:70:B6S.wav
64,192,97956,1,0,0:0:0:40:LR_Drum Kick Low.wav
448,192,97956,1,0,0:0:0:0:
192,192,98067,128,0,98178:0:0:0:70:G6S.wav
64,192,98178,1,0,0:0:0:60:LR4_SnareDropDwS.wav
320,192,98178,1,0,0:0:0:0:
448,192,98178,1,0,0:0:0:0:
448,192,98400,1,0,0:0:0:0:
320,192,98400,1,0,0:0:0:0:
192,192,98400,1,0,0:0:0:0:
64,192,98623,1,0,0:0:0:60:LR4_SnareDropDwS.wav
192,192,98623,1,0,0:0:0:70:C7S.wav
448,192,98623,128,0,98734:0:0:0:0:
320,192,98734,128,0,98845:0:0:0:70:B6S.wav
64,192,98845,1,0,0:0:0:40:LR_Drum Kick Low.wav
448,192,98845,1,0,0:0:0:0:
192,192,98956,128,0,99067:0:0:0:70:E6S.wav
320,192,99067,1,0,0:0:0:60:LR4_SnareDropDwS.wav
448,192,99067,1,0,0:0:0:0:
64,192,99178,128,0,99234:0:0:0:70:D6S.wav
64,192,99289,128,0,99400:0:0:0:40:LR_Drum Kick Low.wav
320,192,99289,1,0,0:0:0:70:D6S.wav
192,192,99289,1,0,0:0:0:0:
448,192,99400,128,0,99511:0:0:0:70:E6S.wav
64,192,99511,1,0,0:0:0:60:LR4_SnareDropDwS.wav
192,192,99511,1,0,0:0:0:0:
320,192,99511,1,0,0:0:0:0:
448,192,99623,128,0,99734:0:0:0:70:E6S.wav
64,192,99734,1,0,0:0:0:40:LR_Drum Kick Low.wav
192,192,99734,1,0,0:0:0:0:
320,192,99845,1,0,0:0:0:0:
64,192,99956,1,0,0:0:0:60:LR4_SnareDropDwS.wav
448,192,99956,1,0,0:0:0:0:
192,192,99956,1,0,0:0:0:0:
320,192,100067,1,0,0:0:0:0:
64,192,100178,1,0,0:0:0:40:LR_Drum Kick Low.wav
192,192,100178,1,0,0:0:0:0:
448,192,100178,1,0,0:0:0:0:
192,192,100400,128,0,100511:0:0:0:60:LR4_SnareDropDwS.wav
64,192,100400,1,0,0:0:0:0:
320,192,100400,1,0,0:0:0:0:
448,192,100623,1,0,0:0:0:40:LR_Drum Kick Low.wav
64,192,100623,1,0,0:0:0:0:
192,192,100734,128,0,100845:0:0:0:70:B5S.wav
64,192,100845,1,0,0:0:0:60:LR4_SnareDropDwS.wav
320,192,100845,1,0,0:0:0:0:
448,192,100845,1,0,0:0:0:0:
320,192,100956,128,0,101067:0:0:0:70:C6S.wav
64,192,101067,128,0,101178:0:0:0:40:LR_Drum Kick Low.wav
448,192,101067,1,0,0:0:0:70:A5S.wav
192,192,101067,1,0,0:0:0:0:
64,192,101289,1,0,0:0:0:60:LR4_SnareDropDwS.wav
192,192,101289,1,0,0:0:0:70:C7S.wav
448,192,101289,128,0,101400:0:0:0:0:
320,192,101400,128,0,101511:0:0:0:70:B6S.wav
64,192,101511,1,0,0:0:0:40:LR_Drum Kick Low.wav
448,192,101511,1,0,0:0:0:0:
192,192,101623,128,0,101734:0:0:0:70:G6S.wav
64,192,101734,1,0,0:0:0:60:LR4_SnareDropDwS.wav
320,192,101734,1,0,0:0:0:0:
448,192,101734,1,0,0:0:0:0:
192,192,101956,128,0,102067:0:0:0:40:LR_Drum Kick Low.wav
320,192,101956,1,0,0:0:0:70:B5S.wav
448,192,101956,1,0,0:0:0:0:
64,192,102178,1,0,0:0:0:60:LR4_SnareDropDwS.wav
192,192,102178,1,0,0:0:0:70:C7S.wav
320,192,102178,128,0,102289:0:0:0:0:
448,192,102289,128,0,102400:0:0:0:70:D7S.wav
64,192,102400,1,0,0:0:0:40:LR_Drum Kick Low.wav
320,192,102400,1,0,0:0:0:0:
192,192,102511,128,0,102623:0:0:0:70:B6S.wav
64,192,102623,1,0,0:0:0:60:LR4_SnareDropDwS.wav
320,192,102623,1,0,0:0:0:0:
448,192,102623,1,0,0:0:0:0:
192,192,102734,128,0,102845:0:0:0:70:B6S.wav
64,192,102845,1,0,0:0:0:40:LR_Drum Kick Low.wav
448,192,102845,1,0,0:0:0:0:
320,192,102845,1,0,0:0:0:0:
320,192,102956,128,0,103067:0:0:0:70:C7S.wav
64,192,103067,1,0,0:0:0:60:LR4_SnareDropDwS.wav
192,192,103067,1,0,0:0:0:0:
448,192,103067,1,0,0:0:0:0:
320,192,103178,128,0,103289:0:0:0:70:C7S.wav
192,192,103289,1,0,0:0:0:40:LR_Drum Kick Low.wav
448,192,103289,1,0,0:0:0:0:
320,192,103400,128,0,103511:0:0:0:70:C7S.wav
64,192,103511,1,0,0:0:0:60:LR4_SnareDropDwS.wav
448,192,103511,1,0,0:0:0:0:
192,192,103511,128,0,103623:0:0:0:70:B6S.wav
320,192,103623,128,0,103734:0:0:0:70:C7S.wav
64,192,103734,1,0,0:0:0:40:LR_Drum Kick Low.wav
192,192,103734,1,0,0:0:0:0:
448,192,103734,1,0,0:0:0:0:
448,192,103845,128,0,103956:0:0:0:70:D7S.wav
192,192,103956,1,0,0:0:0:60:LR4_SnareDropDwS.wav
320,192,103956,1,0,0:0:0:0:
64,192,103956,1,0,0:0:0:0:
192,192,104067,128,0,104178:0:0:0:70:E7S.wav
320,192,104178,1,0,0:0:0:40:LR_Drum Kick Low.wav
448,192,104178,1,0,0:0:0:0:
64,192,104289,1,0,0:0:0:60:LR4_SnareDropDwS.wav
192,192,104289,1,0,0:0:0:0:
320,192,104289,1,0,0:0:0:0:
64,192,104400,1,0,0:0:0:40:LR_Drum Kick Low.wav
448,192,104400,1,0,0:0:0:0:
192,192,104511,1,0,0:0:0:60:LR4_SnareDropDwS.wav
320,192,104511,1,0,0:0:0:0:
448,192,104511,1,0,0:0:0:0:
64,192,104623,1,0,0:0:0:40:LR_Drum Kick Low.wav
192,192,104623,128,0,104734:0:0:0:40:LR_CymbalSSD.wav
320,192,104623,1,0,0:0:0:70:A6S.wav
448,192,104623,1,0,0:0:0:0:
192,192,104845,128,0,104956:0:0:0:60:LR4_SnareDropDwS.wav
320,192,104845,1,0,0:0:0:70:A6S.wav
448,192,104845,1,0,0:0:0:0:
64,192,104956,128,0,105067:0:0:0:70:G6S.wav
320,192,105067,1,0,0:0:0:40:LR_Drum Kick Low.wav
448,192,105067,1,0,0:0:0:0:
192,192,105178,128,0,105289:0:0:0:70:A6S.wav
64,192,105289,1,0,0:0:0:60:LR4_SnareDropDwS.wav
320,192,105289,1,0,0:0:0:0:
448,192,105289,1,0,0:0:0:0:
64,192,105511,1,0,0:0:0:40:LR_Drum Kick Low.wav
192,192,105511,1,0,0:0:0:70:B6S.wav
320,192,105511,128,0,105623:0:0:0:0:
64,192,105734,1,0,0:0:0:60:LR4_SnareDropDwS.wav
320,192,105734,128,0,105845:0:0:0:70:B6S.wav
448,192,105734,1,0,0:0:0:0:
192,192,105845,128,0,105956:0:0:0:70:A6S.wav
64,192,105956,1,0,0:0:0:40:LR_Drum Kick Low.wav
448,192,105956,1,0,0:0:0:0:
320,192,106067,128,0,106178:0:0:0:70:B6S.wav
64,192,106178,1,0,0:0:0:60:LR4_SnareDropDwS.wav
192,192,106178,1,0,0:0:0:0:
448,192,106178,1,0,0:0:0:0:
64,192,106400,128,0,106511:0:0:0:40:LR_Drum Kick Low.wav
192,192,106400,1,0,0:0:0:70:C7S.wav
320,192,106400,1,0,0:0:0:0:
64,192,106623,128,0,106734:0:0:0:60:LR4_SnareDropDwS.wav
320,192,106623,1,0,0:0:0:70:C7S.wav
448,192,106623,1,0,0:0:0:0:
192,192,106734,128,0,106845:0:0:0:70:D7S.wav
64,192,106845,1,0,0:0:0:40:LR_Drum Kick Low.wav
448,192,106845,1,0,0:0:0:0:
320,192,106956,128,0,107067:0:0:0:70:E7S.wav
64,192,107067,1,0,0:0:0:60:LR4_SnareDropDwS.wav
192,192,107067,1,0,0:0:0:0:
448,192,107067,1,0,0:0:0:0:
320,192,107178,128,0,107234:0:0:0:70:B6S.wav
192,192,107234,128,0,107289:0:0:0:70:A#6S_Bb6S.wav
64,192,107289,128,0,107400:0:0:0:40:LR_Drum Kick Low.wav
448,192,107289,1,0,0:0:0:70:A6S.wav
320,192,107289,1,0,0:0:0:0:
192,192,107400,1,0,0:0:0:0:
64,192,107511,1,0,0:0:0:60:LR4_SnareDropDwS.wav
320,192,107511,1,0,0:0:0:40:C5S.wav
448,192,107511,1,0,0:0:0:0:
320,192,107623,1,0,0:0:0:40:D5S.wav
192,192,107734,1,0,0:0:0:40:LR_Drum Kick Low.wav
448,192,107734,1,0,0:0:0:0:
64,192,107845,1,0,0:0:0:40:C5S.wav
192,192,107956,1,0,0:0:0:60:LR4_SnareDropDwS.wav
320,192,107956,1,0,0:0:0:40:D5S.wav
448,192,107956,1,0,0:0:0:0:
192,192,108067,1,0,0:0:0:0:
64,192,108178,1,0,0:0:0:40:LR_Drum Kick Low.wav
448,192,108178,128,0,108289:0:0:0:70:C7S.wav
320,192,108178,1,0,0:0:0:0:
64,192,108400,1,0,0:0:0:60:LR4_SnareDropDwS.wav
192,192,108400,1,0,0:0:0:70:C7S.wav
448,192,108400,128,0,108511:0:0:0:0:
320,192,108511,128,0,108623:0:0:0:70:B6S.wav
64,192,108623,1,0,0:0:0:40:LR_Drum Kick Low.wav
448,192,108623,1,0,0:0:0:0:
192,192,108734,128,0,108845:0:0:0:70:G6S.wav
320,192,108845,1,0,0:0:0:60:LR4_SnareDropDwS.wav
448,192,108845,1,0,0:0:0:0:
64,192,109067,1,0,0:0:0:40:LR_Drum Kick Low.wav
320,192,109067,128,0,109178:0:0:0:70:C7S.wav
448,192,109067,1,0,0:0:0:0:
64,192,109289,1,0,0:0:0:60:LR4_SnareDropDwS.wav
192,192,109289,1,0,0:0:0:70:C7S.wav
320,192,109289,128,0,109400:0:0:0:0:
448,192,109400,128,0,109511:0:0:0:70:D7S.wav
64,192,109511,1,0,0:0:0:40:LR_Drum Kick Low.wav
192,192,109511,1,0,0:0:0:0:
320,192,109623,128,0,109734:0:0:0:70:C7S.wav
64,192,109734,1,0,0:0:0:60:LR4_SnareDropDwS.wav
192,192,109734,1,0,0:0:0:0:
448,192,109734,1,0,0:0:0:0:
192,192,109845,128,0,109956:0:0:0:70:B6S.wav
64,192,109956,1,0,0:0:0:40:LR4_DrumKickHat.wav
448,192,109956,1,0,0:0:0:0:
320,192,110067,1,0,0:0:0:40:LR4_DrumKickHat.wav
192,192,110067,1,0,0:0:0:0:
320,192,110178,1,0,0:0:0:40:LR4_DrumKickHat.wav
448,192,110178,1,0,0:0:0:0:
192,192,110289,1,0,0:0:0:40:LR4_DrumKickHat.wav
64,192,110289,1,0,0:0:0:0:
448,192,110400,1,0,0:0:0:40:LR4_DrumKickHat.wav
64,192,110400,1,0,0:0:0:0:
192,192,110511,1,0,0:0:0:40:LR4_DrumKickHat.wav
320,192,110511,1,0,0:0:0:0:
192,192,110623,1,0,0:0:0:40:LR4_DrumKickHat.wav
64,192,110623,1,0,0:0:0:0:
320,192,110734,1,0,0:0:0:40:LR4_DrumKickHat.wav
448,192,110734,1,0,0:0:0:0:
192,192,110845,1,0,0:0:0:30:LR4_DrumKickHat.wav
64,192,110845,1,0,0:0:0:0:
448,192,110900,1,0,0:0:0:30:LR4_DrumKickHat.wav
192,192,110956,1,0,0:0:0:30:LR4_DrumKickHat.wav
64,192,110956,1,0,0:0:0:0:
320,192,111011,1,0,0:0:0:30:LR4_DrumKickHat.wav
448,192,111067,1,0,0:0:0:30:LR4_DrumKickHat.wav
64,192,111067,1,0,0:0:0:0:
192,192,111123,1,0,0:0:0:30:LR4_DrumKickHat.wav
320,192,111178,1,0,0:0:0:30:LR4_DrumKickHat.wav
448,192,111178,1,0,0:0:0:0:
64,192,111234,1,0,0:0:0:30:LR4_DrumKickHat.wav
320,192,111289,1,0,0:0:0:30:LR4_DrumKickHat.wav
448,192,111289,1,0,0:0:0:0:
192,192,111345,1,0,0:0:0:30:LR4_DrumKickHat.wav
64,192,111345,1,0,0:0:0:0:
320,192,111400,1,0,0:0:0:30:LR4_DrumKickHat.wav
448,192,111400,1,0,0:0:0:0:
192,192,111456,1,0,0:0:0:30:LR4_DrumKickHat.wav
64,192,111456,1,0,0:0:0:0:
320,192,111511,1,0,0:0:0:30:LR4_DrumKickHat.wav
448,192,111511,1,0,0:0:0:0:
64,192,111567,1,0,0:0:0:30:LR4_DrumKickHat.wav
192,192,111567,1,0,0:0:0:0:
320,192,111623,1,0,0:0:0:30:LR4_DrumKickHat.wav
448,192,111623,1,0,0:0:0:0:
192,192,111678,1,0,0:0:0:30:LR4_DrumKickHat.wav
64,192,111734,1,0,0:0:0:40:LR_Drum Kick Low.wav
320,192,111734,1,0,0:0:0:40:LR_CymbalSSD.wav
448,192,111734,1,0,0:0:0:0:
64,192,111956,1,0,0:0:0:60:LR4_SnareDropDwS.wav
192,192,111956,1,0,0:0:0:70:D#7S_Eb7S.wav
448,192,111956,128,0,112067:0:0:0:0:
320,192,112067,128,0,112178:0:0:0:70:D7S.wav
64,192,112178,1,0,0:0:0:40:LR_Drum Kick Low.wav
448,192,112178,1,0,0:0:0:0:
192,192,112289,128,0,112400:0:0:0:70:A#6S_Bb6S.wav
64,192,112400,1,0,0:0:0:60:LR4_SnareDropDwS.wav
320,192,112400,1,0,0:0:0:0:
448,192,112400,1,0,0:0:0:0:
192,192,112623,1,0,0:0:0:40:LR_Drum Kick Low.wav
320,192,112623,1,0,0:0:0:0:
448,192,112623,1,0,0:0:0:0:
64,192,112845,1,0,0:0:0:60:LR4_SnareDropDwS.wav
192,192,112845,1,0,0:0:0:70:D#7S_Eb7S.wav
448,192,112845,128,0,112956:0:0:0:0:
320,192,112956,128,0,113067:0:0:0:70:D7S.wav
64,192,113067,1,0,0:0:0:40:LR_Drum Kick Low.wav
448,192,113067,1,0,0:0:0:0:
192,192,113178,128,0,113289:0:0:0:70:G6S.wav
320,192,113289,1,0,0:0:0:60:LR4_SnareDropDwS.wav
448,192,113289,1,0,0:0:0:0:
64,192,113400,128,0,113456:0:0:0:70:F6S.wav
64,192,113511,128,0,113623:0:0:0:40:LR_Drum Kick Low.wav
320,192,113511,1,0,0:0:0:70:F6S.wav
192,192,113511,1,0,0:0:0:0:
448,192,113623,128,0,113734:0:0:0:70:G6S.wav
64,192,113734,1,0,0:0:0:60:LR4_SnareDropDwS.wav
192,192,113734,1,0,0:0:0:0:
320,192,113734,1,0,0:0:0:0:
448,192,113845,128,0,113956:0:0:0:70:G6S.wav
64,192,113956,1,0,0:0:0:40:LR_Drum Kick Low.wav
320,192,113956,1,0,0:0:0:0:
64,192,114178,1,0,0:0:0:60:LR4_SnareDropDwS.wav
320,192,114178,1,0,0:0:0:0:
448,192,114178,1,0,0:0:0:0:
192,192,114252,1,0,0:0:0:0:
320,192,114326,1,0,0:0:0:0:
64,192,114400,1,0,0:0:0:40:LR_Drum Kick Low.wav
192,192,114400,1,0,0:0:0:0:
320,192,114511,1,0,0:0:0:0:
64,192,114623,1,0,0:0:0:60:LR4_SnareDropDwS.wav
192,192,114623,128,0,114734:0:0:0:70:D6S.wav
448,192,114623,1,0,0:0:0:0:
320,192,114734,128,0,114845:0:0:0:70:D#6S_Eb6S.wav
64,192,114845,1,0,0:0:0:40:LR_Drum Kick Low.wav
448,192,114845,1,0,0:0:0:0:
192,192,114956,128,0,115067:0:0:0:70:D6S.wav
64,192,115067,1,0,0:0:0:60:LR4_SnareDropDwS.wav
320,192,115067,1,0,0:0:0:0:
448,192,115067,1,0,0:0:0:0:
320,192,115178,128,0,115289:0:0:0:70:D#6S_Eb6S.wav
64,192,115289,1,0,0:0:0:40:LR_Drum Kick Low.wav
448,192,115289,1,0,0:0:0:0:
192,192,115289,1,0,0:0:0:0:
64,192,115511,1,0,0:0:0:60:LR4_SnareDropDwS.wav
192,192,115511,1,0,0:0:0:70:D#7S_Eb7S.wav
448,192,115511,128,0,115623:0:0:0:0:
320,192,115623,128,0,115734:0:0:0:70:D7S.wav
64,192,115734,1,0,0:0:0:40:LR_Drum Kick Low.wav
448,192,115734,1,0,0:0:0:0:
192,192,115845,128,0,115956:0:0:0:70:A#6S_Bb6S.wav
64,192,115956,1,0,0:0:0:60:LR4_SnareDropDwS.wav
320,192,115956,1,0,0:0:0:0:
448,192,115956,1,0,0:0:0:0:
192,192,116178,1,0,0:0:0:40:LR_Drum Kick Low.wav
320,192,116178,1,0,0:0:0:0:
448,192,116178,1,0,0:0:0:0:
64,192,116400,1,0,0:0:0:60:LR4_SnareDropDwS.wav
192,192,116400,1,0,0:0:0:70:D#7S_Eb7S.wav
320,192,116400,128,0,116511:0:0:0:0:
448,192,116511,128,0,116623:0:0:0:70:F7S.wav
64,192,116623,1,0,0:0:0:40:LR_Drum Kick Low.wav
320,192,116623,1,0,0:0:0:0:
192,192,116734,128,0,116845:0:0:0:70:D7S.wav
64,192,116845,1,0,0:0:0:60:LR4_SnareDropDwS.wav
320,192,116845,1,0,0:0:0:0:
448,192,116845,1,0,0:0:0:0:
192,192,116956,128,0,117067:0:0:0:70:D7S.wav
448,192,117067,1,0,0:0:0:40:LR_Drum Kick Low.wav
64,192,117067,1,0,0:0:0:0:
192,192,117178,1,0,0:0:0:40:LR_Drum Kick Low.wav
320,192,117178,1,0,0:0:0:70:D#7S_Eb7S.wav
448,192,117289,1,0,0:0:0:40:LR_Drum Kick Low.wav
192,192,117289,1,0,0:0:0:0:
64,192,117289,1,0,0:0:0:0:
320,192,117400,1,0,0:0:0:40:LR_Drum Kick Low.wav
64,192,117400,1,0,0:0:0:70:D#7S_Eb7S.wav
320,192,117511,1,0,0:0:0:40:LR_Drum Kick Low.wav
448,192,117511,1,0,0:0:0:0:
64,192,117623,1,0,0:0:0:40:LR_Drum Kick Low.wav
192,192,117623,1,0,0:0:0:70:D#7S_Eb7S.wav
448,192,117734,1,0,0:0:0:40:LR_Drum Kick Low.wav
320,192,117734,1,0,0:0:0:70:D7S.wav
64,192,117734,1,0,0:0:0:0:
320,192,117845,1,0,0:0:0:40:LR_Drum Kick Low.wav
192,192,117845,1,0,0:0:0:70:D#7S_Eb7S.wav
64,192,117956,1,0,0:0:0:30:LR4_DrumKickHat.wav
192,192,117956,1,0,0:0:0:0:
320,192,118011,1,0,0:0:0:30:LR4_DrumKickHat.wav
448,192,118011,1,0,0:0:0:0:
192,192,118067,1,0,0:0:0:30:LR4_DrumKickHat.wav
64,192,118067,1,0,0:0:0:0:
320,192,118123,1,0,0:0:0:30:LR4_DrumKickHat.wav
448,192,118123,1,0,0:0:0:0:
192,192,118178,1,0,0:0:0:30:LR4_DrumKickHat.wav
64,192,118178,1,0,0:0:0:0:
320,192,118234,1,0,0:0:0:30:LR4_DrumKickHat.wav
448,192,118234,1,0,0:0:0:0:
192,192,118289,1,0,0:0:0:30:LR4_DrumKickHat.wav
64,192,118289,1,0,0:0:0:70:G7S.wav
320,192,118345,1,0,0:0:0:30:LR4_DrumKickHat.wav
448,192,118345,1,0,0:0:0:0:
64,192,118400,1,0,0:0:0:30:LR4_DrumKickHat.wav
192,192,118428,1,0,0:0:0:30:LR4_DrumKickHat.wav
320,192,118456,1,0,0:0:0:30:LR4_DrumKickHat.wav
448,192,118484,1,0,0:0:0:30:LR4_DrumKickHat.wav
192,192,118511,1,0,0:0:0:30:LR4_DrumKickHat.wav
64,192,118539,1,0,0:0:0:30:LR4_DrumKickHat.wav
448,192,118567,1,0,0:0:0:30:LR4_DrumKickHat.wav
320,192,118595,1,0,0:0:0:30:LR4_DrumKickHat.wav
192,192,118623,1,0,0:0:0:30:LR4_DrumKickHat.wav
64,192,118650,1,0,0:0:0:30:LR4_DrumKickHat.wav
320,192,118678,1,0,0:0:0:30:LR4_DrumKickHat.wav
448,192,118706,1,0,0:0:0:30:LR4_DrumKickHat.wav
64,192,118734,1,0,0:0:0:30:LR4_DrumKickHat.wav
192,192,118761,1,0,0:0:0:30:LR4_DrumKickHat.wav
320,192,118789,1,0,0:0:0:30:LR4_DrumKickHat.wav
448,192,118817,1,0,0:0:0:30:LR4_DrumKickHat.wav
64,192,118845,1,0,0:0:0:40:LR_Drum Kick Low.wav
192,192,118845,1,0,0:0:0:40:LR_CymbalSSD.wav
320,192,118956,128,0,119067:0:0:0:30:LR4_DrumKickHat.wav
448,192,118956,1,0,0:0:0:0:
64,192,119067,1,0,0:0:0:30:LR4_DrumKickHat.wav
192,192,119067,1,0,0:0:0:70:C7S.wav
192,192,119178,1,0,0:0:0:30:LR4_DrumKickHat.wav
448,192,119178,1,0,0:0:0:0:
64,192,119289,1,0,0:0:0:30:LR4_DrumKickHat.wav
320,192,119289,1,0,0:0:0:0:
192,192,119400,1,0,0:0:0:30:LR4_DrumKickHat.wav
448,192,119400,128,0,119511:0:0:0:70:A#6S_Bb6S.wav
64,192,119511,1,0,0:0:0:30:LR4_DrumKickHat.wav
320,192,119511,128,0,119623:0:0:0:70:G#6S_Ab6S.wav
192,192,119623,128,0,119734:0:0:0:30:LR4_DrumKickHat.wav
448,192,119623,1,0,0:0:0:70:G6S.wav
64,192,119734,1,0,0:0:0:30:LR4_DrumKickHat.wav
320,192,119734,1,0,0:0:0:70:G6S.wav
448,192,119808,1,0,0:0:0:70:G#6S_Ab6S.wav
192,192,119845,1,0,0:0:0:30:LR4_DrumKickHat.wav
320,192,119845,1,0,0:0:0:0:
64,192,119882,1,0,0:0:0:70:G6S.wav
192,192,119956,128,0,120067:0:0:0:30:LR4_DrumKickHat.wav
448,192,119956,1,0,0:0:0:70:D#6S_Eb6S.wav
64,192,120067,128,0,120178:0:0:0:30:LR4_DrumKickHat.wav
320,192,120067,1,0,0:0:0:70:C6S.wav
192,192,120178,1,0,0:0:0:30:LR4_DrumKickHat.wav
448,192,120178,1,0,0:0:0:0:
64,192,120289,128,0,120400:0:0:0:30:LR4_DrumKickHat.wav
320,192,120289,1,0,0:0:0:70:F6S.wav
192,192,120400,128,0,120511:0:0:0:30:LR4_DrumKickHat.wav
448,192,120400,1,0,0:0:0:70:G#6S_Ab6S.wav
64,192,120511,1,0,0:0:0:30:LR4_DrumKickHat.wav
448,192,120511,128,0,120623:0:0:0:70:D#7S_Eb7S.wav
64,192,120623,1,0,0:0:0:30:LR4_DrumKickHat.wav
192,192,120623,1,0,0:0:0:0:
320,192,120697,1,0,0:0:0:30:LR4_DrumKickHat.wav
448,192,120697,1,0,0:0:0:0:
192,192,120771,1,0,0:0:0:30:LR4_DrumKickHat.wav
64,192,120845,1,0,0:0:0:30:LR4_DrumKickHat.wav
320,192,120845,1,0,0:0:0:70:C7S.wav
192,192,120919,1,0,0:0:0:30:LR4_DrumKickHat.wav
448,192,120919,1,0,0:0:0:0:
64,192,120993,1,0,0:0:0:30:LR4_DrumKickHat.wav
320,192,121067,1,0,0:0:0:30:LR4_DrumKickHat.wav
448,192,121067,1,0,0:0:0:0:
64,192,121141,1,0,0:0:0:30:LR4_DrumKickHat.wav
192,192,121141,1,0,0:0:0:0:
320,192,121215,1,0,0:0:0:30:LR4_DrumKickHat.wav
192,192,121289,1,0,0:0:0:30:LR4_DrumKickHat.wav
448,192,121289,1,0,0:0:0:70:G#6S_Ab6S.wav
64,192,121363,1,0,0:0:0:30:LR4_DrumKickHat.wav
320,192,121363,1,0,0:0:0:0:
448,192,121437,1,0,0:0:0:30:LR4_DrumKickHat.wav
64,192,121511,1,0,0:0:0:30:LR4_DrumKickHat.wav
192,192,121511,1,0,0:0:0:70:G6S.wav
320,192,121567,1,0,0:0:0:30:LR4_DrumKickHat.wav
448,192,121567,1,0,0:0:0:0:
64,192,121623,1,0,0:0:0:30:LR4_DrumKickHat.wav
192,192,121623,1,0,0:0:0:0:
320,192,121678,1,0,0:0:0:30:LR4_DrumKickHat.wav
448,192,121678,1,0,0:0:0:0:
64,192,121734,1,0,0:0:0:30:LR4_DrumKickHat.wav
192,192,121734,1,0,0:0:0:70:D#6S_Eb6S.wav
320,192,121789,1,0,0:0:0:30:LR4_DrumKickHat.wav
448,192,121789,1,0,0:0:0:0:
192,192,121845,1,0,0:0:0:70:F6S.wav
64,192,121845,1,0,0:0:0:30:LR4_DrumKickHat.wav
320,192,121900,1,0,0:0:0:30:LR4_DrumKickHat.wav
448,192,121900,1,0,0:0:0:0:
64,192,121956,1,0,0:0:0:30:LR4_DrumKickHat.wav
192,192,121984,1,0,0:0:0:30:LR4_DrumKickHat.wav
320,192,122011,1,0,0:0:0:30:LR4_DrumKickHat.wav
448,192,122039,1,0,0:0:0:30:LR4_DrumKickHat.wav
192,192,122067,1,0,0:0:0:30:LR4_DrumKickHat.wav
64,192,122095,1,0,0:0:0:30:LR4_DrumKickHat.wav
448,192,122123,1,0,0:0:0:30:LR4_DrumKickHat.wav
320,192,122150,1,0,0:0:0:30:LR4_DrumKickHat.wav
192,192,122178,1,0,0:0:0:30:LR4_DrumKickHat.wav
64,192,122206,1,0,0:0:0:30:LR4_DrumKickHat.wav
320,192,122234,1,0,0:0:0:30:LR4_DrumKickHat.wav
448,192,122261,1,0,0:0:0:30:LR4_DrumKickHat.wav
64,192,122289,1,0,0:0:0:30:LR4_DrumKickHat.wav
192,192,122317,1,0,0:0:0:30:LR4_DrumKickHat.wav
320,192,122345,1,0,0:0:0:30:LR4_DrumKickHat.wav
448,192,122373,1,0,0:0:0:30:LR4_DrumKickHat.wav
64,192,122400,1,0,0:0:0:40:LR_CymbalSSD.wav
192,192,122400,1,0,0:0:0:70:F7S.wav
448,192,122643,1,0,0:0:0:70:C8S.wav
320,192,123010,1,0,0:0:0:70:A#7S_Bb7S.wav
192,192,123139,1,0,0:0:0:70:G#7S_Ab7S.wav
64,192,123269,1,0,0:0:0:70:G7S.wav
320,192,123417,1,0,0:0:0:70:G7S.wav
448,192,123509,1,0,0:0:0:70:G#7S_Ab7S.wav
320,192,123601,1,0,0:0:0:70:G7S.wav
192,192,123693,1,0,0:0:0:70:D#7S_Eb7S.wav
64,192,123843,1,0,0:0:0:70:C7S.wav
64,192,124142,1,0,0:0:0:0:
192,192,124142,1,0,0:0:0:70:F7S.wav
320,192,124294,1,0,0:0:0:70:G#7S_Ab7S.wav
192,192,124294,1,0,0:0:0:0:
448,192,124447,1,0,0:0:0:70:D#8S_Eb8S.wav
320,192,124447,1,0,0:0:0:0:
64,192,124600,1,0,0:0:0:70:C8S.wav
192,192,124600,1,0,0:0:0:0:
448,192,125309,1,0,0:0:0:70:A#7S_Bb7S.wav
320,192,125309,1,0,0:0:0:0:
320,192,125577,1,0,0:0:0:70:G#7S_Ab7S.wav
192,192,125577,1,0,0:0:0:0:
64,192,125845,1,0,0:0:0:0:
192,192,125845,1,0,0:0:0:70:G7S.wav
320,192,126101,1,0,0:0:0:0:
448,192,126101,1,0,0:0:0:0:
192,192,126101,1,0,0:0:0:70:F7S.wav
64,192,126101,1,0,0:0:0:70:LR4_DrumRevBassImpact.wav
