osu file format v14

[General]
AudioFilename: audio.mp3
AudioLeadIn: 0
PreviewTime: 73129
Countdown: 0
SampleSet: Soft
StackLeniency: 0.7
Mode: 0
LetterboxInBreaks: 0
WidescreenStoryboard: 0

[Editor]
Bookmarks: 14652,24398,34144,43890,53636,63382,76783,86530,98712
DistanceSpacing: 1.1
BeatDivisor: 4
GridSize: 4
TimelineZoom: 5.399997

[Metadata]
Title:INF-B
TitleUnicode:INF-B《L-aste-R》
Artist:Kaneko Chiharu
ArtistUnicode:かねこちはる
Creator:Flask
Version:GRAVITY
Source:SOUND VOLTEX III GRAVITY WARS
Tags:
BeatmapID:2037208
BeatmapSetID:973090

[Difficulty]
HPDrainRate:5
CircleSize:4
OverallDifficulty:9
ApproachRate:9.6
SliderMultiplier:2
SliderTickRate:1

[Events]
//Background and Video events
0,0,"427331-Kycb.jpg",0,0
//Break Periods
//Storyboard Layer 0 (Background)
//Storyboard Layer 1 (Fail)
//Storyboard Layer 2 (Pass)
//Storyboard Layer 3 (Foreground)
//Storyboard Sound Samples

[TimingPoints]
1251,304.568527918782,4,2,1,25,1,0
1251,-66.6666666666667,4,1,1,25,0,0
1479,-66.6666666666667,4,2,1,5,0,0
1555,-66.6666666666667,4,1,1,25,0,0
1631,-66.6666666666667,4,1,1,30,0,0
1707,-66.6666666666667,4,1,1,35,0,0
1783,-66.6666666666667,4,1,1,40,0,0
1860,-50,4,1,1,45,0,0
2012,-40,4,1,1,45,0,0
2164,-66.6666666666667,4,1,1,45,0,0
2469,-100,4,2,3,45,0,0
7342,-100,4,2,1,45,0,0
13890,-133.333333333333,4,2,1,45,0,0
14652,-133.333333333333,4,2,4,25,0,0
22570,-133.333333333333,4,2,4,35,0,0
23179,-133.333333333333,4,2,4,45,0,0
23789,-133.333333333333,4,2,4,35,0,0
24398,-100,4,2,1,45,0,0
28662,-83.3333333333333,4,2,1,45,0,0
29271,-100,4,2,1,45,0,0
34144,-100,4,2,1,45,0,0
35971,-76.9230769230769,4,2,1,45,0,0
36580,-100,4,2,1,45,0,0
38408,-83.3333333333333,4,2,1,45,0,0
39017,-100,4,2,1,45,0,0
40844,-83.3333333333333,4,2,1,45,0,0
41454,-100,4,2,1,45,0,0
43890,-66.6666666666667,4,2,1,45,0,0
44119,-100,4,2,1,45,0,0
44499,-57.1428571428571,4,2,1,45,0,0
44652,-66.6666666666667,4,2,1,45,0,0
44804,-80,4,2,1,45,0,0
44956,-100,4,2,1,45,0,0
45108,-66.6666666666667,4,2,1,45,0,0
45337,-100,4,2,1,45,0,0
45718,-57.1428571428571,4,2,1,45,0,0
45870,-66.6666666666667,4,2,1,45,0,0
46022,-80,4,2,1,45,0,0
46174,-100,4,2,1,45,0,0
46327,-66.6666666666667,4,2,1,45,0,0
46555,-100,4,2,1,45,0,0
46936,-57.1428571428571,4,2,1,45,0,0
47088,-66.6666666666667,4,2,1,45,0,0
47240,-80,4,2,1,45,0,0
47393,-100,4,2,1,45,0,0
47545,-80,4,2,1,45,0,0
48763,-100,4,2,1,45,0,0
54855,-133.333333333333,4,2,1,45,0,0
55159,-117.647058823529,4,2,1,45,0,0
55464,-100,4,2,1,45,0,0
57291,-133.333333333333,4,2,1,45,0,0
57596,-117.647058823529,4,2,1,45,0,0
57900,-100,4,2,1,45,0,0
58509,-100,4,2,2,45,0,0
63078,-66.6666666666667,4,2,1,45,0,0
63382,-100,4,2,1,45,0,0
68256,-76.9230769230769,4,2,1,45,0,0
69169,-83.3333333333333,4,2,1,45,0,0
70083,-90.9090909090909,4,2,1,45,0,0
71301,-83.3333333333333,4,2,1,45,0,0
73129,-133.333333333333,4,2,1,45,0,0
75565,-333.333333333333,4,2,1,45,0,0
76174,-50,4,2,1,45,0,0
76327,-25,4,2,1,45,0,0
76479,-50,4,2,1,45,0,0
76783,-100,4,2,1,45,0,0
86530,-83.3333333333333,4,2,1,45,0,0
88966,-66.6666666666667,4,2,1,45,0,0
89195,-83.3333333333333,4,2,1,45,0,0
89575,-66.6666666666667,4,2,1,45,0,0
89880,-83.3333333333333,4,2,1,45,0,0
90185,-66.6666666666667,4,2,1,45,0,0
90413,-83.3333333333333,4,2,1,45,0,0
90794,-66.6666666666667,4,2,1,45,0,0
91403,-76.9230769230769,4,2,1,45,0,0
93839,-66.6666666666667,4,2,1,45,0,0
97494,-100,4,2,1,45,0,0
98712,-83.3333333333333,4,2,1,45,0,0
103814,-58.8235294117647,4,2,1,45,0,0
104042,-100,4,2,1,45,0,0
104195,-76.9230769230769,4,2,1,45,0,0
104804,-83.3333333333333,4,2,1,45,0,0
105032,-58.8235294117647,4,2,1,45,0,0
105261,-100,4,2,1,45,0,0
105413,-76.9230769230769,4,2,1,45,0,0
106022,-83.3333333333333,4,2,1,45,0,0
106251,-58.8235294117647,4,2,1,45,0,0
106479,-100,4,2,1,45,0,0
106631,-76.9230769230769,4,2,1,45,0,0
110438,-100,4,2,1,45,0,0
112646,-200,4,2,1,45,0,0

[HitObjects]
55,307,1251,6,0,B|67:297|67:297|68:286|68:286|80:287|80:287|95:274|95:274|106:275|106:275|107:264|107:264|126:248|126:248|127:237|127:237|138:238|138:238|156:223|156:223|168:224|168:224|169:212|169:212|182:202|182:202|182:191|182:191|193:192|193:192|214:174,1,225.000008583069
213,77,1555,5,0,0:0:0:0:
226,103,1631,1,0,0:0:0:0:
264,138,1707,1,2,0:2:0:0:
338,146,1783,1,2,0:2:0:0:
407,99,1860,6,0,P|466:96|493:177,1,150
488,192,2012,6,0,B|411:193|411:193|392:204|392:204|292:204,1,187.5
272,275,2164,6,0,P|250:266|236:248,1,37.5000014305115,2|0,0:0|0:0,0:0:0:0:
233,243,2240,2,0,P|221:222|222:200,1,37.5000014305115,2|0,0:0|0:0,0:0:0:0:
222,194,2316,2,0,P|227:171|242:154,1,37.5000014305115,2|0,0:0|0:0,0:0:0:0:
244,148,2393,2,0,P|262:134|285:131,1,37.5000014305115,2|0,0:0|0:0,0:0:0:0:
290,129,2469,5,2,0:0:0:0:
415,223,2697,1,0,0:0:0:0:
413,237,2926,1,0,0:0:0:0:
411,251,3154,1,0,0:0:0:0:
410,265,3382,1,0,0:0:0:0:
256,372,3535,1,2,0:0:0:0:
85,142,3687,5,2,0:0:0:0:
13,322,3915,1,0,0:0:0:0:
112,304,4144,1,2,0:0:0:0:
100,47,4372,1,0,0:0:0:0:
85,142,4601,1,2,0:0:0:0:
256,288,4753,1,2,0:0:0:0:
330,89,4905,5,2,0:0:0:0:
424,236,5134,1,0,0:0:0:0:
422,250,5362,1,0,0:0:0:0:
421,265,5591,1,0,0:0:0:0:
420,279,5819,1,0,0:0:0:0:
256,328,5971,1,2,0:0:0:0:
96,124,6124,5,2,0:0:0:0:
48,312,6352,1,0,0:0:0:0:
144,284,6580,1,2,0:0:0:0:
104,28,6809,1,2,0:0:0:0:
96,124,7037,1,2,0:0:0:0:
256,8,7190,1,2,0:0:0:0:
396,204,7342,6,0,P|440:232|512:152,1,150,4|2,1:2|0:0,0:0:0:0:
500,168,7646,2,0,L|516:56,1,100,0|2,1:0|0:0,0:0:0:0:
312,32,7951,1,0,1:0:0:0:
300,56,8027,2,0,B|288:84|288:84|304:156,1,100,2|0,0:0|0:0,0:0:0:0:
324,224,8256,1,2,1:2:0:0:
216,352,8408,1,2,0:0:0:0:
24,256,8560,6,0,P|72:260|88:356,1,150,2|2,1:2|0:0,0:0:0:0:
104,368,8865,2,0,L|-4:360,1,100,0|2,1:0|0:0,0:0:0:0:
164,216,9169,1,0,1:0:0:0:
180,228,9245,2,0,B|196:208|196:208|180:132,1,100,2|0,0:0|0:0,0:0:0:0:
160,64,9474,1,2,1:2:0:0:
16,172,9626,1,2,0:0:0:0:
156,348,9778,5,0,1:0:0:0:
172,260,9931,1,0,1:0:0:0:
264,204,10083,5,0,1:0:0:0:
284,292,10235,1,0,1:0:0:0:
375,384,10388,5,0,1:0:0:0:
391,296,10541,1,0,1:0:0:0:
483,240,10693,5,0,1:0:0:0:
503,328,10845,1,0,1:0:0:0:
392,194,10997,5,0,1:0:0:0:
381,176,11073,1,0,1:0:0:0:
378,156,11149,1,0,1:0:0:0:
384,137,11225,1,0,1:0:0:0:
409,113,11301,5,0,1:0:0:0:
439,75,11377,1,0,1:0:0:0:
433,26,11454,1,0,1:0:0:0:
389,3,11529,1,0,1:0:0:0:
342,21,11606,6,0,L|336:62,1,25,0|0,1:0|1:0,1:0:0:0:
319,26,11682,2,0,L|315:50,1,25,0|0,1:0|1:0,1:0:0:0:
296,31,11758,2,0,L|290:72,1,25,0|0,1:0|1:0,1:0:0:0:
273,36,11834,2,0,L|269:60,1,25,0|0,1:0|1:0,1:0:0:0:
250,41,11910,6,2,L|227:38,12,12.5,2|2|2|2|2|2|2|2|2|2|2|2|2,0:2|0:2|0:2|0:2|0:2|0:2|0:2|0:2|0:2|0:2|0:2|0:2|0:2,0:2:0:0:
176,89,12215,5,2,1:0:0:0:
111,50,12291,1,2,1:0:0:0:
338,149,12444,5,2,1:0:0:0:
403,110,12520,1,2,1:0:0:0:
116,260,12672,5,2,1:0:0:0:
44,237,12748,1,2,1:0:0:0:
411,344,12900,5,2,1:0:0:0:
483,321,12976,1,2,1:0:0:0:
143,134,13129,5,2,1:0:0:0:
256,368,13281,1,2,1:0:0:0:
369,134,13433,5,2,1:0:0:0:
399,65,13509,1,2,1:0:0:0:
98,70,13662,5,2,1:0:0:0:
66,137,13738,1,2,1:0:0:0:
135,165,13814,1,2,1:0:0:0:
168,98,13890,1,2,1:0:0:0:
98,70,13966,6,0,B|100:125|100:125|95:133|95:133|103:229|103:229|128:226|128:226|154:239|154:239|177:238|177:238|200:229|200:229|217:239|217:239|235:234,1,300.000011444092,2|0,0:3|0:0,0:0:0:0:
257,231,14652,5,4,0:2:0:0:
479,382,14956,1,2,1:2:0:0:
512,347,15032,1,2,0:0:0:0:
504,298,15108,1,2,0:0:0:0:
459,276,15185,6,0,L|363:266,1,75.0000028610231,2|0,0:0|0:0,0:0:0:0:
369,265,15413,1,2,0:0:0:0:
299,373,15565,2,0,B|282:338|282:338|288:288,1,75.0000028610231,0|0,1:0|0:0,0:0:0:0:
337,55,15870,6,0,B|360:89|360:89|349:182,1,112.500004291535,2|0,1:2|0:0,0:0:0:0:
345,173,16174,2,0,L|254:163,1,75.0000028610231,0|0,1:0|0:0,0:0:0:0:
199,228,16479,5,2,1:2:0:0:
246,76,16707,1,2,0:0:0:0:
422,138,16936,1,0,0:0:0:0:
468,153,17012,1,0,0:0:0:0:
508,126,17088,6,0,L|519:80,1,37.5000014305115,2|0,1:2|0:0,0:0:0:0:
414,14,17316,2,0,L|422:50,1,37.5000014305115,2|0,0:0|1:0,0:0:0:0:
331,145,17545,2,0,L|342:99,1,37.5000014305115,2|0,0:0|0:0,0:0:0:0:
467,331,17697,6,0,L|418:324,1,37.5000014305115,2|0,1:2|0:0,0:0:0:0:
314,247,17926,2,0,L|363:240,1,37.5000014305115,2|0,0:0|1:0,0:0:0:0:
314,378,18154,2,0,L|265:371,1,37.5000014305115,2|0,0:0|0:0,0:0:0:0:
46,355,18306,6,0,L|61:308,1,37.5000014305115,2|0,1:2|0:0,0:0:0:0:
237,289,18535,2,0,L|188:299,1,37.5000014305115,2|0,0:0|1:0,0:0:0:0:
84,156,18763,2,0,L|117:192,1,37.5000014305115,2|0,0:0|0:0,0:0:0:0:
125,266,18915,5,2,1:2:0:0:
183,84,19068,1,2,0:0:0:0:
190,105,19144,1,2,0:0:0:0:
322,133,19296,1,2,0:0:0:0:
327,111,19372,1,2,0:0:0:0:
331,89,19448,1,2,0:0:0:0:
335,66,19525,6,0,B|394:42|394:42|456:69,1,112.500004291535,2|0,1:2|0:0,0:0:0:0:
503,171,19829,1,2,1:2:0:0:
492,218,19905,1,2,0:0:0:0:
451,244,19981,1,2,0:0:0:0:
402,233,20058,6,0,L|321:227,1,75.0000028610231,2|0,0:0|0:0,0:0:0:0:
312,227,20286,1,2,0:0:0:0:
452,378,20438,2,0,B|464:336|464:336|455:302,1,75.0000028610231,2|0,1:2|0:0,0:0:0:0:
340,36,20743,6,0,P|329:78|360:141,1,112.500004291535,2|2,1:2|0:0,0:0:0:0:
347,149,21047,2,0,L|445:146,1,75.0000028610231,0|0,1:2|0:0,0:0:0:0:
375,235,21352,5,2,1:2:0:0:
264,119,21580,1,2,0:2:0:0:
130,214,21809,1,0,0:0:0:0:
84,232,21885,1,0,0:0:0:0:
40,211,21961,6,0,L|29:171,1,37.5000014305115,2|0,1:2|0:0,0:0:0:0:
62,91,22190,2,0,L|91:61,1,37.5000014305115,2|0,0:0|1:0,0:0:0:0:
176,50,22418,2,0,L|216:60,1,37.5000014305115,2|0,0:0|0:0,0:0:0:0:
216,207,22570,6,0,L|208:259,1,37.5000014305115,2|0,1:2|0:0,0:0:0:0:
246,326,22799,2,0,L|287:358,1,37.5000014305115,2|0,0:0|1:0,0:0:0:0:
364,356,23027,2,0,L|413:336,1,37.5000014305115,2|0,0:2|0:0,0:0:0:0:
480,93,23179,6,0,B|471:71|471:71|448:55,1,37.5000014305115,2|0,0:0|0:0,0:0:0:0:
381,19,23408,2,0,B|357:15|357:15|332:27,1,37.5000014305115,2|0,0:0|0:0,0:0:0:0:
267,67,23636,2,0,B|252:85|252:85|250:113,1,37.5000014305115,2|0,0:0|0:0,0:0:0:0:
356,250,23789,5,2,0:0:0:0:
372,124,23941,1,2,0:0:0:0:
372,124,24017,1,2,0:0:0:0:
151,177,24169,1,2,0:0:0:0:
139,175,24245,1,2,0:0:0:0:
127,172,24322,1,2,0:0:0:0:
118,171,24398,6,0,L|132:348,1,150,4|0,1:2|0:0,0:0:0:0:
185,379,24702,1,8,0:2:0:0:
213,338,24778,1,2,0:1:0:0:
201,288,24855,1,2,0:1:0:0:
155,267,24931,6,0,B|233:282|233:282|262:265,1,100,2|0,0:1|0:0,0:0:0:0:
300,216,25159,1,0,0:0:0:0:
492,362,25311,2,0,L|509:314,1,50,8|0,0:2|0:0,0:0:0:0:
340,312,25464,2,0,L|357:360,1,50
424,301,25616,6,0,B|428:191|428:191|437:208|472:225,1,150,2|2,1:0|0:1,0:0:0:0:
512,94,25921,2,0,P|482:83|424:131,1,100,8|2,0:2|0:1,0:0:0:0:
136,142,26225,2,0,L|288:157,1,150,2|2,1:2|0:0,0:0:0:0:
360,166,26530,1,8,0:0:0:0:
286,346,26682,1,2,0:1:0:0:
269,360,26758,1,2,0:1:0:0:
250,371,26834,6,0,L|240:320,1,50,2|0,1:0|0:0,0:0:0:0:
107,320,26987,1,0,0:0:0:0:
98,336,27063,2,0,L|108:285,1,50,0|8,0:0|0:0,0:0:0:0:
372,278,27215,1,0,0:0:0:0:
381,294,27291,2,0,L|356:249,1,50
244,39,27443,6,0,L|187:33,1,50,2|0,1:0|0:0,0:0:0:0:
64,129,27596,1,0,0:0:0:0:
50,134,27672,2,0,L|100:129,1,50,0|8,0:0|0:0,0:0:0:0:
237,234,27824,1,0,0:0:0:0:
252,234,27900,2,0,L|202:228,1,50
462,30,28053,6,0,B|477:55|477:55|478:93,1,50,2|0,1:0|0:0,0:0:0:0:
500,196,28205,1,0,0:0:0:0:
508,202,28281,2,0,B|478:202|478:202|445:184,1,50,0|8,0:0|0:0,0:0:0:0:
341,146,28433,1,0,0:0:0:0:
336,155,28509,2,0,B|350:129|350:129|382:109,1,50,2|0,0:1|0:0,0:0:0:0:
511,344,28662,6,0,B|459:315|459:315|393:335,1,119.999996337891,2|0,1:0|0:0,0:0:0:0:
322,370,28890,1,0,0:0:0:0:
322,370,28966,2,0,L|254:360,1,59.9999981689454,8|0,0:0|0:0,0:0:0:0:
48,346,29119,1,0,0:0:0:0:
95,359,29195,1,0,0:0:0:0:
132,328,29271,6,0,B|158:303|158:303|166:182,1,150,4|0,1:2|0:0,0:0:0:0:
95,81,29575,1,8,0:0:0:0:
55,103,29652,1,2,0:1:0:0:
44,146,29728,1,2,0:1:0:0:
65,185,29804,6,0,L|177:189,1,100,2|0,0:1|0:0,0:0:0:0:
239,191,30032,1,0,0:0:0:0:
387,348,30185,2,0,L|398:292,1,50,8|0,0:0|0:0,0:0:0:0:
431,222,30337,2,0,L|442:166,1,50
512,53,30489,6,0,B|466:56|443:89|443:89|413:53|363:66,1,150,2|2,1:0|0:1,0:0:0:0:
282,57,30794,2,0,L|391:63,1,100,8|2,0:0|0:1,0:0:0:0:
99,190,31098,2,0,B|165:185|165:185|190:199|190:199|253:197,1,150,2|2,1:2|0:0,0:0:0:0:
320,195,31403,1,8,0:0:0:0:
495,369,31555,1,2,0:1:0:0:
495,369,31631,1,2,0:1:0:0:
495,369,31707,6,0,L|506:311,1,50,2|0,1:0|0:0,0:0:0:0:
409,369,31860,2,0,L|420:311,1,50,0|0,1:0|0:0,0:0:0:0:
320,195,32012,6,0,L|331:253,1,50,8|0,1:2|0:0,0:0:0:0:
234,195,32165,2,0,L|245:253,1,50,0|0,1:0|0:0,0:0:0:0:
164,376,32316,6,0,P|162:346|175:313,1,50,2|0,1:0|0:0,0:0:0:0:
6,236,32469,2,0,P|30:229|55:230,1,50,0|0,1:0|0:0,0:0:0:0:
41,350,32621,6,0,P|55:329|75:314,1,50,8|0,1:2|0:0,0:0:0:0:
72,128,32773,2,0,P|98:141|121:169,1,50,0|0,1:0|0:0,0:0:0:0:
264,261,32926,5,0,1:0:0:0:
308,258,33002,1,0,1:0:0:0:
352,255,33078,1,0,1:0:0:0:
396,252,33154,1,0,1:0:0:0:
440,248,33230,6,0,L|456:280,1,25
457,232,33306,2,0,L|489:246,1,25
459,208,33382,2,0,L|493:197,1,25
451,175,33459,2,0,L|479:153,1,25
429,159,33535,6,0,L|417:97,1,50
244,322,33687,1,0,0:0:0:0:
253,351,33763,2,0,L|263:302,1,50
193,94,33915,1,0,0:0:0:0:
150,78,33992,1,0,0:0:0:0:
107,92,34068,1,0,0:0:0:0:
67,75,34144,5,0,0:0:0:0:
49,230,34296,1,0,0:0:0:0:
116,269,34372,2,0,B|132:225|132:225|112:176,1,100
0,231,34601,2,0,L|55:230,1,50
244,368,34753,6,0,L|233:267,1,100
257,192,34981,2,0,L|320:204,1,50
511,344,35134,5,0,0:0:0:0:
457,333,35210,1,0,0:0:0:0:
402,335,35286,1,0,0:0:0:0:
350,318,35362,6,0,L|346:260,1,50
423,114,35514,1,0,0:0:0:0:
438,116,35591,2,0,L|396:143,1,50
242,159,35743,1,0,0:0:0:0:
236,145,35819,2,0,L|280:167,1,50
189,301,35971,6,0,P|216:289|244:260,1,64.9999970245363
333,30,36124,1,0,0:0:0:0:
321,7,36200,2,0,P|316:36|328:75,1,64.9999970245363
483,267,36352,1,0,0:0:0:0:
509,268,36428,2,0,P|485:249|446:240,1,64.9999970245363
337,179,36580,6,0,L|229:168,1,100
198,109,36809,2,0,B|185:58|185:58|209:6,1,100
269,68,37037,1,0,0:0:0:0:
20,259,37190,6,0,L|131:252,1,100
186,284,37418,2,0,L|178:333,1,50
409,360,37570,1,0,0:0:0:0:
444,318,37646,1,0,0:0:0:0:
440,262,37723,1,0,0:0:0:0:
405,220,37799,6,0,L|338:200,1,50
336,99,37951,1,0,0:0:0:0:
327,105,38027,2,0,L|373:86,1,50
259,0,38179,1,0,0:0:0:0:
252,12,38255,2,0,L|220:74,1,50
34,133,38408,6,0,P|77:133|108:115,1,59.9999981689454
131,280,38560,1,0,0:0:0:0:
145,264,38636,2,0,P|134:292|114:314,1,59.9999981689454
294,346,38789,1,0,0:0:0:0:
304,369,38865,2,0,P|296:327|272:299,1,59.9999981689454
472,195,39017,5,0,0:0:0:0:
393,118,39169,1,0,0:0:0:0:
402,84,39245,1,0,0:0:0:0:
263,81,39398,1,0,0:0:0:0:
271,116,39474,1,0,0:0:0:0:
183,202,39626,5,0,0:0:0:0:
132,308,39778,1,0,0:0:0:0:
145,340,39855,1,0,0:0:0:0:
11,241,40007,1,0,0:0:0:0:
30,174,40083,1,0,0:0:0:0:
47,106,40159,1,0,0:0:0:0:
66,38,40235,6,0,L|75:102,1,50
183,202,40388,1,0,0:0:0:0:
170,225,40464,2,0,L|179:161,1,50
287,61,40616,1,0,0:0:0:0:
274,38,40692,2,0,L|283:102,1,50
479,325,40844,6,0,P|489:290|481:255,1,59.9999981689454
262,296,40997,1,0,0:0:0:0:
275,338,41073,2,0,P|300:364|334:374,1,59.9999981689454
407,162,41225,1,0,0:0:0:0:
365,154,41301,2,0,P|329:162|303:187,1,59.9999981689454
381,270,41454,5,0,0:0:0:0:
391,268,41530,1,0,0:0:0:0:
401,266,41606,1,0,0:0:0:0:
411,264,41682,1,0,0:0:0:0:
421,262,41758,1,0,0:0:0:0:
431,260,41834,1,0,0:0:0:0:
441,258,41910,1,0,0:0:0:0:
451,256,41987,1,0,0:0:0:0:
475,240,42063,5,0,0:0:0:0:
450,233,42139,1,0,0:0:0:0:
426,225,42215,1,0,0:0:0:0:
401,218,42291,1,0,0:0:0:0:
376,211,42367,1,0,0:0:0:0:
352,203,42443,1,0,0:0:0:0:
327,196,42519,1,0,0:0:0:0:
302,189,42596,1,0,0:0:0:0:
276,156,42672,6,0,L|272:115,1,25
276,156,42748,6,0,L|317:152,1,25
276,156,42824,6,0,L|280:197,1,25
276,156,42900,6,0,L|235:160,1,25
276,156,42976,6,0,L|272:115,1,25
276,156,43052,6,0,L|317:152,1,25
276,156,43128,6,0,L|280:197,1,25
276,156,43204,6,0,L|235:160,1,25
276,156,43281,6,0,L|272:115,1,25
257,164,43357,6,0,L|245:124,1,25
239,175,43433,6,0,L|221:137,1,25
223,189,43509,6,0,L|199:155,1,25
210,205,43585,6,0,L|180:176,1,25
201,224,43662,6,0,L|167:200,1,25
194,243,43738,6,0,L|156:225,1,25
191,265,43814,6,0,L|151:254,1,25
191,285,43890,6,0,L|24:301,1,150.000005722046
16,180,44119,2,0,L|7:232,1,50
257,354,44271,1,0,0:0:0:0:
283,311,44347,1,0,0:0:0:0:
277,261,44423,1,0,0:0:0:0:
246,220,44499,6,0,P|246:181|285:141,1,87.500000834465
245,73,44652,6,0,P|288:66|319:79,1,75.0000028610231
370,17,44804,6,0,P|395:44|397:84,1,62.5
483,75,44956,6,0,P|480:99|462:126,1,50
512,210,45108,6,0,L|358:197,1,150.000005722046
383,274,45337,2,0,P|412:252|420:230,1,50
187,15,45489,1,0,0:0:0:0:
158,57,45565,1,0,0:0:0:0:
165,107,45641,1,0,0:0:0:0:
206,137,45718,6,0,P|240:164|248:211,1,87.500000834465
317,243,45870,6,0,P|292:273|254:283,1,75.0000028610231
241,362,46022,6,0,P|200:342|181:314,1,62.5
112,358,46174,6,0,P|110:321|119:296,1,50
40,284,46327,6,0,L|76:133,1,150
0,34,46555,2,0,P|7:63|18:81,1,50
137,232,46707,1,0,0:0:0:0:
186,228,46783,1,0,0:0:0:0:
236,223,46860,1,0,0:0:0:0:
283,218,46936,6,0,P|324:219|356:190,1,87.500000834465
428,219,47088,6,0,P|435:180|417:140,1,75.0000028610231
486,94,47240,6,0,P|455:73|409:72,1,62.5
382,7,47393,6,0,P|362:26|354:51,1,50
267,45,47545,6,0,L|201:38,1,62.5
177,166,47697,1,0,0:0:0:0:
192,185,47773,2,0,L|145:137,1,62.5
47,207,47926,1,0,0:0:0:0:
46,231,48002,2,0,L|41:164,1,62.5
40,12,48154,6,0,P|70:29|85:65,1,62.5
82,332,48306,1,0,0:0:0:0:
101,337,48382,2,0,P|130:319|169:324,1,62.5
405,275,48611,5,0,0:0:0:0:
471,321,48687,1,0,0:0:0:0:
396,353,48763,5,0,0:0:0:0:
292,308,48992,1,0,0:0:0:0:
204,376,49220,1,0,0:0:0:0:
120,324,49372,5,0,0:0:0:0:
236,200,49601,1,0,0:0:0:0:
400,232,49829,1,0,0:0:0:0:
476,168,49981,5,0,0:0:0:0:
268,80,50210,1,0,0:0:0:0:
100,220,50438,1,0,0:0:0:0:
24,116,50591,5,0,0:0:0:0:
256,276,50819,1,0,0:0:0:0:
400,36,51047,1,0,0:0:0:0:
476,248,51200,5,0,0:0:0:0:
464,320,51276,1,0,0:0:0:0:
336,136,51428,5,0,0:0:0:0:
324,64,51504,1,0,0:0:0:0:
204,304,51657,5,0,0:0:0:0:
192,376,51733,1,0,0:0:0:0:
84,88,51885,5,0,0:0:0:0:
72,16,51961,1,0,0:0:0:0:
32,288,52113,5,0,0:0:0:0:
256,192,52266,1,0,0:0:0:0:
480,288,52418,5,0,0:0:0:0:
416,328,52494,1,0,0:0:0:0:
416,56,52646,5,0,0:0:0:0:
480,96,52722,1,0,0:0:0:0:
412,132,52799,1,0,0:0:0:0:
349,90,52875,1,0,0:0:0:0:
416,56,52951,6,0,B|404:12|404:12|364:72|364:72|332:60|332:60|312:96|312:96|276:88|276:88|256:116|256:116|225:97|225:97|201:128|201:128|168:116|168:116|142:139,1,400
28,304,53636,5,0,0:0:0:0:
88,348,53712,1,0,0:0:0:0:
140,356,53789,1,0,0:0:0:0:
174,349,53865,1,0,0:0:0:0:
196,336,53941,1,0,0:0:0:0:
208,320,54017,1,0,0:0:0:0:
212,304,54093,1,0,0:0:0:0:
212,288,54169,1,0,0:0:0:0:
208,272,54245,5,0,0:0:0:0:
200,260,54322,1,0,0:0:0:0:
192,256,54398,1,0,0:0:0:0:
182,253,54474,1,0,0:0:0:0:
172,253,54550,1,0,0:0:0:0:
162,256,54626,1,0,0:0:0:0:
154,262,54702,1,0,0:0:0:0:
148,270,54778,1,0,0:0:0:0:
146,277,54855,6,0,L|156:329,3,37.5000014305115
254,370,55159,6,0,L|263:326,3,42.5000008106232
351,261,55464,6,0,L|364:321,3,50
452,371,55768,6,0,P|482:351|490:330,1,50
512,222,55921,2,0,P|492:191|471:184,1,50
365,97,56073,5,0,0:0:0:0:
302,127,56149,1,0,0:0:0:0:
252,130,56225,1,0,0:0:0:0:
218,120,56301,1,0,0:0:0:0:
192,103,56377,1,0,0:0:0:0:
178,81,56454,1,0,0:0:0:0:
176,61,56530,1,0,0:0:0:0:
181,47,56606,1,0,0:0:0:0:
191,35,56682,5,0,0:0:0:0:
205,29,56758,1,0,0:0:0:0:
214,28,56834,1,0,0:0:0:0:
223,29,56910,1,0,0:0:0:0:
232,31,56987,1,0,0:0:0:0:
239,37,57063,1,0,0:0:0:0:
244,45,57139,1,0,0:0:0:0:
246,54,57215,1,0,0:0:0:0:
246,61,57291,6,0,L|232:110,3,37.5000014305115
365,169,57596,6,0,L|309:190,3,42.5000008106232
347,329,57900,6,0,L|275:308,3,50
177,378,58205,6,0,L|162:315,1,50
80,252,58357,2,0,L|95:189,1,50
195,66,58509,5,0,0:0:0:0:
251,24,58586,1,0,0:0:0:0:
300,18,58662,1,0,0:0:0:0:
334,25,58738,1,0,0:0:0:0:
357,43,58814,1,8,0:0:0:0:
365,66,58890,1,0,0:0:0:0:
365,85,58966,1,0,0:0:0:0:
357,98,59042,1,0,0:0:0:0:
343,104,59119,5,0,0:0:0:0:
328,106,59195,1,0,0:0:0:0:
318,104,59271,1,0,0:0:0:0:
308,99,59347,1,0,0:0:0:0:
301,91,59423,1,8,0:0:0:0:
295,82,59499,1,0,0:0:0:0:
289,73,59575,1,0,0:0:0:0:
289,62,59652,1,0,0:0:0:0:
295,54,59728,5,0,0:0:0:0:
328,75,59804,1,0,0:0:0:0:
340,113,59880,1,0,0:0:0:0:
325,150,59956,1,0,0:0:0:0:
291,171,60032,1,8,0:0:0:0:
251,165,60108,1,0,0:0:0:0:
223,135,60185,1,0,0:0:0:0:
183,129,60261,1,0,0:0:0:0:
146,144,60337,1,0,0:0:0:0:
128,179,60413,1,0,0:0:0:0:
142,216,60489,2,0,L|191:219,1,50
331,350,60641,5,8,0:0:0:0:
395,363,60718,1,0,0:0:0:0:
456,343,60794,1,0,0:0:0:0:
481,283,60870,1,0,0:0:0:0:
467,219,60946,5,8,0:0:0:0:
378,202,61098,1,8,0:0:0:0:
313,96,61251,5,8,0:0:0:0:
401,78,61403,1,8,0:0:0:0:
279,291,61555,5,8,0:0:0:0:
259,198,61707,1,8,0:0:0:0:
160,120,61860,5,8,0:0:0:0:
135,207,62012,1,8,0:0:0:0:
0,64,62164,5,8,0:0:0:0:
9,53,62240,1,8,0:0:0:0:
20,44,62316,1,8,0:0:0:0:
33,38,62392,1,8,0:0:0:0:
47,35,62468,1,8,0:0:0:0:
61,35,62544,1,8,0:0:0:0:
75,37,62620,1,8,0:0:0:0:
88,43,62696,1,8,0:0:0:0:
99,53,62773,6,0,L|139:46,1,25
389,137,62926,6,0,L|364:114,1,25
199,257,63078,6,0,B|184:254|167:256|167:256|183:243,1,37.5000014305115
282,374,63230,5,0,0:0:0:0:
475,218,63382,5,0,0:0:0:0:
494,176,63459,1,0,0:0:0:0:
486,131,63535,1,0,0:0:0:0:
453,100,63611,1,0,0:0:0:0:
408,95,63687,1,0,0:0:0:0:
368,116,63763,1,0,0:0:0:0:
351,157,63839,1,0,0:0:0:0:
351,201,63915,1,0,0:0:0:0:
332,242,63992,5,0,0:0:0:0:
303,261,64068,1,0,0:0:0:0:
268,259,64144,1,0,0:0:0:0:
239,238,64220,1,0,0:0:0:0:
228,204,64296,1,0,0:0:0:0:
238,170,64372,1,0,0:0:0:0:
268,153,64448,1,0,0:0:0:0:
301,158,64525,1,0,0:0:0:0:
329,179,64601,5,0,0:0:0:0:
326,193,64677,1,0,0:0:0:0:
323,207,64753,1,0,0:0:0:0:
320,221,64829,1,0,0:0:0:0:
317,235,64905,1,0,0:0:0:0:
314,249,64981,1,0,0:0:0:0:
311,263,65057,1,0,0:0:0:0:
308,277,65133,1,0,0:0:0:0:
304,291,65210,6,0,P|286:308|261:317,1,50
135,347,65362,2,0,P|111:339|90:322,1,50
36,126,65514,1,0,0:0:0:0:
72,95,65591,1,0,0:0:0:0:
115,100,65667,2,0,L|185:109,1,50
318,232,65819,5,0,0:0:0:0:
312,276,65895,1,0,0:0:0:0:
333,315,65971,1,0,0:0:0:0:
376,327,66047,1,0,0:0:0:0:
419,313,66124,1,0,0:0:0:0:
442,274,66200,1,0,0:0:0:0:
435,229,66276,1,0,0:0:0:0:
408,193,66352,1,0,0:0:0:0:
440,162,66428,5,0,0:0:0:0:
447,117,66504,1,0,0:0:0:0:
435,73,66580,1,0,0:0:0:0:
396,48,66657,1,0,0:0:0:0:
351,48,66733,1,0,0:0:0:0:
315,75,66809,1,0,0:0:0:0:
308,119,66885,1,0,0:0:0:0:
321,161,66961,1,0,0:0:0:0:
358,185,67037,6,0,L|305:180,1,50
347,268,67190,2,0,L|294:263,1,50
188,353,67342,6,0,L|135:358,1,50
177,270,67495,2,0,L|124:275,1,50
27,95,67646,5,0,0:0:0:0:
61,51,67723,1,0,0:0:0:0:
98,10,67799,1,0,0:0:0:0:
147,33,67875,1,0,0:0:0:0:
193,61,67951,2,0,L|225:55,6,25
119,118,68256,5,0,0:0:0:0:
104,167,68332,1,0,0:0:0:0:
143,200,68408,1,0,0:0:0:0:
115,243,68484,5,0,0:0:0:0:
154,276,68560,1,0,0:0:0:0:
139,325,68636,1,0,0:0:0:0:
170,366,68712,5,0,0:0:0:0:
170,366,68789,1,0,0:0:0:0:
324,44,69169,5,0,0:0:0:0:
307,75,69245,1,0,0:0:0:0:
324,106,69322,1,0,0:0:0:0:
306,137,69398,5,0,0:0:0:0:
323,168,69475,1,0,0:0:0:0:
306,199,69551,1,0,0:0:0:0:
313,233,69626,5,0,0:0:0:0:
313,233,69702,1,0,0:0:0:0:
501,192,70083,5,0,0:0:0:0:
486,208,70159,1,0,0:0:0:0:
488,229,70235,1,0,0:0:0:0:
469,240,70311,5,0,0:0:0:0:
471,261,70387,1,0,0:0:0:0:
456,277,70463,1,0,0:0:0:0:
437,289,70540,5,0,0:0:0:0:
437,289,70616,1,0,0:0:0:0:
437,289,70692,6,0,L|354:277,2,73.3333355712891
250,91,70997,1,0,0:0:0:0:
255,118,71098,2,0,L|272:200,1,73.3333355712891
133,279,71301,5,0,0:0:0:0:
106,296,71403,1,0,0:0:0:0:
74,299,71504,1,0,0:0:0:0:
34,172,71606,5,0,0:0:0:0:
61,155,71708,1,0,0:0:0:0:
93,152,71809,1,0,0:0:0:0:
195,196,71910,5,0,0:0:0:0:
242,201,72012,1,0,0:0:0:0:
289,206,72113,1,0,0:0:0:0:
349,289,72215,5,0,0:0:0:0:
412,282,72317,1,0,0:0:0:0:
475,275,72418,1,0,0:0:0:0:
492,135,72520,5,0,0:0:0:0:
494,123,72596,1,0,0:0:0:0:
496,111,72672,1,0,0:0:0:0:
498,99,72748,1,0,0:0:0:0:
500,87,72824,1,0,0:0:0:0:
502,75,72900,1,0,0:0:0:0:
504,63,72976,1,0,0:0:0:0:
506,51,73052,1,0,0:0:0:0:
508,39,73128,5,0,0:0:0:0:
90,69,73433,5,0,0:0:0:0:
90,69,73509,2,0,L|132:61,2,37.5000014305115
90,69,73890,1,0,0:0:0:0:
58,137,74042,1,0,0:0:0:0:
101,198,74195,1,0,0:0:0:0:
176,184,74347,6,0,B|222:189|222:189|232:184|232:184|240:192|240:192|300:200,2,112.500004291535
176,184,75413,1,0,0:0:0:0:
176,184,75489,1,0,0:0:0:0:
176,184,75565,6,0,L|168:288,1,104.999996795654
88,324,76174,6,0,B|148:316|148:316|172:324|172:324|252:312,1,150
256,312,76327,6,0,B|293:306|293:306|272:236|272:236|184:248|184:248|160:240|160:240|68:252,1,300
16,280,76479,6,0,L|4:216,1,50
6,230,76555,6,0,L|18:166,1,50
15,180,76631,6,0,L|3:116,1,50
5,130,76707,6,0,L|17:66,1,50
14,80,76783,6,0,P|68:40|152:60,1,150
311,211,77088,1,8,0:0:0:0:
344,174,77164,1,0,0:0:0:0:
339,124,77240,1,0,0:0:0:0:
297,96,77316,2,0,L|191:114,1,100
124,130,77545,1,0,0:0:0:0:
209,302,77697,2,0,B|213:282|213:282|206:254,1,50,8|0,0:0|0:0,0:0:0:0:
47,256,77849,2,0,B|44:277|44:277|51:305,1,50
132,360,78002,6,0,L|122:211,1,150
111,189,78306,2,0,B|156:160|156:160|219:174,1,100,8|0,0:0|0:0,0:0:0:0:
323,0,78611,6,0,L|313:164,1,150
300,167,78915,1,8,0:0:0:0:
475,291,79068,1,0,0:0:0:0:
475,291,79144,1,0,0:0:0:0:
475,291,79220,6,0,B|426:301|426:301|372:272,1,100
360,290,79448,1,0,0:0:0:0:
335,293,79525,2,0,L|347:184,1,100,8|0,0:0|0:0,0:0:0:0:
278,52,79829,6,0,B|226:36|226:36|184:59,1,100
161,53,80058,1,0,0:0:0:0:
138,42,80134,2,0,L|152:144,1,100,8|0,0:0|0:0,0:0:0:0:
73,282,80438,5,0,0:0:0:0:
239,337,80591,1,0,0:0:0:0:
239,337,80667,2,0,L|229:284,1,50,0|8,0:0|0:0,0:0:0:0:
30,110,80895,5,0,0:0:0:0:
302,193,81047,2,0,L|423:180,1,100
465,223,81276,1,0,0:0:0:0:
455,261,81352,1,8,0:0:0:0:
461,300,81428,1,0,0:0:0:0:
451,338,81504,2,0,L|436:283,1,50
431,0,81657,6,0,P|486:42|472:113,1,150,4|0,0:0|0:0,0:0:0:0:
265,186,81961,1,8,0:0:0:0:
276,137,82037,1,0,0:0:0:0:
323,121,82113,1,0,0:0:0:0:
369,141,82190,2,0,L|354:251,1,100
340,312,82418,1,0,0:0:0:0:
140,360,82570,2,0,P|113:368|80:365,1,50,8|0,0:0|0:0,0:0:0:0:
81,216,82723,2,0,P|107:207|141:211,1,50
188,283,82875,6,0,L|38:295,1,150
19,311,83179,2,0,B|-4:267|-4:267|2:213,1,100,8|0,0:0|0:0,0:0:0:0:
264,205,83484,6,0,B|286:166|286:166|272:56,1,150
269,37,83789,1,8,0:0:0:0:
2,44,83941,1,0,0:0:0:0:
49,29,84017,1,0,0:0:0:0:
94,48,84093,6,0,L|86:103,1,50
146,194,84245,2,0,L|138:249,1,50
189,52,84398,6,0,L|181:107,1,50,8|0,0:0|0:0,0:0:0:0:
241,198,84550,2,0,L|233:253,1,50
8,210,84702,6,0,P|33:188|57:185,1,50
283,110,84855,2,0,P|315:115|333:131,1,50
162,325,85007,6,0,P|181:340|194:361,1,50,8|0,0:0|0:0,0:0:0:0:
439,305,85159,2,0,P|439:329|431:353,1,50
306,293,85311,5,0,0:0:0:0:
285,262,85387,1,0,0:0:0:0:
277,225,85463,1,0,0:0:0:0:
285,189,85539,1,0,0:0:0:0:
306,158,85615,1,0,0:0:0:0:
315,122,85692,1,0,0:0:0:0:
310,85,85768,1,0,0:0:0:0:
291,53,85844,1,0,0:0:0:0:
261,32,85921,6,0,L|223:24,1,25
241,43,85997,6,0,L|212:17,1,25
218,46,86073,6,0,L|199:11,1,25
195,41,86149,6,0,L|189:2,1,25
175,31,86225,6,0,L|138:45,1,25
153,23,86301,6,0,L|129:53,1,25
130,24,86377,6,0,L|117:60,1,25
108,33,86453,6,0,L|109:71,1,25
91,49,86530,6,0,B|99:87|91:117|91:117|111:152|111:152|86:188|98:223,1,179.999994506836,4|0,0:0|0:0,0:0:0:0:
27,360,86834,1,8,0:0:0:0:
72,320,86910,1,0,0:0:0:0:
132,321,86987,1,0,0:0:0:0:
174,362,87063,2,0,B|276:357|276:357|262:354|252:345,1,119.999996337891
294,286,87291,1,0,0:0:0:0:
499,245,87443,2,0,P|505:282|497:307,1,59.9999981689454,8|0,0:0|0:0,0:0:0:0:
361,128,87596,2,0,P|372:92|394:69,1,59.9999981689454
484,131,87748,6,0,L|383:242,1,119.999996337891
353,275,87976,1,0,0:0:0:0:
340,288,88053,1,8,0:0:0:0:
248,25,88205,1,0,0:0:0:0:
322,286,88357,6,0,P|259:271|212:299,1,119.999996337891
147,320,88586,1,0,0:0:0:0:
129,315,88662,1,8,0:0:0:0:
401,120,88814,1,0,0:0:0:0:
439,73,88890,1,0,0:0:0:0:
410,20,88966,6,0,B|371:32|339:9|339:9|312:56|257:50,1,150.000005722046
251,122,89195,1,0,0:0:0:0:
251,122,89271,2,0,P|220:104|206:67,1,59.9999981689454,8|0,0:0|0:0,0:0:0:0:
35,124,89423,2,0,P|28:159|-2:185,1,59.9999981689454
123,36,89575,6,0,B|120:95|120:95|130:120|130:120|126:195,1,150.000005722046
207,222,89804,1,0,0:0:0:0:
207,222,89880,2,0,L|272:212,1,59.9999981689454,8|0,0:0|0:0,0:0:0:0:
227,357,90032,2,0,L|182:308,1,59.9999981689454
438,330,90185,6,0,B|397:285|397:285|300:292,1,150.000005722046
356,372,90413,1,0,0:0:0:0:
356,372,90489,2,0,P|370:344|368:301,1,59.9999981689454,8|0,0:0|0:0,0:0:0:0:
427,105,90641,2,0,L|356:117,1,59.9999981689454
156,26,90794,6,2,B|28:104|28:104|14:180|14:180|106:120|106:120|108:187|108:187|5:251,1,525.000020027161,2|0,1:0|1:0,1:0:0:0:
31,326,91403,6,0,B|147:251|147:251|162:285|204:299,1,194.999991073609,4|0,0:0|0:0,0:0:0:0:
357,368,91707,1,8,0:0:0:0:
369,310,91783,1,0,0:0:0:0:
325,269,91860,1,0,0:0:0:0:
267,277,91936,2,0,L|280:127,1,129.999994049073
287,70,92164,1,0,0:0:0:0:
425,115,92316,2,0,P|403:126|359:124,1,64.9999970245363,8|0,0:0|0:0,0:0:0:0:
143,114,92469,2,0,P|165:103|209:105,1,64.9999970245363
295,10,92621,6,0,L|280:146,1,129.999994049073
351,325,92849,2,0,B|377:265|377:265|344:198,1,129.999994049073
200,200,93078,2,0,L|128:190,1,64.9999970245363
11,265,93230,6,0,B|74:295|74:295|149:263,1,129.999994049073
141,106,93459,2,0,B|78:76|78:76|3:108,1,129.999994049073
310,326,93687,1,0,0:0:0:0:
367,374,93763,1,0,0:0:0:0:
437,349,93839,6,0,B|471:312|459:263|459:263|436:245|433:214,1,150.000005722046
449,25,94068,2,0,B|399:34|380:81|380:81|388:109|372:136,1,150.000005722046
267,240,94296,2,0,P|308:241|343:214,1,75.0000028610231
511,178,94448,6,0,B|451:167|451:167|430:145|430:145|350:133,1,150.000005722046
310,59,94677,2,0,B|250:70|250:70|229:92|229:92|149:104,1,150.000005722046
94,40,94905,2,0,B|77:70|77:70|82:101,1,64.9999970245363
141,364,95058,6,0,B|178:336|178:336|192:276|146:237,1,150.000005722046
0,86,95286,2,0,B|-13:130|-13:130|9:184|73:185,1,150.000005722046
224,103,95514,2,0,P|187:112|161:151,1,75.0000028610231
63,299,95667,6,0,B|185:281|185:281|220:293,1,150.000005722046
286,349,95895,2,0,B|408:367|408:367|443:355,1,150.000005722046
501,310,96124,2,0,B|506:276|506:276|489:240,1,75.0000028610231
290,146,96276,5,0,0:0:0:0:
258,178,96352,1,0,0:0:0:0:
245,176,96428,1,0,0:0:0:0:
232,174,96504,1,0,0:0:0:0:
219,172,96580,1,0,0:0:0:0:
206,170,96656,1,0,0:0:0:0:
193,168,96733,1,0,0:0:0:0:
180,166,96809,1,0,0:0:0:0:
157,127,96885,5,0,0:0:0:0:
125,159,96961,1,0,0:0:0:0:
112,157,97037,1,0,0:0:0:0:
99,155,97113,1,0,0:0:0:0:
86,153,97189,1,0,0:0:0:0:
73,151,97265,1,0,0:0:0:0:
60,149,97342,1,0,0:0:0:0:
47,147,97418,1,0,0:0:0:0:
19,131,97494,6,0,L|53:125,1,25
42,128,97570,6,0,L|76:122,1,25
66,125,97646,6,0,L|100:119,1,25
90,121,97722,6,0,L|124:115,1,25
114,118,97799,6,0,L|148:112,1,25
138,114,97875,6,0,L|172:108,1,25
162,111,97951,6,0,L|196:105,1,25
186,107,98027,6,0,L|220:101,1,25
210,103,98103,5,0,0:0:0:0:
210,103,98712,5,0,0:0:0:0:
377,142,98865,1,0,0:0:0:0:
381,119,98941,1,0,0:0:0:0:
291,81,99093,1,0,0:0:0:0:
295,104,99169,1,0,0:0:0:0:
403,224,99322,1,0,0:0:0:0:
424,213,99398,1,0,0:0:0:0:
235,296,99550,1,0,0:0:0:0:
235,296,99626,5,0,0:0:0:0:
198,317,99702,1,0,0:0:0:0:
160,298,99778,1,0,0:0:0:0:
126,324,99855,1,0,0:0:0:0:
87,306,99931,5,0,0:0:0:0:
101,143,100083,1,0,0:0:0:0:
104,119,100159,1,0,0:0:0:0:
185,283,100311,1,0,0:0:0:0:
197,304,100387,1,0,0:0:0:0:
34,219,100540,1,0,0:0:0:0:
12,209,100616,1,0,0:0:0:0:
193,182,100768,1,0,0:0:0:0:
193,182,100844,5,0,0:0:0:0:
235,187,100921,1,0,0:0:0:0:
261,219,100997,1,0,0:0:0:0:
298,200,101073,1,0,0:0:0:0:
337,212,101149,5,0,0:0:0:0:
483,151,101301,1,0,0:0:0:0:
506,146,101377,1,0,0:0:0:0:
335,123,101530,1,0,0:0:0:0:
312,118,101606,1,0,0:0:0:0:
469,233,101758,1,0,0:0:0:0:
492,228,101834,1,0,0:0:0:0:
415,64,101987,1,0,0:0:0:0:
415,64,102063,5,0,0:0:0:0:
387,17,102139,1,0,0:0:0:0:
333,26,102215,1,0,0:0:0:0:
280,14,102291,1,0,0:0:0:0:
246,56,102367,5,0,0:0:0:0:
114,251,102520,1,0,0:0:0:0:
155,252,102596,1,0,0:0:0:0:
189,228,102672,1,0,0:0:0:0:
103,62,102824,1,0,0:0:0:0:
15,191,102976,1,0,0:0:0:0:
123,347,103129,1,0,0:0:0:0:
123,347,103205,1,0,0:0:0:0:
123,347,103281,6,0,L|133:376,1,29.9999990844727
142,339,103357,2,0,L|152:368,1,29.9999990844727
162,331,103433,2,0,L|172:360,1,29.9999990844727
182,323,103509,2,0,L|192:352,1,29.9999990844727
206,314,103586,6,0,B|263:295|263:295|287:327|323:324,1,119.999996337891
385,169,103814,6,0,P|316:149|252:214,1,170.000003242493
404,294,104042,6,0,P|417:271|419:245,1,50
336,237,104195,5,0,0:0:0:0:
336,237,104271,2,0,L|312:93,1,129.999994049073
191,54,104499,5,0,0:0:0:0:
159,93,104575,1,0,0:0:0:0:
186,135,104652,1,0,0:0:0:0:
234,122,104728,1,0,0:0:0:0:
236,72,104804,6,0,B|189:68|189:68|183:61|183:61|176:68|176:68|118:65,1,119.999996337891
32,254,105032,6,0,B|88:216|88:216|93:202|93:202|106:205|106:205|171:160,1,170.000003242493
203,274,105261,6,0,L|196:335,1,50
370,328,105413,5,0,0:0:0:0:
370,328,105489,2,0,B|342:280|342:280|330:274|330:274|332:261|332:261|308:213,1,129.999994049073
352,70,105718,5,0,0:0:0:0:
384,109,105794,1,0,0:0:0:0:
357,151,105871,1,0,0:0:0:0:
309,138,105947,1,0,0:0:0:0:
307,88,106022,6,0,P|354:71|414:108,1,119.999996337891
475,44,106251,6,0,P|429:117|468:195,1,170.000003242493
507,189,106479,6,0,P|481:183|454:189,1,50
454,335,106631,5,0,0:0:0:0:
454,335,106707,2,0,P|442:278|377:251,1,129.999994049073
218,352,106936,5,0,0:0:0:0:
186,313,107012,1,0,0:0:0:0:
213,271,107089,1,0,0:0:0:0:
261,284,107165,1,0,0:0:0:0:
266,334,107240,5,0,0:0:0:0:
246,331,107316,1,0,0:0:0:0:
226,327,107393,1,0,0:0:0:0:
206,324,107469,1,0,0:0:0:0:
186,320,107546,1,0,0:0:0:0:
166,317,107621,1,0,0:0:0:0:
146,313,107698,1,0,0:0:0:0:
126,310,107774,1,0,0:0:0:0:
106,308,107849,6,0,L|63:324,1,32.4999985122681
90,290,107926,2,0,L|47:306,1,32.4999985122681
74,272,108002,2,0,L|31:288,1,32.4999985122681
58,254,108078,2,0,L|15:270,1,32.4999985122681
42,236,108154,6,0,L|28:218,12,16.2499992561341
85,164,108459,5,0,0:0:0:0:
62,89,108535,1,0,0:0:0:0:
327,94,108687,5,0,0:0:0:0:
334,15,108764,1,0,0:0:0:0:
185,94,108915,5,0,0:0:0:0:
178,15,108992,1,0,0:0:0:0:
427,164,109145,5,0,0:0:0:0:
450,89,109221,1,0,0:0:0:0:
257,48,109372,5,0,0:0:0:0:
257,336,109525,1,0,0:0:0:0:
54,217,109677,5,0,0:0:0:0:
107,160,109753,1,0,0:0:0:0:
458,167,109981,5,0,0:0:0:0:
405,224,110057,1,0,0:0:0:0:
334,191,110134,1,0,0:0:0:0:
343,113,110210,1,0,0:0:0:0:
47,356,110438,5,0,0:0:0:0:
54,349,110514,1,0,0:0:0:0:
60,341,110591,1,0,0:0:0:0:
63,331,110667,1,0,0:0:0:0:
63,321,110743,1,0,0:0:0:0:
61,311,110819,1,0,0:0:0:0:
57,301,110895,5,0,0:0:0:0:
47,283,110971,1,0,0:0:0:0:
46,263,111047,1,0,0:0:0:0:
50,243,111124,1,0,0:0:0:0:
63,228,111200,5,0,0:0:0:0:
90,215,111276,1,0,0:0:0:0:
119,214,111352,1,0,0:0:0:0:
145,227,111428,1,0,0:0:0:0:
174,230,111504,5,0,0:0:0:0:
213,222,111580,1,0,0:0:0:0:
241,192,111657,1,0,0:0:0:0:
243,152,111733,1,0,0:0:0:0:
224,116,111809,5,0,0:0:0:0:
175,105,111885,1,0,0:0:0:0:
132,131,111961,1,0,0:0:0:0:
125,180,112037,1,0,0:0:0:0:
149,223,112113,5,0,0:0:0:0:
188,254,112190,1,0,0:0:0:0:
236,240,112266,1,0,0:0:0:0:
271,274,112342,1,0,0:0:0:0:
320,266,112418,5,0,0:0:0:0:
359,297,112495,1,0,0:0:0:0:
407,283,112571,1,0,0:0:0:0:
442,317,112646,2,0,L|483:311,1,25
