osu file format v14

[General]
AudioFilename: audio.mp3
AudioLeadIn: 0
PreviewTime: 65830
Countdown: 0
SampleSet: Soft
StackLeniency: 0.7
Mode: 3
LetterboxInBreaks: 0
SpecialStyle: 0
WidescreenStoryboard: 0

[Editor]
DistanceSpacing: 1.4
BeatDivisor: 4
GridSize: 8
TimelineZoom: 2.3

[Metadata]
Title:Final Letter
TitleUnicode:ファイナルレター
Artist:Kaneko Chiharu
ArtistUnicode:かねこちはる
Creator:Tofu1222
Version:MAXIMUM
Source:SOUND VOLTEX IV HEAVENLY HAVEN
Tags:SDVX BEMANI KONAMI -MysticEyes K_a_b_i_- Kabi- _Kobii Leniane FAMoss 7th KAC Video Game Instrumental
BeatmapID:1845376
BeatmapSetID:882704

[Difficulty]
HPDrainRate:8.5
CircleSize:4
OverallDifficulty:8.5
ApproachRate:5
SliderMultiplier:1.4
SliderTickRate:1

[Events]
//Background and Video events
0,0,"bg.png",0,0
//Break Periods
//Storyboard Layer 0 (Background)
//Storyboard Layer 1 (Fail)
//Storyboard Layer 2 (Pass)
//Storyboard Layer 3 (Foreground)
//Storyboard Sound Samples
Sample,19586,0,"clap1.wav",40
Sample,19879,0,"clap1.wav",40
Sample,20757,0,"clap1.wav",40
Sample,21049,0,"clap1.wav",40
Sample,49293,0,"S2.wav",50
Sample,55805,0,"S2.wav",50
Sample,65683,0,"S2.wav",50
Sample,75049,0,"S2.wav",50

[TimingPoints]
562,292.682926829268,4,2,1,20,1,0
9927,-100,4,2,1,30,0,0
14610,-100,4,2,1,40,0,0
21927,-100,4,2,1,30,0,0
22805,-100,4,2,1,20,0,0
26318,-100,4,2,1,30,0,0
28659,-100,4,2,1,40,0,0
35757,-100,4,2,1,20,0,0
38025,-100,4,2,1,30,0,0
39196,-100,4,2,1,40,0,0
59098,-100,4,2,1,20,0,0
61440,-100,4,2,1,30,0,0
63488,-100,4,2,1,40,0,0
66122,-100,4,2,1,50,0,1
91586,-100,4,2,1,50,0,0
91952,-100,4,2,1,20,0,0
93635,-100,4,2,1,30,0,0
95976,-100,4,2,1,40,0,0
97732,-100,4,2,1,50,0,1
115293,-100,4,2,1,50,0,0

[HitObjects]
64,192,562,5,4,0:0:0:0:
448,192,562,1,0,0:0:0:0:
192,192,1001,1,0,0:0:0:0:
64,192,1147,1,0,0:0:0:70:clap2.wav
320,192,1147,1,0,0:0:0:0:
448,192,1147,1,0,0:0:0:0:
192,192,1293,1,0,0:0:0:0:
320,192,1513,1,0,0:0:0:0:
64,192,1732,1,0,0:0:0:0:
448,192,1732,1,0,0:0:0:0:
192,192,2171,1,0,0:0:0:0:
320,192,2244,1,0,0:0:0:0:
64,192,2318,1,0,0:0:0:70:clap2.wav
192,192,2318,1,0,0:0:0:0:
448,192,2318,1,0,0:0:0:0:
320,192,2464,1,0,0:0:0:0:
64,192,2610,1,0,0:0:0:0:
320,192,2757,1,0,0:0:0:0:
448,192,2830,1,0,0:0:0:0:
64,192,2903,1,0,0:0:0:0:
192,192,2903,1,0,0:0:0:0:
320,192,3049,1,0,0:0:0:0:
448,192,3196,1,0,0:0:0:0:
64,192,3342,1,0,0:0:0:0:
192,192,3415,1,0,0:0:0:0:
320,192,3488,1,0,0:0:0:70:clap2.wav
448,192,3488,1,0,0:0:0:0:
192,192,3635,1,0,0:0:0:0:
64,192,3781,1,0,0:0:0:0:
320,192,3927,1,0,0:0:0:0:
64,192,4074,1,0,0:0:0:0:
448,192,4074,1,0,0:0:0:0:
192,192,4220,1,0,0:0:0:0:
320,192,4269,1,0,0:0:0:0:
448,192,4318,1,0,0:0:0:0:
64,192,4366,1,0,0:0:0:0:
320,192,4440,1,0,0:0:0:0:
192,192,4513,1,0,0:0:0:0:
448,192,4586,1,0,0:0:0:0:
64,192,4659,1,0,0:0:0:70:clap2.wav
192,192,4659,1,0,0:0:0:0:
320,192,4659,1,0,0:0:0:0:
192,192,4805,1,0,0:0:0:0:
320,192,4879,1,0,0:0:0:0:
64,192,4952,1,0,0:0:0:0:
448,192,5025,1,0,0:0:0:0:
192,192,5098,1,0,0:0:0:0:
320,192,5171,1,0,0:0:0:0:
64,192,5244,1,4,0:0:0:0:
448,192,5244,1,0,0:0:0:0:
320,192,5683,1,0,0:0:0:0:
64,192,5830,1,0,0:0:0:70:clap2.wav
192,192,5830,1,0,0:0:0:0:
448,192,5830,1,0,0:0:0:0:
320,192,5976,1,0,0:0:0:0:
192,192,6196,1,0,0:0:0:0:
64,192,6415,1,0,0:0:0:0:
448,192,6415,1,0,0:0:0:0:
192,192,6854,1,0,0:0:0:0:
320,192,7001,1,0,0:0:0:70:clap2.wav
448,192,7001,1,0,0:0:0:0:
64,192,7049,1,0,0:0:0:0:
192,192,7098,1,0,0:0:0:0:
448,192,7147,1,0,0:0:0:0:
320,192,7196,1,0,0:0:0:0:
192,192,7244,1,0,0:0:0:0:
448,192,7293,1,0,0:0:0:0:
64,192,7342,1,0,0:0:0:0:
320,192,7391,1,0,0:0:0:0:
192,192,7440,1,0,0:0:0:0:
64,192,7488,1,0,0:0:0:0:
448,192,7537,1,0,0:0:0:0:
192,192,7586,1,0,0:0:0:0:
320,192,7586,1,0,0:0:0:0:
448,192,7781,1,0,0:0:0:0:
64,192,7976,1,0,0:0:0:0:
192,192,8171,1,0,0:0:0:70:clap2.wav
320,192,8171,1,0,0:0:0:0:
448,192,8171,1,0,0:0:0:0:
64,192,8366,1,0,0:0:0:0:
448,192,8561,1,0,0:0:0:0:
192,192,8757,1,0,0:0:0:0:
320,192,8757,1,0,0:0:0:0:
64,192,8903,1,0,0:0:0:0:
192,192,8952,1,0,0:0:0:0:
448,192,9001,1,0,0:0:0:0:
320,192,9049,1,0,0:0:0:0:
192,192,9098,1,0,0:0:0:0:
320,192,9196,1,0,0:0:0:0:
64,192,9342,1,0,0:0:0:70:clap2.wav
192,192,9342,1,0,0:0:0:0:
448,192,9342,1,0,0:0:0:0:
320,192,9488,1,0,0:0:0:0:
64,192,9635,1,0,0:0:0:0:
320,192,9781,1,0,0:0:0:0:
192,192,9854,1,0,0:0:0:0:
64,192,9927,1,4,0:0:0:0:
320,192,9927,1,0,0:0:0:50:S1.wav
448,192,9927,1,0,0:0:0:0:
192,192,10074,1,0,0:0:0:0:
320,192,10147,1,0,0:0:0:0:
64,192,10220,1,0,0:0:0:50:S1.wav
448,192,10220,1,0,0:0:0:0:
320,192,10366,1,0,0:0:0:0:
192,192,10440,1,0,0:0:0:0:
64,192,10513,1,0,0:0:0:50:S1.wav
448,192,10513,1,0,0:0:0:70:clap2.wav
192,192,10659,1,0,0:0:0:0:
320,192,10732,1,0,0:0:0:0:
64,192,10805,1,0,0:0:0:50:S1.wav
448,192,10805,1,0,0:0:0:0:
320,192,10952,1,0,0:0:0:0:
192,192,11025,1,0,0:0:0:0:
64,192,11098,1,0,0:0:0:50:S1.wav
448,192,11098,1,0,0:0:0:0:
192,192,11244,1,0,0:0:0:0:
320,192,11318,1,0,0:0:0:0:
64,192,11391,1,0,0:0:0:50:S1.wav
448,192,11391,1,0,0:0:0:0:
192,192,11537,1,0,0:0:0:0:
320,192,11610,1,0,0:0:0:0:
64,192,11683,1,0,0:0:0:50:S1.wav
192,192,11683,1,0,0:0:0:70:clap2.wav
320,192,11830,1,0,0:0:0:0:
192,192,11903,1,0,0:0:0:0:
64,192,11976,1,0,0:0:0:50:S1.wav
448,192,11976,1,0,0:0:0:0:
320,192,12122,1,0,0:0:0:0:
192,192,12196,1,0,0:0:0:0:
320,192,12269,1,0,0:0:0:50:S1.wav
448,192,12269,1,0,0:0:0:0:
64,192,12366,1,0,0:0:0:0:
192,192,12415,1,0,0:0:0:0:
320,192,12464,1,0,0:0:0:0:
448,192,12513,1,0,0:0:0:0:
64,192,12561,1,0,0:0:0:50:S1.wav
192,192,12561,1,0,0:0:0:0:
320,192,12610,1,0,0:0:0:0:
448,192,12659,1,0,0:0:0:0:
64,192,12708,1,0,0:0:0:0:
192,192,12757,1,0,0:0:0:0:
320,192,12805,1,0,0:0:0:0:
64,192,12854,1,0,0:0:0:50:S1.wav
448,192,12854,1,0,0:0:0:70:clap2.wav
192,192,13001,1,0,0:0:0:0:
320,192,13074,1,0,0:0:0:0:
64,192,13147,1,0,0:0:0:50:S1.wav
448,192,13147,1,0,0:0:0:0:
192,192,13293,1,0,0:0:0:0:
320,192,13366,1,0,0:0:0:0:
64,192,13440,1,0,0:0:0:50:S1.wav
192,192,13440,1,0,0:0:0:0:
448,192,13537,1,0,0:0:0:0:
320,192,13586,1,0,0:0:0:0:
192,192,13635,1,0,0:0:0:0:
64,192,13683,1,0,0:0:0:0:
320,192,13732,1,0,0:0:0:50:S1.wav
448,192,13732,1,0,0:0:0:0:
192,192,13781,1,0,0:0:0:0:
64,192,13830,1,0,0:0:0:0:
448,192,13879,1,0,0:0:0:0:
320,192,13927,1,0,0:0:0:0:
192,192,13976,1,0,0:0:0:0:
64,192,14025,1,0,0:0:0:70:clap1.wav
448,192,14025,1,0,0:0:0:0:
320,192,14171,1,0,0:0:0:0:
64,192,14318,1,0,0:0:0:0:
448,192,14318,1,0,0:0:0:0:
192,192,14391,1,0,0:0:0:0:
320,192,14464,1,0,0:0:0:0:
64,192,14610,1,0,0:0:0:50:S1.wav
192,192,14610,1,0,0:0:0:70:clap2.wav
448,192,14610,1,0,0:0:0:0:
192,192,14757,1,0,0:0:0:50:S1.wav
320,192,14757,1,0,0:0:0:0:
320,192,14903,1,0,0:0:0:50:S1.wav
448,192,14903,1,0,0:0:0:0:
64,192,15049,1,0,0:0:0:50:S1.wav
192,192,15049,1,0,0:0:0:0:
64,192,15196,1,0,0:0:0:50:S1.wav
320,192,15196,1,0,0:0:0:70:clap2.wav
448,192,15196,1,0,0:0:0:0:
192,192,15342,1,0,0:0:0:50:S1.wav
320,192,15342,1,0,0:0:0:0:
64,192,15488,1,0,0:0:0:50:S1.wav
192,192,15488,1,0,0:0:0:0:
320,192,15635,1,0,0:0:0:50:S1.wav
448,192,15635,1,0,0:0:0:0:
64,192,15781,1,0,0:0:0:50:S1.wav
192,192,15781,1,0,0:0:0:70:clap2.wav
448,192,15781,1,0,0:0:0:0:
192,192,15927,1,0,0:0:0:50:S1.wav
320,192,15927,1,0,0:0:0:0:
320,192,16074,1,0,0:0:0:50:S1.wav
448,192,16074,1,0,0:0:0:0:
64,192,16220,1,0,0:0:0:50:S1.wav
192,192,16220,1,0,0:0:0:0:
64,192,16366,1,0,0:0:0:50:S1.wav
320,192,16366,1,0,0:0:0:70:clap2.wav
448,192,16366,1,0,0:0:0:0:
192,192,16513,1,0,0:0:0:50:S1.wav
320,192,16513,1,0,0:0:0:0:
64,192,16659,128,0,16952:0:0:0:0:
192,192,16805,128,0,16952:0:0:0:0:
320,192,16952,1,0,0:0:0:50:S1.wav
448,192,16952,1,0,0:0:0:70:clap2.wav
64,192,17025,1,0,0:0:0:50:S1.wav
192,192,17025,1,0,0:0:0:0:
320,192,17098,1,0,0:0:0:50:S1.wav
448,192,17098,1,0,0:0:0:0:
64,192,17171,1,0,0:0:0:50:S1.wav
192,192,17171,1,0,0:0:0:0:
320,192,17244,1,0,0:0:0:50:S1.wav
448,192,17244,1,0,0:0:0:70:clap2.wav
64,192,17318,1,0,0:0:0:50:S1.wav
192,192,17318,1,0,0:0:0:0:
320,192,17391,1,0,0:0:0:50:S1.wav
448,192,17391,1,0,0:0:0:0:
64,192,17464,1,0,0:0:0:50:S1.wav
192,192,17464,1,0,0:0:0:0:
320,192,17537,1,0,0:0:0:50:S1.wav
448,192,17537,1,0,0:0:0:70:clap2.wav
64,192,17610,1,0,0:0:0:50:S1.wav
192,192,17610,1,0,0:0:0:0:
320,192,17683,1,0,0:0:0:50:S1.wav
448,192,17683,1,0,0:0:0:0:
64,192,17757,1,0,0:0:0:50:S1.wav
192,192,17757,1,0,0:0:0:0:
320,192,17830,1,0,0:0:0:50:S1.wav
448,192,17830,1,0,0:0:0:70:clap2.wav
64,192,17903,1,0,0:0:0:50:S1.wav
192,192,17903,1,0,0:0:0:0:
320,192,17976,1,0,0:0:0:50:S1.wav
448,192,17976,1,0,0:0:0:0:
64,192,18049,1,0,0:0:0:50:S1.wav
192,192,18049,1,0,0:0:0:0:
320,192,18122,1,0,0:0:0:70:LR_Tom Normal.wav
448,192,18122,1,0,0:0:0:0:
192,192,18196,1,0,0:0:0:70:LR_Tom Normal.wav
64,192,18269,1,0,0:0:0:70:tom01.wav
320,192,18269,1,0,0:0:0:0:
192,192,18342,1,0,0:0:0:70:tom01.wav
320,192,18415,1,0,0:0:0:70:tom02.wav
192,192,18488,1,0,0:0:0:70:tom02.wav
320,192,18561,1,0,0:0:0:70:tom03.wav
448,192,18561,1,0,0:0:0:0:
192,192,18635,1,0,0:0:0:70:tom03.wav
64,192,18708,1,0,0:0:0:70:tom04.wav
320,192,18708,1,0,0:0:0:0:
192,192,18781,1,0,0:0:0:70:tom04.wav
320,192,18854,1,0,0:0:0:70:K1.wav
448,192,18854,1,0,0:0:0:0:
64,192,19001,1,0,0:0:0:70:clap1.wav
192,192,19001,128,0,19293:0:0:0:0:
448,192,19001,1,0,0:0:0:0:
64,192,19293,128,4,19879:0:0:0:0:
320,192,19293,1,2,0:0:0:0:
448,192,19293,1,0,0:0:0:70:sparkler.wav
320,192,19586,1,2,0:0:0:0:
192,192,19732,1,0,0:0:0:0:
320,192,19879,1,2,0:0:0:0:
448,192,20025,1,0,0:0:0:0:
192,192,20171,1,2,0:0:0:0:
320,192,20171,1,0,0:0:0:0:
64,192,20220,1,0,0:0:0:0:
192,192,20464,1,2,0:0:0:0:
192,192,20757,1,2,0:0:0:0:
192,192,21049,1,2,0:0:0:0:
320,192,21196,1,0,0:0:0:0:
192,192,21342,1,2,0:0:0:0:
64,192,21488,1,0,0:0:0:0:
320,192,21635,1,2,0:0:0:0:
448,192,21635,1,0,0:0:0:0:
448,192,21927,1,0,0:0:0:30:clap1.wav
64,192,22074,1,0,0:0:0:0:
192,192,22074,1,0,0:0:0:0:
448,192,22220,1,0,0:0:0:30:clap1.wav
64,192,22366,1,0,0:0:0:0:
320,192,22513,1,0,0:0:0:0:
448,192,22513,1,0,0:0:0:0:
64,192,22805,1,0,0:0:0:0:
64,192,23098,1,0,0:0:0:30:clap1.wav
64,192,23391,1,0,0:0:0:30:clap1.wav
320,192,23537,1,0,0:0:0:0:
64,192,23683,1,0,0:0:0:0:
192,192,23830,1,0,0:0:0:0:
320,192,23940,1,0,0:0:0:0:
64,192,23976,1,0,0:0:0:0:
448,192,23976,1,0,0:0:0:0:
448,192,24269,1,0,0:0:0:30:clap1.wav
192,192,24415,1,0,0:0:0:0:
448,192,24561,1,0,0:0:0:30:clap1.wav
64,192,24708,1,0,0:0:0:0:
448,192,24854,1,0,0:0:0:0:
320,192,24891,1,0,0:0:0:0:
192,192,25147,1,0,0:0:0:0:
320,192,25147,1,0,0:0:0:0:
192,192,25440,1,0,0:0:0:30:clap1.wav
192,192,25732,1,0,0:0:0:30:clap1.wav
320,192,25879,1,0,0:0:0:0:
192,192,26025,1,0,0:0:0:0:
64,192,26171,1,0,0:0:0:0:
448,192,26281,1,0,0:0:0:0:
192,192,26318,1,0,0:0:0:0:
320,192,26318,1,0,0:0:0:0:
64,192,26464,1,0,0:0:0:0:
448,192,26464,1,0,0:0:0:0:
64,192,26610,1,0,0:0:0:30:clap1.wav
320,192,26610,1,0,0:0:0:0:
192,192,26757,1,0,0:0:0:0:
448,192,26757,1,0,0:0:0:0:
320,192,26903,1,0,0:0:0:30:clap1.wav
64,192,27049,1,0,0:0:0:0:
320,192,27196,1,0,0:0:0:0:
192,192,27269,1,0,0:0:0:0:
320,192,27415,1,0,0:0:0:0:
64,192,27488,128,0,28074:0:0:0:30:clap1.wav
448,192,27488,1,0,0:0:0:0:
192,192,28074,128,0,28659:0:0:0:0:
320,192,28074,1,0,0:0:0:0:
64,192,28659,1,4,0:0:0:0:
320,192,28659,1,2,0:0:0:0:
448,192,28659,1,0,0:0:0:0:
64,192,28805,1,0,0:0:0:0:
192,192,28952,1,8,0:0:0:0:
320,192,28952,1,0,0:0:0:0:
448,192,28952,128,0,29098:0:0:0:0:
64,192,29098,128,0,29391:0:0:0:0:
320,192,29244,1,2,0:0:0:0:
448,192,29244,1,0,0:0:0:0:
192,192,29391,128,0,29537:0:0:0:0:
64,192,29537,128,8,29830:0:0:0:0:
320,192,29537,1,0,0:0:0:0:
448,192,29537,1,0,0:0:0:0:
192,192,29683,1,0,0:0:0:0:
320,192,29830,1,2,0:0:0:0:
448,192,29830,1,0,0:0:0:0:
192,192,29976,1,0,0:0:0:0:
64,192,30122,1,8,0:0:0:0:
320,192,30122,1,0,0:0:0:0:
448,192,30122,1,0,0:0:0:0:
192,192,30269,1,0,0:0:0:0:
320,192,30415,128,2,30561:0:0:0:0:
448,192,30415,1,0,0:0:0:0:
64,192,30561,1,2,0:0:0:0:
192,192,30561,128,0,30708:0:0:0:0:
64,192,30708,1,8,0:0:0:0:
320,192,30708,1,0,0:0:0:0:
448,192,30708,128,0,30854:0:0:0:0:
192,192,30854,1,2,0:0:0:0:
320,192,30854,128,0,31001:0:0:0:0:
64,192,31001,128,2,31293:0:0:0:0:
448,192,31001,1,0,0:0:0:0:
320,192,31147,1,0,0:0:0:0:
192,192,31293,1,8,0:0:0:0:
320,192,31293,1,0,0:0:0:0:
448,192,31293,128,0,31440:0:0:0:0:
64,192,31440,128,0,31732:0:0:0:0:
192,192,31586,1,2,0:0:0:0:
320,192,31586,1,0,0:0:0:0:
448,192,31732,128,0,31879:0:0:0:0:
64,192,31879,1,8,0:0:0:0:
192,192,31879,128,0,32171:0:0:0:0:
320,192,31879,1,0,0:0:0:0:
320,192,32025,1,0,0:0:0:0:
64,192,32171,1,2,0:0:0:0:
448,192,32171,1,0,0:0:0:0:
192,192,32318,1,0,0:0:0:0:
64,192,32464,1,8,0:0:0:0:
320,192,32464,1,0,0:0:0:0:
448,192,32464,1,0,0:0:0:0:
192,192,32610,1,0,0:0:0:0:
320,192,32757,128,2,33049:0:0:0:0:
448,192,32757,1,0,0:0:0:0:
192,192,32903,1,0,0:0:0:0:
64,192,33049,1,8,0:0:0:0:
192,192,33049,1,0,0:0:0:0:
448,192,33049,128,0,33342:0:0:0:0:
320,192,33196,1,0,0:0:0:0:
64,192,33342,1,2,0:0:0:0:
192,192,33342,128,0,33635:0:0:0:0:
448,192,33488,1,0,0:0:0:0:
64,192,33635,128,8,33781:0:0:0:0:
320,192,33635,1,0,0:0:0:0:
448,192,33635,1,0,0:0:0:0:
192,192,33781,1,2,0:0:0:0:
320,192,33781,128,0,34220:0:0:0:0:
64,192,34220,1,8,0:0:0:0:
192,192,34220,128,4,34513:0:0:0:0:
448,192,34220,1,0,0:0:0:0:
320,192,34366,1,0,0:0:0:0:
64,192,34513,1,2,0:0:0:0:
448,192,34513,1,0,0:0:0:0:
192,192,34659,1,2,0:0:0:0:
320,192,34659,1,0,0:0:0:0:
64,192,34805,1,8,0:0:0:0:
192,192,34805,1,0,0:0:0:0:
448,192,34805,1,0,0:0:0:0:
320,192,34879,1,0,0:0:0:0:
64,192,34952,1,2,0:0:0:0:
448,192,34952,1,0,0:0:0:0:
192,192,35025,1,0,0:0:0:0:
320,192,35098,1,2,0:0:0:0:
448,192,35098,1,0,0:0:0:0:
64,192,35171,1,2,0:0:0:0:
192,192,35171,1,0,0:0:0:0:
320,192,35244,1,2,0:0:0:0:
448,192,35244,1,0,0:0:0:0:
64,192,35318,1,2,0:0:0:0:
192,192,35318,1,0,0:0:0:0:
320,192,35391,1,8,0:0:0:0:
448,192,35391,1,0,0:0:0:0:
64,192,35427,1,2,0:0:0:0:
192,192,35464,1,2,0:0:0:0:
320,192,35501,1,2,0:0:0:0:
448,192,35537,1,2,0:0:0:0:
64,192,35574,1,2,0:0:0:0:
192,192,35610,1,2,0:0:0:0:
320,192,35647,1,2,0:0:0:0:
64,192,35683,128,6,39122:0:0:0:0:
448,192,35683,1,0,0:0:0:70:sparkler.wav
448,192,35976,1,0,0:0:0:0:
320,192,36122,1,0,0:0:0:0:
192,192,36415,1,0,0:0:0:0:
448,192,36818,1,0,0:0:0:0:
192,192,36854,128,0,39122:0:0:0:0:
448,192,37147,1,0,0:0:0:0:
320,192,37293,1,0,0:0:0:0:
448,192,37586,1,0,0:0:0:0:
448,192,37988,1,0,0:0:0:0:
320,192,38025,128,0,39122:0:0:0:0:
448,192,38318,1,0,0:0:0:0:
448,192,38464,1,0,0:0:0:0:
448,192,38757,128,0,39122:0:0:0:0:
64,192,39196,1,0,0:0:0:70:LR_Kick Low Strong Beat.wav
192,192,39196,1,0,0:0:0:0:
320,192,39196,1,0,0:0:0:0:
448,192,39196,1,0,0:0:0:0:
64,192,39781,128,0,40293:0:0:0:0:
192,192,39781,128,0,39927:0:0:0:0:
320,192,39781,128,0,39927:0:0:0:0:
448,192,39781,128,0,40293:0:0:0:0:
64,192,40366,1,4,0:0:0:0:
192,192,40366,1,0,0:0:0:0:
448,192,40366,1,0,0:0:0:0:
320,192,40659,1,0,0:0:0:0:
64,192,40805,1,2,0:0:0:0:
192,192,40805,1,0,0:0:0:0:
64,192,40952,1,8,0:0:0:0:
320,192,40952,1,0,0:0:0:0:
448,192,40952,1,0,0:0:0:0:
192,192,41098,1,0,0:0:0:0:
320,192,41391,1,0,0:0:0:0:
64,192,41537,1,2,0:0:0:0:
192,192,41537,1,0,0:0:0:0:
448,192,41683,1,0,0:0:0:0:
320,192,41732,1,0,0:0:0:0:
192,192,41781,1,0,0:0:0:0:
64,192,41830,1,0,0:0:0:0:
320,192,41976,1,2,0:0:0:0:
448,192,41976,1,0,0:0:0:0:
64,192,42122,1,8,0:0:0:0:
192,192,42122,1,0,0:0:0:0:
448,192,42122,1,0,0:0:0:0:
320,192,42196,1,0,0:0:0:0:
192,192,42269,1,0,0:0:0:0:
320,192,42415,1,0,0:0:0:0:
320,192,42561,1,0,0:0:0:0:
64,192,42708,1,2,0:0:0:0:
448,192,42708,1,0,0:0:0:0:
192,192,42854,1,0,0:0:0:0:
320,192,43001,1,0,0:0:0:0:
64,192,43147,1,2,0:0:0:0:
192,192,43147,1,0,0:0:0:0:
64,192,43293,1,8,0:0:0:0:
320,192,43293,1,0,0:0:0:0:
448,192,43293,1,0,0:0:0:0:
192,192,43440,1,0,0:0:0:0:
320,192,43586,1,0,0:0:0:0:
448,192,43732,1,0,0:0:0:0:
64,192,43879,1,2,0:0:0:0:
192,192,43879,1,0,0:0:0:0:
192,192,44098,1,2,0:0:0:0:
320,192,44098,1,0,0:0:0:0:
320,192,44318,1,2,0:0:0:0:
448,192,44318,1,0,0:0:0:0:
64,192,44464,1,8,0:0:0:0:
192,192,44464,1,0,0:0:0:0:
448,192,44464,1,0,0:0:0:0:
320,192,44610,1,0,0:0:0:0:
192,192,44757,1,0,0:0:0:0:
64,192,44805,1,0,0:0:0:0:
448,192,44854,1,0,0:0:0:0:
320,192,44903,1,0,0:0:0:0:
192,192,44952,1,0,0:0:0:0:
64,192,45001,1,0,0:0:0:0:
320,192,45049,1,2,0:0:0:0:
448,192,45049,1,0,0:0:0:0:
192,192,45342,1,0,0:0:0:0:
320,192,45488,1,2,0:0:0:0:
448,192,45488,1,0,0:0:0:0:
64,192,45635,1,8,0:0:0:0:
192,192,45635,1,0,0:0:0:0:
448,192,45635,1,0,0:0:0:0:
320,192,45781,1,0,0:0:0:0:
192,192,46074,1,0,0:0:0:0:
320,192,46220,1,2,0:0:0:0:
448,192,46220,1,0,0:0:0:0:
64,192,46366,1,0,0:0:0:0:
192,192,46415,1,0,0:0:0:0:
320,192,46464,1,0,0:0:0:0:
448,192,46513,1,0,0:0:0:0:
64,192,46659,1,2,0:0:0:0:
192,192,46659,1,0,0:0:0:0:
64,192,46805,1,8,0:0:0:0:
320,192,46805,1,0,0:0:0:0:
448,192,46805,1,0,0:0:0:0:
192,192,46879,1,0,0:0:0:0:
320,192,46952,1,0,0:0:0:0:
192,192,47098,1,0,0:0:0:0:
192,192,47244,1,0,0:0:0:0:
64,192,47391,1,2,0:0:0:0:
448,192,47391,1,0,0:0:0:0:
320,192,47537,1,0,0:0:0:0:
192,192,47683,1,0,0:0:0:0:
320,192,47830,1,2,0:0:0:0:
448,192,47830,1,0,0:0:0:0:
64,192,47976,1,8,0:0:0:0:
192,192,47976,1,0,0:0:0:0:
448,192,47976,1,0,0:0:0:0:
320,192,48122,1,0,0:0:0:0:
320,192,48415,1,0,0:0:0:0:
64,192,48561,1,0,0:0:0:50:S2.wav
192,192,48561,1,0,0:0:0:0:
320,192,48708,1,0,0:0:0:50:S2.wav
448,192,48708,1,0,0:0:0:0:
64,192,48781,1,0,0:0:0:50:S2.wav
192,192,48781,1,0,0:0:0:0:
320,192,48854,1,2,0:0:0:0:
448,192,48854,1,0,0:0:0:50:S2.wav
64,192,49001,1,0,0:0:0:50:S2.wav
192,192,49001,1,0,0:0:0:0:
320,192,49074,1,0,0:0:0:50:S2.wav
448,192,49074,1,0,0:0:0:0:
64,192,49147,1,2,0:0:0:0:
192,192,49147,128,0,49293:0:0:0:50:S2.wav
320,192,49293,128,2,49440:0:0:0:0:
64,192,49440,128,0,49732:0:0:0:50:S2.wav
448,192,49440,1,0,0:0:0:0:
192,192,49732,1,4,0:0:0:0:
320,192,49732,1,0,0:0:0:50:S2.wav
448,192,49732,1,0,0:0:0:0:
64,192,49879,1,2,0:0:0:0:
448,192,49879,1,0,0:0:0:0:
64,192,50025,1,0,0:0:0:50:S2.wav
192,192,50025,1,0,0:0:0:0:
320,192,50025,1,0,0:0:0:0:
192,192,50171,1,2,0:0:0:0:
448,192,50171,1,0,0:0:0:0:
64,192,50318,1,0,0:0:0:50:S2.wav
320,192,50318,1,0,0:0:0:0:
448,192,50318,1,0,0:0:0:0:
192,192,50464,1,2,0:0:0:0:
320,192,50464,1,0,0:0:0:0:
64,192,50610,1,0,0:0:0:50:S2.wav
192,192,50610,1,0,0:0:0:0:
448,192,50610,1,0,0:0:0:0:
64,192,50757,1,2,0:0:0:0:
320,192,50757,1,0,0:0:0:0:
192,192,50903,1,0,0:0:0:50:S2.wav
320,192,50903,1,0,0:0:0:0:
448,192,50903,1,0,0:0:0:0:
64,192,51049,1,2,0:0:0:0:
448,192,51049,1,0,0:0:0:0:
192,192,51098,1,0,0:0:0:0:
320,192,51147,1,0,0:0:0:0:
64,192,51196,1,0,0:0:0:50:S2.wav
192,192,51196,1,0,0:0:0:0:
448,192,51196,1,0,0:0:0:0:
192,192,51342,1,2,0:0:0:0:
320,192,51342,1,0,0:0:0:0:
64,192,51488,1,0,0:0:0:50:S2.wav
320,192,51488,1,0,0:0:0:0:
448,192,51488,1,0,0:0:0:0:
192,192,51635,1,2,0:0:0:0:
448,192,51635,1,0,0:0:0:0:
64,192,51781,1,0,0:0:0:50:S2.wav
192,192,51781,1,0,0:0:0:0:
320,192,51781,1,0,0:0:0:0:
320,192,51891,1,0,0:0:0:0:
192,192,51927,1,2,0:0:0:0:
448,192,51927,1,0,0:0:0:0:
64,192,52074,1,0,0:0:0:50:S2.wav
320,192,52074,1,0,0:0:0:0:
448,192,52074,1,0,0:0:0:0:
192,192,52220,1,2,0:0:0:0:
320,192,52220,1,0,0:0:0:0:
64,192,52366,1,0,0:0:0:50:S2.wav
192,192,52366,1,0,0:0:0:0:
448,192,52366,1,0,0:0:0:0:
64,192,52513,1,2,0:0:0:0:
320,192,52513,1,0,0:0:0:0:
192,192,52659,1,0,0:0:0:50:S2.wav
320,192,52659,1,0,0:0:0:0:
448,192,52659,1,0,0:0:0:0:
64,192,52805,1,2,0:0:0:0:
448,192,52805,1,0,0:0:0:0:
64,192,52952,1,0,0:0:0:50:S2.wav
192,192,52952,1,0,0:0:0:0:
320,192,52952,1,0,0:0:0:0:
192,192,53098,1,2,0:0:0:0:
448,192,53098,1,0,0:0:0:0:
64,192,53244,1,0,0:0:0:50:S2.wav
320,192,53244,1,0,0:0:0:0:
448,192,53244,1,0,0:0:0:0:
192,192,53391,1,2,0:0:0:0:
320,192,53391,1,0,0:0:0:0:
64,192,53537,1,0,0:0:0:50:S2.wav
192,192,53537,1,0,0:0:0:0:
448,192,53537,1,0,0:0:0:0:
64,192,53683,1,2,0:0:0:0:
320,192,53683,1,0,0:0:0:0:
192,192,53830,1,0,0:0:0:50:S2.wav
320,192,53830,1,0,0:0:0:0:
448,192,53830,1,0,0:0:0:0:
64,192,53976,1,2,0:0:0:0:
192,192,53976,1,0,0:0:0:0:
64,192,54122,1,0,0:0:0:50:S2.wav
320,192,54122,1,0,0:0:0:0:
448,192,54122,1,0,0:0:0:0:
192,192,54196,1,0,0:0:0:0:
320,192,54269,1,2,0:0:0:0:
448,192,54269,1,0,0:0:0:0:
64,192,54415,128,0,55293:0:0:0:70:LR_Kick Low Strong Beat.wav
192,192,54415,128,0,54561:0:0:0:0:
448,192,54561,128,0,54708:0:0:0:0:
192,192,54708,128,0,54854:0:0:0:0:
448,192,54854,128,0,55001:0:0:0:0:
192,192,55001,128,0,55147:0:0:0:0:
448,192,55147,128,0,55293:0:0:0:0:
192,192,55293,1,0,0:0:0:50:clap2.wav
320,192,55293,1,0,0:0:0:0:
64,192,55586,1,2,0:0:0:0:
192,192,55586,1,4,0:0:0:0:
448,192,55586,1,0,0:0:0:50:S2.wav
64,192,55732,1,0,0:0:0:50:S2.wav
448,192,55732,1,0,0:0:0:0:
320,192,55781,1,0,0:0:0:0:
192,192,55830,1,0,0:0:0:0:
64,192,55879,1,2,0:0:0:0:
320,192,55879,1,0,0:0:0:50:S2.wav
448,192,55879,1,0,0:0:0:0:
192,192,56025,1,0,0:0:0:50:S2.wav
448,192,56025,1,0,0:0:0:0:
320,192,56098,1,0,0:0:0:0:
64,192,56171,1,2,0:0:0:0:
192,192,56171,1,0,0:0:0:50:S2.wav
448,192,56171,1,0,0:0:0:0:
64,192,56318,1,0,0:0:0:50:S2.wav
320,192,56318,1,0,0:0:0:0:
192,192,56391,1,0,0:0:0:50:S2.wav
64,192,56464,1,2,0:0:0:0:
320,192,56464,1,0,0:0:0:50:S2.wav
448,192,56464,1,0,0:0:0:0:
192,192,56610,1,0,0:0:0:50:S2.wav
448,192,56610,1,0,0:0:0:0:
320,192,56683,1,0,0:0:0:0:
64,192,56757,1,2,0:0:0:0:
192,192,56757,1,0,0:0:0:50:S2.wav
448,192,56757,1,0,0:0:0:0:
320,192,56830,1,0,0:0:0:50:S2.wav
64,192,56903,1,0,0:0:0:50:S2.wav
192,192,56903,1,0,0:0:0:0:
320,192,56976,1,0,0:0:0:50:S2.wav
64,192,57049,1,2,0:0:0:0:
448,192,57049,1,0,0:0:0:50:S2.wav
192,192,57122,1,0,0:0:0:50:S2.wav
320,192,57196,1,0,0:0:0:50:S2.wav
448,192,57196,1,0,0:0:0:0:
64,192,57269,1,0,0:0:0:50:S2.wav
192,192,57342,1,2,0:0:0:0:
320,192,57342,1,0,0:0:0:50:S2.wav
448,192,57415,1,0,0:0:0:50:S2.wav
64,192,57488,1,0,0:0:0:50:S2.wav
192,192,57488,1,0,0:0:0:0:
320,192,57561,1,0,0:0:0:50:S2.wav
64,192,57635,1,2,0:0:0:0:
448,192,57635,1,0,0:0:0:50:S2.wav
192,192,57708,1,0,0:0:0:50:S2.wav
320,192,57781,1,0,0:0:0:50:S2.wav
448,192,57781,1,0,0:0:0:0:
64,192,57854,1,0,0:0:0:50:S2.wav
192,192,57927,1,2,0:0:0:0:
320,192,57927,1,0,0:0:0:50:S2.wav
448,192,57976,1,0,0:0:0:50:S2.wav
64,192,58025,1,0,0:0:0:50:S2.wav
192,192,58074,1,0,0:0:0:50:S2.wav
320,192,58122,1,0,0:0:0:50:S2.wav
448,192,58171,1,0,0:0:0:50:S2.wav
64,192,58220,1,2,0:0:0:0:
192,192,58220,1,0,0:0:0:50:S2.wav
320,192,58269,1,0,0:0:0:50:S2.wav
448,192,58318,1,0,0:0:0:50:S2.wav
64,192,58366,1,0,0:0:0:50:S2.wav
192,192,58415,1,0,0:0:0:50:S2.wav
320,192,58464,1,0,0:0:0:50:S2.wav
64,192,58513,1,2,0:0:0:0:
448,192,58513,1,0,0:0:0:50:S2.wav
192,192,58561,1,0,0:0:0:50:S2.wav
320,192,58610,1,0,0:0:0:50:S2.wav
448,192,58659,1,0,0:0:0:50:S2.wav
64,192,58708,1,0,0:0:0:50:S2.wav
192,192,58757,1,0,0:0:0:50:S2.wav
320,192,58805,1,2,0:0:0:0:
448,192,58805,1,0,0:0:0:50:S2.wav
64,192,58854,1,0,0:0:0:50:S2.wav
192,192,58903,1,0,0:0:0:50:S2.wav
320,192,58952,1,0,0:0:0:50:S2.wav
448,192,59001,1,0,0:0:0:50:S2.wav
64,192,59049,1,0,0:0:0:50:S2.wav
192,192,59098,1,4,0:0:0:0:
320,192,59098,1,0,0:0:0:70:sparkler.wav
64,192,59293,1,0,0:0:0:0:
448,192,59488,1,0,0:0:0:0:
64,192,59683,1,0,0:0:0:0:
192,192,59683,1,0,0:0:0:0:
320,192,59879,1,0,0:0:0:0:
192,192,60074,1,0,0:0:0:0:
320,192,60269,1,0,0:0:0:0:
448,192,60269,1,0,0:0:0:0:
64,192,60464,1,0,0:0:0:0:
192,192,60659,1,0,0:0:0:0:
448,192,60757,1,0,0:0:0:0:
320,192,60805,1,0,0:0:0:0:
64,192,60854,1,0,0:0:0:0:
192,192,60854,1,0,0:0:0:0:
64,192,61293,1,0,0:0:0:0:
192,192,61366,1,0,0:0:0:0:
320,192,61440,1,0,0:0:0:0:
448,192,61440,1,0,0:0:0:0:
64,192,61635,1,0,0:0:0:0:
320,192,61830,1,0,0:0:0:0:
64,192,62025,1,0,0:0:0:0:
192,192,62025,1,0,0:0:0:0:
448,192,62220,1,0,0:0:0:0:
192,192,62415,1,0,0:0:0:0:
320,192,62610,1,0,0:0:0:0:
448,192,62610,1,0,0:0:0:0:
64,192,62805,1,0,0:0:0:0:
192,192,63001,1,0,0:0:0:0:
448,192,63196,1,0,0:0:0:0:
320,192,63269,1,0,0:0:0:0:
192,192,63342,1,0,0:0:0:0:
64,192,63488,1,0,0:0:0:70:K1.wav
320,192,63488,1,0,0:0:0:0:
64,192,63635,1,4,0:0:0:0:
192,192,63635,1,2,0:0:0:0:
448,192,63635,1,0,0:0:0:0:
64,192,63927,1,2,0:0:0:0:
192,192,63927,1,0,0:0:0:0:
192,192,64074,1,2,0:0:0:0:
320,192,64074,1,0,0:0:0:0:
320,192,64220,1,2,0:0:0:0:
448,192,64220,1,0,0:0:0:0:
64,192,64366,1,2,0:0:0:0:
192,192,64366,1,0,0:0:0:0:
320,192,64440,1,2,0:0:0:0:
448,192,64440,1,0,0:0:0:0:
64,192,64513,1,2,0:0:0:0:
192,192,64513,1,0,0:0:0:0:
320,192,64586,1,2,0:0:0:0:
448,192,64586,1,0,0:0:0:0:
64,192,64659,1,2,0:0:0:0:
192,192,64659,1,0,0:0:0:0:
320,192,64708,1,2,0:0:0:0:
448,192,64757,1,2,0:0:0:0:
64,192,64805,1,2,0:0:0:0:
192,192,64854,1,2,0:0:0:0:
320,192,64903,1,2,0:0:0:0:
64,192,64952,1,0,0:0:0:50:S2.wav
448,192,64952,1,0,0:0:0:0:
192,192,65098,1,0,0:0:0:50:S2.wav
320,192,65098,1,0,0:0:0:0:
64,192,65171,1,0,0:0:0:50:S2.wav
448,192,65171,1,0,0:0:0:0:
192,192,65244,1,2,0:0:0:0:
320,192,65244,1,0,0:0:0:50:S2.wav
192,192,65391,1,0,0:0:0:50:S2.wav
320,192,65391,1,0,0:0:0:0:
64,192,65537,1,2,0:0:0:0:
192,192,65537,128,0,65683:0:0:0:50:S2.wav
448,192,65537,1,0,0:0:0:0:
320,192,65683,128,2,65830:0:0:0:0:
64,192,65830,1,0,0:0:0:50:S2.wav
448,192,65830,1,0,0:0:0:0:
192,192,65879,1,0,0:0:0:0:
320,192,65927,1,0,0:0:0:0:
448,192,65976,1,0,0:0:0:0:
64,192,66025,1,0,0:0:0:0:
192,192,66074,1,0,0:0:0:0:
320,192,66122,128,4,66269:0:0:0:0:
448,192,66122,1,2,0:0:0:0:
64,192,66269,1,0,0:0:0:0:
192,192,66415,1,8,0:0:0:0:
320,192,66415,1,0,0:0:0:0:
448,192,66415,128,0,66561:0:0:0:0:
64,192,66561,128,0,66708:0:0:0:0:
320,192,66708,1,2,0:0:0:0:
448,192,66708,1,0,0:0:0:0:
192,192,66854,128,0,67001:0:0:0:0:
64,192,67001,1,8,0:0:0:0:
320,192,67001,128,0,67147:0:0:0:0:
448,192,67001,1,0,0:0:0:0:
192,192,67147,1,0,0:0:0:0:
64,192,67293,1,2,0:0:0:0:
448,192,67293,1,0,0:0:0:0:
192,192,67391,1,0,0:0:0:0:
448,192,67440,1,0,0:0:0:0:
320,192,67488,1,0,0:0:0:0:
64,192,67586,1,8,0:0:0:0:
192,192,67586,1,0,0:0:0:0:
448,192,67586,1,0,0:0:0:0:
320,192,67683,1,0,0:0:0:0:
64,192,67732,1,0,0:0:0:0:
192,192,67781,1,0,0:0:0:0:
64,192,67879,128,2,68025:0:0:0:0:
448,192,67879,1,0,0:0:0:0:
320,192,68025,128,0,68171:0:0:0:0:
64,192,68171,1,8,0:0:0:0:
192,192,68171,128,0,68318:0:0:0:0:
448,192,68171,1,0,0:0:0:0:
448,192,68318,128,0,68464:0:0:0:0:
64,192,68464,128,2,68610:0:0:0:0:
320,192,68464,1,0,0:0:0:0:
192,192,68610,1,0,0:0:0:0:
64,192,68757,1,8,0:0:0:0:
320,192,68757,1,0,0:0:0:0:
448,192,68757,128,0,68903:0:0:0:0:
192,192,68903,128,0,69049:0:0:0:0:
320,192,69049,1,2,0:0:0:0:
448,192,69049,1,0,0:0:0:0:
64,192,69196,128,0,69342:0:0:0:0:
192,192,69342,1,8,0:0:0:0:
320,192,69342,128,0,69488:0:0:0:0:
448,192,69342,1,0,0:0:0:0:
192,192,69488,1,0,0:0:0:0:
64,192,69635,1,2,0:0:0:0:
448,192,69635,1,0,0:0:0:0:
320,192,69732,1,0,0:0:0:0:
64,192,69781,1,0,0:0:0:0:
192,192,69830,1,0,0:0:0:0:
64,192,69927,1,8,0:0:0:0:
320,192,69927,1,0,0:0:0:0:
448,192,69927,1,0,0:0:0:0:
192,192,70025,1,0,0:0:0:0:
448,192,70074,1,0,0:0:0:0:
320,192,70122,1,0,0:0:0:0:
64,192,70220,128,2,70366:0:0:0:0:
448,192,70220,1,0,0:0:0:0:
320,192,70366,128,0,70513:0:0:0:0:
64,192,70513,1,8,0:0:0:0:
192,192,70513,1,0,0:0:0:0:
448,192,70513,128,0,70659:0:0:0:0:
192,192,70659,128,0,70805:0:0:0:0:
64,192,70805,1,2,0:0:0:0:
320,192,70805,1,4,0:0:0:0:
448,192,70805,1,0,0:0:0:0:
192,192,70952,1,0,0:0:0:0:
320,192,70988,1,0,0:0:0:0:
64,192,71098,1,8,0:0:0:0:
192,192,71098,128,0,71244:0:0:0:0:
448,192,71098,1,0,0:0:0:0:
64,192,71244,128,0,71391:0:0:0:0:
320,192,71391,1,2,0:0:0:0:
448,192,71391,128,0,71537:0:0:0:0:
192,192,71427,1,0,0:0:0:0:
64,192,71537,128,0,71683:0:0:0:0:
192,192,71683,1,8,0:0:0:0:
320,192,71683,128,0,71830:0:0:0:0:
448,192,71683,1,0,0:0:0:0:
192,192,71830,128,0,71976:0:0:0:0:
64,192,71976,128,2,72122:0:0:0:0:
448,192,71976,1,0,0:0:0:0:
320,192,72122,128,0,72269:0:0:0:0:
64,192,72269,1,8,0:0:0:0:
192,192,72269,1,0,0:0:0:0:
448,192,72269,1,0,0:0:0:0:
448,192,72415,128,0,72561:0:0:0:0:
192,192,72561,1,2,0:0:0:0:
320,192,72561,1,0,0:0:0:0:
64,192,72708,128,0,72854:0:0:0:0:
192,192,72854,1,8,0:0:0:0:
320,192,72854,1,0,0:0:0:0:
448,192,72854,1,0,0:0:0:0:
320,192,73001,128,0,73147:0:0:0:0:
64,192,73147,1,2,0:0:0:0:
448,192,73147,1,0,0:0:0:0:
192,192,73293,1,0,0:0:0:0:
320,192,73330,1,0,0:0:0:0:
64,192,73440,1,8,0:0:0:0:
192,192,73440,1,0,0:0:0:0:
448,192,73440,128,0,73586:0:0:0:0:
64,192,73586,128,0,73732:0:0:0:0:
320,192,73732,128,2,73879:0:0:0:0:
448,192,73732,1,0,0:0:0:0:
192,192,73769,1,0,0:0:0:0:
64,192,73879,128,0,74025:0:0:0:0:
192,192,74025,1,8,0:0:0:0:
320,192,74025,1,0,0:0:0:0:
448,192,74025,128,0,74171:0:0:0:0:
192,192,74171,128,0,74318:0:0:0:0:
320,192,74208,1,0,0:0:0:0:
64,192,74318,1,0,0:0:0:50:S2.wav
448,192,74318,1,0,0:0:0:0:
64,192,74464,1,0,0:0:0:50:S2.wav
320,192,74464,1,0,0:0:0:0:
192,192,74537,1,0,0:0:0:50:S2.wav
448,192,74537,1,0,0:0:0:0:
64,192,74610,1,2,0:0:0:0:
320,192,74610,1,0,0:0:0:50:S2.wav
192,192,74757,1,0,0:0:0:50:S2.wav
448,192,74757,1,0,0:0:0:0:
64,192,74830,1,0,0:0:0:50:S2.wav
320,192,74830,1,0,0:0:0:0:
192,192,74903,128,2,75049:0:0:0:0:
448,192,74903,1,0,0:0:0:50:S2.wav
320,192,75049,128,2,75196:0:0:0:0:
64,192,75196,1,8,0:0:0:0:
192,192,75196,1,0,0:0:0:0:
448,192,75196,1,0,0:0:0:0:
64,192,75342,128,0,75488:0:0:0:0:
192,192,75488,1,4,0:0:0:0:
320,192,75488,1,2,0:0:0:0:
448,192,75488,128,0,75635:0:0:0:0:
192,192,75635,1,0,0:0:0:0:
64,192,75781,1,8,0:0:0:0:
320,192,75781,128,0,75927:0:0:0:0:
448,192,75781,1,0,0:0:0:0:
192,192,75927,128,0,76074:0:0:0:0:
320,192,76074,1,2,0:0:0:0:
448,192,76074,1,0,0:0:0:0:
64,192,76220,1,0,0:0:0:0:
192,192,76269,1,0,0:0:0:0:
320,192,76318,1,0,0:0:0:0:
64,192,76366,1,8,0:0:0:0:
192,192,76366,1,4,0:0:0:0:
448,192,76366,128,0,76513:0:0:0:0:
320,192,76513,1,0,0:0:0:0:
64,192,76659,1,2,0:0:0:0:
192,192,76659,128,0,76805:0:0:0:0:
320,192,76805,128,0,76952:0:0:0:0:
64,192,76952,1,8,0:0:0:0:
192,192,76952,1,0,0:0:0:0:
448,192,76952,1,0,0:0:0:0:
320,192,77098,128,0,77244:0:0:0:0:
64,192,77244,1,2,0:0:0:0:
448,192,77244,1,0,0:0:0:0:
192,192,77318,1,0,0:0:0:0:
320,192,77391,1,0,0:0:0:0:
64,192,77537,1,8,0:0:0:0:
192,192,77537,1,0,0:0:0:0:
448,192,77537,1,0,0:0:0:0:
320,192,77610,1,0,0:0:0:0:
64,192,77683,1,0,0:0:0:0:
192,192,77683,1,0,0:0:0:0:
320,192,77830,1,2,0:0:0:0:
448,192,77830,128,0,77976:0:0:0:0:
64,192,77866,1,0,0:0:0:0:
192,192,77976,1,0,0:0:0:0:
64,192,78122,1,8,0:0:0:0:
320,192,78122,1,0,0:0:0:0:
448,192,78122,1,0,0:0:0:0:
192,192,78269,1,0,0:0:0:0:
64,192,78415,1,2,0:0:0:0:
448,192,78415,1,0,0:0:0:0:
320,192,78488,1,0,0:0:0:0:
192,192,78561,1,0,0:0:0:0:
64,192,78635,1,0,0:0:0:0:
192,192,78708,1,8,0:0:0:0:
320,192,78708,1,0,0:0:0:0:
448,192,78708,1,0,0:0:0:0:
64,192,78781,1,0,0:0:0:0:
192,192,78854,1,0,0:0:0:0:
320,192,78927,1,0,0:0:0:0:
64,192,79001,1,2,0:0:0:0:
448,192,79001,1,0,0:0:0:0:
192,192,79074,1,0,0:0:0:0:
320,192,79147,1,0,0:0:0:0:
448,192,79220,1,0,0:0:0:0:
64,192,79293,1,8,0:0:0:0:
192,192,79293,1,0,0:0:0:0:
320,192,79293,1,0,0:0:0:0:
64,192,79440,128,4,79586:0:0:0:0:
192,192,79440,128,2,79586:0:0:0:0:
448,192,79440,128,0,79586:0:0:0:0:
320,192,79586,1,0,0:0:0:0:
192,192,79732,1,0,0:0:0:30:S1.wav
64,192,79879,1,8,0:0:0:0:
320,192,79879,128,0,80025:0:0:0:0:
448,192,79879,1,0,0:0:0:0:
192,192,80025,1,0,0:0:0:0:
64,192,80171,128,4,80318:0:0:0:0:
320,192,80171,128,2,80318:0:0:0:0:
448,192,80171,128,0,80318:0:0:0:0:
192,192,80318,1,0,0:0:0:0:
320,192,80415,1,0,0:0:0:0:
64,192,80464,1,8,0:0:0:0:
192,192,80464,1,0,0:0:0:0:
448,192,80464,128,0,80610:0:0:0:0:
320,192,80610,128,0,80757:0:0:0:0:
64,192,80757,1,2,0:0:0:0:
448,192,80757,1,0,0:0:0:0:
192,192,80903,128,0,81049:0:0:0:0:
64,192,81049,1,8,0:0:0:0:
320,192,81049,1,0,0:0:0:0:
448,192,81049,1,0,0:0:0:0:
64,192,81196,128,0,81342:0:0:0:0:
192,192,81342,1,2,0:0:0:0:
320,192,81342,1,0,0:0:0:0:
448,192,81488,1,0,0:0:0:0:
64,192,81635,1,8,0:0:0:0:
320,192,81635,128,0,81781:0:0:0:0:
448,192,81635,1,0,0:0:0:0:
192,192,81781,128,0,81927:0:0:0:0:
64,192,81927,1,2,0:0:0:0:
448,192,81927,1,0,0:0:0:0:
320,192,82074,128,0,82220:0:0:0:0:
64,192,82220,1,8,0:0:0:0:
192,192,82220,1,0,0:0:0:0:
448,192,82220,1,0,0:0:0:0:
320,192,82366,1,0,0:0:0:0:
64,192,82513,1,2,0:0:0:0:
448,192,82513,1,0,0:0:0:0:
192,192,82610,1,0,0:0:0:0:
320,192,82708,1,0,0:0:0:0:
64,192,82805,1,8,0:0:0:0:
192,192,82805,1,0,0:0:0:0:
448,192,82805,1,0,0:0:0:0:
320,192,82903,1,0,0:0:0:0:
448,192,83001,1,0,0:0:0:0:
64,192,83098,1,2,0:0:0:0:
192,192,83098,1,0,0:0:0:0:
320,192,83171,1,0,0:0:0:0:
448,192,83244,1,0,0:0:0:0:
64,192,83318,1,0,0:0:0:0:
192,192,83391,1,8,0:0:0:0:
320,192,83391,1,0,0:0:0:0:
448,192,83391,1,0,0:0:0:0:
64,192,83464,1,0,0:0:0:0:
192,192,83537,1,0,0:0:0:0:
320,192,83610,1,0,0:0:0:0:
64,192,83683,1,2,0:0:0:0:
448,192,83683,1,0,0:0:0:0:
192,192,83732,1,0,0:0:0:0:
320,192,83781,1,0,0:0:0:0:
448,192,83830,1,0,0:0:0:0:
64,192,83879,1,0,0:0:0:0:
192,192,83927,1,0,0:0:0:0:
320,192,83976,1,8,0:0:0:0:
448,192,83976,1,0,0:0:0:0:
64,192,84025,1,0,0:0:0:0:
192,192,84074,1,0,0:0:0:0:
320,192,84122,1,0,0:0:0:0:
448,192,84171,1,0,0:0:0:0:
64,192,84220,1,0,0:0:0:0:
192,192,84269,1,2,0:0:0:0:
320,192,84269,1,0,0:0:0:0:
64,192,84415,1,2,0:0:0:0:
448,192,84415,1,0,0:0:0:0:
64,192,84854,128,4,85001:0:0:0:0:
320,192,84854,128,2,85001:0:0:0:0:
448,192,84854,128,0,85001:0:0:0:0:
192,192,85001,1,0,0:0:0:0:
320,192,85147,128,2,85293:0:0:0:0:
448,192,85147,1,0,0:0:0:0:
64,192,85293,128,8,85440:0:0:0:0:
192,192,85293,1,0,0:0:0:0:
320,192,85440,1,0,0:0:0:0:
64,192,85586,1,2,0:0:0:0:
448,192,85586,1,0,0:0:0:0:
192,192,85659,1,2,0:0:0:0:
320,192,85659,1,0,0:0:0:0:
64,192,85732,1,2,0:0:0:0:
448,192,85732,128,4,85879:0:0:0:0:
192,192,85879,1,0,0:0:0:0:
320,192,86025,128,2,86171:0:0:0:0:
448,192,86025,1,0,0:0:0:0:
64,192,86171,1,8,0:0:0:0:
192,192,86171,128,0,86318:0:0:0:0:
448,192,86318,1,0,0:0:0:0:
64,192,86464,128,2,86610:0:0:0:0:
192,192,86464,1,0,0:0:0:0:
320,192,86610,1,2,0:0:0:0:
448,192,86610,1,0,0:0:0:0:
64,192,86683,1,2,0:0:0:0:
192,192,86683,1,0,0:0:0:0:
320,192,86757,1,2,0:0:0:0:
448,192,86757,1,0,0:0:0:0:
64,192,86830,1,2,0:0:0:0:
192,192,86830,1,0,0:0:0:0:
320,192,86903,1,8,0:0:0:0:
448,192,86903,1,0,0:0:0:0:
192,192,86976,1,0,0:0:0:0:
320,192,87049,128,0,87196:0:0:0:0:
64,192,87196,1,2,0:0:0:0:
192,192,87196,1,4,0:0:0:0:
448,192,87196,1,0,0:0:0:0:
320,192,87342,1,0,0:0:0:0:
64,192,87488,1,8,0:0:0:0:
320,192,87488,1,0,0:0:0:0:
448,192,87488,1,0,0:0:0:0:
192,192,87635,1,0,0:0:0:0:
320,192,87781,1,2,0:0:0:0:
448,192,87781,1,0,0:0:0:0:
64,192,87854,1,0,0:0:0:0:
192,192,87927,1,0,0:0:0:0:
320,192,88001,1,0,0:0:0:0:
64,192,88074,1,8,0:0:0:0:
192,192,88074,1,0,0:0:0:0:
448,192,88074,1,0,0:0:0:0:
320,192,88147,1,0,0:0:0:0:
192,192,88220,1,0,0:0:0:0:
64,192,88293,1,0,0:0:0:0:
320,192,88366,1,2,0:0:0:0:
448,192,88366,1,0,0:0:0:0:
192,192,88440,1,0,0:0:0:0:
64,192,88513,1,0,0:0:0:0:
448,192,88586,1,0,0:0:0:0:
64,192,88659,1,8,0:0:0:0:
192,192,88659,1,0,0:0:0:0:
320,192,88659,1,0,0:0:0:0:
64,192,88805,128,4,88952:0:0:0:0:
320,192,88805,128,2,88952:0:0:0:0:
448,192,88805,128,0,88952:0:0:0:0:
192,192,88952,1,0,0:0:0:0:
320,192,89098,1,0,0:0:0:30:S1.wav
64,192,89244,1,8,0:0:0:0:
192,192,89244,128,0,89391:0:0:0:0:
448,192,89244,1,0,0:0:0:0:
320,192,89391,1,0,0:0:0:0:
64,192,89537,1,4,0:0:0:0:
192,192,89537,1,2,0:0:0:0:
192,192,89683,1,2,0:0:0:0:
320,192,89683,1,0,0:0:0:0:
192,192,89781,1,0,0:0:0:0:
64,192,89830,1,8,0:0:0:0:
320,192,89830,1,0,0:0:0:0:
448,192,89830,1,0,0:0:0:0:
64,192,89976,1,2,0:0:0:0:
192,192,89976,1,0,0:0:0:0:
320,192,90122,1,2,0:0:0:0:
448,192,90122,1,0,0:0:0:0:
192,192,90269,1,2,0:0:0:0:
320,192,90269,1,0,0:0:0:0:
64,192,90415,1,8,0:0:0:0:
192,192,90415,1,0,0:0:0:0:
448,192,90415,1,0,0:0:0:0:
320,192,90561,1,2,0:0:0:0:
448,192,90561,1,0,0:0:0:0:
64,192,90708,1,2,0:0:0:0:
192,192,90708,1,0,0:0:0:0:
320,192,90781,1,2,0:0:0:0:
448,192,90781,1,0,0:0:0:0:
64,192,90854,1,2,0:0:0:0:
192,192,90854,1,0,0:0:0:0:
320,192,90927,1,2,0:0:0:0:
448,192,90927,1,0,0:0:0:0:
64,192,91001,1,8,0:0:0:0:
192,192,91001,1,0,0:0:0:0:
320,192,91074,1,2,0:0:0:0:
448,192,91074,1,0,0:0:0:0:
64,192,91147,1,2,0:0:0:0:
192,192,91147,1,0,0:0:0:0:
320,192,91220,1,2,0:0:0:0:
448,192,91220,1,0,0:0:0:0:
64,192,91293,1,2,0:0:0:0:
192,192,91293,1,0,0:0:0:0:
448,192,91330,1,2,0:0:0:0:
320,192,91366,1,2,0:0:0:0:
192,192,91403,1,2,0:0:0:0:
64,192,91440,1,2,0:0:0:0:
448,192,91476,1,2,0:0:0:0:
320,192,91513,1,2,0:0:0:0:
192,192,91549,1,2,0:0:0:0:
64,192,91586,1,0,0:0:0:50:clap2.wav
448,192,91586,1,0,0:0:0:0:
320,192,91732,1,0,0:0:0:0:
64,192,91879,1,4,0:0:0:0:
192,192,91879,1,0,0:0:0:0:
320,192,92025,1,0,0:0:0:0:
64,192,92171,1,0,0:0:0:0:
192,192,92318,1,0,0:0:0:0:
320,192,92464,1,0,0:0:0:100:clap3.wav
448,192,92464,1,0,0:0:0:0:
64,192,92610,1,0,0:0:0:0:
320,192,92757,1,0,0:0:0:0:
192,192,92903,1,0,0:0:0:0:
64,192,93049,1,0,0:0:0:0:
448,192,93049,1,0,0:0:0:0:
320,192,93196,1,0,0:0:0:0:
192,192,93342,1,0,0:0:0:0:
448,192,93488,1,0,0:0:0:0:
64,192,93635,1,0,0:0:0:100:clap3.wav
192,192,93635,1,0,0:0:0:0:
320,192,93781,1,0,0:0:0:0:
64,192,93927,1,0,0:0:0:0:
192,192,94074,1,0,0:0:0:0:
320,192,94220,1,0,0:0:0:0:
448,192,94220,1,0,0:0:0:0:
64,192,94366,1,0,0:0:0:0:
192,192,94513,1,0,0:0:0:0:
320,192,94659,1,0,0:0:0:0:
64,192,94805,128,0,95976:0:0:0:100:clap3.wav
448,192,94805,1,0,0:0:0:0:
192,192,94952,1,0,0:0:0:0:
320,192,95098,1,0,0:0:0:0:
192,192,95244,1,0,0:0:0:0:
448,192,95391,1,0,0:0:0:0:
320,192,95537,1,0,0:0:0:0:
192,192,95683,1,0,0:0:0:0:
448,192,95830,1,0,0:0:0:0:
192,192,95976,1,0,0:0:0:100:clap1.wav
320,192,95976,1,0,0:0:0:0:
192,192,96488,1,0,0:0:0:0:
320,192,96525,1,0,0:0:0:0:
64,192,96561,1,0,0:0:0:0:
448,192,96561,1,0,0:0:0:0:
192,192,97001,1,0,0:0:0:0:
320,192,97001,1,0,0:0:0:0:
64,192,97293,1,0,0:0:0:0:
192,192,97293,1,0,0:0:0:0:
320,192,97513,1,0,0:0:0:0:
448,192,97513,1,0,0:0:0:0:
64,192,97732,1,4,0:0:0:0:
192,192,97732,1,2,0:0:0:0:
448,192,97732,1,0,0:0:0:0:
320,192,97879,1,0,0:0:0:0:
64,192,98025,1,2,0:0:0:0:
448,192,98025,1,0,0:0:0:0:
192,192,98171,1,0,0:0:0:0:
320,192,98244,1,0,0:0:0:0:
64,192,98318,1,2,0:0:0:0:
448,192,98318,128,0,98464:0:0:0:0:
320,192,98464,128,0,98610:0:0:0:0:
64,192,98610,1,2,0:0:0:0:
192,192,98610,128,0,98757:0:0:0:0:
320,192,98757,1,0,0:0:0:0:
448,192,98830,1,0,0:0:0:0:
64,192,98903,128,2,99049:0:0:0:0:
192,192,98903,1,0,0:0:0:0:
448,192,99049,128,0,99196:0:0:0:0:
192,192,99196,1,2,0:0:0:0:
320,192,99196,128,0,99342:0:0:0:0:
64,192,99342,1,0,0:0:0:0:
192,192,99415,1,0,0:0:0:0:
320,192,99488,128,2,99635:0:0:0:0:
448,192,99488,1,0,0:0:0:0:
192,192,99635,128,0,99781:0:0:0:0:
64,192,99781,128,2,99927:0:0:0:0:
448,192,99781,1,0,0:0:0:0:
320,192,99927,128,0,100074:0:0:0:0:
64,192,100074,1,2,0:0:0:0:
192,192,100074,128,0,100220:0:0:0:0:
448,192,100220,1,0,0:0:0:0:
320,192,100269,1,0,0:0:0:0:
192,192,100318,1,0,0:0:0:0:
64,192,100366,1,2,0:0:0:0:
448,192,100366,1,0,0:0:0:0:
320,192,100440,1,0,0:0:0:0:
192,192,100513,1,0,0:0:0:0:
64,192,100586,1,0,0:0:0:0:
320,192,100659,1,2,0:0:0:0:
448,192,100659,128,0,100805:0:0:0:0:
64,192,100732,1,0,0:0:0:0:
192,192,100805,1,0,0:0:0:0:
320,192,100879,1,0,0:0:0:0:
64,192,100952,1,2,0:0:0:0:
448,192,100952,1,0,0:0:0:0:
192,192,101025,1,0,0:0:0:0:
320,192,101098,1,0,0:0:0:0:
192,192,101171,1,0,0:0:0:0:
64,192,101244,1,2,0:0:0:0:
320,192,101244,1,4,0:0:0:0:
448,192,101244,1,0,0:0:0:0:
192,192,101391,1,0,0:0:0:0:
64,192,101537,1,2,0:0:0:0:
448,192,101537,1,0,0:0:0:0:
320,192,101683,128,0,101830:0:0:0:0:
64,192,101830,1,2,0:0:0:0:
448,192,101830,1,0,0:0:0:0:
192,192,101976,128,0,102122:0:0:0:0:
64,192,102122,1,2,0:0:0:0:
448,192,102122,1,0,0:0:0:0:
320,192,102196,128,0,102342:0:0:0:0:
192,192,102269,1,0,0:0:0:0:
64,192,102415,1,2,0:0:0:0:
448,192,102415,128,0,102561:0:0:0:0:
320,192,102561,1,0,0:0:0:0:
64,192,102708,1,2,0:0:0:0:
192,192,102708,1,0,0:0:0:0:
320,192,102854,128,0,103001:0:0:0:0:
64,192,103001,1,2,0:0:0:0:
448,192,103001,1,0,0:0:0:0:
192,192,103049,1,0,0:0:0:0:
320,192,103098,1,0,0:0:0:0:
448,192,103147,1,0,0:0:0:0:
64,192,103196,1,0,0:0:0:0:
192,192,103244,1,0,0:0:0:0:
320,192,103293,1,2,0:0:0:0:
448,192,103293,1,0,0:0:0:0:
192,192,103342,1,0,0:0:0:0:
64,192,103391,1,0,0:0:0:0:
448,192,103440,1,0,0:0:0:0:
320,192,103488,1,0,0:0:0:0:
192,192,103537,1,0,0:0:0:0:
64,192,103586,1,2,0:0:0:0:
448,192,103586,1,0,0:0:0:0:
320,192,103732,1,0,0:0:0:0:
448,192,103781,128,0,103976:0:0:0:0:
64,192,103879,1,2,0:0:0:0:
192,192,103879,1,0,0:0:0:0:
320,192,103976,128,0,104171:0:0:0:0:
64,192,104025,1,0,0:0:0:0:
192,192,104171,128,2,104366:0:0:0:0:
448,192,104171,1,0,0:0:0:0:
448,192,104318,1,0,0:0:0:0:
64,192,104366,128,0,104561:0:0:0:0:
192,192,104464,1,2,0:0:0:0:
320,192,104464,1,0,0:0:0:0:
448,192,104561,128,0,104757:0:0:0:0:
320,192,104610,1,0,0:0:0:0:
64,192,104757,1,2,0:0:0:0:
192,192,104757,1,0,0:0:0:0:
448,192,104903,1,0,0:0:0:0:
320,192,104952,1,0,0:0:0:0:
192,192,105001,1,0,0:0:0:0:
64,192,105049,1,2,0:0:0:0:
448,192,105049,1,0,0:0:0:0:
320,192,105122,1,0,0:0:0:0:
192,192,105196,1,0,0:0:0:0:
64,192,105269,1,0,0:0:0:0:
320,192,105342,1,2,0:0:0:0:
448,192,105342,1,0,0:0:0:0:
192,192,105488,1,0,0:0:0:0:
64,192,105635,1,8,0:0:0:0:
320,192,105635,1,0,0:0:0:0:
448,192,105635,1,0,0:0:0:0:
192,192,105781,1,0,0:0:0:0:
320,192,105854,1,0,0:0:0:0:
64,192,105927,1,4,0:0:0:0:
192,192,105927,1,2,0:0:0:0:
448,192,105927,1,0,0:0:0:0:
320,192,106074,1,0,0:0:0:0:
64,192,106220,1,8,0:0:0:0:
448,192,106220,1,0,0:0:0:0:
192,192,106269,1,0,0:0:0:0:
320,192,106318,1,0,0:0:0:0:
448,192,106366,1,0,0:0:0:0:
64,192,106415,1,0,0:0:0:0:
192,192,106464,1,0,0:0:0:0:
320,192,106513,1,2,0:0:0:0:
448,192,106513,1,0,0:0:0:0:
192,192,106561,1,0,0:0:0:0:
64,192,106610,1,0,0:0:0:0:
448,192,106659,1,0,0:0:0:0:
320,192,106708,1,0,0:0:0:0:
192,192,106757,1,0,0:0:0:0:
64,192,106805,1,8,0:0:0:0:
448,192,106805,1,0,0:0:0:0:
320,192,106879,1,0,0:0:0:0:
192,192,106952,1,0,0:0:0:0:
64,192,107025,1,0,0:0:0:0:
320,192,107098,1,2,0:0:0:0:
448,192,107098,1,0,0:0:0:0:
64,192,107171,1,0,0:0:0:0:
192,192,107244,1,0,0:0:0:0:
320,192,107318,1,0,0:0:0:0:
64,192,107391,1,8,0:0:0:0:
192,192,107391,128,0,107537:0:0:0:0:
448,192,107391,1,0,0:0:0:0:
320,192,107537,128,0,107683:0:0:0:0:
64,192,107683,1,2,0:0:0:0:
448,192,107683,1,0,0:0:0:0:
320,192,107830,1,0,0:0:0:0:
64,192,107976,1,8,0:0:0:0:
192,192,107976,1,0,0:0:0:0:
448,192,107976,1,0,0:0:0:0:
320,192,108122,1,0,0:0:0:0:
448,192,108196,1,0,0:0:0:0:
320,192,108232,1,0,0:0:0:0:
64,192,108269,1,2,0:0:0:0:
192,192,108269,1,0,0:0:0:0:
320,192,108415,1,0,0:0:0:0:
64,192,108561,128,8,108708:0:0:0:0:
192,192,108561,1,0,0:0:0:0:
448,192,108561,1,0,0:0:0:0:
320,192,108708,1,0,0:0:0:0:
448,192,108781,1,0,0:0:0:0:
64,192,108854,1,2,0:0:0:0:
192,192,108854,128,0,109001:0:0:0:0:
320,192,109001,1,0,0:0:0:0:
64,192,109147,1,8,0:0:0:0:
192,192,109147,1,0,0:0:0:0:
448,192,109147,1,0,0:0:0:0:
320,192,109293,1,0,0:0:0:0:
192,192,109366,1,0,0:0:0:0:
64,192,109440,1,2,0:0:0:0:
448,192,109440,1,0,0:0:0:0:
320,192,109513,1,0,0:0:0:0:
192,192,109586,1,0,0:0:0:0:
64,192,109659,1,0,0:0:0:0:
192,192,109696,1,0,0:0:0:0:
320,192,109732,1,8,0:0:0:0:
448,192,109732,1,0,0:0:0:0:
64,192,109805,1,0,0:0:0:0:
192,192,109879,1,0,0:0:0:0:
320,192,109952,1,0,0:0:0:0:
64,192,110025,1,2,0:0:0:0:
448,192,110025,1,0,0:0:0:0:
192,192,110171,1,0,0:0:0:0:
64,192,110318,1,8,0:0:0:0:
320,192,110318,1,0,0:0:0:0:
448,192,110318,1,0,0:0:0:0:
192,192,110464,1,0,0:0:0:0:
64,192,110610,1,4,0:0:0:0:
320,192,110610,1,2,0:0:0:0:
448,192,110610,1,0,0:0:0:0:
192,192,110757,1,2,0:0:0:0:
320,192,110757,1,0,0:0:0:0:
64,192,110903,1,8,0:0:0:0:
192,192,110903,1,0,0:0:0:0:
448,192,110903,1,0,0:0:0:0:
320,192,110976,1,0,0:0:0:0:
64,192,111049,1,2,0:0:0:0:
448,192,111049,1,0,0:0:0:0:
192,192,111122,1,0,0:0:0:0:
320,192,111196,1,2,0:0:0:0:
448,192,111196,1,0,0:0:0:0:
192,192,111269,1,0,0:0:0:0:
64,192,111342,1,2,0:0:0:0:
448,192,111342,1,0,0:0:0:0:
320,192,111415,1,0,0:0:0:0:
64,192,111488,1,8,0:0:0:0:
192,192,111488,1,0,0:0:0:0:
448,192,111488,1,0,0:0:0:0:
320,192,111561,1,0,0:0:0:0:
64,192,111635,1,2,0:0:0:0:
448,192,111635,1,0,0:0:0:0:
192,192,111708,1,0,0:0:0:0:
320,192,111781,1,2,0:0:0:0:
448,192,111781,1,0,0:0:0:0:
192,192,111854,1,0,0:0:0:0:
64,192,111927,1,2,0:0:0:0:
448,192,111927,1,0,0:0:0:0:
320,192,112001,1,0,0:0:0:0:
64,192,112074,1,8,0:0:0:0:
192,192,112074,1,0,0:0:0:0:
448,192,112074,1,0,0:0:0:0:
320,192,112147,1,0,0:0:0:0:
64,192,112220,1,2,0:0:0:0:
192,192,112220,1,0,0:0:0:0:
320,192,112366,1,2,0:0:0:0:
448,192,112366,1,0,0:0:0:0:
192,192,112440,1,0,0:0:0:0:
64,192,112513,1,2,0:0:0:0:
448,192,112513,1,0,0:0:0:0:
320,192,112586,1,0,0:0:0:0:
64,192,112659,1,8,0:0:0:0:
192,192,112659,1,0,0:0:0:0:
448,192,112659,1,0,0:0:0:0:
320,192,112732,1,0,0:0:0:0:
64,192,112805,1,2,0:0:0:0:
192,192,112805,1,0,0:0:0:0:
320,192,112952,1,2,0:0:0:0:
448,192,112952,1,0,0:0:0:0:
64,192,113025,1,2,0:0:0:0:
192,192,113025,1,0,0:0:0:0:
320,192,113098,1,2,0:0:0:0:
448,192,113098,1,0,0:0:0:0:
64,192,113171,1,2,0:0:0:0:
192,192,113171,1,0,0:0:0:0:
320,192,113244,1,8,0:0:0:0:
448,192,113244,1,0,0:0:0:0:
64,192,113318,1,2,0:0:0:0:
192,192,113318,1,0,0:0:0:0:
320,192,113391,1,2,0:0:0:0:
448,192,113391,1,0,0:0:0:0:
64,192,113464,1,2,0:0:0:0:
192,192,113464,1,0,0:0:0:0:
320,192,113537,1,2,0:0:0:0:
448,192,113537,1,0,0:0:0:0:
64,192,113610,1,2,0:0:0:0:
192,192,113610,1,0,0:0:0:0:
320,192,113683,1,2,0:0:0:0:
448,192,113683,1,0,0:0:0:0:
64,192,113757,1,2,0:0:0:0:
192,192,113757,1,0,0:0:0:0:
320,192,113830,1,8,0:0:0:0:
448,192,113830,1,0,0:0:0:0:
64,192,113903,1,2,0:0:0:0:
192,192,113903,1,0,0:0:0:0:
320,192,113976,1,2,0:0:0:0:
448,192,113976,1,0,0:0:0:0:
64,192,114049,1,2,0:0:0:0:
192,192,114049,1,0,0:0:0:0:
448,192,114122,1,2,0:0:0:0:
320,192,114171,1,2,0:0:0:0:
192,192,114220,1,2,0:0:0:0:
64,192,114269,1,2,0:0:0:0:
448,192,114318,1,2,0:0:0:0:
320,192,114366,1,2,0:0:0:0:
64,192,114415,1,8,0:0:0:0:
192,192,114415,1,0,0:0:0:0:
448,192,114464,1,2,0:0:0:0:
320,192,114513,1,2,0:0:0:0:
192,192,114561,1,2,0:0:0:0:
64,192,114610,1,2,0:0:0:0:
320,192,114659,1,2,0:0:0:0:
448,192,114708,1,2,0:0:0:0:
64,192,114757,1,2,0:0:0:0:
192,192,114805,1,2,0:0:0:0:
320,192,114854,1,2,0:0:0:0:
448,192,114903,1,2,0:0:0:0:
64,192,114952,1,2,0:0:0:0:
192,192,115001,1,8,0:0:0:0:
320,192,115001,1,0,0:0:0:0:
448,192,115049,1,2,0:0:0:0:
64,192,115098,1,2,0:0:0:0:
192,192,115147,1,2,0:0:0:0:
320,192,115196,1,2,0:0:0:0:
448,192,115244,1,2,0:0:0:0:
64,192,115293,128,6,119976:0:0:0:0:
192,192,115293,1,0,0:0:0:70:sparkler.wav
448,192,115586,1,0,0:0:0:0:
192,192,115683,1,0,0:0:0:0:
320,192,115781,1,0,0:0:0:0:
448,192,115879,1,0,0:0:0:0:
192,192,115976,1,0,0:0:0:0:
448,192,116074,1,0,0:0:0:0:
320,192,116171,1,0,0:0:0:0:
192,192,116269,1,0,0:0:0:0:
448,192,116366,1,0,0:0:0:0:
192,192,116464,1,0,0:0:0:0:
320,192,116561,1,0,0:0:0:0:
448,192,116659,1,0,0:0:0:0:
192,192,116757,1,0,0:0:0:0:
320,192,116903,1,0,0:0:0:0:
448,192,116952,1,0,0:0:0:0:
192,192,117001,1,0,0:0:0:0:
320,192,117049,1,0,0:0:0:0:
192,192,117196,1,0,0:0:0:0:
448,192,117342,128,0,119976:0:0:0:0:
192,192,118805,128,0,119976:0:0:0:0:
320,192,118805,128,0,119976:0:0:0:0:
