osu file format v14

[General]
AudioFilename: audio.mp3
AudioLeadIn: 0
PreviewTime: 65830
Countdown: 0
SampleSet: Soft
StackLeniency: 0.7
Mode: 3
LetterboxInBreaks: 0
SpecialStyle: 0
WidescreenStoryboard: 1

[Editor]
DistanceSpacing: 1.4
BeatDivisor: 2
GridSize: 8
TimelineZoom: 1.7

[Metadata]
Title:Final Letter
TitleUnicode:ファイナルレター
Artist:Kaneko Chiharu
ArtistUnicode:かねこちはる
Creator:Tofu1222
Version:Leni's BASIC
Source:SOUND VOLTEX IV HEAVENLY HAVEN
Tags:SDVX BEMANI KONAMI -MysticEyes K_a_b_i_- Kabi- _Kobii Leniane FAMoss 7th KAC Video Game Instrumental
BeatmapID:1845375
BeatmapSetID:882704

[Difficulty]
HPDrainRate:6.5
CircleSize:4
OverallDifficulty:6.5
ApproachRate:5
SliderMultiplier:1.4
SliderTickRate:1

[Events]
//Background and Video events
0,0,"bg.png",0,0
//Break Periods
//Storyboard Layer 0 (Background)
//Storyboard Layer 1 (Fail)
//Storyboard Layer 2 (Pass)
//Storyboard Layer 3 (Foreground)
//Storyboard Sound Samples
Sample,10513,0,"clap2.wav",70
Sample,11683,0,"clap2.wav",70
Sample,12854,0,"clap2.wav",70
Sample,14757,0,"S1.wav",50
Sample,14903,0,"S1.wav",50
Sample,15049,0,"S1.wav",50
Sample,15342,0,"S1.wav",50
Sample,15488,0,"S1.wav",50
Sample,15635,0,"S1.wav",50
Sample,15927,0,"S1.wav",50
Sample,16074,0,"S1.wav",50
Sample,16220,0,"S1.wav",50
Sample,16513,0,"S1.wav",50
Sample,16952,0,"clap2.wav",70
Sample,17025,0,"S1.wav",50
Sample,17098,0,"S1.wav",50
Sample,17171,0,"S1.wav",50
Sample,17244,0,"clap2.wav",70
Sample,17318,0,"S1.wav",50
Sample,17391,0,"S1.wav",50
Sample,17464,0,"S1.wav",50
Sample,17537,0,"clap2.wav",70
Sample,17610,0,"S1.wav",50
Sample,17683,0,"S1.wav",50
Sample,17757,0,"S1.wav",50
Sample,17830,0,"clap2.wav",70
Sample,17903,0,"S1.wav",50
Sample,17976,0,"S1.wav",50
Sample,18049,0,"S1.wav",50
Sample,18196,0,"LR_Tom Normal.wav",70
Sample,18269,0,"tom01.wav",70
Sample,18342,0,"tom01.wav",70
Sample,18415,0,"tom02.wav",70
Sample,18488,0,"tom02.wav",70
Sample,18561,0,"tom03.wav",70
Sample,18635,0,"tom03.wav",70
Sample,18708,0,"tom04.wav",70
Sample,18781,0,"tom04.wav",70
Sample,18854,0,"K1.wav",70
Sample,19586,0,"clap1.wav",40
Sample,19879,0,"clap1.wav",40
Sample,20757,0,"clap1.wav",40
Sample,21049,0,"clap1.wav",40
Sample,21927,0,"clap1.wav",30
Sample,22220,0,"clap1.wav",30
Sample,23098,0,"clap1.wav",30
Sample,24269,0,"clap1.wav",30
Sample,24561,0,"clap1.wav",30
Sample,25440,0,"clap1.wav",30
Sample,26610,0,"clap1.wav",30
Sample,26903,0,"clap1.wav",30
Sample,35683,0,"sparkler.wav",70
Sample,48708,0,"S2.wav",50
Sample,48781,0,"S2.wav",50
Sample,48854,0,"S2.wav",50
Sample,49001,0,"S2.wav",50
Sample,49074,0,"S2.wav",50
Sample,49147,0,"S2.wav",50
Sample,49293,0,"S2.wav",50
Sample,49732,0,"S2.wav",50
Sample,55732,0,"S2.wav",50
Sample,55805,0,"S2.wav",50
Sample,55879,0,"S2.wav",50
Sample,56025,0,"S2.wav",50
Sample,56171,0,"S2.wav",50
Sample,56318,0,"S2.wav",50
Sample,56391,0,"S2.wav",50
Sample,56464,0,"S2.wav",50
Sample,56610,0,"S2.wav",50
Sample,56757,0,"S2.wav",50
Sample,56830,0,"S2.wav",50
Sample,56903,0,"S2.wav",50
Sample,56976,0,"S2.wav",50
Sample,57049,0,"S2.wav",50
Sample,57122,0,"S2.wav",50
Sample,57196,0,"S2.wav",50
Sample,57269,0,"S2.wav",50
Sample,57342,0,"S2.wav",50
Sample,57415,0,"S2.wav",50
Sample,57488,0,"S2.wav",50
Sample,57561,0,"S2.wav",50
Sample,57635,0,"S2.wav",50
Sample,57708,0,"S2.wav",50
Sample,57781,0,"S2.wav",50
Sample,57854,0,"S2.wav",50
Sample,57927,0,"S2.wav",50
Sample,57976,0,"S2.wav",50
Sample,58025,0,"S2.wav",50
Sample,58074,0,"S2.wav",50
Sample,58122,0,"S2.wav",50
Sample,58171,0,"S2.wav",50
Sample,58220,0,"S2.wav",50
Sample,58269,0,"S2.wav",50
Sample,58318,0,"S2.wav",50
Sample,58366,0,"S2.wav",50
Sample,58415,0,"S2.wav",50
Sample,58464,0,"S2.wav",50
Sample,58513,0,"S2.wav",50
Sample,58561,0,"S2.wav",50
Sample,58610,0,"S2.wav",50
Sample,58659,0,"S2.wav",50
Sample,58708,0,"S2.wav",50
Sample,58757,0,"S2.wav",50
Sample,58805,0,"S2.wav",50
Sample,58854,0,"S2.wav",50
Sample,58903,0,"S2.wav",50
Sample,58952,0,"S2.wav",50
Sample,59001,0,"S2.wav",50
Sample,59049,0,"S2.wav",50
Sample,59098,0,"sparkler.wav",70
Sample,65244,0,"S2.wav",50
Sample,65537,0,"S2.wav",50
Sample,65683,0,"S2.wav",50
Sample,74464,0,"S2.wav",50
Sample,74537,0,"S2.wav",50
Sample,74610,0,"S2.wav",50
Sample,74757,0,"S2.wav",50
Sample,74830,0,"S2.wav",50
Sample,74903,0,"S2.wav",50
Sample,75049,0,"S2.wav",50
Sample,79732,0,"S1.wav",30
Sample,89098,0,"S1.wav",30

[TimingPoints]
562,292.682926829268,4,2,1,20,1,0
9927,-100,4,2,1,30,0,0
14610,-100,4,2,1,40,0,0
21927,-100,4,2,1,30,0,0
22805,-100,4,2,1,20,0,0
26318,-100,4,2,1,30,0,0
28659,-100,4,2,1,40,0,0
35757,-100,4,2,1,20,0,0
38025,-100,4,2,1,30,0,0
39196,-100,4,2,1,40,0,0
59098,-100,4,2,1,20,0,0
61440,-100,4,2,1,30,0,0
63488,-100,4,2,1,40,0,0
66122,-100,4,2,1,50,0,1
91586,-100,4,2,1,50,0,0
91952,-100,4,2,1,20,0,0
93635,-100,4,2,1,30,0,0
95976,-100,4,2,1,40,0,0
97732,-100,4,2,1,50,0,1
115293,-100,4,2,1,50,0,0

[HitObjects]
64,192,562,5,4,0:0:0:0:
448,192,562,1,0,0:0:0:0:
320,192,1147,1,0,0:0:0:70:clap2.wav
192,192,1732,1,0,0:0:0:0:
64,192,2318,128,0,2903:0:0:0:70:clap2.wav
448,192,2903,1,0,0:0:0:0:
320,192,3488,1,0,0:0:0:70:clap2.wav
192,192,4074,128,0,4659:0:0:0:0:
448,192,4659,128,0,5244:0:0:0:70:clap2.wav
64,192,5244,1,4,0:0:0:0:
192,192,5244,1,0,0:0:0:0:
320,192,5830,1,0,0:0:0:70:clap2.wav
448,192,6415,1,0,0:0:0:0:
192,192,7001,128,0,7586:0:0:0:70:clap2.wav
448,192,7586,1,0,0:0:0:0:
64,192,8171,1,0,0:0:0:70:clap2.wav
320,192,8757,128,0,9342:0:0:0:0:
192,192,9342,128,0,9927:0:0:0:70:clap2.wav
320,192,9927,1,4,0:0:0:0:
448,192,9927,1,0,0:0:0:50:S1.wav
64,192,10220,1,0,0:0:0:50:S1.wav
320,192,10513,1,0,0:0:0:50:S1.wav
192,192,10805,1,0,0:0:0:50:S1.wav
448,192,11098,1,0,0:0:0:50:S1.wav
320,192,11391,1,0,0:0:0:50:S1.wav
64,192,11683,1,0,0:0:0:50:S1.wav
192,192,11976,1,0,0:0:0:50:S1.wav
320,192,12269,1,0,0:0:0:50:S1.wav
448,192,12561,1,0,0:0:0:50:S1.wav
192,192,12854,1,0,0:0:0:50:S1.wav
64,192,13147,1,0,0:0:0:50:S1.wav
448,192,13440,1,0,0:0:0:50:S1.wav
192,192,13732,1,0,0:0:0:50:S1.wav
320,192,14025,128,0,14318:0:0:0:70:clap1.wav
64,192,14610,128,0,15196:0:0:0:50:S1.wav
192,192,14610,1,0,0:0:0:70:clap2.wav
320,192,15196,1,0,0:0:0:50:S1.wav
448,192,15196,128,0,15781:0:0:0:70:clap2.wav
64,192,15781,1,0,0:0:0:50:S1.wav
192,192,15781,128,0,16366:0:0:0:70:clap2.wav
320,192,16366,128,0,16659:0:0:0:50:S1.wav
448,192,16366,1,0,0:0:0:70:clap2.wav
192,192,16952,128,0,17244:0:0:0:50:S1.wav
320,192,17244,128,0,17537:0:0:0:50:S1.wav
192,192,17537,128,0,17830:0:0:0:50:S1.wav
320,192,17830,128,0,18122:0:0:0:50:S1.wav
64,192,18122,128,0,19001:0:0:0:70:LR_Tom Normal.wav
320,192,19001,1,0,0:0:0:70:clap1.wav
192,192,19293,1,6,0:0:0:0:
448,192,19293,1,0,0:0:0:70:sparkler.wav
64,192,19732,1,0,0:0:0:0:
320,192,20171,1,2,0:0:0:0:
192,192,21049,1,2,0:0:0:0:
320,192,21342,1,2,0:0:0:0:
64,192,21635,1,2,0:0:0:0:
192,192,21635,1,0,0:0:0:0:
448,192,22074,1,0,0:0:0:0:
192,192,22513,1,0,0:0:0:0:
320,192,23391,1,0,0:0:0:30:clap1.wav
192,192,23683,1,0,0:0:0:0:
64,192,23976,1,0,0:0:0:0:
448,192,23976,1,0,0:0:0:0:
320,192,24415,1,0,0:0:0:0:
192,192,24854,1,0,0:0:0:0:
320,192,25147,1,0,0:0:0:0:
448,192,25147,1,0,0:0:0:0:
192,192,25732,1,0,0:0:0:30:clap1.wav
320,192,26025,1,0,0:0:0:0:
64,192,26318,1,0,0:0:0:0:
448,192,26318,1,0,0:0:0:0:
192,192,26757,1,0,0:0:0:0:
448,192,27196,1,0,0:0:0:0:
64,192,27488,1,0,0:0:0:30:clap1.wav
320,192,27488,1,0,0:0:0:0:
192,192,28074,1,0,0:0:0:0:
448,192,28074,1,0,0:0:0:0:
64,192,28659,1,4,0:0:0:0:
192,192,28659,1,2,0:0:0:0:
320,192,28952,1,8,0:0:0:0:
192,192,29244,1,2,0:0:0:0:
320,192,29537,1,8,0:0:0:0:
448,192,29537,1,0,0:0:0:0:
64,192,29830,1,2,0:0:0:0:
320,192,30122,1,8,0:0:0:0:
192,192,30415,1,2,0:0:0:0:
64,192,30708,1,8,0:0:0:0:
320,192,30708,1,0,0:0:0:0:
448,192,31001,1,2,0:0:0:0:
192,192,31293,1,8,0:0:0:0:
320,192,31586,1,2,0:0:0:0:
64,192,31879,1,8,0:0:0:0:
448,192,31879,1,0,0:0:0:0:
320,192,32171,1,2,0:0:0:0:
192,192,32464,1,8,0:0:0:0:
448,192,32757,1,2,0:0:0:0:
64,192,33049,1,8,0:0:0:0:
320,192,33049,1,0,0:0:0:0:
192,192,33342,1,2,0:0:0:0:
320,192,33635,1,8,0:0:0:0:
64,192,34220,1,8,0:0:0:0:
448,192,34220,1,4,0:0:0:0:
192,192,34513,1,2,0:0:0:0:
320,192,34805,1,8,0:0:0:0:
448,192,35098,128,2,35683:0:0:0:0:
192,192,35391,1,8,0:0:0:0:
64,192,35683,128,6,36854:0:0:0:0:
320,192,36854,128,0,38025:0:0:0:0:
448,192,38025,128,0,39196:0:0:0:0:
192,192,39196,1,0,0:0:0:70:LR_Kick Low Strong Beat.wav
320,192,39196,1,0,0:0:0:0:
64,192,39781,128,0,40366:0:0:0:0:
192,192,40366,1,4,0:0:0:0:
448,192,40366,1,0,0:0:0:0:
64,192,40952,1,8,0:0:0:0:
320,192,40952,1,0,0:0:0:0:
192,192,41537,1,2,0:0:0:0:
448,192,41830,1,0,0:0:0:0:
64,192,42122,1,8,0:0:0:0:
320,192,42122,1,0,0:0:0:0:
192,192,42708,1,2,0:0:0:0:
320,192,43293,1,8,0:0:0:0:
448,192,43293,1,0,0:0:0:0:
64,192,43879,1,2,0:0:0:0:
192,192,44171,1,0,0:0:0:0:
320,192,44464,1,8,0:0:0:0:
448,192,44464,1,0,0:0:0:0:
192,192,45049,1,2,0:0:0:0:
64,192,45635,1,8,0:0:0:0:
448,192,45635,1,0,0:0:0:0:
320,192,46220,1,2,0:0:0:0:
192,192,46513,1,0,0:0:0:0:
64,192,46805,1,8,0:0:0:0:
448,192,46805,1,0,0:0:0:0:
320,192,47391,1,2,0:0:0:0:
64,192,47976,1,8,0:0:0:0:
192,192,47976,1,0,0:0:0:0:
192,192,48561,1,0,0:0:0:50:S2.wav
448,192,48561,1,0,0:0:0:0:
320,192,48854,1,2,0:0:0:0:
64,192,49147,128,2,49440:0:0:0:0:
448,192,49440,128,0,49732:0:0:0:50:S2.wav
192,192,49732,1,4,0:0:0:0:
320,192,50025,1,0,0:0:0:50:S2.wav
192,192,50318,1,0,0:0:0:50:S2.wav
320,192,50610,1,0,0:0:0:50:S2.wav
64,192,50903,1,0,0:0:0:50:S2.wav
320,192,51196,1,0,0:0:0:50:S2.wav
64,192,51488,1,0,0:0:0:50:S2.wav
320,192,51781,1,0,0:0:0:50:S2.wav
64,192,52074,1,0,0:0:0:50:S2.wav
448,192,52366,1,0,0:0:0:50:S2.wav
64,192,52659,1,0,0:0:0:50:S2.wav
448,192,52952,1,0,0:0:0:50:S2.wav
192,192,53244,1,0,0:0:0:50:S2.wav
448,192,53537,1,0,0:0:0:50:S2.wav
192,192,53830,1,0,0:0:0:50:S2.wav
448,192,54122,1,0,0:0:0:50:S2.wav
64,192,54415,128,0,55293:0:0:0:70:LR_Kick Low Strong Beat.wav
320,192,55293,1,0,0:0:0:50:clap2.wav
192,192,55586,1,6,0:0:0:0:
448,192,55586,1,0,0:0:0:50:S2.wav
64,192,55879,1,2,0:0:0:0:
320,192,56171,1,2,0:0:0:0:
192,192,56464,1,2,0:0:0:0:
448,192,56757,128,2,57049:0:0:0:0:
320,192,57049,128,2,57342:0:0:0:0:
192,192,57342,128,2,57635:0:0:0:0:
64,192,57635,128,2,57927:0:0:0:0:
448,192,57927,128,2,58513:0:0:0:0:
192,192,58513,128,2,59098:0:0:0:0:
448,192,59098,1,4,0:0:0:0:
320,192,59683,1,0,0:0:0:0:
448,192,60269,1,0,0:0:0:0:
64,192,60854,1,0,0:0:0:0:
192,192,61440,1,0,0:0:0:0:
448,192,61440,1,0,0:0:0:0:
192,192,62025,1,0,0:0:0:0:
320,192,62025,1,0,0:0:0:0:
320,192,62610,1,0,0:0:0:0:
448,192,62610,1,0,0:0:0:0:
64,192,63196,1,0,0:0:0:0:
192,192,63488,1,0,0:0:0:70:K1.wav
320,192,63635,1,4,0:0:0:0:
448,192,63635,1,2,0:0:0:0:
64,192,63927,1,2,0:0:0:0:
192,192,64074,1,2,0:0:0:0:
320,192,64220,1,2,0:0:0:0:
448,192,64366,128,2,64952:0:0:0:0:
192,192,64952,1,0,0:0:0:50:S2.wav
320,192,65244,1,2,0:0:0:0:
64,192,65537,128,2,65830:0:0:0:0:
448,192,65830,128,0,66122:0:0:0:50:S2.wav
64,192,66122,1,4,0:0:0:0:
192,192,66122,1,2,0:0:0:0:
448,192,66415,1,8,0:0:0:0:
320,192,66708,1,2,0:0:0:0:
64,192,67001,1,8,0:0:0:0:
192,192,67001,1,0,0:0:0:0:
448,192,67293,1,2,0:0:0:0:
64,192,67586,1,8,0:0:0:0:
192,192,67879,1,2,0:0:0:0:
320,192,68171,1,8,0:0:0:0:
448,192,68171,1,0,0:0:0:0:
64,192,68464,1,2,0:0:0:0:
448,192,68757,1,8,0:0:0:0:
192,192,69049,1,2,0:0:0:0:
320,192,69342,1,8,0:0:0:0:
448,192,69342,1,0,0:0:0:0:
64,192,69635,1,2,0:0:0:0:
448,192,69927,1,8,0:0:0:0:
192,192,70220,1,2,0:0:0:0:
64,192,70513,1,8,0:0:0:0:
320,192,70513,1,0,0:0:0:0:
192,192,70805,1,2,0:0:0:0:
448,192,70805,1,4,0:0:0:0:
64,192,71098,1,8,0:0:0:0:
448,192,71391,1,2,0:0:0:0:
64,192,71683,1,8,0:0:0:0:
320,192,71683,1,0,0:0:0:0:
192,192,71976,1,2,0:0:0:0:
64,192,72269,1,8,0:0:0:0:
320,192,72561,1,2,0:0:0:0:
192,192,72854,1,8,0:0:0:0:
448,192,72854,1,0,0:0:0:0:
320,192,73147,1,2,0:0:0:0:
64,192,73440,1,8,0:0:0:0:
192,192,73732,1,2,0:0:0:0:
320,192,74025,1,8,0:0:0:0:
448,192,74025,1,0,0:0:0:0:
64,192,74318,1,0,0:0:0:50:S2.wav
320,192,74610,1,2,0:0:0:0:
192,192,74903,128,2,75488:0:0:0:0:
320,192,75196,1,8,0:0:0:0:
64,192,75488,1,4,0:0:0:0:
448,192,75488,1,2,0:0:0:0:
192,192,75781,1,8,0:0:0:0:
448,192,76074,1,2,0:0:0:0:
64,192,76366,1,8,0:0:0:0:
192,192,76366,1,4,0:0:0:0:
320,192,76659,1,2,0:0:0:0:
192,192,76952,1,8,0:0:0:0:
448,192,77244,128,2,77830:0:0:0:0:
64,192,77537,1,8,0:0:0:0:
192,192,77830,1,2,0:0:0:0:
320,192,78122,1,8,0:0:0:0:
64,192,78415,128,2,79001:0:0:0:0:
448,192,78708,1,8,0:0:0:0:
320,192,79001,1,2,0:0:0:0:
192,192,79293,1,8,0:0:0:0:
320,192,79440,1,4,0:0:0:0:
448,192,79440,1,2,0:0:0:0:
64,192,79879,1,8,0:0:0:0:
192,192,80171,1,4,0:0:0:0:
448,192,80171,1,2,0:0:0:0:
320,192,80464,1,8,0:0:0:0:
64,192,80757,1,2,0:0:0:0:
192,192,81049,1,8,0:0:0:0:
448,192,81049,1,0,0:0:0:0:
320,192,81342,1,2,0:0:0:0:
64,192,81635,1,8,0:0:0:0:
320,192,81927,1,2,0:0:0:0:
64,192,82220,1,8,0:0:0:0:
192,192,82220,1,0,0:0:0:0:
448,192,82513,128,2,83098:0:0:0:0:
192,192,82805,1,8,0:0:0:0:
64,192,83098,128,2,83683:0:0:0:0:
320,192,83391,1,8,0:0:0:0:
448,192,83683,128,2,84269:0:0:0:0:
64,192,83976,1,8,0:0:0:0:
192,192,84269,1,2,0:0:0:0:
320,192,84415,1,2,0:0:0:0:
64,192,84854,1,4,0:0:0:0:
320,192,84854,1,2,0:0:0:0:
192,192,85147,1,2,0:0:0:0:
448,192,85293,1,8,0:0:0:0:
192,192,85732,1,2,0:0:0:0:
320,192,85732,1,4,0:0:0:0:
448,192,86025,1,2,0:0:0:0:
64,192,86171,1,8,0:0:0:0:
64,192,86610,1,2,0:0:0:0:
192,192,86903,1,8,0:0:0:0:
320,192,87196,1,2,0:0:0:0:
448,192,87196,1,4,0:0:0:0:
64,192,87488,1,8,0:0:0:0:
320,192,87781,1,2,0:0:0:0:
192,192,88074,1,8,0:0:0:0:
448,192,88366,1,2,0:0:0:0:
320,192,88659,1,8,0:0:0:0:
64,192,88805,1,4,0:0:0:0:
192,192,88805,1,2,0:0:0:0:
448,192,89244,1,8,0:0:0:0:
64,192,89537,1,4,0:0:0:0:
320,192,89537,1,2,0:0:0:0:
192,192,89830,1,8,0:0:0:0:
448,192,90122,1,2,0:0:0:0:
320,192,90415,1,8,0:0:0:0:
64,192,90708,128,2,91586:0:0:0:0:
320,192,91586,1,0,0:0:0:50:clap2.wav
448,192,91586,1,0,0:0:0:0:
192,192,92464,1,0,0:0:0:100:clap3.wav
64,192,93635,1,0,0:0:0:100:clap3.wav
320,192,94805,1,0,0:0:0:100:clap3.wav
64,192,95976,1,0,0:0:0:100:clap1.wav
448,192,95976,1,0,0:0:0:0:
192,192,96561,1,0,0:0:0:0:
320,192,97001,1,0,0:0:0:0:
64,192,97293,1,0,0:0:0:0:
192,192,97513,1,0,0:0:0:0:
320,192,97732,1,4,0:0:0:0:
448,192,97732,1,2,0:0:0:0:
64,192,98025,1,2,0:0:0:0:
320,192,98318,1,2,0:0:0:0:
192,192,98610,1,2,0:0:0:0:
448,192,98903,1,2,0:0:0:0:
64,192,99196,1,2,0:0:0:0:
320,192,99488,1,2,0:0:0:0:
192,192,99781,1,2,0:0:0:0:
448,192,100074,1,2,0:0:0:0:
320,192,100366,1,2,0:0:0:0:
64,192,100659,1,2,0:0:0:0:
192,192,100952,1,2,0:0:0:0:
320,192,101244,1,2,0:0:0:0:
448,192,101244,1,4,0:0:0:0:
64,192,101537,1,2,0:0:0:0:
320,192,101830,1,2,0:0:0:0:
192,192,102122,1,2,0:0:0:0:
448,192,102415,1,2,0:0:0:0:
320,192,102708,1,2,0:0:0:0:
192,192,103001,1,2,0:0:0:0:
64,192,103293,1,2,0:0:0:0:
320,192,103586,1,2,0:0:0:0:
192,192,103879,1,2,0:0:0:0:
448,192,104171,1,2,0:0:0:0:
64,192,104464,1,2,0:0:0:0:
192,192,104757,1,2,0:0:0:0:
320,192,105049,1,2,0:0:0:0:
64,192,105342,1,2,0:0:0:0:
320,192,105635,1,8,0:0:0:0:
448,192,105635,1,0,0:0:0:0:
64,192,105927,1,4,0:0:0:0:
192,192,105927,1,2,0:0:0:0:
448,192,106220,1,8,0:0:0:0:
192,192,106513,1,2,0:0:0:0:
320,192,106805,1,8,0:0:0:0:
448,192,107098,1,2,0:0:0:0:
192,192,107391,1,8,0:0:0:0:
64,192,107683,1,2,0:0:0:0:
320,192,107976,1,8,0:0:0:0:
448,192,107976,1,0,0:0:0:0:
192,192,108269,1,2,0:0:0:0:
448,192,108561,1,8,0:0:0:0:
320,192,108854,1,2,0:0:0:0:
64,192,109147,1,8,0:0:0:0:
192,192,109440,1,2,0:0:0:0:
320,192,109732,1,8,0:0:0:0:
448,192,110025,1,2,0:0:0:0:
192,192,110318,1,8,0:0:0:0:
320,192,110318,1,0,0:0:0:0:
64,192,110610,1,4,0:0:0:0:
448,192,110610,1,2,0:0:0:0:
320,192,110903,1,8,0:0:0:0:
192,192,111196,1,2,0:0:0:0:
448,192,111488,1,8,0:0:0:0:
64,192,111781,1,2,0:0:0:0:
192,192,112074,1,8,0:0:0:0:
320,192,112366,1,2,0:0:0:0:
64,192,112659,1,8,0:0:0:0:
192,192,112659,1,0,0:0:0:0:
448,192,112952,128,2,114122:0:0:0:0:
320,192,113244,1,8,0:0:0:0:
192,192,113537,1,2,0:0:0:0:
64,192,113830,1,8,0:0:0:0:
192,192,114122,128,2,114708:0:0:0:0:
320,192,114708,128,2,115293:0:0:0:0:
64,192,115293,1,6,0:0:0:0:
448,192,115293,1,0,0:0:0:70:sparkler.wav
192,192,115586,128,0,116757:0:0:0:0:
448,192,116757,128,0,117342:0:0:0:0:
64,192,117342,128,0,119976:0:0:0:0:
