osu file format v14

[General]
AudioFilename: audio.mp3
AudioLeadIn: 0
PreviewTime: 54030
Countdown: 0
SampleSet: Soft
StackLeniency: 0.4
Mode: 0
LetterboxInBreaks: 0
WidescreenStoryboard: 0

[Editor]
Bookmarks: 41546,99280
DistanceSpacing: 1
BeatDivisor: 4
GridSize: 4
TimelineZoom: 3.499999

[Metadata]
Title:FLuegeL(Arp:EggyO)
TitleUnicode:FLügeL《Λrp:ΣggyØ》
Artist:Kaneko Chiharu
ArtistUnicode:かねこちはる
Creator:Chalwa
Version:STANDARD
Source:SOUND VOLTEX III GRAVITY WARS
Tags:konami original ac sdvx the 5th kac original song contest winner
BeatmapID:1284494
BeatmapSetID:605543

[Difficulty]
HPDrainRate:3
CircleSize:3.5
OverallDifficulty:4
ApproachRate:5
SliderMultiplier:0.90000000596046
SliderTickRate:1

[Events]
//Background and Video events
0,0,"KIEDYWYNIKITESTÓWPLS.png",0,0
//Break Periods
2,73030,78710
//Storyboard Layer 0 (Background)
//Storyboard Layer 1 (Fail)
//Storyboard Layer 2 (Pass)
//Storyboard Layer 3 (Foreground)
//Storyboard Sound Samples

[TimingPoints]
2046,500,4,2,0,100,1,0
13046,-100,4,2,0,60,0,0
14046,250,6,2,0,70,1,0
14046,-100,6,2,0,70,0,0
25546,-100,6,2,0,72,0,0
25608,-100,6,2,0,74,0,0
25671,-100,6,2,0,76,0,0
25733,-100,6,2,0,78,0,0
25796,-100,6,2,0,80,0,0
25858,-100,6,2,0,82,0,0
25921,-100,6,2,0,84,0,0
25983,-100,6,2,0,86,0,0
26046,-100,6,2,0,90,0,1
30046,-100,6,2,0,90,0,1
30546,-100,6,2,0,90,0,1
32046,-100,6,2,0,90,0,0
38046,250,4,2,0,90,1,0
38046,-100,4,2,0,90,0,0
50046,-100,4,2,0,90,0,0
54030,250,4,2,0,90,1,1
54030,-100,4,2,0,90,0,1
66030,-100,4,2,0,90,0,0
70030,-100,4,2,0,90,0,1
72030,-100,4,2,0,70,0,0
89030,-100,4,2,0,70,0,0
90030,-100,4,2,0,80,0,1
98030,-100,4,2,0,80,0,0

[Colours]
Combo1 : 31,0,62
Combo2 : 255,79,167
Combo3 : 255,255,121
Combo4 : 253,167,130

[HitObjects]
256,192,10046,12,0,13046,0:0:0:0:
137,207,14046,6,0,P|207:224|296:162,1,180.000001192093,4|0,0:0|0:0,0:0:0:0:
345,94,14796,1,0,0:0:0:0:
411,154,15046,2,0,L|430:246,1,90.0000005960464,8|0,0:0|0:0,0:0:0:0:
389,323,15546,2,0,L|208:348,1,180.000001192093,2|0,0:0|0:0,0:0:0:0:
135,297,16296,2,0,L|35:311,2,90.0000005960464,0|8|0,0:0|0:0|0:0,0:0:0:0:
190,225,17046,6,0,L|371:198,1,180.000001192093,2|0,0:0|0:0,0:0:0:0:
418,123,17796,1,0,0:0:0:0:
478,190,18046,2,0,P|486:226|470:288,1,90.0000005960464,8|2,0:0|0:0,0:0:0:0:
405,334,18546,6,0,L|256:357,2,135.00000089407,4|0|0,0:0|0:0|0:0,0:0:0:0:
475,277,19546,1,8,0:0:0:0:
418,206,19796,1,0,0:0:0:0:
472,134,20046,6,0,P|429:75|321:66,1,180.000001192093,4|0,0:0|0:0,0:0:0:0:
158,122,21046,2,0,L|58:136,1,90.0000005960464,8|0,0:0|0:0,0:0:0:0:
38,219,21546,2,0,P|7:265|29:350,2,135.00000089407,2|0|0,0:0|0:0|0:0,0:0:0:0:
68,134,22546,2,0,L|171:107,1,90.0000005960464,8|0,0:0|0:0,0:0:0:0:
242,135,23046,5,2,0:0:0:0:
390,235,23546,2,0,P|395:271|379:324,1,90.0000005960464
296,355,24046,2,0,P|291:319|307:266,1,90.0000005960464,8|0,0:0|0:0,0:0:0:0:
277,182,24546,2,0,B|186:184|186:184|106:118,2,180.000001192093,2|0|8,0:0|0:0|0:0,0:0:0:0:
453,221,26046,6,0,P|456:255|341:345,1,180.000001192093,4|0,0:0|0:0,0:0:0:0:
270,327,26796,1,0,0:0:0:0:
180,337,27046,2,0,L|82:346,1,90.0000005960464,8|0,0:0|0:0,0:0:0:0:
25,282,27546,2,0,P|60:203|19:126,2,180.000001192093,2|0|8,0:0|0:0|0:0,0:0:0:0:
197,334,29046,6,0,B|285:353|285:353|377:331,1,180.000001192093,2|0,0:0|0:0,0:0:0:0:
442,275,29796,1,0,0:0:0:0:
392,199,30046,1,8,0:0:0:0:
438,121,30296,1,0,0:0:0:0:
348,119,30546,6,0,L|195:128,2,135.00000089407,2|0|0,0:0|0:0|0:0,0:0:0:0:
396,42,31546,1,8,0:0:0:0:
216,37,32046,6,0,P|149:71|141:170,1,180.000001192093,4|0,0:0|0:0,0:0:0:0:
184,245,32796,2,0,L|370:271,1,180.000001192093,4|0,0:0|0:0,0:0:0:0:
438,222,33546,2,0,P|449:188|448:133,1,90.0000005960464,2|0,0:0|0:0,0:0:0:0:
374,81,34046,2,0,P|363:115|364:170,2,90.0000005960464,0|0|8,0:0|0:0|0:0,0:0:0:0:
198,38,35046,6,0,L|99:26,2,90.0000005960464,2|0|0,0:0|0:0|0:0,0:0:0:0:
272,88,35796,1,0,0:0:0:0:
203,150,36046,2,0,P|192:188|212:244,1,90.0000005960464,8|0,0:0|0:0,0:0:0:0:
259,307,36546,6,0,P|332:280|279:379,2,270.000001788138,2|8|4,0:0|0:0|0:0,0:0:0:0:
82,102,38796,5,2,0:0:0:0:
82,102,39046,2,0,L|263:121,2,180.000001192093,8|0|0,0:0|0:0|0:0,0:0:0:0:
22,272,40546,1,2,0:0:0:0:
190,336,41046,2,0,P|284:315|369:349,2,180.000001192093,8|0|4,0:0|0:0|0:0,0:0:0:0:
156,68,42796,5,2,0:0:0:0:
156,68,43046,2,0,B|156:129|156:129|175:180|175:180|176:249,2,180.000001192093,8|0|0,0:0|0:0|0:0,0:0:0:0:
25,192,44546,1,2,0:0:0:0:
133,336,45046,2,0,P|225:337|276:258,2,180.000001192093,8|0|4,0:0|0:0|0:0,0:0:0:0:
349,174,46796,5,2,0:0:0:0:
349,174,47046,2,0,B|404:196|404:240|400:240|400:244|404:244|404:292|469:320,2,180.000001192092,8|0|0,0:0|0:0|0:0,0:0:0:0:
176,122,48546,1,2,0:0:0:0:
313,250,49046,2,0,P|396:240|434:149,1,180.000001192093,8|0,0:0|0:0,0:0:0:0:
258,126,50046,6,0,B|254:171|212:198|212:198|212:255,2,135.00000089407,4|0|0,0:0|0:0|0:0,0:0:0:0:
167,122,51046,2,0,B|171:77|213:50|213:50|213:-7,2,135.00000089407,4|0|0,0:0|0:0|0:0,0:0:0:0:
126,202,52046,2,0,L|125:337,2,135.00000089407,4|0|0,0:0|0:0|0:0,0:0:0:0:
167,122,53046,2,0,L|273:126,1,90.0000005960464,4|0,0:0|0:0,0:0:0:0:
334,171,53546,1,8,0:0:0:0:
334,171,54030,6,0,P|321:231|401:326,2,180.000001192093,4|0|8,0:0|0:0|0:0,0:0:0:0:
375,90,55280,1,0,0:0:0:0:
292,54,55530,2,0,B|246:49|246:49|193:56,1,90.0000005960464,2|0,0:0|0:0,0:0:0:0:
139,118,56030,6,0,P|156:200|74:244,1,180.000001192093,4|0,0:0|0:0,0:0:0:0:
218,363,57030,2,0,L|323:368,1,90.0000005960464,8|0,0:0|0:0,0:0:0:0:
371,303,57530,2,0,L|476:298,1,90.0000005960464,2|0,0:0|0:0,0:0:0:0:
511,223,58030,6,0,B|488:191|495:136|495:136|475:88|428:81,2,180.000001192093,4|0|4,0:0|0:0|0:0,0:0:0:0:
460,298,59280,1,0,0:0:0:0:
402,229,59530,2,0,L|300:220,1,90.0000005960464,2|0,0:0|0:0,0:0:0:0:
231,260,60030,6,0,B|137:249|137:249|166:202|152:168|152:164|148:164|148:168|125:119|149:80,2,270.000001788138,4|2|8,0:0|0:0|0:0,0:0:0:0:
399,322,62030,6,0,P|419:259|360:157,2,180.000001192093,4|0|8,0:0|0:0|0:0,0:0:0:0:
315,355,63280,1,0,0:0:0:0:
259,283,63530,2,0,L|169:261,1,90.0000005960464,2|0,0:0|0:0,0:0:0:0:
132,180,64030,6,0,B|128:61|128:61|166:109,2,180.000001192093,4|0|8,0:0|0:0|0:0,0:0:0:0:
171,261,65280,2,0,P|178:314|163:348,2,90.0000005960464,0|2|0,0:0|0:0|0:0,0:0:0:0:
233,196,66030,6,0,L|426:173,2,180.000001192093,4|0|8,0:0|0:0|0:0,0:0:0:0:
72,280,67530,1,0,0:0:0:0:
77,97,68030,2,0,P|188:28|231:197,1,360.000002384186,2|8,0:0|0:0,0:0:0:0:
199,372,69530,1,0,0:0:0:0:
359,289,70030,6,0,L|457:123,1,180.000001192093,4|0,0:0|0:0,0:0:0:0:
390,67,70780,2,0,P|303:93|220:64,1,180.000001192093,8|0,0:0|0:0,0:0:0:0:
136,35,71530,2,0,L|112:121,2,90.0000005960464,2|0|4,0:0|0:0|0:0,0:0:0:0:
143,210,80030,6,0,P|228:210|250:115,1,180.000001192093
239,42,80780,1,0,0:0:0:0:
320,79,81030,2,0,B|410:88|410:88|458:71,2,135.00000089407
239,42,82030,6,0,P|194:38|97:131,1,180.000001192093
129,206,82780,1,0,0:0:0:0:
189,272,83030,2,0,B|237:284|237:284|276:275|276:275|300:294|336:289,2,135.00000089407
129,206,84030,5,0,0:0:0:0:
129,206,84530,2,0,L|219:169,1,90.0000005960464
302,171,85030,2,0,L|392:134,1,90.0000005960464
420,53,85530,1,0,0:0:0:0:
420,53,86030,6,0,P|398:121|443:215,1,180.000001192093
463,302,86780,1,0,0:0:0:0:
373,302,87030,2,0,L|179:284,2,180.000001192093
463,302,88280,1,0,0:0:0:0:
442,214,88530,2,0,P|428:177|446:129,1,90.0000005960464
462,43,89030,5,0,0:0:0:0:
110,118,90030,6,0,P|133:149|83:280,1,180.000001192093,4|2,0:0|0:0,0:0:0:0:
75,360,90780,1,0,0:0:0:0:
161,333,91030,2,0,L|261:331,1,90.0000005960464
314,267,91530,2,0,L|414:265,1,90.0000005960464,8|0,0:0|0:0,0:0:0:0:
468,200,92030,6,0,P|496:152|433:52,2,180.000001192093,2|0|2,0:0|0:0|0:0,0:0:0:0:
403,265,93280,1,0,0:0:0:0:
336,204,93530,1,8,0:0:0:0:
264,258,93780,1,0,0:0:0:0:
203,191,94030,6,0,B|159:163|117:169|117:169|126:120|86:86,1,180.000001192093,4|2,0:0|0:0,0:0:0:0:
29,154,94780,1,0,0:0:0:0:
51,241,95030,2,0,L|63:334,1,90.0000005960464
144,367,95530,2,0,L|237:355,1,90.0000005960464,8|0,0:0|0:0,0:0:0:0:
308,306,96030,6,0,L|441:285,2,135.00000089407,2|0|0,0:0|0:0|0:0,0:0:0:0:
244,242,97030,2,0,L|111:221,2,135.00000089407,2|0|0,0:0|0:0|0:0,0:0:0:0:
304,175,98030,6,0,P|329:108|269:14,2,180.000001192093,4|0|4,0:0|0:0|0:0,0:0:0:0:
244,242,99280,1,0,0:0:0:0:
310,306,99530,2,0,L|414:333,1,90.0000005960464
476,285,100030,6,0,B|439:204|439:204|439:104,2,180.000001192093,4|0|4,0:0|0:0|0:0,0:0:0:0:
472,375,101280,1,0,0:0:0:0:
397,328,101530,2,0,P|352:315|294:327,1,90.0000005960464
220,327,102030,6,0,L|123:328,1,90.0000005960464,4|0,0:0|0:0,0:0:0:0:
129,237,102530,2,0,L|226:238,1,90.0000005960464,8|0,0:0|0:0,0:0:0:0:
218,147,103030,2,0,L|121:148,1,90.0000005960464,2|0,0:0|0:0,0:0:0:0:
127,57,103530,2,0,L|224:58,1,90.0000005960464,8|0,0:0|0:0,0:0:0:0:
303,83,104030,6,0,L|450:82,2,135.00000089407,4|0|0,0:0|0:0|0:0,0:0:0:0:
238,146,105030,2,0,P|239:185|298:266,2,135.00000089407,2|0|0,0:0|0:0|0:0,0:0:0:0:
216,57,106030,1,8,0:0:0:0:
