osu file format v14

[General]
AudioFilename: audio.mp3
AudioLeadIn: 0
PreviewTime: 54030
Countdown: 0
SampleSet: Soft
StackLeniency: 0.4
Mode: 0
LetterboxInBreaks: 0
WidescreenStoryboard: 0

[Editor]
Bookmarks: 41546,99280
DistanceSpacing: 1
BeatDivisor: 2
GridSize: 4
TimelineZoom: 3.499999

[Metadata]
Title:FLuegeL(Arp:EggyO)
TitleUnicode:FLügeL《Λrp:ΣggyØ》
Artist:Kaneko Chiharu
ArtistUnicode:かねこちはる
Creator:Chalwa
Version:NOVICE
Source:SOUND VOLTEX III GRAVITY WARS
Tags:konami original ac sdvx the 5th kac original song contest winner
BeatmapID:1283281
BeatmapSetID:605543

[Difficulty]
HPDrainRate:1
CircleSize:2.5
OverallDifficulty:1
ApproachRate:1
SliderMultiplier:0.600000005960464
SliderTickRate:1

[Events]
//Background and Video events
0,0,"KIEDYWYNIKITESTÓWPLS.png",0,0
//Break Periods
2,73030,78350
//Storyboard Layer 0 (Background)
//Storyboard Layer 1 (Fail)
//Storyboard Layer 2 (Pass)
//Storyboard Layer 3 (Foreground)
//Storyboard Sound Samples

[TimingPoints]
2046,500,4,2,0,100,1,0
13046,-100,4,2,0,60,0,0
14046,250,6,2,0,70,1,0
14046,-100,6,2,0,70,0,0
26046,-100,6,2,0,90,0,1
30046,-100,6,2,0,90,0,1
30546,-100,6,2,0,90,0,1
32046,-100,6,2,0,90,0,0
38046,250,4,2,0,90,1,0
38046,-100,4,2,0,90,0,0
50046,-100,4,2,0,90,0,0
54030,250,4,2,0,90,1,1
54030,-100,4,2,0,90,0,1
66030,-100,4,2,0,90,0,0
70030,-100,4,2,0,90,0,1
72030,-100,4,2,0,70,0,0
89030,-100,4,2,0,70,0,0
90030,-100,4,2,0,80,0,1
98030,-100,4,2,0,80,0,0

[Colours]
Combo1 : 31,0,62
Combo2 : 255,79,167
Combo3 : 255,255,121
Combo4 : 253,167,130

[HitObjects]
256,192,10046,12,0,13046,0:0:0:0:
74,210,14046,6,0,P|190:226|262:133,1,240.000002384186,4|0,0:0|0:0,0:0:0:0:
341,49,15546,2,0,L|399:282,1,240.000002384186,2|0,0:0|0:0,0:0:0:0:
297,347,17046,2,0,P|209:323|125:353,2,180.000001788139,2|0|8,0:0|0:0|0:0,0:0:0:0:
398,281,19046,2,0,P|404:233|378:163,1,120.000001192093
304,73,20046,6,0,P|249:82|180:66,1,120.000001192093,4|0,0:0|0:0,0:0:0:0:
70,36,21046,1,0,0:0:0:0:
121,144,21546,2,0,B|154:169|172:218|155:279|117:314|117:314|173:301|173:301|226:323|226:323|285:308,1,360.000003576279,8|2,0:0|0:0,0:0:0:0:
386,258,23546,2,0,P|393:206|370:137,1,120.000001192093
279,66,24546,2,0,B|159:44|159:44|105:80|124:154,1,240.000002384186,8|0,0:0|0:0,0:0:0:0:
153,263,26046,6,0,P|202:297|262:299,2,120.000001192093,2|0|8,0:0|0:0|0:0,0:0:0:0:
122,147,27546,2,0,L|116:26,2,120.000001192093,2|0|8,0:0|0:0|0:0,0:0:0:0:
153,263,29046,2,0,P|202:297|262:299,1,120.000001192093,2|0,0:0|0:0,0:0:0:0:
358,229,30046,1,8,0:0:0:0:
441,315,30546,2,0,B|465:330|477:359|477:359|519:278|487:182,1,240.000002384186,2|8,0:0|0:0,0:0:0:0:
425,79,32046,6,0,P|342:56|246:82,2,180.000001788139,6|0|2,0:0|0:0|0:0,0:0:0:0:
487,182,34046,1,0,0:0:0:0:
403,268,34546,1,8,0:0:0:0:
301,203,35046,6,0,B|241:195|241:195|181:210,1,120.000001192093,2|0,0:0|0:0,0:0:0:0:
97,293,36046,2,0,P|65:238|69:175,1,120.000001192093,2|8,0:0|0:0,0:0:0:0:
90,65,37046,1,0,0:0:0:0:
198,115,37546,2,0,L|317:128,1,120.000001192093,2|4,0:0|0:0,0:0:0:0:
454,325,39046,6,0,L|335:312,1,120.000001192093
225,261,40046,2,0,P|215:207|147:292,2,240.000002384186,2|8|4,0:0|0:0|0:0,0:0:0:0:
420,122,43046,6,0,L|301:135,1,120.000001192093
191,186,44046,2,0,P|181:240|113:155,2,240.000002384186,2|8|4,0:0|0:0|0:0,0:0:0:0:
407,81,47046,5,0,0:0:0:0:
434,197,47546,1,0,0:0:0:0:
320,157,48046,2,0,B|257:151|204:188|204:188|168:139|99:122,1,240.000002384186,2|8,0:0|0:0,0:0:0:0:
21,40,49546,1,0,0:0:0:0:
0,158,50046,6,0,P|-1:249|57:315,1,180.000001788139,4|0,0:0|0:0,0:0:0:0:
113,326,51046,2,0,B|206:314|206:314|292:334,1,180.000001788139,4|0,0:0|0:0,0:0:0:0:
348,347,52046,2,0,P|404:279|402:191,1,180.000001788139,4|0,0:0|0:0,0:0:0:0:
387,132,53046,2,0,B|330:148|330:148|263:148,1,120.000001192093,2|8,0:0|0:0,0:0:0:0:
166,94,54030,6,0,P|151:152|168:213,1,120.000001192093,4|0,0:0|0:0,0:0:0:0:
266,274,55030,2,0,L|387:274,1,120.000001192093,2|8,0:0|0:0,0:0:0:0:
382,153,56030,2,0,L|261:153,2,120.000001192093,2|0|2,0:0|0:0|0:0,0:0:0:0:
488,212,57530,1,8,0:0:0:0:
386,274,58030,6,0,B|330:251|268:273|268:273|225:319|162:316,1,240.000002384186,2|2,0:0|0:0,0:0:0:0:
66,242,59530,1,8,0:0:0:0:
161,169,60030,2,0,P|160:95|38:124,2,240.000002384186,2|8|4,0:0|0:0|0:0,0:0:0:0:
156,288,62530,5,0,0:0:0:0:
269,251,63030,2,0,L|390:250,1,120.000001192093,2|8,0:0|0:0,0:0:0:0:
481,174,64030,2,0,P|466:121|299:91,1,240.000002384186,2|2,0:0|0:0,0:0:0:0:
204,150,65530,1,8,0:0:0:0:
257,257,66030,6,0,B|344:264|344:264|359:227|395:212|395:212|426:270|495:266|495:266|490:313|462:338,1,360.000003576278,2|0,0:0|0:0,0:0:0:0:
349,368,68030,2,0,L|98:353,1,240.000002384186,2|0,0:0|0:0,0:0:0:0:
50,248,69530,1,8,0:0:0:0:
135,164,70030,6,0,P|218:138|305:173,2,180.000001788139,2|0|8,0:0|0:0|0:0,0:0:0:0:
50,248,72030,1,4,0:0:0:0:
93,57,80030,6,0,B|105:120|172:144|169:141|172:139|175:141|245:164|264:228,1,240.000002384186
291,333,81530,2,0,P|347:304|376:250,1,120.000001192093
374,136,82530,2,0,P|343:85|290:59,1,120.000001192093
173,34,83530,1,0,0:0:0:0:
99,128,84030,6,0,P|133:177|54:322,2,240.000002384186
36,25,86530,1,0,0:0:0:0:
155,33,87030,2,0,L|277:42,1,120.000001192093
333,146,88030,2,0,L|455:155,2,120.000001192093
117,254,90030,6,0,P|76:210|70:151,1,120.000001192093,4|0,0:0|0:0,0:0:0:0:
134,51,91030,2,0,P|175:95|181:154,1,120.000001192093,0|8,0:0|0:0,0:0:0:0:
221,265,92030,2,0,B|286:291|333:248|333:248|368:307|429:310,1,240.000002384186,2|0,0:0|0:0,0:0:0:0:
438,190,93530,1,8,0:0:0:0:
374,87,94030,6,0,L|254:74,1,120.000001192093,4|0,0:0|0:0,0:0:0:0:
144,122,95030,2,0,P|120:178|127:235,1,120.000001192093,0|8,0:0|0:0,0:0:0:0:
190,337,96030,2,0,P|302:299|413:339,2,240.000002384186,2|2|4,0:0|0:0|0:0,0:0:0:0:
85,278,98530,5,0,0:0:0:0:
172,195,99030,2,0,B|196:142|168:78|168:78|283:44,1,240.000002384186,2|4,0:0|0:0,0:0:0:0:
401,60,100530,1,0,0:0:0:0:
359,172,101030,2,0,P|349:233|483:321,1,240.000002384186,2|4,0:0|0:0,0:0:0:0:
476,204,102530,5,0,0:0:0:0:
359,172,103030,2,0,L|237:149,1,120.000001192093,2|0,0:0|0:0,0:0:0:0:
124,178,104030,2,0,P|104:219|234:300,2,240.000002384186,4|8|4,0:0|0:0|0:0,0:0:0:0:
