osu file format v14

[General]
AudioFilename: audio.mp3
AudioLeadIn: 0
PreviewTime: 54030
Countdown: 0
SampleSet: Soft
StackLeniency: 0.5
Mode: 0
LetterboxInBreaks: 0
WidescreenStoryboard: 0

[Editor]
Bookmarks: 18921,41546,99280
DistanceSpacing: 0.7
BeatDivisor: 4
GridSize: 32
TimelineZoom: 3.499999

[Metadata]
Title:FLuegeL(Arp:EggyO)
TitleUnicode:FLügeL《Λrp:ΣggyØ》
Artist:Kaneko Chiharu
ArtistUnicode:かねこちはる
Creator:Chalwa
Version:HYPER
Source:SOUND VOLTEX III GRAVITY WARS
Tags:konami original ac sdvx the 5th kac original song contest winner
BeatmapID:1283456
BeatmapSetID:605543

[Difficulty]
HPDrainRate:5.5
CircleSize:4
OverallDifficulty:6.5
ApproachRate:9
SliderMultiplier:1.55000000596046
SliderTickRate:1

[Events]
//Background and Video events
0,0,"KIEDYWYNIKITESTÓWPLS.png",0,0
//Break Periods
2,73030,79430
//Storyboard Layer 0 (Background)
//Storyboard Layer 1 (Fail)
//Storyboard Layer 2 (Pass)
//Storyboard Layer 3 (Foreground)
//Storyboard Sound Samples

[TimingPoints]
2046,500,4,2,0,100,1,0
13046,-100,4,2,0,60,0,0
14046,250,6,2,0,70,1,0
14046,-100,6,2,0,70,0,0
25546,-100,6,2,0,72,0,0
25608,-100,6,2,0,74,0,0
25671,-100,6,2,0,76,0,0
25733,-100,6,2,0,78,0,0
25796,-100,6,2,0,80,0,0
25858,-100,6,2,0,82,0,0
25921,-100,6,2,0,84,0,0
25983,-100,6,2,0,86,0,0
26046,-83.3333333333333,6,2,0,90,0,1
30046,-83.3333333333333,6,2,0,90,0,1
30546,-83.3333333333333,6,2,0,90,0,1
32046,-100,6,2,0,90,0,0
38046,250,4,2,0,90,1,0
38046,-125,4,2,0,90,0,0
50046,-100,4,2,0,90,0,0
54030,250,4,2,0,90,1,1
54030,-83.3333333333333,4,2,0,90,0,1
66030,-100,4,2,0,90,0,0
70030,-100,4,2,0,90,0,1
72030,-142.857142857143,4,2,0,70,0,0
87030,-100,4,2,0,70,0,0
89030,-142.857142857143,4,2,0,70,0,0
90030,-83.3333333333333,4,2,0,80,0,1
98030,-100,4,2,0,80,0,0

[Colours]
Combo1 : 31,0,62
Combo2 : 255,79,167
Combo3 : 255,255,121
Combo4 : 253,167,130

[HitObjects]
256,192,10046,12,0,13046,0:0:0:0:
337,243,14046,6,0,P|363:176|321:100,2,155.000000596046,4|0|2,0:0|0:0|0:0,0:0:0:0:
229,314,14671,1,0,0:0:0:0:
212,183,14796,1,0,0:0:0:0:
143,275,14921,2,0,L|57:290,1,77.500000298023,2|0,0:0|0:0,0:0:0:0:
212,183,15171,2,0,P|295:144|320:84,1,155.000000596046,0|0,0:0|0:0,0:0:0:0:
151,110,15546,6,0,P|125:145|119:188,1,77.500000298023,8|0,0:0|0:0,0:0:0:0:
222,73,15796,2,0,P|244:37|249:-7,1,77.500000298023,0|0,0:0|0:0,0:0:0:0:
71,60,16046,2,0,P|42:120|40:211,1,155.000000596046,2|0,0:0|0:0,0:0:0:0:
94,321,16421,2,0,P|151:304|263:350,2,155.000000596046,2|0|0,0:0|0:0|0:0,0:0:0:0:
39,207,17046,6,0,L|56:98,1,77.500000298023,8|0,0:0|0:0,0:0:0:0:
185,97,17296,2,0,L|168:206,1,77.500000298023,0|0,0:0|0:0,0:0:0:0:
278,263,17546,2,0,L|295:154,1,77.500000298023,2|0,0:0|0:0,0:0:0:0:
424,153,17796,2,0,L|407:262,1,77.500000298023,0|0,0:0|0:0,0:0:0:0:
370,358,18046,5,2,0:0:0:0:
278,263,18171,1,0,0:0:0:0:
370,358,18296,1,0,0:0:0:0:
278,263,18421,1,0,0:0:0:0:
174,342,18546,6,0,P|104:338|63:258,1,155.000000596046,2|0,0:0|0:0,0:0:0:0:
39,174,18921,2,0,P|113:180|150:245,1,155.000000596046
174,342,19296,2,0,L|282:353,1,77.500000298023,2|0,0:0|0:0,0:0:0:0:
355,255,19546,2,0,L|247:266,1,77.500000298023,8|0,0:0|0:0,0:0:0:0:
176,168,19796,2,0,L|284:179,1,77.500000298023,0|0,0:0|0:0,0:0:0:0:
360,106,20046,5,4,0:0:0:0:
360,106,20171,1,0,0:0:0:0:
360,106,20296,2,0,L|468:117,1,77.500000298023,0|0,0:0|0:0,0:0:0:0:
492,226,20546,2,0,P|499:268|478:312,1,77.500000298023,2|0,0:0|0:0,0:0:0:0:
350,329,20796,2,0,P|343:287|364:243,1,77.500000298023,0|0,0:0|0:0,0:0:0:0:
269,155,21046,2,0,P|194:129|120:161,1,155.000000596046,0|8,0:0|0:0,0:0:0:0:
126,155,21546,6,0,L|23:173,2,77.500000298023,2|0|0,0:0|0:0|0:0,0:0:0:0:
200,225,21921,2,0,L|303:243,2,77.500000298023,2|0|0,0:0|0:0|0:0,0:0:0:0:
84,287,22296,1,0,0:0:0:0:
49,168,22421,1,0,0:0:0:0:
163,80,22546,6,0,P|171:58|165:25,2,51.6666668653487,0|0|0,0:0|0:0|0:0,0:0:0:0:
190,103,22796,2,0,P|182:125|188:158,2,51.6666668653487,8|0|0,0:0|0:0|0:0,0:0:0:0:
219,81,23046,6,0,L|397:68,1,155.000000596046,4|0,0:0|0:0,0:0:0:0:
474,168,23421,2,0,L|296:155,1,155.000000596046,0|0,0:0|0:0,0:0:0:0:
216,227,23796,2,0,P|211:270|228:304,1,77.500000298023,0|0,0:0|0:0,0:0:0:0:
112,252,24046,2,0,P|118:294|143:323,1,77.500000298023,0|0,0:0|0:0,0:0:0:0:
18,299,24296,2,0,P|35:338|66:359,1,77.500000298023,8|0,0:0|0:0,0:0:0:0:
82,164,24546,6,0,P|52:116|-10:91,2,103.333333730697,4|0|0,0:0|0:0|0:0,0:0:0:0:
112,252,25046,2,0,P|142:300|204:325,2,103.333333730697,2|0|0,0:0|0:0|0:0,0:0:0:0:
190,182,25546,6,0,L|246:162,7,38.7500001490115,4|0|0|0|8|0|0|0,0:0|0:0|0:0|0:0|0:0|0:0|0:0|0:0,0:0:0:0:
259,170,26046,6,0,L|443:104,1,185.999995038986,4|0,0:0|0:0,0:0:0:0:
498,19,26421,1,0,0:0:0:0:
434,107,26546,2,0,P|440:160|476:196,1,92.9999975194929,2|0,0:0|0:0,0:0:0:0:
511,284,26796,1,0,0:0:0:0:
412,304,26921,2,0,L|314:291,1,92.9999975194929,8|0,0:0|0:0,0:0:0:0:
372,201,27171,2,0,L|470:188,1,92.9999975194929,0|0,0:0|0:0,0:0:0:0:
463,188,27546,6,0,P|472:122|371:62,2,185.999995038986,2|0|2,0:0|0:0|0:0,0:0:0:0:
401,273,28171,1,0,0:0:0:0:
313,207,28296,2,0,L|200:198,1,92.9999975194929,0|8,0:0|0:0,0:0:0:0:
163,291,28546,2,0,L|276:300,2,92.9999975194929,0|0|0,0:0|0:0|0:0,0:0:0:0:
226,98,29046,6,0,L|339:107,1,92.9999975194929,4|0,0:0|0:0,0:0:0:0:
405,214,29296,2,0,L|292:205,1,92.9999975194929,0|0,0:0|0:0,0:0:0:0:
229,112,29546,2,0,L|342:121,1,92.9999975194929,0|0,0:0|0:0,0:0:0:0:
408,228,29796,2,0,L|295:219,1,92.9999975194929,2|0,0:0|0:0,0:0:0:0:
223,261,30046,5,0,0:0:0:0:
131,234,30171,1,0,0:0:0:0:
223,261,30296,1,8,0:0:0:0:
131,234,30421,1,0,0:0:0:0:
174,124,30546,6,0,P|175:77|54:44,1,185.999995038986,2|0,0:0|0:0,0:0:0:0:
131,234,30921,2,0,L|308:129,1,185.999995038986,0|0,0:0|0:0,0:0:0:0:
428,158,31296,2,0,P|424:216|446:261,1,92.9999975194929,0|0,0:0|0:0,0:0:0:0:
500,106,31546,2,0,P|451:73|401:70,1,92.9999975194929,2|0,0:0|0:0,0:0:0:0:
290,68,31796,1,8,0:0:0:0:
347,189,31921,1,0,0:0:0:0:
353,20,32046,6,0,P|302:-11|285:147,1,310.000001192092,4|0,0:0|0:0,0:0:0:0:
353,271,32796,2,0,P|302:302|285:144,1,310.000001192092,2|0,0:0|0:0,0:0:0:0:
370,97,33421,1,0,0:0:0:0:
227,62,33546,6,0,L|123:52,1,77.500000298023,2|0,0:0|0:0,0:0:0:0:
198,152,33796,2,0,L|302:142,1,77.500000298023,0|0,0:0|0:0,0:0:0:0:
358,212,34046,1,2,0:0:0:0:
358,212,34171,1,0,0:0:0:0:
269,267,34296,2,0,L|165:257,1,77.500000298023,0|0,0:0|0:0,0:0:0:0:
110,194,34546,1,2,0:0:0:0:
275,144,34671,2,0,P|310:188|255:272,1,155.000000596046,0|0,0:0|0:0,0:0:0:0:
212,95,35046,6,0,P|253:68|283:66,1,77.500000298023,4|0,0:0|0:0,0:0:0:0:
379,124,35296,1,0,0:0:0:0:
379,124,35421,1,0,0:0:0:0:
238,205,35546,6,0,P|287:202|313:215,1,77.500000298023,0|0,0:0|0:0,0:0:0:0:
381,286,35796,1,0,0:0:0:0:
381,286,35921,1,0,0:0:0:0:
222,280,36046,6,0,L|242:185,1,77.500000298023,2|0,0:0|0:0,0:0:0:0:
396,210,36296,2,0,L|376:305,1,77.500000298023,0|0,0:0|0:0,0:0:0:0:
168,351,36546,6,0,P|138:305|140:247,2,103.333333730697,4|0|0,0:0|0:0|0:0,0:0:0:0:
237,204,37046,2,0,P|267:158|265:100,2,103.333333730697,0|0|0,0:0|0:0|0:0,0:0:0:0:
136,257,37546,2,0,B|88:277|88:277|38:267,2,103.333333730697,2|0|0,0:0|0:0|0:0,0:0:0:0:
237,204,38046,6,0,P|317:177|237:295,1,372.00000143051,4|0,0:0|0:0,0:0:0:0:
185,153,39046,2,0,P|211:131|236:119,3,41.3333334922789,2|0|0|0,0:0|0:0|0:0|0:0,0:0:0:0:
152,239,39546,2,0,B|106:196|106:196|102:108,1,124.000000476837
248,224,40046,6,0,P|239:279|72:293,1,248.000000953674,0|2,0:0|0:0,0:0:0:0:
63,278,40629,1,0,0:0:0:0:
63,278,40712,2,0,L|27:236,1,41.3333334922789,0|0,0:0|0:0,0:0:0:0:
103,135,41046,6,0,L|135:172,7,31.0000001192092,8|0|0|0|0|0|0|0,0:0|0:0|0:0|0:0|0:0|0:0|0:0|0:0,0:0:0:0:
144,160,41546,2,0,L|176:197,7,31.0000001192092,0|0|0|0|0|0|0|0,0:0|0:0|0:0|0:0|0:0|0:0|0:0|0:0,0:0:0:0:
185,187,42046,6,0,B|262:287|262:287|258:211|302:174|302:178|306:174|306:178|353:133|330:58,1,372.00000143051,4|0,0:0|0:0,0:0:0:0:
358,234,43046,2,0,P|345:257|343:275,3,41.3333334922789,2|0|0|0,0:0|0:0|0:0|0:0,0:0:0:0:
421,145,43546,2,0,L|320:51,1,124.000000476837,0|0,0:0|0:0,0:0:0:0:
150,94,44046,6,0,P|87:99|165:39,1,248.000000953674,4|0,0:0|0:0,0:0:0:0:
181,33,44629,1,0,0:0:0:0:
181,33,44712,2,0,P|202:39|225:37,1,41.3333334922789,0|0,0:0|0:0,0:0:0:0:
345,37,45046,6,0,B|348:55|348:55|346:75,7,31.0000001192092,10|0|0|0|0|0|0|0,0:0|0:0|0:0|0:0|0:0|0:0|0:0|0:0,0:0:0:0:
339,88,45546,2,0,B|336:106|336:106|338:126,7,31.0000001192092,0|0|0|0|0|0|0|0,0:0|0:0|0:0|0:0|0:0|0:0|0:0|0:0,0:0:0:0:
346,138,46046,6,0,B|330:198|330:198|336:260|336:260|279:233|214:258|214:258|227:185|207:133,1,372.00000143051,4|0,0:0|0:0,0:0:0:0:
139,263,47046,2,0,P|143:289|161:314,3,41.3333334922789,2|0|0|0,0:0|0:0|0:0|0:0,0:0:0:0:
208,137,47546,2,0,B|141:122|141:122|70:135,1,124.000000476837
265,218,48046,6,0,P|306:152|193:40,1,248.000000953674
185,35,48629,1,0,0:0:0:0:
185,35,48712,2,0,P|159:31|141:22,1,41.3333334922789,0|0,0:0|0:0,0:0:0:0:
34,138,49046,6,0,P|44:164|50:175,7,31.0000001192092,10|0|0|0|0|0|0|0,0:0|0:0|0:0|0:0|0:0|0:0|0:0|0:0,0:0:0:0:
59,183,49546,2,0,P|65:197|70:211,7,31.0000001192092,2|0|0|0|0|0|0|0,0:0|0:0|0:0|0:0|0:0|0:0|0:0|0:0,0:0:0:0:
75,238,50046,6,0,P|126:208|243:315,2,232.500000894069,4|2|0,0:0|0:0|0:0,0:0:0:0:
146,306,50921,1,0,0:0:0:0:
245,300,51046,2,0,B|288:131|288:131|297:197,2,232.500000894069,4|2|0,0:0|0:0|0:0,0:0:0:0:
339,352,51921,1,0,0:0:0:0:
421,271,52046,6,0,P|439:203|392:125,1,155.000000596046,4|0,0:0|0:0,0:0:0:0:
275,49,52421,2,0,P|257:117|304:195,1,155.000000596046,0|0,0:0|0:0,0:0:0:0:
421,271,52796,1,0,0:0:0:0:
421,271,53046,6,0,L|343:299,1,77.500000298023,2|0,0:0|0:0,0:0:0:0:
295,188,53296,2,0,L|217:160,1,77.500000298023,2|0,0:0|0:0,0:0:0:0:
102,210,53546,1,0,0:0:0:0:
102,210,54030,6,0,P|145:169|77:57,1,185.999995038986,4|0,0:0|0:0,0:0:0:0:
21,181,54405,1,0,0:0:0:0:
21,181,54530,2,0,L|212:256,1,185.999995038986,2|0,0:0|0:0,0:0:0:0:
272,353,54905,2,0,L|463:278,1,185.999995038986,8|0,0:0|0:0,0:0:0:0:
487,178,55280,2,0,P|458:155|382:154,1,92.9999975194929,0|0,0:0|0:0,0:0:0:0:
361,254,55530,2,0,P|390:277|466:278,1,92.9999975194929,2|0,0:0|0:0,0:0:0:0:
322,170,55780,2,0,L|270:257,1,92.9999975194929,0|0,0:0|0:0,0:0:0:0:
119,245,56030,6,0,L|210:77,2,185.999995038986,2|0|2,0:0|0:0|0:0,0:0:0:0:
212,339,56655,2,0,P|286:358|379:282,2,185.999995038986,0|8|0,0:0|0:0|0:0,0:0:0:0:
119,245,57280,2,0,L|21:166,1,92.9999975194929,0|0,0:0|0:0,0:0:0:0:
201,191,57530,2,0,L|299:270,1,92.9999975194929,2|0,0:0|0:0,0:0:0:0:
371,299,57780,1,0,0:0:0:0:
337,179,57905,1,0,0:0:0:0:
286,338,58030,6,0,P|349:381|460:340,1,185.999995038986,4|0,0:0|0:0,0:0:0:0:
495,264,58405,1,0,0:0:0:0:
495,264,58530,2,0,P|471:222|498:91,1,185.999995038986,2|0,0:0|0:0,0:0:0:0:
419,17,58905,2,0,L|227:48,1,185.999995038986,8|0,0:0|0:0,0:0:0:0:
140,130,59280,2,0,P|140:179|164:214,1,92.9999975194929,0|0,0:0|0:0,0:0:0:0:
259,130,59530,2,0,P|259:81|235:46,1,92.9999975194929,2|0,0:0|0:0,0:0:0:0:
245,217,59780,2,0,L|337:184,1,92.9999975194929,0|0,0:0|0:0,0:0:0:0:
303,314,60030,6,0,L|123:370,2,185.999995038986,2|0|0,0:0|0:0|0:0,0:0:0:0:
402,335,60655,2,0,L|498:298,1,92.9999975194929,0|0,0:0|0:0,0:0:0:0:
455,200,60905,2,0,P|401:168|446:51,1,185.999995038986,0|0,0:0|0:0,0:0:0:0:
321,33,61280,2,0,L|228:69,1,92.9999975194929,2|8,0:0|0:0,0:0:0:0:
184,164,61530,1,0,0:0:0:0:
184,164,61655,1,0,0:0:0:0:
235,255,61780,2,0,L|328:291,1,92.9999975194929,0|0,0:0|0:0,0:0:0:0:
184,164,62030,6,0,P|135:212|155:319,1,185.999995038986,4|0,0:0|0:0,0:0:0:0:
271,170,62405,1,0,0:0:0:0:
271,170,62530,2,0,P|256:115|139:85,1,185.999995038986,2|0,0:0|0:0,0:0:0:0:
235,255,62905,2,0,L|356:102,1,185.999995038986,8|0,0:0|0:0,0:0:0:0:
456,48,63280,2,0,B|481:91|481:91|481:140,1,92.9999975194929,0|0,0:0|0:0,0:0:0:0:
375,195,63530,2,0,B|350:155|350:155|350:103,1,92.9999975194929,2|0,0:0|0:0,0:0:0:0:
418,272,63780,2,0,P|369:283|325:269,1,92.9999975194929,0|0,0:0|0:0,0:0:0:0:
235,255,64030,6,0,P|147:245|75:306,2,185.999995038986,2|0|2,0:0|0:0|0:0,0:0:0:0:
336,351,64655,2,0,P|424:361|496:300,2,185.999995038986,0|8|0,0:0|0:0|0:0,0:0:0:0:
237,255,65280,2,0,L|253:161,1,92.9999975194929,2|0,0:0|0:0,0:0:0:0:
381,188,65530,2,0,L|396:279,1,92.9999975194929,2|0,0:0|0:0,0:0:0:0:
321,119,65780,2,0,B|361:101|361:101|411:101,1,92.9999975194929,0|0,0:0|0:0,0:0:0:0:
252,163,66030,6,0,B|205:183|205:183|147:183,2,103.333333730697,4|0|0,0:0|0:0|0:0,0:0:0:0:
321,119,66530,2,0,B|367:98|367:98|425:98,2,103.333333730697,0|0|0,0:0|0:0|0:0,0:0:0:0:
381,188,67030,2,0,P|388:235|349:295,1,103.333333730697,4|0,0:0|0:0,0:0:0:0:
269,328,67363,1,0,0:0:0:0:
269,328,67530,2,0,P|262:281|301:221,1,103.333333730697,0|0,0:0|0:0,0:0:0:0:
381,188,67863,1,0,0:0:0:0:
294,104,68030,6,0,L|181:91,2,103.333333730697,4|0|0,0:0|0:0|0:0,0:0:0:0:
90,108,68530,1,0,0:0:0:0:
90,108,68696,1,0,0:0:0:0:
90,108,68863,1,0,0:0:0:0:
157,208,69030,6,0,L|270:221,2,103.333333730697,4|0|0,0:0|0:0|0:0,0:0:0:0:
361,204,69530,1,0,0:0:0:0:
361,204,69696,1,0,0:0:0:0:
361,204,69863,1,0,0:0:0:0:
432,123,70030,5,4,0:0:0:0:
459,289,70155,1,0,0:0:0:0:
203,144,70405,5,2,0:0:0:0:
361,204,70530,1,0,0:0:0:0:
164,252,70780,5,2,0:0:0:0:
95,106,70905,1,0,0:0:0:0:
330,87,71155,5,2,0:0:0:0:
280,260,71280,1,0,0:0:0:0:
250,61,71530,6,0,P|306:7|390:26,1,155.000000596046,8|0,0:0|0:0,0:0:0:0:
466,73,71905,1,0,0:0:0:0:
421,169,72030,1,4,0:0:0:0:
115,253,80030,6,0,P|175:267|95:186,1,325.499991318225,0|0,0:0|0:0,0:0:0:0:
99,332,81030,2,0,P|201:339|261:301,2,162.749995659113,0|0|0,0:0|0:0|0:0,0:0:0:0:
252,118,82030,6,0,B|292:369|292:369|246:304,1,325.499991318225,0|0,0:0|0:0,0:0:0:0:
186,197,83030,2,0,L|160:31,2,162.749995659113,0|0|0,0:0|0:0|0:0,0:0:0:0:
251,311,84030,6,0,L|314:320,3,36.166665702025,0|0|0|0,0:0|0:0|0:0|0:0,0:0:0:0:
286,316,84530,1,0,0:0:0:0:
381,212,84780,1,0,0:0:0:0:
294,333,85030,1,0,0:0:0:0:
256,188,85280,1,0,0:0:0:0:
303,341,85530,2,0,L|385:374,2,81.3749978295563,0|0|0,0:0|0:0|0:0,0:0:0:0:
214,295,86030,6,0,P|148:261|28:328,2,216.99999421215,0|0|0,0:0|0:0|0:0,0:0:0:0:
303,360,87280,1,0,0:0:0:0:
341,234,87530,6,0,L|345:156,1,77.500000298023,0|0,0:0|0:0,0:0:0:0:
236,74,87780,2,0,L|232:152,1,77.500000298023,0|0,0:0|0:0,0:0:0:0:
321,228,88030,6,0,L|325:150,1,77.500000298023,0|0,0:0|0:0,0:0:0:0:
216,68,88280,2,0,L|212:146,1,77.500000298023,0|0,0:0|0:0,0:0:0:0:
300,223,88530,6,0,L|304:145,1,77.500000298023,0|0,0:0|0:0,0:0:0:0:
195,63,88780,2,0,L|191:141,1,77.500000298023,0|0,0:0|0:0,0:0:0:0:
279,230,89030,6,0,B|268:338|268:338|308:324|308:324|339:325|366:345|366:345|389:233,1,325.499991318225
173,202,90030,6,0,L|165:309,2,92.9999975194929,4|0|0,0:0|0:0|0:0,0:0:0:0:
207,102,90405,2,0,P|289:88|354:161,1,185.999995038986,8|0,0:0|0:0,0:0:0:0:
312,350,90905,2,0,P|230:364|165:291,1,185.999995038986,2|0,0:0|0:0,0:0:0:0:
145,167,91280,1,0,0:0:0:0:
221,237,91405,1,0,0:0:0:0:
87,224,91530,2,0,P|65:166|78:123,1,92.9999975194929,8|0,0:0|0:0,0:0:0:0:
124,31,91780,2,0,P|177:0|221:4,1,92.9999975194929,0|0,0:0|0:0,0:0:0:0:
295,62,92030,6,0,L|395:88,1,92.9999975194929,4|0,0:0|0:0,0:0:0:0:
442,173,92280,1,0,0:0:0:0:
442,173,92405,2,0,P|411:237|466:329,1,185.999995038986,8|0,0:0|0:0,0:0:0:0:
297,324,92905,2,0,L|91:309,1,185.999995038986,2|0,0:0|0:0,0:0:0:0:
48,238,93280,2,0,P|39:196|54:136,1,92.9999975194929,0|0,0:0|0:0,0:0:0:0:
148,114,93530,2,0,P|157:159|148:204,1,92.9999975194929,8|0,0:0|0:0,0:0:0:0:
63,68,93780,2,0,L|159:24,1,92.9999975194929,0|0,0:0|0:0,0:0:0:0:
272,59,94030,6,0,L|356:97,2,92.9999975194929,4|0|0,0:0|0:0|0:0,0:0:0:0:
219,144,94405,2,0,L|393:224,2,185.999995038986,2|0|2,0:0|0:0|0:0,0:0:0:0:
99,265,95155,1,0,0:0:0:0:
99,265,95280,2,0,P|97:312|128:350,1,92.9999975194929,0|0,0:0|0:0,0:0:0:0:
185,278,95530,2,0,P|187:231|156:193,1,92.9999975194929,8|0,0:0|0:0,0:0:0:0:
79,137,95780,1,0,0:0:0:0:
79,137,96030,6,0,B|-9:137|-9:137|12:96,2,123.999996692657,4|0|0,0:0|0:0|0:0,0:0:0:0:
174,100,96530,2,0,B|262:100|262:100|241:141,2,123.999996692657,2|0|0,0:0|0:0|0:0,0:0:0:0:
156,208,97030,2,0,L|150:337,2,123.999996692657,4|0|0,0:0|0:0|0:0,0:0:0:0:
245,132,97530,2,0,L|251:3,2,123.999996692657,8|0|0,0:0|0:0|0:0,0:0:0:0:
334,239,98030,6,0,P|379:264|328:173,1,310.000001192092,4|2,0:0|0:0,0:0:0:0:
242,240,98717,2,0,P|173:224|129:168,1,116.250000447034,0|0,0:0|0:0,0:0:0:0:
335,162,99030,6,0,L|334:247,1,77.500000298023,2|0,0:0|0:0,0:0:0:0:
242,240,99280,2,0,L|241:325,1,77.500000298023,0|0,0:0|0:0,0:0:0:0:
141,193,99530,2,0,L|142:108,1,77.500000298023,8|0,0:0|0:0,0:0:0:0:
234,115,99780,2,0,L|235:30,1,77.500000298023,0|0,0:0|0:0,0:0:0:0:
335,162,100030,2,0,B|410:133|426:47|426:47|402:215,1,310.000001192092,4|2,0:0|0:0,0:0:0:0:
317,272,100717,2,0,P|252:240|232:189,1,116.250000447034
335,162,101030,6,0,L|422:209,1,77.500000298023,2|0,0:0|0:0,0:0:0:0:
234,202,101280,2,0,L|147:249,1,77.500000298023
346,192,101530,6,0,L|433:239,1,77.500000298023,8|0,0:0|0:0,0:0:0:0:
246,232,101780,2,0,L|159:279,1,77.500000298023,0|0,0:0|0:0,0:0:0:0:
73,166,102030,6,0,P|90:89|174:74,1,155.000000596046,4|0,0:0|0:0,0:0:0:0:
140,205,102405,1,0,0:0:0:0:
140,205,102530,2,0,P|108:234|65:245,1,77.500000298023,2|0,0:0|0:0,0:0:0:0:
64,335,102780,2,0,P|27:347|0:374,1,77.500000298023,0|0,0:0|0:0,0:0:0:0:
157,202,103030,6,0,P|125:231|82:242,1,77.500000298023,8|0,0:0|0:0,0:0:0:0:
81,332,103280,2,0,P|44:344|16:371,1,77.500000298023,0|0,0:0|0:0,0:0:0:0:
168,204,103530,6,0,P|136:233|93:244,1,77.500000298023,8|0,0:0|0:0,0:0:0:0:
92,334,103780,2,0,P|55:346|27:373,1,77.500000298023,0|0,0:0|0:0,0:0:0:0:
202,346,104030,6,0,L|250:344,7,38.7500001490115,4|0|0|0|0|0|0|0,0:0|0:0|0:0|0:0|0:0|0:0|0:0|0:0,0:0:0:0:
263,329,104530,2,0,L|311:331,7,38.7500001490115,0|0|0|0|0|0|0|0,0:0|0:0|0:0|0:0|0:0|0:0|0:0|0:0,0:0:0:0:
326,318,105030,2,0,P|337:302|337:277,7,38.7500001490115,2|0|0|0|2|0|0|0,0:0|0:0|0:0|0:0|0:0|0:0|0:0|0:0,0:0:0:0:
330,256,105530,2,0,P|319:240|319:215,7,38.7500001490115,0|0|0|0|0|0|0|0,0:0|0:0|0:0|0:0|0:0|0:0|0:0|0:0,0:0:0:0:
320,182,106030,5,12,0:0:0:0:
