osu file format v14

[General]
AudioFilename: audio.mp3
AudioLeadIn: 0
PreviewTime: 54030
Countdown: 0
SampleSet: Soft
StackLeniency: 0.4
Mode: 0
LetterboxInBreaks: 0
WidescreenStoryboard: 0

[Editor]
Bookmarks: 41546,99280
DistanceSpacing: 0.7
BeatDivisor: 8
GridSize: 4
TimelineZoom: 3.499999

[Metadata]
Title:FLuegeL(Arp:EggyO)
TitleUnicode:FLügeL《Λrp:ΣggyØ》
Artist:Kaneko Chiharu
ArtistUnicode:かねこちはる
Creator:Chalwa
Version:ZEITGEIST
Source:SOUND VOLTEX III GRAVITY WARS
Tags:konami original ac sdvx the 5th kac original song contest winner
BeatmapID:1279400
BeatmapSetID:605543

[Difficulty]
HPDrainRate:6
CircleSize:4.7
OverallDifficulty:8
ApproachRate:9.5
SliderMultiplier:2.2
SliderTickRate:1

[Events]
//Background and Video events
0,0,"KIEDYWYNIKITESTÓWPLS.png",0,0
//Break Periods
2,73030,79505
//Storyboard Layer 0 (Background)
//Storyboard Layer 1 (Fail)
//Storyboard Layer 2 (Pass)
//Storyboard Layer 3 (Foreground)
//Storyboard Sound Samples

[TimingPoints]
2046,500,4,2,0,100,1,0
13046,-100,4,2,0,60,0,0
14046,250,6,2,0,70,1,0
14046,-100,6,2,0,70,0,0
25546,-100,6,2,0,72,0,0
25608,-100,6,2,0,74,0,0
25671,-100,6,2,0,76,0,0
25733,-100,6,2,0,78,0,0
25796,-100,6,2,0,80,0,0
25858,-100,6,2,0,82,0,0
25921,-100,6,2,0,84,0,0
25983,-100,6,2,0,86,0,0
26046,-83.3333333333333,6,2,0,90,0,1
30046,-100,6,2,0,90,0,1
30546,-83.3333333333333,6,2,0,90,0,1
32046,-100,6,2,0,90,0,0
34671,-76.9230769230769,6,2,0,90,0,0
38046,250,4,2,0,90,1,0
38046,-166.666666666667,4,2,0,90,0,0
50046,-100,4,2,0,90,0,0
54030,250,4,2,0,90,1,1
54030,-83.3333333333333,4,2,0,90,0,1
66030,-83.3333333333333,4,2,0,90,0,0
70030,-83.3333333333333,4,2,0,90,0,1
72030,-166.666666666667,4,2,0,70,0,0
89030,-333.333333333333,4,2,0,70,0,0
90030,-71.4285714285714,4,2,0,80,0,1
98030,-100,4,2,0,80,0,0

[Colours]
Combo1 : 31,0,62
Combo2 : 255,79,167
Combo3 : 255,255,121
Combo4 : 253,167,130

[HitObjects]
256,192,10046,12,0,13046,0:0:0:0:
201,89,14046,6,0,P|168:180|274:216,1,220,4|8,0:0|0:0,0:0:0:0:
380,191,14421,1,0,0:0:0:0:
294,311,14546,2,0,L|407:366,1,110,2|0,0:0|0:0,0:0:0:0:
262,221,14796,1,8,0:0:0:0:
139,257,14921,2,0,P|160:318|304:290,1,220,8|0,0:0|0:0,0:0:0:0:
73,194,15296,2,0,L|25:303,1,110,2|0,0:0|0:0,0:0:0:0:
112,132,15546,6,0,L|41:35,1,110,4|0,0:0|0:0,0:0:0:0:
149,190,15796,2,0,L|267:177,1,110,8|0,0:0|0:0,0:0:0:0:
73,194,16046,2,0,L|88:314,1,110,2|0,0:0|0:0,0:0:0:0:
149,190,16296,1,8,0:0:0:0:
112,132,16421,2,0,P|29:124|31:256,1,220,8|0,0:0|0:0,0:0:0:0:
86,304,16796,1,2,0:0:0:0:
157,258,16921,1,0,0:0:0:0:
245,270,17046,6,0,L|353:288,1,110,4|0,0:0|0:0,0:0:0:0:
258,163,17296,2,0,L|276:55,1,110,8|0,0:0|0:0,0:0:0:0:
141,149,17546,2,0,L|33:131,1,110,2|0,0:0|0:0,0:0:0:0:
129,262,17796,1,10,0:0:0:0:
129,262,17921,1,0,0:0:0:0:
245,270,18046,5,8,0:0:0:0:
185,333,18171,1,2,0:0:0:0:
252,246,18296,5,8,0:0:0:0:
227,162,18421,1,0,0:0:0:0:
273,267,18546,6,0,P|347:280|350:153,1,220,4|8,0:0|0:0,0:0:0:0:
227,162,18921,1,0,0:0:0:0:
273,267,19046,2,0,L|365:357,1,110,4|0,0:0|0:0,0:0:0:0:
366,163,19296,2,0,L|274:73,1,110,8|0,0:0|0:0,0:0:0:0:
351,343,19546,2,0,P|391:288|372:232,1,110,4|0,0:0|0:0,0:0:0:0:
287,86,19796,2,0,P|247:141|266:197,1,110,8|0,0:0|0:0,0:0:0:0:
273,267,20046,6,0,L|236:386,1,110,4|0,0:0|0:0,0:0:0:0:
384,250,20296,2,0,L|421:131,1,110,2|0,0:0|0:0,0:0:0:0:
316,208,20546,2,0,L|353:89,1,110
232,204,20796,2,0,L|199:98,1,110,2|0,0:0|0:0,0:0:0:0:
155,251,21046,2,0,L|122:145,1,110
81,32,21296,1,2,0:0:0:0:
81,32,21546,6,0,B|192:32,2,110,0|0|2,0:0|0:0|0:0,0:0:0:0:
118,114,21921,2,0,B|8:116,2,110
202,167,22296,1,2,0:0:0:0:
97,247,22421,1,0,0:0:0:0:
219,291,22546,6,0,L|291:249,1,73.3333333333333
295,333,22712,1,0,0:0:0:0:
295,333,22796,2,0,L|367:291,1,73.3333333333333,2|0,0:0|0:0,0:0:0:0:
369,374,22962,1,0,0:0:0:0:
369,374,23046,6,0,L|465:309,1,110,4|0,0:0|0:0,0:0:0:0:
472,240,23296,1,2,0:0:0:0:
508,185,23421,1,0,0:0:0:0:
505,119,23546,2,0,L|416:40,1,110
360,16,23796,2,0,P|306:25|250:10,1,110,2|0,0:0|0:0,0:0:0:0:
146,15,24046,2,0,P|200:25|253:11,1,110
252,204,24296,2,0,L|253:74,1,110,2|0,0:0|0:0,0:0:0:0:
252,11,24546,6,0,P|185:47|167:127,2,146.666666666667,4|0|0,0:0|0:0|0:0,0:0:0:0:
252,11,25046,2,0,P|319:47|337:127,2,146.666666666667,4|0|0,0:0|0:0|0:0,0:0:0:0:
252,100,25546,5,0,0:0:0:0:
252,118,25608,1,0,0:0:0:0:
252,136,25671,1,0,0:0:0:0:
252,155,25733,1,0,0:0:0:0:
252,173,25796,1,0,0:0:0:0:
252,191,25858,1,0,0:0:0:0:
252,210,25921,1,0,0:0:0:0:
252,228,25983,1,0,0:0:0:0:
259,248,26046,6,0,P|365:297|445:196,1,263.99999194336,4|2,0:0|0:0,0:0:0:0:
428,44,26421,1,0,0:0:0:0:
257,119,26546,2,0,L|352:219,1,131.99999597168,8|0,0:0|0:0,0:0:0:0:
326,33,26796,1,2,0:0:0:0:
169,87,26921,2,0,P|163:140|221:203,1,131.99999597168,8|0,0:0|0:0,0:0:0:0:
289,293,27171,2,0,P|352:221|252:118,1,263.99999194336,2|0,0:0|0:0,0:0:0:0:
155,275,27546,6,0,L|241:382,1,131.99999597168,2|0,0:0|0:0,0:0:0:0:
368,187,27796,2,0,L|283:302,1,131.99999597168,2|0,0:0|0:0,0:0:0:0:
148,141,28046,2,0,L|234:248,1,131.99999597168,8|0,0:0|0:0,0:0:0:0:
361,53,28296,1,0,0:0:0:0:
361,53,28421,2,0,L|276:168,1,131.99999597168,8|0,0:0|0:0,0:0:0:0:
148,141,28671,2,0,B|230:245|230:245|303:273|363:213,1,263.99999194336,2|0,0:0|0:0,0:0:0:0:
203,83,29046,6,0,P|156:63|75:101,1,131.99999597168
92,217,29296,2,0,P|139:237|220:199,1,131.99999597168,2|0,0:0|0:0,0:0:0:0:
36,153,29546,1,8,0:0:0:0:
36,153,29671,1,0,0:0:0:0:
92,302,29796,1,8,0:0:0:0:
92,302,29921,1,0,0:0:0:0:
210,210,30046,5,8,0:0:0:0:
153,73,30171,1,0,0:0:0:0:
277,173,30296,5,8,0:0:0:0:
109,144,30421,1,0,0:0:0:0:
291,280,30546,6,0,P|361:236|301:65,1,263.99999194336,8|0,0:0|0:0,0:0:0:0:
184,242,30921,2,0,L|438:337,1,263.99999194336,8|0,0:0|0:0,0:0:0:0:
277,173,31296,1,8,0:0:0:0:
277,173,31546,2,0,P|215:185|185:249,1,131.99999597168,2|0,0:0|0:0,0:0:0:0:
273,360,31796,2,0,P|293:300|253:242,1,131.99999597168,2|0,0:0|0:0,0:0:0:0:
94,214,32046,6,0,P|94:282|228:300,1,220,4|8,0:0|0:0,0:0:0:0:
339,320,32421,1,0,0:0:0:0:
259,245,32546,2,0,L|176:170,1,110,2|0,0:0|0:0,0:0:0:0:
302,187,32796,2,0,P|314:291|208:299,1,220,8|0,0:0|0:0,0:0:0:0:
129,239,33171,1,0,0:0:0:0:
91,361,33296,1,8,0:0:0:0:
6,261,33421,1,0,0:0:0:0:
129,239,33546,6,0,L|138:118,1,110,2|0,0:0|0:0,0:0:0:0:
14,151,33796,2,0,L|5:272,1,110,8|0,0:0|0:0,0:0:0:0:
160,242,34046,2,0,L|169:121,1,110,2|0,0:0|0:0,0:0:0:0:
45,154,34296,2,0,L|36:275,1,110,8|0,0:0|0:0,0:0:0:0:
203,337,34546,1,0,0:0:0:0:
388,372,34671,6,0,B|440:328|440:256|440:256|360:272|336:336|336:336|340:292|312:252,1,357.49998363495
301,238,35046,6,0,L|273:126,1,110,8|0,0:0|0:0,0:0:0:0:
197,55,35296,1,8,0:0:0:0:
197,55,35421,1,0,0:0:0:0:
284,240,35546,6,0,L|256:128,1,110,8|0,0:0|0:0,0:0:0:0:
180,57,35796,1,8,0:0:0:0:
180,57,35921,1,0,0:0:0:0:
262,240,36046,6,0,L|234:128,1,110,8|0,0:0|0:0,0:0:0:0:
158,57,36296,1,8,0:0:0:0:
158,57,36421,1,0,0:0:0:0:
235,257,36546,6,0,L|268:331,2,73.3333333333333
249,221,36796,2,0,L|216:147,2,73.3333333333333
282,234,37046,1,0,0:0:0:0:
298,270,37129,1,0,0:0:0:0:
327,297,37212,1,0,0:0:0:0:
364,310,37296,1,0,0:0:0:0:
404,308,37379,1,0,0:0:0:0:
439,291,37462,1,0,0:0:0:0:
465,260,37546,1,0,0:0:0:0:
477,222,37629,1,0,0:0:0:0:
473,183,37712,1,0,0:0:0:0:
453,148,37796,1,0,0:0:0:0:
422,124,37879,1,0,0:0:0:0:
384,114,37962,1,0,0:0:0:0:
358,135,38046,6,0,B|319:152|284:128|280:128|284:132|280:132|233:109|193:124|193:124|153:91|153:91|200:51|263:28|323:73,1,395.999987915039,4|0,0:0|0:0,0:0:0:0:
471,129,39046,2,0,L|465:187,3,43.9999986572266,8|8|8|8,0:0|0:0|0:0|0:0,0:0:0:0:
417,272,39546,1,0,0:0:0:0:
417,272,40046,6,0,P|334:226|366:311,1,230.99999295044,2|0,0:0|0:0,0:0:0:0:
359,321,40546,2,8,L|402:352,2,43.9999986572266
436,157,41046,6,0,L|386:151,7,32.99999899292
381,144,41546,2,0,L|331:138,7,32.99999899292
322,148,42046,6,0,P|290:211|317:138,1,263.99999194336,4|0,0:0|0:0,0:0:0:0:
338,46,42796,1,0,0:0:0:0:
211,32,43046,1,8,0:0:0:0:
181,35,43129,1,8,0:0:0:0:
152,38,43212,1,8,0:0:0:0:
123,42,43296,1,8,0:0:0:0:
211,32,43546,2,0,L|232:182,1,131.99999597168
394,268,44046,6,0,L|373:118,1,131.99999597168,2|0,0:0|0:0,0:0:0:0:
212,283,44546,1,8,0:0:0:0:
235,299,44629,1,8,0:0:0:0:
264,306,44712,1,8,0:0:0:0:
292,301,44796,1,8,0:0:0:0:
194,190,45046,6,0,P|176:194|159:207,7,32.99999899292
145,215,45546,2,0,P|131:223|114:226,7,32.99999899292
86,225,46046,6,0,P|104:264|56:215,1,263.99999194336,4|0,0:0|0:0,0:0:0:0:
128,95,46796,1,0,0:0:0:0:
194,190,47046,2,8,L|194:240,1,43.9999986572266
260,300,47212,2,8,L|260:256,1,43.9999986572266
249,114,47546,2,0,P|199:85|121:98,1,131.99999597168
306,207,48046,6,0,L|350:76,1,131.99999597168,2|0,0:0|0:0,0:0:0:0:
379,277,48546,2,8,P|406:279|425:272,1,43.9999986572266
320,328,48712,2,8,P|293:330|274:323,1,43.9999986572266
224,232,49046,2,0,L|184:238,7,32.99999899292
167,239,49546,2,0,L|127:233,7,32.99999899292
125,210,50046,6,0,B|106:51|106:51|145:99,1,220,4|0,0:0|0:0,0:0:0:0:
230,169,50421,2,0,B|101:264|101:264|123:207,1,220,4|0,0:0|0:0,0:0:0:0:
217,86,50796,2,0,P|263:90|308:137,1,110,8|0,0:0|0:0,0:0:0:0:
230,169,51046,6,0,P|157:144|178:15,1,220,4|0,0:0|0:0,0:0:0:0:
306,133,51421,2,0,P|320:208|198:255,1,220,4|0,0:0|0:0,0:0:0:0:
215,90,51796,2,0,L|299:15,1,110,8|0,0:0|0:0,0:0:0:0:
306,133,52046,5,8,0:0:0:0:
117,205,52171,1,0,0:0:0:0:
215,91,52296,1,8,0:0:0:0:
214,289,52421,5,0,0:0:0:0:
110,109,52546,1,8,0:0:0:0:
222,180,52671,1,0,0:0:0:0:
77,275,52796,6,0,P|42:225|50:157,1,110,8|0,0:0|0:0,0:0:0:0:
288,115,53046,5,8,0:0:0:0:
300,131,53108,1,0,0:0:0:0:
309,150,53171,1,0,0:0:0:0:
313,170,53233,1,0,0:0:0:0:
313,190,53296,1,8,0:0:0:0:
309,210,53358,1,0,0:0:0:0:
300,229,53421,1,0,0:0:0:0:
287,245,53483,1,0,0:0:0:0:
272,259,53546,1,8,0:0:0:0:
272,259,54031,6,0,B|257:62|257:62|294:119,1,263.99999194336,4|8,0:0|0:0,0:0:0:0:
350,286,54406,1,0,0:0:0:0:
350,286,54531,2,0,P|301:336|239:334,1,131.99999597168,2|0,0:0|0:0,0:0:0:0:
147,244,54781,1,2,0:0:0:0:
298,202,54906,2,0,P|381:197|420:355,1,263.99999194336,8|0,0:0|0:0,0:0:0:0:
230,209,55281,2,0,L|190:70,1,131.99999597168,8|0,0:0|0:0,0:0:0:0:
311,67,55531,2,0,P|260:98|192:81,1,131.99999597168,2|0,0:0|0:0,0:0:0:0:
75,66,55781,2,0,P|126:97|194:80,1,131.99999597168,8|0,0:0|0:0,0:0:0:0:
312,66,56031,6,0,P|356:135|223:204,2,263.99999194336,2|8|2,0:0|0:0|0:0,0:0:0:0:
181,22,56656,1,0,0:0:0:0:
266,137,56781,1,2,0:0:0:0:
372,14,56906,2,0,B|259:28|146:8|146:8|187:24,1,263.99999194336,8|0,0:0|0:0,0:0:0:0:
266,137,57281,2,0,P|306:186|294:257,1,131.99999597168,8|0,0:0|0:0,0:0:0:0:
186,321,57531,2,0,L|50:290,1,131.99999597168,2|0,0:0|0:0,0:0:0:0:
169,221,57781,2,0,L|305:252,1,131.99999597168,8|0,0:0|0:0,0:0:0:0:
409,175,58031,6,0,L|126:111,1,263.99999194336,4|8,0:0|0:0,0:0:0:0:
65,22,58406,1,0,0:0:0:0:
20,162,58531,1,2,0:0:0:0:
151,116,58656,2,0,P|104:44|41:17,1,131.99999597168,0|8,0:0|0:0,0:0:0:0:
113,217,58906,6,0,P|190:215|230:48,1,263.99999194336,2|0,0:0|0:0,0:0:0:0:
20,162,59281,2,0,L|56:309,1,131.99999597168,8|0,0:0|0:0,0:0:0:0:
210,158,59531,2,0,L|64:115,1,131.99999597168,2|0,0:0|0:0,0:0:0:0:
118,322,59781,2,0,P|172:289|220:217,1,131.99999597168,8|0,0:0|0:0,0:0:0:0:
20,162,60030,6,0,P|-7:255|143:309,2,263.99999194336,4|8|2,0:0|0:0|0:0,0:0:0:0:
212,234,60656,2,0,P|247:294|246:357,1,131.99999597168,0|8,0:0|0:0,0:0:0:0:
85,233,60906,1,0,0:0:0:0:
175,132,61031,6,0,L|330:144,1,131.99999597168,4|0,0:0|0:0,0:0:0:0:
444,164,61281,1,0,0:0:0:0:
286,276,61406,1,0,0:0:0:0:
128,56,61531,2,0,L|283:68,1,131.99999597168,4|0,0:0|0:0,0:0:0:0:
393,89,61781,1,0,0:0:0:0:
239,200,61906,1,0,0:0:0:0:
350,18,62031,6,0,P|417:9|428:164,1,263.99999194336,4|8,0:0|0:0,0:0:0:0:
344,259,62406,1,0,0:0:0:0:
259,66,62531,2,0,L|407:92,1,131.99999597168,2|0,0:0|0:0,0:0:0:0:
344,259,62781,1,0,0:0:0:0:
344,259,62906,2,0,P|259:219|266:60,1,263.99999194336,8|0,0:0|0:0,0:0:0:0:
406,199,63281,2,0,P|428:242|398:326,1,131.99999597168,8|0,0:0|0:0,0:0:0:0:
316,156,63531,2,0,P|342:115|429:99,1,131.99999597168,2|0,0:0|0:0,0:0:0:0:
344,259,63781,2,0,L|190:296,1,131.99999597168,8|0,0:0|0:0,0:0:0:0:
59,217,64031,6,0,L|326:153,2,263.99999194336,2|8|2,0:0|0:0|0:0,0:0:0:0:
115,295,64656,1,0,0:0:0:0:
115,295,64906,2,0,P|152:190|36:120,1,263.99999194336,8|0,0:0|0:0,0:0:0:0:
49,327,65281,2,0,L|184:347,1,131.99999597168,8|0,0:0|0:0,0:0:0:0:
287,227,65531,2,0,L|156:207,1,131.99999597168,2|0,0:0|0:0,0:0:0:0:
332,346,65781,2,0,L|463:327,1,131.99999597168,8|0,0:0|0:0,0:0:0:0:
287,227,66031,5,2,0:0:0:0:
257,222,66114,1,0,0:0:0:0:
228,218,66197,1,0,0:0:0:0:
199,214,66280,1,2,0:0:0:0:
170,210,66364,1,0,0:0:0:0:
141,205,66447,1,0,0:0:0:0:
112,201,66531,5,2,0:0:0:0:
150,179,66614,1,0,0:0:0:0:
168,140,66697,1,0,0:0:0:0:
159,98,66780,1,2,0:0:0:0:
127,68,66864,1,0,0:0:0:0:
84,63,66947,1,0,0:0:0:0:
46,83,67030,6,0,L|-1:174,1,87.9999973144532,2|0,0:0|0:0,0:0:0:0:
101,133,67196,1,0,0:0:0:0:
101,133,67280,2,0,L|53:223,1,87.9999973144532,2|0,0:0|0:0,0:0:0:0:
155,178,67446,1,0,0:0:0:0:
155,178,67530,2,0,L|107:268,1,87.9999973144532,2|0,0:0|0:0,0:0:0:0:
215,211,67696,1,0,0:0:0:0:
215,211,67780,2,0,L|167:301,1,87.9999973144532,2|0,0:0|0:0,0:0:0:0:
281,234,67946,1,0,0:0:0:0:
281,234,68030,6,0,L|237:322,2,87.9999973144532,2|0|0,0:0|0:0|0:0,0:0:0:0:
314,169,68280,2,0,L|259:86,2,87.9999973144532,2|0|0,0:0|0:0|0:0,0:0:0:0:
354,231,68530,2,0,L|452:225,2,87.9999973144532,2|0|0,0:0|0:0|0:0,0:0:0:0:
234,178,68780,2,0,L|135:183,2,87.9999973144532,2|0|0,0:0|0:0|0:0,0:0:0:0:
265,95,69030,6,0,L|363:100,5,87.9999973144532,2|0|0|2|0|0,0:0|0:0|0:0|0:0|0:0|0:0,0:0:0:0:
385,162,69530,2,0,L|483:156,5,87.9999973144532,2|0|0|2|0|0,0:0|0:0|0:0|0:0|0:0|0:0,0:0:0:0:
496,164,70030,5,4,0:0:0:0:
349,340,70155,1,0,0:0:0:0:
349,340,70405,5,4,0:0:0:0:
205,126,70530,1,0,0:0:0:0:
205,126,70780,5,4,0:0:0:0:
428,271,70905,1,0,0:0:0:0:
428,271,71155,5,4,0:0:0:0:
135,269,71280,1,0,0:0:0:0:
263,61,71530,5,8,0:0:0:0:
282,87,71592,1,0,0:0:0:0:
291,118,71655,1,0,0:0:0:0:
289,151,71717,1,0,0:0:0:0:
275,181,71780,1,8,0:0:0:0:
255,207,71842,1,0,0:0:0:0:
246,238,71905,1,0,0:0:0:0:
248,271,71967,1,0,0:0:0:0:
262,301,72030,1,8,0:0:0:0:
286,229,80030,5,2,0:0:0:0:
286,229,80530,2,0,P|342:238|385:225,2,98.9999969787599
265,216,80967,1,0,0:0:0:0:
241,210,81030,2,0,B|160:315|160:315|226:283,2,197.99999395752
152,150,82030,6,0,L|70:260,1,131.99999597168,2|0,0:0|0:0,0:0:0:0:
235,120,82530,2,0,P|202:77|156:62,2,98.9999969787599
279,216,83030,2,0,B|332:306|332:306|339:264,1,131.99999597168
306,146,83405,2,0,P|258:140|201:216,1,131.99999597168
172,291,83780,1,0,0:0:0:0:
172,291,84030,6,0,L|108:297,3,43.9999986572266,2|2|2|2,0:0|0:0|0:0|0:0,0:0:0:0:
172,291,84530,5,2,0:0:0:0:
247,256,84780,1,0,0:0:0:0:
172,291,85030,1,2,0:0:0:0:
236,332,85280,1,0,0:0:0:0:
247,256,85530,2,0,P|199:212|165:209,2,98.9999969787599,2|0|0,0:0|0:0|0:0,0:0:0:0:
321,292,86030,6,0,B|392:308|447:271|447:271|470:331|470:331|511:293|528:242|509:170|461:147,1,395.999987915039,2|0,0:0|0:0,0:0:0:0:
445,137,86863,1,0,0:0:0:0:
416,123,86946,1,0,0:0:0:0:
387,107,87030,6,0,P|310:158|228:106,1,197.99999395752,2|0,0:0|0:0,0:0:0:0:
177,31,87530,1,0,0:0:0:0:
177,31,87655,1,0,0:0:0:0:
99,93,87780,1,0,0:0:0:0:
99,93,87905,1,0,0:0:0:0:
158,184,88030,5,2,0:0:0:0:
157,205,88113,1,0,0:0:0:0:
157,227,88196,1,0,0:0:0:0:
157,249,88279,1,2,0:0:0:0:
157,271,88363,1,0,0:0:0:0:
157,293,88446,1,0,0:0:0:0:
157,314,88530,5,2,0:0:0:0:
198,300,88613,1,0,0:0:0:0:
242,301,88696,1,0,0:0:0:0:
283,317,88780,1,2,0:0:0:0:
323,332,88863,1,0,0:0:0:0:
367,333,88946,1,0,0:0:0:0:
409,320,89030,6,0,B|452:258|452:258|452:215|452:215|495:144,1,197.99999395752,2|0,0:0|0:0,0:0:0:0:
422,69,90030,6,0,L|339:207,1,153.999995300293,4|0,0:0|0:0,0:0:0:0:
233,228,90280,1,2,0:0:0:0:
233,228,90405,2,0,P|271:299|348:324,1,153.999995300293,8|0,0:0|0:0,0:0:0:0:
275,113,90655,2,0,P|194:110|134:164,1,153.999995300293,8|0,0:0|0:0,0:0:0:0:
342,200,90905,2,0,L|360:44,1,153.999995300293,8|0,0:0|0:0,0:0:0:0:
139,154,91155,5,8,0:0:0:0:
233,228,91280,1,2,0:0:0:0:
195,74,91405,1,0,0:0:0:0:
150,246,91530,2,0,P|195:301|290:295,1,153.999995300293,2|0,0:0|0:0,0:0:0:0:
318,132,91780,2,0,P|273:77|178:83,1,153.999995300293,2|0,0:0|0:0,0:0:0:0:
2,202,92030,6,0,L|155:241,1,153.999995300293,4|0,0:0|0:0,0:0:0:0:
272,301,92280,1,0,0:0:0:0:
248,157,92405,2,0,P|196:158|152:246,1,153.999995300293,8|0,0:0|0:0,0:0:0:0:
180,368,92655,1,8,0:0:0:0:
64,288,92780,1,0,0:0:0:0:
272,301,92905,6,0,P|336:292|368:192,1,153.999995300293,2|0,0:0|0:0,0:0:0:0:
376,64,93155,1,0,0:0:0:0:
459,157,93280,5,8,0:0:0:0:
306,154,93405,1,0,0:0:0:0:
449,175,93530,5,8,0:0:0:0:
293,194,93655,1,0,0:0:0:0:
437,197,93780,5,8,0:0:0:0:
282,227,93905,1,0,0:0:0:0:
423,222,94030,6,0,P|425:282|503:320,2,153.999995300293,4|0|0,0:0|0:0|0:0,0:0:0:0:
472,88,94405,2,0,L|304:40,1,153.999995300293,8|0,0:0|0:0,0:0:0:0:
208,108,94655,1,8,0:0:0:0:
140,8,94780,1,0,0:0:0:0:
284,136,94905,6,0,P|234:181|151:163,1,153.999995300293,2|0,0:0|0:0,0:0:0:0:
76,260,95155,1,0,0:0:0:0:
205,261,95280,2,0,P|255:306|338:288,1,153.999995300293,2|0,0:0|0:0,0:0:0:0:
407,182,95530,1,8,0:0:0:0:
432,325,95655,1,0,0:0:0:0:
281,224,95780,1,8,0:0:0:0:
362,110,95905,1,0,0:0:0:0:
337,291,96030,6,0,P|277:311|239:298,5,102.666663533529,2|0|0|2|0|0,0:0|0:0|0:0|0:0|0:0|0:0,0:0:0:0:
217,286,96530,2,0,P|167:274|121:294,5,102.666663533529,2|0|0|2|0|0,0:0|0:0|0:0|0:0|0:0|0:0,0:0:0:0:
95,306,97030,5,8,0:0:0:0:
102,268,97113,1,0,0:0:0:0:
109,230,97196,1,0,0:0:0:0:
153,172,97280,5,8,0:0:0:0:
145,134,97363,1,0,0:0:0:0:
138,96,97446,1,0,0:0:0:0:
186,42,97530,5,8,0:0:0:0:
236,49,97613,1,0,0:0:0:0:
287,43,97696,1,0,0:0:0:0:
355,68,97780,5,8,0:0:0:0:
362,118,97863,1,0,0:0:0:0:
356,169,97946,1,0,0:0:0:0:
330,236,98030,6,0,P|343:313|354:231,1,220,4|0,0:0|0:0,0:0:0:0:
368,235,98530,2,0,P|328:168|348:80,2,165,2|0|0,0:0|0:0|0:0,0:0:0:0:
299,267,99030,6,0,P|239:274|201:324,1,110,2|0,0:0|0:0,0:0:0:0:
391,308,99280,2,0,P|331:301|293:251,1,110,2|0,0:0|0:0,0:0:0:0:
413,200,99530,2,0,L|388:320,1,110,2|0,0:0|0:0,0:0:0:0:
390,92,99780,2,0,L|412:199,1,110,2|0,0:0|0:0,0:0:0:0:
390,308,100030,6,0,P|314:357|201:300,1,220,8|0,0:0|0:0,0:0:0:0:
204,308,100530,1,2,0:0:0:0:
131,144,100717,1,0,0:0:0:0:
44,276,100905,1,0,0:0:0:0:
173,237,101030,6,0,P|166:177|116:139,1,110,2|0,0:0|0:0,0:0:0:0:
132,329,101280,2,0,P|139:269|189:231,1,110,2|0,0:0|0:0,0:0:0:0:
240,351,101530,2,0,L|120:326,1,110,2|0,0:0|0:0,0:0:0:0:
348,328,101780,2,0,L|240:350,1,110,2|0,0:0|0:0,0:0:0:0:
132,329,102030,6,0,P|139:269|189:231,1,110,8|0,0:0|0:0,0:0:0:0:
338,138,102280,1,8,0:0:0:0:
256,274,102405,1,0,0:0:0:0:
248,136,102530,2,0,P|266:82|314:51,1,110,8|0,0:0|0:0,0:0:0:0:
292,209,102780,1,8,0:0:0:0:
148,145,102905,1,0,0:0:0:0:
338,138,103030,6,0,P|375:180|378:237,1,110,8|0,0:0|0:0,0:0:0:0:
248,136,103280,2,0,P|266:82|314:51,1,110,8|0,0:0|0:0,0:0:0:0:
292,209,103530,2,0,P|236:220|185:194,1,110,8|0,0:0|0:0,0:0:0:0:
73,131,103780,1,8,0:0:0:0:
92,272,103905,1,0,0:0:0:0:
159,74,104030,6,0,L|199:36,3,55,8|0|0|0,0:0|0:0|0:0|0:0,0:0:0:0:
237,36,104280,2,0,L|277:74,3,55,8|0|0|0,0:0|0:0|0:0|0:0,0:0:0:0:
315,73,104530,2,0,L|355:35,3,55,8|0|0|0,0:0|0:0|0:0|0:0,0:0:0:0:
393,35,104780,2,0,L|433:73,3,55,8|0|0|0,0:0|0:0|0:0|0:0,0:0:0:0:
460,100,105030,5,8,0:0:0:0:
447,116,105092,1,0,0:0:0:0:
438,134,105155,1,8,0:0:0:0:
433,154,105217,1,0,0:0:0:0:
431,175,105280,1,8,0:0:0:0:
434,195,105342,1,0,0:0:0:0:
441,215,105405,1,8,0:0:0:0:
451,233,105467,1,0,0:0:0:0:
465,248,105530,6,0,L|406:273,1,55,8|0,0:0|0:0,0:0:0:0:
297,202,105655,2,0,L|356:226,1,55,8|0,0:0|0:0,0:0:0:0:
340,296,105780,2,0,L|280:320,1,55,8|0,0:0|0:0,0:0:0:0:
187,230,105905,2,0,L|246:254,1,55,8|0,0:0|0:0,0:0:0:0:
211,323,106030,5,12,0:0:0:0:
